  0
SECTION
  2
HEADER
  9
$ACADVER
  1
AC1009
  9
$INSBASE
 10
0.0
 20
0.0
 30
0.0
  9
$EXTMIN
 10
-138.3999939
 20
-94.80000305
 30
0.0
  9
$EXTMAX
 10
138.3500061
 20
94.5
 30
0.0
  9
$LIMMIN
 10
-138.3999939
 20
-94.80000305
  9
$LIMMAX
 10
138.3500061
 20
94.5
  9
$ORTHOMODE
 70
       0
  9
$REGENMODE
 70
       1
  9
$FILLMODE
 70
       1
  9
$QTEXTMODE
 70
       0
  9
$MIRRTEXT
 70
       1
  9
$DRAGMODE
 70
       2
  9
$LTSCALE
 40
1.0
  9
$OSMODE
 70
       0
  9
$ATTMODE
 70
       1
  9
$TEXTSIZE
 40
3.20000005
  9
$TRACEWID
 40
0.05
  9
$TEXTSTYLE
  7
MX_NOTE_STANDARD
  9
$CLAYER
  8
0
  9
$CELTYPE
  6
CONTINUOUS
  9
$CECOLOR
 62
     256
  9
$DIMSCALE
 40
1.0
  9
$DIMASZ
 40
2.5
  9
$DIMEXO
 40
1.5
  9
$DIMDLI
 40
3.75
  9
$DIMRND
 40
0.0
  9
$DIMDLE
 40
0.0
  9
$DIMEXE
 40
1.5
  9
$DIMTP
 40
0.0
  9
$DIMTM
 40
0.0
  9
$DIMTXT
 40
3.20000005
  9
$DIMCEN
 40
2.5
  9
$DIMTSZ
 40
0.0
  9
$DIMTOL
 70
       0
  9
$DIMLIM
 70
       0
  9
$DIMTIH
 70
       0
  9
$DIMTOH
 70
       0
  9
$DIMSE1
 70
       0
  9
$DIMSE2
 70
       0
  9
$DIMTAD
 70
       1
  9
$DIMZIN
 70
       8
  9
$DIMBLK
  1

  9
$DIMASO
 70
       1
  9
$DIMSHO
 70
       1
  9
$DIMPOST
  1

  9
$DIMAPOST
  1

  9
$DIMALT
 70
       0
  9
$DIMALTD
 70
       4
  9
$DIMALTF
 40
0.0394
  9
$DIMLFAC
 40
1.0
  9
$DIMTOFL
 70
       1
  9
$DIMTVP
 40
0.0
  9
$DIMTIX
 70
       0
  9
$DIMSOXD
 70
       0
  9
$DIMSAH
 70
       0
  9
$DIMBLK1
  1

  9
$DIMBLK2
  1

  9
$DIMSTYLE
  2
MXDIMSTYLE
  9
$DIMCLRD
 70
       0
  9
$DIMCLRE
 70
       0
  9
$DIMCLRT
 70
       0
  9
$DIMTFAC
 40
1.0
  9
$DIMGAP
 40
1.0
  9
$LUNITS
 70
       2
  9
$LUPREC
 70
       4
  9
$AXISMODE
 70
       0
  9
$AXISUNIT
 10
0.0
 20
0.0
  9
$SKETCHINC
 40
0.1
  9
$FILLETRAD
 40
0.0
  9
$AUNITS
 70
       0
  9
$AUPREC
 70
       0
  9
$MENU
  1
acad
  9
$ELEVATION
 40
0.0
  9
$PELEVATION
 40
0.0
  9
$THICKNESS
 40
0.0
  9
$LIMCHECK
 70
       0
  9
$BLIPMODE
 70
       1
  9
$CHAMFERA
 40
0.0
  9
$CHAMFERB
 40
0.0
  9
$SKPOLY
 70
       0
  9
$TDCREATE
 40
2452425.791793982
  9
$TDUPDATE
 40
2452425.791793982
  9
$TDINDWG
 40
0.0000000000
  9
$TDUSRTIMER
 40
0.0000000000
  9
$USRTIMER
 70
       1
  9
$ANGBASE
 50
0.0
  9
$ANGDIR
 70
       0
  9
$PDMODE
 70
       0
  9
$PDSIZE
 40
0.0
  9
$PLINEWID
 40
0.0
  9
$COORDS
 70
       1
  9
$SPLFRAME
 70
       0
  9
$SPLINETYPE
 70
       6
  9
$SPLINESEGS
 70
       8
  9
$ATTDIA
 70
       0
  9
$ATTREQ
 70
       1
  9
$HANDLING
 70
       1
  9
$HANDSEED
  5
1ED
  9
$SURFTAB1
 70
       6
  9
$SURFTAB2
 70
       6
  9
$SURFTYPE
 70
       6
  9
$SURFU
 70
       6
  9
$SURFV
 70
       6
  9
$UCSNAME
  2

  9
$UCSORG
 10
0.0
 20
0.0
 30
0.0
  9
$UCSXDIR
 10
1.0
 20
0.0
 30
0.0
  9
$UCSYDIR
 10
0.0
 20
1.0
 30
0.0
  9
$PUCSNAME
  2

  9
$PUCSORG
 10
0.0
 20
0.0
 30
0.0
  9
$PUCSXDIR
 10
1.0
 20
0.0
 30
0.0
  9
$PUCSYDIR
 10
0.0
 20
1.0
 30
0.0
  9
$USERI1
 70
       0
  9
$USERI2
 70
       0
  9
$USERI3
 70
       0
  9
$USERI4
 70
       0
  9
$USERI5
 70
       0
  9
$USERR1
 40
0.0
  9
$USERR2
 40
0.0
  9
$USERR3
 40
0.0
  9
$USERR4
 40
0.0
  9
$USERR5
 40
0.0
  9
$WORLDVIEW
 70
       1
  9
$SHADEDGE
 70
       3
  9
$SHADEDIF
 70
      70
  9
$TILEMODE
 70
       1
  9
$MAXACTVP
 70
      16
  9
$PINSBASE
 10
0.0
 20
0.0
 30
0.0
  9
$PLIMCHECK
 70
       0
  9
$PEXTMIN
 10
1.00000000E+20
 20
1.00000000E+20
 30
1.00000000E+20
  9
$PEXTMAX
 10
-1.00000000E+20
 20
-1.00000000E+20
 30
-1.00000000E+20
  9
$PLIMMIN
 10
0.0
 20
0.0
  9
$PLIMMAX
 10
12.0
 20
9.0
  9
$UNITMODE
 70
       0
  9
$VISRETAIN
 70
       0
  9
$PLINEGEN
 70
       1
  9
$PSLTSCALE
 70
       0
  9
$TREEDEPTH
 70
    3020
  9
$DWGCODEPAGE
  3
dos932
  0
ENDSEC
  0
SECTION
  2
TABLES
  0
TABLE
  2
VPORT
 70
       1
  0
VPORT
  2
*ACTIVE
 70
       0
 10
0.0
 20
0.0
 11
1.0
 21
1.0
 12
-0.0249939
 22
-0.15000153
 13
0.0
 23
0.0
 14
1.0
 24
1.0
 15
0.0
 25
0.0
 16
0.0
 26
0.0
 36
1.0
 17
0.0
 27
0.0
 37
0.0
 40
191.19300308
 41
1.73205081
 42
50.0
 43
0.0
 44
0.0
 50
0.0
 51
0.0
 71
       0
 72
     100
 73
       1
 74
       1
 75
       0
 76
       0
 77
       0
 78
       0
  0
ENDTAB
  0
TABLE
  2
LTYPE
 70
       4
  0
LTYPE
  2
CONTINUOUS
 70
      64
  3
Solid line
 72
      65
 73
       0
 40
0.0
  0
LTYPE
  2
CENTER
 70
      64
  3
Center ____ _ ____ _ ____ _ ____ _ ____ _ ____
 72
      65
 73
       4
 40
50.8
 49
31.75
 49
-6.35
 49
6.35
 49
-6.35
  0
LTYPE
  2
DASHED
 70
      64
  3
Dashed __ __ __ __ __ __ __ __ __ __ __ __ __ _
 72
      65
 73
       2
 40
19.05
 49
12.7
 49
-6.35
  0
LTYPE
  2
PHANTOM
 70
      64
  3
Phantom ______  __  __  ______  __  __  ______
 72
      65
 73
       6
 40
63.5
 49
31.75
 49
-6.35
 49
6.35
 49
-6.35
 49
6.35
 49
-6.35
  0
ENDTAB
  0
TABLE
  2
LAYER
 70
       2
  0
LAYER
  2
0
 70
       0
 62
       7
  6
CONTINUOUS
  0
LAYER
  2
DEFPOINTS
 70
       0
 62
       7
  6
CONTINUOUS
  0
ENDTAB
  0
TABLE
  2
STYLE
 70
       1
  0
STYLE
  2
MX_NOTE_STANDARD
 70
       0
 40
3.20000005
 41
1.0
 50
0.0
 71
       0
 42
3.20000005
  3
txt.shx
  4
extfont.shx
  0
ENDTAB
  0
TABLE
  2
VIEW
 70
       0
  0
ENDTAB
  0
TABLE
  2
UCS
 70
       0
  0
ENDTAB
  0
TABLE
  2
APPID
 70
       1
  0
APPID
  2
ACAD
 70
       0
  0
ENDTAB
  0
TABLE
  2
DIMSTYLE
 70
       1
  0
DIMSTYLE
  2
MXDIMSTYLE
 70
       0
  3

  4

  5

  6

  7

 40
1.0
 41
2.5
 42
1.5
 43
3.75
 44
1.5
 45
0.0
 46
0.0
 47
0.0
 48
0.0
 71
       0
 72
       0
 73
       0
 74
       0
 75
       0
 76
       0
 77
       1
 78
       8
140
3.20000005
141
2.5
142
0.0
143
0.0394
144
1.0
145
0.0
146
1.0
147
1.0
170
       0
171
       4
172
       1
173
       0
174
       0
175
       0
176
       0
177
       0
178
       0
  0
ENDTAB
  0
ENDSEC
  0
SECTION
  2
BLOCKS
  0
BLOCK
  8
0
  6
BYBLOCK
 62
       0
  5
AA
  2
*D0
 70
       1
 10
0.0
 20
0.0
 30
0.0
  3
*D0
  0
LINE
  8
0
  6
BYBLOCK
 62
       0
  5
AB
 10
-29.5105571
 20
57.32543363
 30
0.0
 11
-29.5105571
 21
60.32543363
 31
0.0
  0
LINE
  8
0
  6
BYBLOCK
 62
       0
  5
AC
 10
-29.5105571
 20
14.51699986
 30
0.0
 11
-29.5105571
 21
57.32543363
 31
0.0
  0
LINE
  8
0
  6
BYBLOCK
 62
       0
  5
AD
 10
-6.7163314
 20
57.32543363
 30
0.0
 11
-31.0105571
 21
57.32543363
 31
0.0
  0
LINE
  8
0
  6
BYBLOCK
 62
       0
  5
AE
 10
-29.5105571
 20
60.32543363
 30
0.0
 11
-29.5105571
 21
63.88143362
 31
0.0
  0
INSERT
  8
0
  6
BYBLOCK
 62
       0
  5
B9
  2
_OPEN30
 10
-29.5105571
 20
60.32543363
 30
0.0
 41
2.77
 42
2.77
 50
270.0
 43
2.77
  0
TEXT
  8
0
  6
BYBLOCK
 62
       2
  5
BA
 10
-30.5105571
 20
14.96897725
 30
0.0
 40
3.20000005
  1
作動ストローク（3）
 50
90.0
 41
0.8474576
  7
MX_NOTE_STANDARD
 11
-32.11055712
 21
14.96897725
 31
0.0
 73
       2
  0
POINT
  8
DEFPOINTS
  6
BYBLOCK
 62
       0
  5
BB
 10
-5.2163314
 20
57.32543363
 30
0.0
  0
POINT
  8
DEFPOINTS
  6
BYBLOCK
 62
       0
  5
BC
 10
-5.2163314
 20
60.32543363
 30
0.0
  0
POINT
  8
DEFPOINTS
  6
BYBLOCK
 62
       0
  5
BD
 10
-29.5105571
 20
60.32543363
 30
0.0
  0
ENDBLK
  8
0
  6
BYBLOCK
 62
       0
  5
BE
  0
BLOCK
  8
0
  6
BYBLOCK
 62
       0
  5
B0
  2
_NONE
 70
       2
 10
0.0
 20
0.0
 30
0.0
  3
_NONE
  0
CIRCLE
  8
0
  6
BYBLOCK
 62
       0
  5
B1
 10
0.0
 20
0.0
 30
0.0
 40
0.25
  0
ENDBLK
  8
0
  6
BYBLOCK
 62
       0
  5
B2
  0
BLOCK
  8
0
  6
BYBLOCK
 62
       0
  5
B4
  2
_OPEN30
 70
       2
 10
0.0
 20
0.0
 30
0.0
  3
_OPEN30
  0
LINE
  8
0
  6
BYBLOCK
 62
       0
  5
B5
 10
-1.0
 20
0.267949
 30
0.0
 11
0.0
 21
0.0
 31
0.0
  0
LINE
  8
0
  6
BYBLOCK
 62
       0
  5
B6
 10
0.0
 20
0.0
 30
0.0
 11
-1.0
 21
-0.267949
 31
0.0
  0
LINE
  8
0
  6
BYBLOCK
 62
       0
  5
B7
 10
0.0
 20
0.0
 30
0.0
 11
-1.0
 21
0.0
 31
0.0
  0
ENDBLK
  8
0
  6
BYBLOCK
 62
       0
  5
B8
  0
BLOCK
  8
0
  6
BYBLOCK
 62
       0
  5
C1
  2
*D3
 70
       1
 10
0.0
 20
0.0
 30
0.0
  3
*D3
  0
LINE
  8
0
  6
BYBLOCK
 62
       0
  5
C2
 10
-41.61015179
 20
53.32543363
 30
0.0
 11
-41.61015179
 21
57.32543363
 31
0.0
  0
LINE
  8
0
  6
BYBLOCK
 62
       0
  5
C3
 10
-41.61015179
 20
14.82451977
 30
0.0
 11
-41.61015179
 21
53.32543363
 31
0.0
  0
LINE
  8
0
  6
BYBLOCK
 62
       0
  5
C4
 10
-41.61015179
 20
53.32543363
 30
0.0
 11
-41.61015179
 21
49.76943364
 31
0.0
  0
LINE
  8
0
  6
BYBLOCK
 62
       0
  5
C5
 10
-41.61015179
 20
57.32543363
 30
0.0
 11
-41.61015179
 21
60.88143362
 31
0.0
  0
INSERT
  8
0
  6
BYBLOCK
 62
       0
  5
C6
  2
_OPEN30
 10
-41.61015179
 20
53.32543363
 30
0.0
 41
2.77
 42
2.77
 50
90.0
 43
2.77
  0
INSERT
  8
0
  6
BYBLOCK
 62
       0
  5
C7
  2
_OPEN30
 10
-41.61015179
 20
57.32543363
 30
0.0
 41
2.77
 42
2.77
 50
270.0
 43
2.77
  0
TEXT
  8
0
  6
BYBLOCK
 62
       2
  5
C8
 10
-42.61015179
 20
15.27649716
 30
0.0
 40
3.20000005
  1
予備ストローク（4）
 50
90.0
 41
0.8474576
  7
MX_NOTE_STANDARD
 11
-44.21015182
 21
15.27649716
 31
0.0
 73
       2
  0
POINT
  8
DEFPOINTS
  6
BYBLOCK
 62
       0
  5
C9
 10
-5.21633008
 20
53.32543363
 30
0.0
  0
POINT
  8
DEFPOINTS
  6
BYBLOCK
 62
       0
  5
CA
 10
-5.21633008
 20
57.32543363
 30
0.0
  0
POINT
  8
DEFPOINTS
  6
BYBLOCK
 62
       0
  5
CB
 10
-41.61015179
 20
57.32543363
 30
0.0
  0
ENDBLK
  8
0
  6
BYBLOCK
 62
       0
  5
CC
  0
BLOCK
  8
0
  6
BYBLOCK
 62
       0
  5
CF
  2
*D4
 70
       1
 10
0.0
 20
0.0
 30
0.0
  3
*D4
  0
LINE
  8
0
  6
BYBLOCK
 62
       0
  5
D0
 10
-53.43664333
 20
53.32543363
 30
0.0
 11
-53.43664333
 21
60.32543363
 31
0.0
  0
LINE
  8
0
  6
BYBLOCK
 62
       0
  5
D1
 10
-53.43664333
 20
10.61059381
 30
0.0
 11
-53.43664333
 21
53.32543363
 31
0.0
  0
LINE
  8
0
  6
BYBLOCK
 62
       0
  5
D2
 10
-6.71632931
 20
53.32543363
 30
0.0
 11
-54.93664333
 21
53.32543363
 31
0.0
  0
LINE
  8
0
  6
BYBLOCK
 62
       0
  5
D3
 10
-6.71632931
 20
60.32543363
 30
0.0
 11
-54.93664333
 21
60.32543363
 31
0.0
  0
LINE
  8
0
  6
BYBLOCK
 62
       0
  5
D4
 10
-53.43664333
 20
53.32543363
 30
0.0
 11
-53.43664333
 21
49.76943364
 31
0.0
  0
LINE
  8
0
  6
BYBLOCK
 62
       0
  5
D5
 10
-53.43664333
 20
60.32543363
 30
0.0
 11
-53.43664333
 21
63.88143362
 31
0.0
  0
INSERT
  8
0
  6
BYBLOCK
 62
       0
  5
D6
  2
_OPEN30
 10
-53.43664333
 20
53.32543363
 30
0.0
 41
2.77
 42
2.77
 50
90.0
 43
2.77
  0
INSERT
  8
0
  6
BYBLOCK
 62
       0
  5
D7
  2
_OPEN30
 10
-53.43664333
 20
60.32543363
 30
0.0
 41
2.77
 42
2.77
 50
270.0
 43
2.77
  0
TEXT
  8
0
  6
BYBLOCK
 62
       2
  5
D8
 10
-54.43664333
 20
11.06187586
 30
0.0
 40
3.20000005
  1
ローラストローク（7）
 50
90.0
 41
0.84615382
  7
MX_NOTE_STANDARD
 11
-56.03664336
 21
11.06187586
 31
0.0
 73
       2
  0
POINT
  8
DEFPOINTS
  6
BYBLOCK
 62
       0
  5
D9
 10
-5.21632931
 20
53.32543363
 30
0.0
  0
POINT
  8
DEFPOINTS
  6
BYBLOCK
 62
       0
  5
DA
 10
-5.21632931
 20
60.32543363
 30
0.0
  0
POINT
  8
DEFPOINTS
  6
BYBLOCK
 62
       0
  5
DB
 10
-53.43664333
 20
60.32543363
 30
0.0
  0
ENDBLK
  8
0
  6
BYBLOCK
 62
       0
  5
DC
  0
ENDSEC
  0
SECTION
  2
ENTITIES
  0
LINE
  8
0
  6
CONTINUOUS
 62
       7
  5
1E
 10
-8.52745714
 20
-43.92857143
 30
0.0
 11
-8.52745714
 21
-88.92857143
 31
0.0
  0
LINE
  8
0
  6
CONTINUOUS
 62
       7
  5
1F
 10
36.47254286
 20
-43.92857143
 30
0.0
 11
36.47254286
 21
-88.92857143
 31
0.0
  0
LINE
  8
0
  6
CENTER
 62
       2
  5
21
 10
13.97254286
 20
-40.55857143
 30
0.0
 11
13.97254286
 21
-92.29857143
 31
0.0
  0
LINE
  8
0
  6
CENTER
 62
       2
  5
22
 10
-11.89745714
 20
-66.42857143
 30
0.0
 11
39.84254286
 21
-66.42857143
 31
0.0
  0
LINE
  8
0
  6
CENTER
 62
       2
  5
23
 10
-2.02745714
 20
-46.83857143
 30
0.0
 11
-2.02745714
 21
-54.62857143
 31
0.0
  0
LINE
  8
0
  6
CENTER
 62
       2
  5
24
 10
-5.63745714
 20
-50.42857143
 30
0.0
 11
2.15254286
 21
-50.42857143
 31
0.0
  0
LINE
  8
0
  6
CENTER
 62
       2
  5
25
 10
29.97254286
 20
-46.83857143
 30
0.0
 11
29.97254286
 21
-54.02857143
 31
0.0
  0
LINE
  8
0
  6
CENTER
 62
       2
  5
26
 10
25.82254286
 20
-50.42857143
 30
0.0
 11
35.30053956
 21
-50.42857143
 31
0.0
  0
LINE
  8
0
  6
CONTINUOUS
 62
       7
  5
27
 10
0.97254286
 20
4.32436611
 30
0.0
 11
0.97254286
 21
-2.67563389
 31
0.0
  0
LINE
  8
0
  6
CONTINUOUS
 62
       7
  5
28
 10
0.97254286
 20
-15.67563389
 30
0.0
 11
26.97254286
 21
-15.67563389
 31
0.0
  0
LINE
  8
0
  6
CENTER
 62
       2
  5
29
 10
-2.33745714
 20
-9.17563389
 30
0.0
 11
29.42254286
 21
-9.17563389
 31
0.0
  0
LINE
  8
0
  6
CONTINUOUS
 62
       7
  5
2A
 10
0.97254286
 20
-2.67563389
 30
0.0
 11
26.97254286
 21
-2.67563389
 31
0.0
  0
LINE
  8
0
  6
CONTINUOUS
 62
       7
  5
2B
 10
26.97254286
 20
4.32436611
 30
0.0
 11
26.97254286
 21
-2.67563389
 31
0.0
  0
LINE
  8
0
  6
CONTINUOUS
 62
       7
  5
2C
 10
-1.02745714
 20
-3.21563389
 30
0.0
 11
-1.02745714
 21
-4.17563389
 31
0.0
  0
LINE
  8
0
  6
CONTINUOUS
 62
       7
  5
2D
 10
28.97254286
 20
-3.21563389
 30
0.0
 11
28.97254286
 21
-4.17563389
 31
0.0
  0
LINE
  8
0
  6
CONTINUOUS
 62
       7
  5
2E
 10
0.97254286
 20
4.32436611
 30
0.0
 11
1.97254286
 21
5.32436611
 31
0.0
  0
LINE
  8
0
  6
CONTINUOUS
 62
       7
  5
2F
 10
25.97254286
 20
5.32436611
 30
0.0
 11
26.97254286
 21
4.32436611
 31
0.0
  0
LINE
  8
0
  6
CONTINUOUS
 62
       7
  5
30
 10
-1.02745714
 20
-3.21563389
 30
0.0
 11
28.97254286
 21
-3.21563389
 31
0.0
  0
LINE
  8
0
  6
CONTINUOUS
 62
       7
  5
31
 10
0.97254286
 20
-15.67563389
 30
0.0
 11
0.97254286
 21
-17.17563389
 31
0.0
  0
LINE
  8
0
  6
CONTINUOUS
 62
       7
  5
32
 10
26.97254286
 20
-15.67563389
 30
0.0
 11
26.97254286
 21
-17.17563389
 31
0.0
  0
LINE
  8
0
  6
CONTINUOUS
 62
       7
  5
33
 10
0.97254286
 20
4.32436611
 30
0.0
 11
26.97254286
 21
4.32436611
 31
0.0
  0
LINE
  8
0
  6
CONTINUOUS
 62
       2
  5
34
 10
26.22254286
 20
5.07436611
 30
0.0
 11
26.22254286
 21
-1.67563389
 31
0.0
  0
LINE
  8
0
  6
CONTINUOUS
 62
       2
  5
35
 10
1.72254286
 20
5.07436611
 30
0.0
 11
1.72254286
 21
-1.67563389
 31
0.0
  0
LINE
  8
0
  6
CONTINUOUS
 62
       7
  5
36
 10
-1.02745714
 20
-15.13563389
 30
0.0
 11
28.97254286
 21
-15.13563389
 31
0.0
  0
LINE
  8
0
  6
DASHED
 62
       2
  5
38
 10
24.29254286
 20
-5.17563389
 30
0.0
 11
28.66254286
 21
-5.17563389
 31
0.0
  0
LINE
  8
0
  6
DASHED
 62
       2
  5
39
 10
24.15254286
 20
-4.42563389
 30
0.0
 11
28.97254286
 21
-4.17563389
 31
0.0
  0
LINE
  8
0
  6
DASHED
 62
       2
  5
3A
 10
24.29254286
 20
-13.17563389
 30
0.0
 11
28.66254286
 21
-13.17563389
 31
0.0
  0
LINE
  8
0
  6
DASHED
 62
       2
  5
3B
 10
24.15254286
 20
-13.92563389
 30
0.0
 11
28.97254286
 21
-14.17563389
 31
0.0
  0
LINE
  8
0
  6
DASHED
 62
       2
  5
3C
 10
3.79254286
 20
-4.42563389
 30
0.0
 11
-1.02745714
 21
-4.17563389
 31
0.0
  0
LINE
  8
0
  6
DASHED
 62
       2
  5
3D
 10
3.65254286
 20
-5.17563389
 30
0.0
 11
-0.71745714
 21
-5.17563389
 31
0.0
  0
LINE
  8
0
  6
DASHED
 62
       2
  5
3E
 10
3.65254286
 20
-13.17563389
 30
0.0
 11
-0.71745714
 21
-13.17563389
 31
0.0
  0
LINE
  8
0
  6
DASHED
 62
       2
  5
3F
 10
3.79254286
 20
-13.92563389
 30
0.0
 11
-1.02745714
 21
-14.17563389
 31
0.0
  0
LINE
  8
0
  6
CONTINUOUS
 62
       7
  5
40
 10
-0.87745714
 20
-17.17563389
 30
0.0
 11
28.82254286
 21
-17.17563389
 31
0.0
  0
LINE
  8
0
  6
CONTINUOUS
 62
       7
  5
41
 10
-8.52745714
 20
-25.17563389
 30
0.0
 11
36.47254286
 21
-25.17563389
 31
0.0
  0
LINE
  8
0
  6
CONTINUOUS
 62
       7
  5
42
 10
-8.52745714
 20
-22.57563389
 30
0.0
 11
36.47254286
 21
-22.57563389
 31
0.0
  0
LINE
  8
0
  6
CONTINUOUS
 62
       7
  5
43
 10
36.47254286
 20
-22.57563389
 30
0.0
 11
36.47254286
 21
-25.17563389
 31
0.0
  0
LINE
  8
0
  6
CONTINUOUS
 62
       7
  5
44
 10
-0.87745714
 20
-17.17563389
 30
0.0
 11
-0.87745714
 21
-20.57563389
 31
0.0
  0
LINE
  8
0
  6
CONTINUOUS
 62
       7
  5
45
 10
28.82254286
 20
-17.17563389
 30
0.0
 11
28.82254286
 21
-20.57563389
 31
0.0
  0
LINE
  8
0
  6
CENTER
 62
       2
  5
46
 10
11.44274076
 20
-19.77563389
 30
0.0
 11
16.50274076
 21
-19.77563389
 31
0.0
  0
LINE
  8
0
  6
CONTINUOUS
 62
       7
  5
47
 10
-1.02745714
 20
-14.17563389
 30
0.0
 11
-1.02745714
 21
-15.13563389
 31
0.0
  0
LINE
  8
0
  6
CONTINUOUS
 62
       7
  5
48
 10
28.97254286
 20
-14.17563389
 30
0.0
 11
28.97254286
 21
-15.13563389
 31
0.0
  0
LINE
  8
0
  6
CONTINUOUS
 62
       2
  5
49
 10
26.22254286
 20
-17.17563389
 30
0.0
 11
26.22254286
 21
-16.67563389
 31
0.0
  0
LINE
  8
0
  6
CONTINUOUS
 62
       2
  5
4A
 10
1.72254286
 20
-17.17563389
 30
0.0
 11
1.72254286
 21
-16.67563389
 31
0.0
  0
LINE
  8
0
  6
CONTINUOUS
 62
       7
  5
4B
 10
13.11754286
 20
-20.63063389
 30
0.0
 11
14.87754286
 21
-18.87063389
 31
0.0
  0
LINE
  8
0
  6
CONTINUOUS
 62
       7
  5
4C
 10
13.40754286
 20
-19.21063389
 30
0.0
 11
14.53754286
 21
-20.34063389
 31
0.0
  0
LINE
  8
0
  6
CONTINUOUS
 62
       7
  5
4D
 10
-8.52745714
 20
-22.57563389
 30
0.0
 11
-8.52745714
 21
-25.17563389
 31
0.0
  0
LINE
  8
0
  6
CONTINUOUS
 62
       7
  5
4E
 10
0.97254286
 20
-1.67563389
 30
0.0
 11
26.97254286
 21
-1.67563389
 31
0.0
  0
LINE
  8
0
  6
CONTINUOUS
 62
       7
  5
4F
 10
0.97254286
 20
-16.67563389
 30
0.0
 11
26.97254286
 21
-16.67563389
 31
0.0
  0
CIRCLE
  8
0
  6
CONTINUOUS
 62
       7
  5
50
 10
13.97254286
 20
-66.42857143
 30
0.0
 40
12.25
  0
CIRCLE
  8
0
  6
CONTINUOUS
 62
       7
  5
51
 10
13.97254286
 20
-66.42857143
 30
0.0
 40
13.0
  0
ARC
  8
0
  6
CONTINUOUS
 62
       7
  5
52
 10
13.97254286
 20
-66.42857143
 30
0.0
 40
10.29672596
 50
0.01822118
 51
269.98177882
  0
CIRCLE
  8
0
  6
CONTINUOUS
 62
       7
  5
53
 10
-2.02745714
 20
-50.42857143
 30
0.0
 40
2.75
  0
ARC
  8
0
  6
CONTINUOUS
 62
       7
  5
54
 10
13.97079754
 20
-67.28377115
 30
0.0
 40
9.8484744
 50
0.0493011
 51
90.00889674
  0
ARC
  8
0
  6
CONTINUOUS
 62
       7
  5
55
 10
13.97254286
 20
-66.42857143
 30
0.0
 40
10.29672596
 50
269.98177882
 51
0.01822118
  0
ARC
  8
0
  6
CONTINUOUS
 62
       7
  5
56
 10
13.96990609
 20
-67.27493539
 30
0.0
 40
9.84936221
 50
346.55339663
 51
359.99789718
  0
CIRCLE
  8
0
  6
CONTINUOUS
 62
       7
  5
57
 10
18.97552486
 20
-73.39616593
 30
0.0
 40
0.80000001
  0
ARC
  8
0
  6
CONTINUOUS
 62
       7
  5
58
 10
13.96754131
 20
-67.28357321
 30
0.0
 40
9.84827649
 50
89.98995267
 51
179.95184949
  0
ARC
  8
0
  6
CONTINUOUS
 62
       7
  5
59
 10
13.96824008
 20
-67.27498142
 30
0.0
 40
9.84897179
 50
180.00183511
 51
193.44687107
  0
CIRCLE
  8
0
  6
CONTINUOUS
 62
       7
  5
5A
 10
8.96261592
 20
-73.39616593
 30
0.0
 40
0.80000001
  0
CIRCLE
  8
0
  6
CONTINUOUS
 62
       7
  5
5B
 10
13.97254286
 20
-66.42857143
 30
0.0
 40
6.29999924
  0
CIRCLE
  8
0
  6
CONTINUOUS
 62
       2
  5
5C
 10
13.97254286
 20
-9.17563389
 30
0.0
 40
5.0
  0
CIRCLE
  8
0
  6
CONTINUOUS
 62
       7
  5
5D
 10
13.97254286
 20
-9.17563389
 30
0.0
 40
4.0
  0
ARC
  8
0
  6
CONTINUOUS
 62
       7
  5
5E
 10
-2.8796487
 20
-20.57344234
 30
0.0
 40
2.00219276
 50
270.06271475
 51
359.93728525
  0
CIRCLE
  8
0
  6
CONTINUOUS
 62
       7
  5
5F
 10
13.97254286
 20
-19.77563389
 30
0.0
 40
2.0
  0
ARC
  8
0
  6
CONTINUOUS
 62
       7
  5
60
 10
30.82454338
 20
-20.57363337
 30
0.0
 40
2.00200153
 50
180.0572536
 51
269.9427464
  0
POLYLINE
  8
0
  6
CONTINUOUS
 62
       7
  5
61
 66
       1
 10
0.0
 20
0.0
 30
0.0
  0
VERTEX
  8
0
  6
CONTINUOUS
 62
       7
  5
E4
 10
18.72000626
 20
-75.56514018
 30
0.0
  0
VERTEX
  8
0
  6
CONTINUOUS
 62
       7
  5
E5
 10
18.69576287
 20
-75.55064617
 30
0.0
  0
VERTEX
  8
0
  6
CONTINUOUS
 62
       7
  5
E6
 10
18.67176113
 20
-75.53556246
 30
0.0
  0
VERTEX
  8
0
  6
CONTINUOUS
 62
       7
  5
E7
 10
18.64797989
 20
-75.51991198
 30
0.0
  0
VERTEX
  8
0
  6
CONTINUOUS
 62
       7
  5
E8
 10
18.62439802
 20
-75.50371761
 30
0.0
  0
VERTEX
  8
0
  6
CONTINUOUS
 62
       7
  5
E9
 10
18.60099435
 20
-75.48700225
 30
0.0
  0
VERTEX
  8
0
  6
CONTINUOUS
 62
       7
  5
EA
 10
18.57774776
 20
-75.4697888
 30
0.0
  0
VERTEX
  8
0
  6
CONTINUOUS
 62
       7
  5
EB
 10
18.55463709
 20
-75.45210015
 30
0.0
  0
VERTEX
  8
0
  6
CONTINUOUS
 62
       7
  5
EC
 10
18.53164119
 20
-75.43395922
 30
0.0
  0
VERTEX
  8
0
  6
CONTINUOUS
 62
       7
  5
ED
 10
18.50873891
 20
-75.41538888
 30
0.0
  0
VERTEX
  8
0
  6
CONTINUOUS
 62
       7
  5
EE
 10
18.48590912
 20
-75.39641205
 30
0.0
  0
VERTEX
  8
0
  6
CONTINUOUS
 62
       7
  5
EF
 10
18.46313067
 20
-75.37705162
 30
0.0
  0
VERTEX
  8
0
  6
CONTINUOUS
 62
       7
  5
F0
 10
18.4403824
 20
-75.35733048
 30
0.0
  0
VERTEX
  8
0
  6
CONTINUOUS
 62
       7
  5
F1
 10
18.41764318
 20
-75.33727154
 30
0.0
  0
VERTEX
  8
0
  6
CONTINUOUS
 62
       7
  5
F2
 10
18.39489185
 20
-75.31689769
 30
0.0
  0
VERTEX
  8
0
  6
CONTINUOUS
 62
       7
  5
F3
 10
18.37210727
 20
-75.29623184
 30
0.0
  0
VERTEX
  8
0
  6
CONTINUOUS
 62
       7
  5
F4
 10
18.3492683
 20
-75.27529687
 30
0.0
  0
VERTEX
  8
0
  6
CONTINUOUS
 62
       7
  5
F5
 10
18.20383144
 20
-75.13774706
 30
0.0
  0
VERTEX
  8
0
  6
CONTINUOUS
 62
       7
  5
F6
 10
18.05757319
 20
-74.99179446
 30
0.0
  0
VERTEX
  8
0
  6
CONTINUOUS
 62
       7
  5
F7
 10
17.91234275
 20
-74.83856254
 30
0.0
  0
VERTEX
  8
0
  6
CONTINUOUS
 62
       7
  5
F8
 10
17.76998934
 20
-74.67917473
 30
0.0
  0
VERTEX
  8
0
  6
CONTINUOUS
 62
       7
  5
F9
 10
17.63236217
 20
-74.51475448
 30
0.0
  0
VERTEX
  8
0
  6
CONTINUOUS
 62
       7
  5
FA
 10
17.50131043
 20
-74.34642524
 30
0.0
  0
VERTEX
  8
0
  6
CONTINUOUS
 62
       7
  5
FB
 10
17.37868335
 20
-74.17531046
 30
0.0
  0
VERTEX
  8
0
  6
CONTINUOUS
 62
       7
  5
FC
 10
17.26633013
 20
-74.00253359
 30
0.0
  0
VERTEX
  8
0
  6
CONTINUOUS
 62
       7
  5
FD
 10
17.16609998
 20
-73.82921806
 30
0.0
  0
VERTEX
  8
0
  6
CONTINUOUS
 62
       7
  5
FE
 10
17.0798421
 20
-73.65648734
 30
0.0
  0
VERTEX
  8
0
  6
CONTINUOUS
 62
       7
  5
FF
 10
17.0094057
 20
-73.48546487
 30
0.0
  0
VERTEX
  8
0
  6
CONTINUOUS
 62
       7
  5
100
 10
16.95664
 20
-73.31727409
 30
0.0
  0
VERTEX
  8
0
  6
CONTINUOUS
 62
       7
  5
101
 10
16.9233942
 20
-73.15303845
 30
0.0
  0
VERTEX
  8
0
  6
CONTINUOUS
 62
       7
  5
102
 10
16.91151751
 20
-72.9938814
 30
0.0
  0
VERTEX
  8
0
  6
CONTINUOUS
 62
       7
  5
103
 10
16.92285914
 20
-72.84092639
 30
0.0
  0
VERTEX
  8
0
  6
CONTINUOUS
 62
       7
  5
104
 10
16.9592683
 20
-72.69529687
 30
0.0
  0
VERTEX
  8
0
  6
CONTINUOUS
 62
       7
  5
105
 10
17.02784755
 20
-72.54775477
 30
0.0
  0
VERTEX
  8
0
  6
CONTINUOUS
 62
       7
  5
106
 10
17.1250233
 20
-72.41029618
 30
0.0
  0
VERTEX
  8
0
  6
CONTINUOUS
 62
       7
  5
107
 10
17.24806547
 20
-72.28322584
 30
0.0
  0
VERTEX
  8
0
  6
CONTINUOUS
 62
       7
  5
108
 10
17.39424398
 20
-72.16684848
 30
0.0
  0
VERTEX
  8
0
  6
CONTINUOUS
 62
       7
  5
109
 10
17.56082873
 20
-72.06146884
 30
0.0
  0
VERTEX
  8
0
  6
CONTINUOUS
 62
       7
  5
10A
 10
17.74508964
 20
-71.96739165
 30
0.0
  0
VERTEX
  8
0
  6
CONTINUOUS
 62
       7
  5
10B
 10
17.94429661
 20
-71.88492166
 30
0.0
  0
VERTEX
  8
0
  6
CONTINUOUS
 62
       7
  5
10C
 10
18.15571958
 20
-71.81436359
 30
0.0
  0
VERTEX
  8
0
  6
CONTINUOUS
 62
       7
  5
10D
 10
18.37662844
 20
-71.75602219
 30
0.0
  0
VERTEX
  8
0
  6
CONTINUOUS
 62
       7
  5
10E
 10
18.60429311
 20
-71.7102022
 30
0.0
  0
VERTEX
  8
0
  6
CONTINUOUS
 62
       7
  5
10F
 10
18.8359835
 20
-71.67720834
 30
0.0
  0
VERTEX
  8
0
  6
CONTINUOUS
 62
       7
  5
110
 10
19.06896953
 20
-71.65734535
 30
0.0
  0
VERTEX
  8
0
  6
CONTINUOUS
 62
       7
  5
111
 10
19.30052112
 20
-71.65091797
 30
0.0
  0
VERTEX
  8
0
  6
CONTINUOUS
 62
       7
  5
112
 10
19.52790816
 20
-71.65823094
 30
0.0
  0
VERTEX
  8
0
  6
CONTINUOUS
 62
       7
  5
113
 10
19.74840058
 20
-71.67958899
 30
0.0
  0
VERTEX
  8
0
  6
CONTINUOUS
 62
       7
  5
114
 10
19.9592683
 20
-71.71529687
 30
0.0
  0
VERTEX
  8
0
  6
CONTINUOUS
 62
       7
  5
115
 10
20.01509835
 20
-71.72760968
 30
0.0
  0
VERTEX
  8
0
  6
CONTINUOUS
 62
       7
  5
116
 10
20.07008258
 20
-71.74084608
 30
0.0
  0
VERTEX
  8
0
  6
CONTINUOUS
 62
       7
  5
117
 10
20.12430709
 20
-71.75483139
 30
0.0
  0
VERTEX
  8
0
  6
CONTINUOUS
 62
       7
  5
118
 10
20.17785797
 20
-71.76939087
 30
0.0
  0
VERTEX
  8
0
  6
CONTINUOUS
 62
       7
  5
119
 10
20.23082134
 20
-71.78434983
 30
0.0
  0
VERTEX
  8
0
  6
CONTINUOUS
 62
       7
  5
11A
 10
20.2832833
 20
-71.79953356
 30
0.0
  0
VERTEX
  8
0
  6
CONTINUOUS
 62
       7
  5
11B
 10
20.33532996
 20
-71.81476734
 30
0.0
  0
VERTEX
  8
0
  6
CONTINUOUS
 62
       7
  5
11C
 10
20.38704741
 20
-71.82987646
 30
0.0
  0
VERTEX
  8
0
  6
CONTINUOUS
 62
       7
  5
11D
 10
20.43852177
 20
-71.84468623
 30
0.0
  0
VERTEX
  8
0
  6
CONTINUOUS
 62
       7
  5
11E
 10
20.48983913
 20
-71.85902192
 30
0.0
  0
VERTEX
  8
0
  6
CONTINUOUS
 62
       7
  5
11F
 10
20.5410856
 20
-71.87270883
 30
0.0
  0
VERTEX
  8
0
  6
CONTINUOUS
 62
       7
  5
120
 10
20.59234729
 20
-71.88557226
 30
0.0
  0
VERTEX
  8
0
  6
CONTINUOUS
 62
       7
  5
121
 10
20.6437103
 20
-71.89743748
 30
0.0
  0
VERTEX
  8
0
  6
CONTINUOUS
 62
       7
  5
122
 10
20.69526074
 20
-71.9081298
 30
0.0
  0
VERTEX
  8
0
  6
CONTINUOUS
 62
       7
  5
123
 10
20.7470847
 20
-71.9174745
 30
0.0
  0
VERTEX
  8
0
  6
CONTINUOUS
 62
       7
  5
124
 10
20.7992683
 20
-71.92529687
 30
0.0
  0
VERTEX
  8
0
  6
CONTINUOUS
 62
       7
  5
125
 10
20.92643559
 20
-71.93716377
 30
0.0
  0
VERTEX
  8
0
  6
CONTINUOUS
 62
       7
  5
126
 10
21.05502829
 20
-71.93925551
 30
0.0
  0
VERTEX
  8
0
  6
CONTINUOUS
 62
       7
  5
127
 10
21.18457189
 20
-71.93195271
 30
0.0
  0
VERTEX
  8
0
  6
CONTINUOUS
 62
       7
  5
128
 10
21.31459188
 20
-71.91563599
 30
0.0
  0
VERTEX
  8
0
  6
CONTINUOUS
 62
       7
  5
129
 10
21.44461375
 20
-71.89068598
 30
0.0
  0
VERTEX
  8
0
  6
CONTINUOUS
 62
       7
  5
12A
 10
21.57416298
 20
-71.85748329
 30
0.0
  0
VERTEX
  8
0
  6
CONTINUOUS
 62
       7
  5
12B
 10
21.70276507
 20
-71.81640856
 30
0.0
  0
VERTEX
  8
0
  6
CONTINUOUS
 62
       7
  5
12C
 10
21.82994551
 20
-71.76784241
 30
0.0
  0
VERTEX
  8
0
  6
CONTINUOUS
 62
       7
  5
12D
 10
21.95522979
 20
-71.71216545
 30
0.0
  0
VERTEX
  8
0
  6
CONTINUOUS
 62
       7
  5
12E
 10
22.07814339
 20
-71.64975833
 30
0.0
  0
VERTEX
  8
0
  6
CONTINUOUS
 62
       7
  5
12F
 10
22.19821181
 20
-71.58100165
 30
0.0
  0
VERTEX
  8
0
  6
CONTINUOUS
 62
       7
  5
130
 10
22.31496054
 20
-71.50627605
 30
0.0
  0
VERTEX
  8
0
  6
CONTINUOUS
 62
       7
  5
131
 10
22.42791506
 20
-71.42596215
 30
0.0
  0
VERTEX
  8
0
  6
CONTINUOUS
 62
       7
  5
132
 10
22.53660087
 20
-71.34044057
 30
0.0
  0
VERTEX
  8
0
  6
CONTINUOUS
 62
       7
  5
133
 10
22.64054345
 20
-71.25009193
 30
0.0
  0
VERTEX
  8
0
  6
CONTINUOUS
 62
       7
  5
134
 10
22.7392683
 20
-71.15529687
 30
0.0
  0
VERTEX
  8
0
  6
CONTINUOUS
 62
       7
  5
135
 10
22.82492417
 20
-71.06467297
 30
0.0
  0
VERTEX
  8
0
  6
CONTINUOUS
 62
       7
  5
136
 10
22.90573129
 20
-70.97086261
 30
0.0
  0
VERTEX
  8
0
  6
CONTINUOUS
 62
       7
  5
137
 10
22.9817767
 20
-70.87405832
 30
0.0
  0
VERTEX
  8
0
  6
CONTINUOUS
 62
       7
  5
138
 10
23.05314744
 20
-70.77445264
 30
0.0
  0
VERTEX
  8
0
  6
CONTINUOUS
 62
       7
  5
139
 10
23.11993052
 20
-70.67223811
 30
0.0
  0
VERTEX
  8
0
  6
CONTINUOUS
 62
       7
  5
13A
 10
23.18221298
 20
-70.56760728
 30
0.0
  0
VERTEX
  8
0
  6
CONTINUOUS
 62
       7
  5
13B
 10
23.24008185
 20
-70.46075268
 30
0.0
  0
VERTEX
  8
0
  6
CONTINUOUS
 62
       7
  5
13C
 10
23.29362417
 20
-70.35186685
 30
0.0
  0
VERTEX
  8
0
  6
CONTINUOUS
 62
       7
  5
13D
 10
23.34292695
 20
-70.24114233
 30
0.0
  0
VERTEX
  8
0
  6
CONTINUOUS
 62
       7
  5
13E
 10
23.38807725
 20
-70.12877166
 30
0.0
  0
VERTEX
  8
0
  6
CONTINUOUS
 62
       7
  5
13F
 10
23.42916207
 20
-70.01494738
 30
0.0
  0
VERTEX
  8
0
  6
CONTINUOUS
 62
       7
  5
140
 10
23.46626846
 20
-69.89986203
 30
0.0
  0
VERTEX
  8
0
  6
CONTINUOUS
 62
       7
  5
141
 10
23.49948345
 20
-69.78370815
 30
0.0
  0
VERTEX
  8
0
  6
CONTINUOUS
 62
       7
  5
142
 10
23.52889406
 20
-69.66667828
 30
0.0
  0
VERTEX
  8
0
  6
CONTINUOUS
 62
       7
  5
143
 10
23.55458733
 20
-69.54896496
 30
0.0
  0
VERTEX
  8
0
  6
CONTINUOUS
 62
       7
  5
144
 10
23.57665029
 20
-69.43076072
 30
0.0
  0
SEQEND
  8
0
  6
CONTINUOUS
 62
       7
  5
145
  0
POLYLINE
  8
0
  6
CONTINUOUS
 62
       7
  5
62
 66
       1
 10
0.0
 20
0.0
 30
0.0
  0
VERTEX
  8
0
  6
CONTINUOUS
 62
       7
  5
146
 10
9.22853033
 20
-75.56514018
 30
0.0
  0
VERTEX
  8
0
  6
CONTINUOUS
 62
       7
  5
147
 10
9.25277372
 20
-75.55064617
 30
0.0
  0
VERTEX
  8
0
  6
CONTINUOUS
 62
       7
  5
148
 10
9.27677546
 20
-75.53556246
 30
0.0
  0
VERTEX
  8
0
  6
CONTINUOUS
 62
       7
  5
149
 10
9.3005567
 20
-75.51991198
 30
0.0
  0
VERTEX
  8
0
  6
CONTINUOUS
 62
       7
  5
14A
 10
9.32413858
 20
-75.50371761
 30
0.0
  0
VERTEX
  8
0
  6
CONTINUOUS
 62
       7
  5
14B
 10
9.34754224
 20
-75.48700225
 30
0.0
  0
VERTEX
  8
0
  6
CONTINUOUS
 62
       7
  5
14C
 10
9.37078883
 20
-75.4697888
 30
0.0
  0
VERTEX
  8
0
  6
CONTINUOUS
 62
       7
  5
14D
 10
9.39389951
 20
-75.45210015
 30
0.0
  0
VERTEX
  8
0
  6
CONTINUOUS
 62
       7
  5
14E
 10
9.41689541
 20
-75.43395922
 30
0.0
  0
VERTEX
  8
0
  6
CONTINUOUS
 62
       7
  5
14F
 10
9.43979768
 20
-75.41538888
 30
0.0
  0
VERTEX
  8
0
  6
CONTINUOUS
 62
       7
  5
150
 10
9.46262747
 20
-75.39641205
 30
0.0
  0
VERTEX
  8
0
  6
CONTINUOUS
 62
       7
  5
151
 10
9.48540592
 20
-75.37705162
 30
0.0
  0
VERTEX
  8
0
  6
CONTINUOUS
 62
       7
  5
152
 10
9.50815419
 20
-75.35733048
 30
0.0
  0
VERTEX
  8
0
  6
CONTINUOUS
 62
       7
  5
153
 10
9.53089341
 20
-75.33727154
 30
0.0
  0
VERTEX
  8
0
  6
CONTINUOUS
 62
       7
  5
154
 10
9.55364474
 20
-75.31689769
 30
0.0
  0
VERTEX
  8
0
  6
CONTINUOUS
 62
       7
  5
155
 10
9.57642932
 20
-75.29623184
 30
0.0
  0
VERTEX
  8
0
  6
CONTINUOUS
 62
       7
  5
156
 10
9.5992683
 20
-75.27529687
 30
0.0
  0
VERTEX
  8
0
  6
CONTINUOUS
 62
       7
  5
157
 10
9.74470516
 20
-75.13774706
 30
0.0
  0
VERTEX
  8
0
  6
CONTINUOUS
 62
       7
  5
158
 10
9.89096341
 20
-74.99179446
 30
0.0
  0
VERTEX
  8
0
  6
CONTINUOUS
 62
       7
  5
159
 10
10.03619384
 20
-74.83856254
 30
0.0
  0
VERTEX
  8
0
  6
CONTINUOUS
 62
       7
  5
15A
 10
10.17854725
 20
-74.67917473
 30
0.0
  0
VERTEX
  8
0
  6
CONTINUOUS
 62
       7
  5
15B
 10
10.31617443
 20
-74.51475448
 30
0.0
  0
VERTEX
  8
0
  6
CONTINUOUS
 62
       7
  5
15C
 10
10.44722616
 20
-74.34642524
 30
0.0
  0
VERTEX
  8
0
  6
CONTINUOUS
 62
       7
  5
15D
 10
10.56985324
 20
-74.17531046
 30
0.0
  0
VERTEX
  8
0
  6
CONTINUOUS
 62
       7
  5
15E
 10
10.68220646
 20
-74.00253359
 30
0.0
  0
VERTEX
  8
0
  6
CONTINUOUS
 62
       7
  5
15F
 10
10.78243662
 20
-73.82921806
 30
0.0
  0
VERTEX
  8
0
  6
CONTINUOUS
 62
       7
  5
160
 10
10.8686945
 20
-73.65648734
 30
0.0
  0
VERTEX
  8
0
  6
CONTINUOUS
 62
       7
  5
161
 10
10.93913089
 20
-73.48546487
 30
0.0
  0
VERTEX
  8
0
  6
CONTINUOUS
 62
       7
  5
162
 10
10.99189659
 20
-73.31727409
 30
0.0
  0
VERTEX
  8
0
  6
CONTINUOUS
 62
       7
  5
163
 10
11.02514239
 20
-73.15303845
 30
0.0
  0
VERTEX
  8
0
  6
CONTINUOUS
 62
       7
  5
164
 10
11.03701908
 20
-72.9938814
 30
0.0
  0
VERTEX
  8
0
  6
CONTINUOUS
 62
       7
  5
165
 10
11.02567745
 20
-72.84092639
 30
0.0
  0
VERTEX
  8
0
  6
CONTINUOUS
 62
       7
  5
166
 10
10.9892683
 20
-72.69529687
 30
0.0
  0
VERTEX
  8
0
  6
CONTINUOUS
 62
       7
  5
167
 10
10.92068905
 20
-72.54775477
 30
0.0
  0
VERTEX
  8
0
  6
CONTINUOUS
 62
       7
  5
168
 10
10.82351329
 20
-72.41029618
 30
0.0
  0
VERTEX
  8
0
  6
CONTINUOUS
 62
       7
  5
169
 10
10.70047112
 20
-72.28322584
 30
0.0
  0
VERTEX
  8
0
  6
CONTINUOUS
 62
       7
  5
16A
 10
10.55429261
 20
-72.16684848
 30
0.0
  0
VERTEX
  8
0
  6
CONTINUOUS
 62
       7
  5
16B
 10
10.38770786
 20
-72.06146884
 30
0.0
  0
VERTEX
  8
0
  6
CONTINUOUS
 62
       7
  5
16C
 10
10.20344696
 20
-71.96739165
 30
0.0
  0
VERTEX
  8
0
  6
CONTINUOUS
 62
       7
  5
16D
 10
10.00423998
 20
-71.88492166
 30
0.0
  0
VERTEX
  8
0
  6
CONTINUOUS
 62
       7
  5
16E
 10
9.79281702
 20
-71.81436359
 30
0.0
  0
VERTEX
  8
0
  6
CONTINUOUS
 62
       7
  5
16F
 10
9.57190816
 20
-71.75602219
 30
0.0
  0
VERTEX
  8
0
  6
CONTINUOUS
 62
       7
  5
170
 10
9.34424348
 20
-71.7102022
 30
0.0
  0
VERTEX
  8
0
  6
CONTINUOUS
 62
       7
  5
171
 10
9.11255309
 20
-71.67720834
 30
0.0
  0
VERTEX
  8
0
  6
CONTINUOUS
 62
       7
  5
172
 10
8.87956706
 20
-71.65734535
 30
0.0
  0
VERTEX
  8
0
  6
CONTINUOUS
 62
       7
  5
173
 10
8.64801548
 20
-71.65091797
 30
0.0
  0
VERTEX
  8
0
  6
CONTINUOUS
 62
       7
  5
174
 10
8.42062843
 20
-71.65823094
 30
0.0
  0
VERTEX
  8
0
  6
CONTINUOUS
 62
       7
  5
175
 10
8.20013601
 20
-71.67958899
 30
0.0
  0
VERTEX
  8
0
  6
CONTINUOUS
 62
       7
  5
176
 10
7.9892683
 20
-71.71529687
 30
0.0
  0
VERTEX
  8
0
  6
CONTINUOUS
 62
       7
  5
177
 10
7.93342462
 20
-71.7276115
 30
0.0
  0
VERTEX
  8
0
  6
CONTINUOUS
 62
       7
  5
178
 10
7.87840318
 20
-71.74085288
 30
0.0
  0
VERTEX
  8
0
  6
CONTINUOUS
 62
       7
  5
179
 10
7.82412331
 20
-71.75484558
 30
0.0
  0
VERTEX
  8
0
  6
CONTINUOUS
 62
       7
  5
17A
 10
7.77050435
 20
-71.76941416
 30
0.0
  0
VERTEX
  8
0
  6
CONTINUOUS
 62
       7
  5
17B
 10
7.71746565
 20
-71.78438319
 30
0.0
  0
VERTEX
  8
0
  6
CONTINUOUS
 62
       7
  5
17C
 10
7.66492654
 20
-71.79957723
 30
0.0
  0
VERTEX
  8
0
  6
CONTINUOUS
 62
       7
  5
17D
 10
7.61280637
 20
-71.81482084
 30
0.0
  0
VERTEX
  8
0
  6
CONTINUOUS
 62
       7
  5
17E
 10
7.56102447
 20
-71.82993858
 30
0.0
  0
VERTEX
  8
0
  6
CONTINUOUS
 62
       7
  5
17F
 10
7.5095002
 20
-71.84475502
 30
0.0
  0
VERTEX
  8
0
  6
CONTINUOUS
 62
       7
  5
180
 10
7.45815288
 20
-71.85909471
 30
0.0
  0
VERTEX
  8
0
  6
CONTINUOUS
 62
       7
  5
181
 10
7.40690187
 20
-71.87278223
 30
0.0
  0
VERTEX
  8
0
  6
CONTINUOUS
 62
       7
  5
182
 10
7.3556665
 20
-71.88564214
 30
0.0
  0
VERTEX
  8
0
  6
CONTINUOUS
 62
       7
  5
183
 10
7.30436612
 20
-71.89749899
 30
0.0
  0
VERTEX
  8
0
  6
CONTINUOUS
 62
       7
  5
184
 10
7.25292006
 20
-71.90817735
 30
0.0
  0
VERTEX
  8
0
  6
CONTINUOUS
 62
       7
  5
185
 10
7.20124768
 20
-71.91750179
 30
0.0
  0
VERTEX
  8
0
  6
CONTINUOUS
 62
       7
  5
186
 10
7.1492683
 20
-71.92529687
 30
0.0
  0
VERTEX
  8
0
  6
CONTINUOUS
 62
       7
  5
187
 10
7.02201374
 20
-71.93718906
 30
0.0
  0
VERTEX
  8
0
  6
CONTINUOUS
 62
       7
  5
188
 10
6.89317212
 20
-71.93934993
 30
0.0
  0
VERTEX
  8
0
  6
CONTINUOUS
 62
       7
  5
189
 10
6.76323721
 20
-71.93214997
 30
0.0
  0
VERTEX
  8
0
  6
CONTINUOUS
 62
       7
  5
18A
 10
6.63270281
 20
-71.9159597
 30
0.0
  0
VERTEX
  8
0
  6
CONTINUOUS
 62
       7
  5
18B
 10
6.50206269
 20
-71.89114963
 30
0.0
  0
VERTEX
  8
0
  6
CONTINUOUS
 62
       7
  5
18C
 10
6.37181066
 20
-71.85809025
 30
0.0
  0
VERTEX
  8
0
  6
CONTINUOUS
 62
       7
  5
18D
 10
6.2424405
 20
-71.81715209
 30
0.0
  0
VERTEX
  8
0
  6
CONTINUOUS
 62
       7
  5
18E
 10
6.114446
 20
-71.76870564
 30
0.0
  0
VERTEX
  8
0
  6
CONTINUOUS
 62
       7
  5
18F
 10
5.98832094
 20
-71.71312142
 30
0.0
  0
VERTEX
  8
0
  6
CONTINUOUS
 62
       7
  5
190
 10
5.86455912
 20
-71.65076994
 30
0.0
  0
VERTEX
  8
0
  6
CONTINUOUS
 62
       7
  5
191
 10
5.74365433
 20
-71.58202169
 30
0.0
  0
VERTEX
  8
0
  6
CONTINUOUS
 62
       7
  5
192
 10
5.62610034
 20
-71.5072472
 30
0.0
  0
VERTEX
  8
0
  6
CONTINUOUS
 62
       7
  5
193
 10
5.51239096
 20
-71.42681696
 30
0.0
  0
VERTEX
  8
0
  6
CONTINUOUS
 62
       7
  5
194
 10
5.40301996
 20
-71.34110148
 30
0.0
  0
VERTEX
  8
0
  6
CONTINUOUS
 62
       7
  5
195
 10
5.29848115
 20
-71.25047129
 30
0.0
  0
VERTEX
  8
0
  6
CONTINUOUS
 62
       7
  5
196
 10
5.1992683
 20
-71.15529687
 30
0.0
  0
VERTEX
  8
0
  6
CONTINUOUS
 62
       7
  5
197
 10
5.11361243
 20
-71.06467297
 30
0.0
  0
VERTEX
  8
0
  6
CONTINUOUS
 62
       7
  5
198
 10
5.0328053
 20
-70.97086261
 30
0.0
  0
VERTEX
  8
0
  6
CONTINUOUS
 62
       7
  5
199
 10
4.95675989
 20
-70.87405832
 30
0.0
  0
VERTEX
  8
0
  6
CONTINUOUS
 62
       7
  5
19A
 10
4.88538916
 20
-70.77445264
 30
0.0
  0
VERTEX
  8
0
  6
CONTINUOUS
 62
       7
  5
19B
 10
4.81860607
 20
-70.67223811
 30
0.0
  0
VERTEX
  8
0
  6
CONTINUOUS
 62
       7
  5
19C
 10
4.75632361
 20
-70.56760728
 30
0.0
  0
VERTEX
  8
0
  6
CONTINUOUS
 62
       7
  5
19D
 10
4.69845474
 20
-70.46075268
 30
0.0
  0
VERTEX
  8
0
  6
CONTINUOUS
 62
       7
  5
19E
 10
4.64491243
 20
-70.35186685
 30
0.0
  0
VERTEX
  8
0
  6
CONTINUOUS
 62
       7
  5
19F
 10
4.59560964
 20
-70.24114233
 30
0.0
  0
VERTEX
  8
0
  6
CONTINUOUS
 62
       7
  5
1A0
 10
4.55045935
 20
-70.12877166
 30
0.0
  0
VERTEX
  8
0
  6
CONTINUOUS
 62
       7
  5
1A1
 10
4.50937452
 20
-70.01494738
 30
0.0
  0
VERTEX
  8
0
  6
CONTINUOUS
 62
       7
  5
1A2
 10
4.47226813
 20
-69.89986203
 30
0.0
  0
VERTEX
  8
0
  6
CONTINUOUS
 62
       7
  5
1A3
 10
4.43905315
 20
-69.78370815
 30
0.0
  0
VERTEX
  8
0
  6
CONTINUOUS
 62
       7
  5
1A4
 10
4.40964253
 20
-69.66667828
 30
0.0
  0
VERTEX
  8
0
  6
CONTINUOUS
 62
       7
  5
1A5
 10
4.38394926
 20
-69.54896496
 30
0.0
  0
VERTEX
  8
0
  6
CONTINUOUS
 62
       7
  5
1A6
 10
4.3618863
 20
-69.43076072
 30
0.0
  0
SEQEND
  8
0
  6
CONTINUOUS
 62
       7
  5
1A7
  0
POLYLINE
  8
0
  6
CONTINUOUS
 62
       7
  5
63
 66
       1
 10
0.0
 20
0.0
 30
0.0
  0
VERTEX
  8
0
  6
CONTINUOUS
 62
       7
  5
1A8
 10
28.97254286
 20
-4.17563389
 30
0.0
  0
VERTEX
  8
0
  6
CONTINUOUS
 62
       7
  5
1A9
 10
28.87406386
 20
-4.47706756
 30
0.0
  0
VERTEX
  8
0
  6
CONTINUOUS
 62
       7
  5
1AA
 10
28.78107819
 20
-4.78064312
 30
0.0
  0
VERTEX
  8
0
  6
CONTINUOUS
 62
       7
  5
1AB
 10
28.69370455
 20
-5.08621777
 30
0.0
  0
VERTEX
  8
0
  6
CONTINUOUS
 62
       7
  5
1AC
 10
28.61206162
 20
-5.39364871
 30
0.0
  0
VERTEX
  8
0
  6
CONTINUOUS
 62
       7
  5
1AD
 10
28.53626808
 20
-5.70279316
 30
0.0
  0
VERTEX
  8
0
  6
CONTINUOUS
 62
       7
  5
1AE
 10
28.46644261
 20
-6.01350832
 30
0.0
  0
VERTEX
  8
0
  6
CONTINUOUS
 62
       7
  5
1AF
 10
28.4027039
 20
-6.32565138
 30
0.0
  0
VERTEX
  8
0
  6
CONTINUOUS
 62
       7
  5
1B0
 10
28.34517065
 20
-6.63907957
 30
0.0
  0
VERTEX
  8
0
  6
CONTINUOUS
 62
       7
  5
1B1
 10
28.29396152
 20
-6.95365007
 30
0.0
  0
VERTEX
  8
0
  6
CONTINUOUS
 62
       7
  5
1B2
 10
28.24919521
 20
-7.26922011
 30
0.0
  0
VERTEX
  8
0
  6
CONTINUOUS
 62
       7
  5
1B3
 10
28.2109904
 20
-7.58564688
 30
0.0
  0
VERTEX
  8
0
  6
CONTINUOUS
 62
       7
  5
1B4
 10
28.17946578
 20
-7.90278758
 30
0.0
  0
VERTEX
  8
0
  6
CONTINUOUS
 62
       7
  5
1B5
 10
28.15474003
 20
-8.22049943
 30
0.0
  0
VERTEX
  8
0
  6
CONTINUOUS
 62
       7
  5
1B6
 10
28.13693183
 20
-8.53863963
 30
0.0
  0
VERTEX
  8
0
  6
CONTINUOUS
 62
       7
  5
1B7
 10
28.12615988
 20
-8.85706538
 30
0.0
  0
VERTEX
  8
0
  6
CONTINUOUS
 62
       7
  5
1B8
 10
28.12254286
 20
-9.17563389
 30
0.0
  0
VERTEX
  8
0
  6
CONTINUOUS
 62
       7
  5
1B9
 10
28.12615988
 20
-9.4942024
 30
0.0
  0
VERTEX
  8
0
  6
CONTINUOUS
 62
       7
  5
1BA
 10
28.13693183
 20
-9.81262816
 30
0.0
  0
VERTEX
  8
0
  6
CONTINUOUS
 62
       7
  5
1BB
 10
28.15474003
 20
-10.13076836
 30
0.0
  0
VERTEX
  8
0
  6
CONTINUOUS
 62
       7
  5
1BC
 10
28.17946578
 20
-10.4484802
 30
0.0
  0
VERTEX
  8
0
  6
CONTINUOUS
 62
       7
  5
1BD
 10
28.2109904
 20
-10.76562091
 30
0.0
  0
VERTEX
  8
0
  6
CONTINUOUS
 62
       7
  5
1BE
 10
28.24919521
 20
-11.08204768
 30
0.0
  0
VERTEX
  8
0
  6
CONTINUOUS
 62
       7
  5
1BF
 10
28.29396152
 20
-11.39761771
 30
0.0
  0
VERTEX
  8
0
  6
CONTINUOUS
 62
       7
  5
1C0
 10
28.34517064
 20
-11.71218822
 30
0.0
  0
VERTEX
  8
0
  6
CONTINUOUS
 62
       7
  5
1C1
 10
28.4027039
 20
-12.0256164
 30
0.0
  0
VERTEX
  8
0
  6
CONTINUOUS
 62
       7
  5
1C2
 10
28.46644261
 20
-12.33775947
 30
0.0
  0
VERTEX
  8
0
  6
CONTINUOUS
 62
       7
  5
1C3
 10
28.53626807
 20
-12.64847463
 30
0.0
  0
VERTEX
  8
0
  6
CONTINUOUS
 62
       7
  5
1C4
 10
28.61206162
 20
-12.95761907
 30
0.0
  0
VERTEX
  8
0
  6
CONTINUOUS
 62
       7
  5
1C5
 10
28.69370455
 20
-13.26505002
 30
0.0
  0
VERTEX
  8
0
  6
CONTINUOUS
 62
       7
  5
1C6
 10
28.78107819
 20
-13.57062467
 30
0.0
  0
VERTEX
  8
0
  6
CONTINUOUS
 62
       7
  5
1C7
 10
28.87406386
 20
-13.87420022
 30
0.0
  0
VERTEX
  8
0
  6
CONTINUOUS
 62
       7
  5
1C8
 10
28.97254286
 20
-14.17563389
 30
0.0
  0
SEQEND
  8
0
  6
CONTINUOUS
 62
       7
  5
1C9
  0
POLYLINE
  8
0
  6
CONTINUOUS
 62
       7
  5
64
 66
       1
 10
0.0
 20
0.0
 30
0.0
  0
VERTEX
  8
0
  6
CONTINUOUS
 62
       7
  5
1CA
 10
-1.02745714
 20
-4.17563389
 30
0.0
  0
VERTEX
  8
0
  6
CONTINUOUS
 62
       7
  5
1CB
 10
-0.92897817
 20
-4.47706732
 30
0.0
  0
VERTEX
  8
0
  6
CONTINUOUS
 62
       7
  5
1CC
 10
-0.83599253
 20
-4.78064266
 30
0.0
  0
VERTEX
  8
0
  6
CONTINUOUS
 62
       7
  5
1CD
 10
-0.74861891
 20
-5.08621714
 30
0.0
  0
VERTEX
  8
0
  6
CONTINUOUS
 62
       7
  5
1CE
 10
-0.66697601
 20
-5.39364794
 30
0.0
  0
VERTEX
  8
0
  6
CONTINUOUS
 62
       7
  5
1CF
 10
-0.59118249
 20
-5.70279228
 30
0.0
  0
VERTEX
  8
0
  6
CONTINUOUS
 62
       7
  5
1D0
 10
-0.52135705
 20
-6.01350736
 30
0.0
  0
VERTEX
  8
0
  6
CONTINUOUS
 62
       7
  5
1D1
 10
-0.45761837
 20
-6.32565039
 30
0.0
  0
VERTEX
  8
0
  6
CONTINUOUS
 62
       7
  5
1D2
 10
-0.40008513
 20
-6.63907856
 30
0.0
  0
VERTEX
  8
0
  6
CONTINUOUS
 62
       7
  5
1D3
 10
-0.34887601
 20
-6.95364909
 30
0.0
  0
VERTEX
  8
0
  6
CONTINUOUS
 62
       7
  5
1D4
 10
-0.30410971
 20
-7.26921918
 30
0.0
  0
VERTEX
  8
0
  6
CONTINUOUS
 62
       7
  5
1D5
 10
-0.26590489
 20
-7.58564603
 30
0.0
  0
VERTEX
  8
0
  6
CONTINUOUS
 62
       7
  5
1D6
 10
-0.23438026
 20
-7.90278685
 30
0.0
  0
VERTEX
  8
0
  6
CONTINUOUS
 62
       7
  5
1D7
 10
-0.20965448
 20
-8.22049884
 30
0.0
  0
VERTEX
  8
0
  6
CONTINUOUS
 62
       7
  5
1D8
 10
-0.19184625
 20
-8.53863921
 30
0.0
  0
VERTEX
  8
0
  6
CONTINUOUS
 62
       7
  5
1D9
 10
-0.18107424
 20
-8.85706516
 30
0.0
  0
VERTEX
  8
0
  6
CONTINUOUS
 62
       7
  5
1DA
 10
-0.17745714
 20
-9.17563389
 30
0.0
  0
VERTEX
  8
0
  6
CONTINUOUS
 62
       7
  5
1DB
 10
-0.18107409
 20
-9.4942026
 30
0.0
  0
VERTEX
  8
0
  6
CONTINUOUS
 62
       7
  5
1DC
 10
-0.19184597
 20
-9.81262848
 30
0.0
  0
VERTEX
  8
0
  6
CONTINUOUS
 62
       7
  5
1DD
 10
-0.2096541
 20
-10.13076874
 30
0.0
  0
VERTEX
  8
0
  6
CONTINUOUS
 62
       7
  5
1DE
 10
-0.23437979
 20
-10.4484806
 30
0.0
  0
VERTEX
  8
0
  6
CONTINUOUS
 62
       7
  5
1DF
 10
-0.26590436
 20
-10.76562128
 30
0.0
  0
VERTEX
  8
0
  6
CONTINUOUS
 62
       7
  5
1E0
 10
-0.30410912
 20
-11.08204798
 30
0.0
  0
VERTEX
  8
0
  6
CONTINUOUS
 62
       7
  5
1E1
 10
-0.3488754
 20
-11.39761792
 30
0.0
  0
VERTEX
  8
0
  6
CONTINUOUS
 62
       7
  5
1E2
 10
-0.40008451
 20
-11.71218832
 30
0.0
  0
VERTEX
  8
0
  6
CONTINUOUS
 62
       7
  5
1E3
 10
-0.45761776
 20
-12.0256164
 30
0.0
  0
VERTEX
  8
0
  6
CONTINUOUS
 62
       7
  5
1E4
 10
-0.52135647
 20
-12.33775937
 30
0.0
  0
VERTEX
  8
0
  6
CONTINUOUS
 62
       7
  5
1E5
 10
-0.59118196
 20
-12.64847444
 30
0.0
  0
VERTEX
  8
0
  6
CONTINUOUS
 62
       7
  5
1E6
 10
-0.66697555
 20
-12.95761883
 30
0.0
  0
VERTEX
  8
0
  6
CONTINUOUS
 62
       7
  5
1E7
 10
-0.74861854
 20
-13.26504975
 30
0.0
  0
VERTEX
  8
0
  6
CONTINUOUS
 62
       7
  5
1E8
 10
-0.83599226
 20
-13.57062443
 30
0.0
  0
VERTEX
  8
0
  6
CONTINUOUS
 62
       7
  5
1E9
 10
-0.92897802
 20
-13.87420007
 30
0.0
  0
VERTEX
  8
0
  6
CONTINUOUS
 62
       7
  5
1EA
 10
-1.02745714
 20
-14.17563389
 30
0.0
  0
SEQEND
  8
0
  6
CONTINUOUS
 62
       7
  5
1EB
  0
CIRCLE
  8
0
  6
CONTINUOUS
 62
       7
  5
65
 10
-5.21632987
 20
50.7243661
 30
0.0
 40
9.6
  0
ARC
  8
0
  6
CONTINUOUS
 62
       7
  5
66
 10
24.06650612
 20
27.36899443
 30
0.0
 40
2.0187897
 50
-0.00006994
 51
90.00006994
  0
ARC
  8
0
  6
CONTINUOUS
 62
       7
  5
67
 10
13.97254286
 20
27.28487768
 30
0.0
 40
6.14049127
 50
48.88789696
 51
131.11210304
  0
ARC
  8
0
  6
CONTINUOUS
 62
       7
  5
68
 10
3.8785722
 20
27.36900182
 30
0.0
 40
2.0187823
 50
89.99972023
 51
180.00027977
  0
ARC
  8
0
  6
CONTINUOUS
 62
       7
  5
69
 10
32.97254286
 20
38.82436611
 30
0.0
 40
6.05637648
 50
0.0
 51
180.0
  0
ARC
  8
0
  6
CONTINUOUS
 62
       7
  5
6A
 10
9.23088857
 20
37.88503067
 30
0.0
 40
2.02730357
 50
176.60686611
 51
256.67410176
  0
LINE
  8
0
  6
CONTINUOUS
 62
       7
  5
6B
 10
22.0477115
 20
11.21865469
 30
0.0
 11
22.0477115
 21
8.19046645
 31
0.0
  0
LINE
  8
0
  6
CONTINUOUS
 62
       7
  5
6C
 10
26.08529582
 20
27.36899197
 30
0.0
 11
26.08529582
 21
8.19046645
 31
0.0
  0
LINE
  8
0
  6
CONTINUOUS
 62
       7
  5
6D
 10
5.89737422
 20
11.21865469
 30
0.0
 11
5.89737422
 21
8.19046645
 31
0.0
  0
LINE
  8
0
  6
CONTINUOUS
 62
       7
  5
6E
 10
19.01952326
 20
11.21865469
 30
0.0
 11
19.01952326
 21
8.19046645
 31
0.0
  0
LINE
  8
0
  6
CONTINUOUS
 62
       7
  5
6F
 10
8.92556246
 20
11.21865469
 30
0.0
 11
8.92556246
 21
8.19046645
 31
0.0
  0
LINE
  8
0
  6
CONTINUOUS
 62
       7
  5
70
 10
8.42086442
 20
30.90187825
 30
0.0
 11
8.42086442
 21
29.38778413
 31
0.0
  0
LINE
  8
0
  6
CONTINUOUS
 62
       7
  5
71
 10
18.01012718
 20
31.91127433
 30
0.0
 11
9.93495854
 21
31.91127433
 31
0.0
  0
LINE
  8
0
  6
CONTINUOUS
 62
       7
  5
72
 10
9.93495854
 20
31.91127433
 30
0.0
 11
9.93495854
 21
30.90187825
 31
0.0
  0
LINE
  8
0
  6
CONTINUOUS
 62
       7
  5
73
 10
18.01012718
 20
31.91127433
 30
0.0
 11
18.01012718
 21
30.90187825
 31
0.0
  0
LINE
  8
0
  6
CONTINUOUS
 62
       7
  5
74
 10
19.5242213
 20
30.90187825
 30
0.0
 11
8.42086442
 21
30.90187825
 31
0.0
  0
LINE
  8
0
  6
CONTINUOUS
 62
       7
  5
75
 10
19.5242213
 20
30.90187825
 30
0.0
 11
19.5242213
 21
29.38778413
 31
0.0
  0
LINE
  8
0
  6
CONTINUOUS
 62
       7
  5
76
 10
24.06650366
 20
29.38778413
 30
0.0
 11
3.87858206
 21
29.38778413
 31
0.0
  0
LINE
  8
0
  6
CONTINUOUS
 62
       7
  5
77
 10
26.08529582
 20
14.24684293
 30
0.0
 11
1.8597899
 21
14.24684293
 31
0.0
  0
LINE
  8
0
  6
CONTINUOUS
 62
       7
  5
78
 10
26.08529582
 20
11.21865469
 30
0.0
 11
1.8597899
 21
11.21865469
 31
0.0
  0
LINE
  8
0
  6
CONTINUOUS
 62
       7
  5
79
 10
26.91616638
 20
8.19046645
 30
0.0
 11
1.8597899
 21
8.19046645
 31
0.0
  0
LINE
  8
0
  6
CONTINUOUS
 62
       7
  5
7A
 10
1.8597899
 20
27.36899197
 30
0.0
 11
1.8597899
 21
5.32857143
 31
0.0
  0
LINE
  8
0
  6
CONTINUOUS
 62
       7
  5
7B
 10
1.8597899
 20
5.32857143
 30
0.0
 11
38.02891934
 21
5.32857143
 31
0.0
  0
LINE
  8
0
  6
CONTINUOUS
 62
       7
  5
7C
 10
24.94526583
 20
31.17994334
 30
0.0
 11
26.91616638
 21
27.76219672
 31
0.0
  0
LINE
  8
0
  6
CONTINUOUS
 62
       7
  5
7D
 10
15.18758352
 20
36.14458742
 30
0.0
 11
15.08774553
 21
34.43152091
 31
0.0
  0
LINE
  8
0
  6
CONTINUOUS
 62
       7
  5
7E
 10
8.76361619
 20
35.91231267
 30
0.0
 11
15.08774553
 21
34.43152091
 31
0.0
  0
LINE
  8
0
  6
CONTINUOUS
 62
       7
  5
7F
 10
7.31472737
 20
39.8510711
 30
0.0
 11
7.20713901
 21
38.00502017
 31
0.0
  0
LINE
  8
0
  6
CONTINUOUS
 62
       7
  5
80
 10
26.91616638
 20
38.82436611
 30
0.0
 11
26.91616638
 21
5.32857143
 31
0.0
  0
LINE
  8
0
  6
CONTINUOUS
 62
       7
  5
81
 10
39.02891934
 20
38.82436611
 30
0.0
 11
39.02891934
 21
5.67119261
 31
0.0
  0
CIRCLE
  8
0
  6
CONTINUOUS
 62
       7
  5
82
 10
-5.21632987
 20
50.7243661
 30
0.0
 40
5.0
  0
LINE
  8
0
  6
CONTINUOUS
 62
       7
  5
83
 10
7.20469664
 20
37.81790374
 30
0.0
 11
15.17632168
 21
35.95135168
 31
0.0
  0
CIRCLE
  8
0
  6
CONTINUOUS
 62
       7
  5
84
 10
32.97254286
 20
38.82436611
 30
0.0
 40
3.0
  0
LINE
  8
0
  6
CONTINUOUS
 62
       7
  5
85
 10
32.97254286
 20
46.32991961
 30
0.0
 11
26.47254286
 21
42.57714286
 31
0.0
  0
LINE
  8
0
  6
CONTINUOUS
 62
       7
  5
86
 10
26.47254286
 20
42.57714286
 30
0.0
 11
26.47254286
 21
35.07158936
 31
0.0
  0
LINE
  8
0
  6
CONTINUOUS
 62
       7
  5
87
 10
26.47254286
 20
35.07158936
 30
0.0
 11
26.91616638
 21
34.8154632
 31
0.0
  0
LINE
  8
0
  6
CONTINUOUS
 62
       7
  5
88
 10
39.02891934
 20
34.8154632
 30
0.0
 11
39.47254286
 21
35.07158936
 31
0.0
  0
LINE
  8
0
  6
CONTINUOUS
 62
       7
  5
89
 10
39.47254286
 20
35.07158936
 30
0.0
 11
39.47254286
 21
42.57714286
 31
0.0
  0
LINE
  8
0
  6
CONTINUOUS
 62
       7
  5
8A
 10
39.47254286
 20
42.57714286
 30
0.0
 11
32.97254286
 21
46.32991961
 31
0.0
  0
ARC
  8
0
  6
CONTINUOUS
 62
       7
  5
8B
 10
32.97254286
 20
38.82436611
 30
0.0
 40
7.5
 50
323.85402697
 51
216.14597303
  0
ARC
  8
0
  6
CONTINUOUS
 62
       7
  5
8C
 10
38.02891934
 20
6.32857143
 30
0.0
 40
1.0
 50
270.0
 51
0.0
  0
LINE
  8
0
  6
CENTER
 62
       2
  5
8D
 10
13.97254286
 20
38.18686309
 30
0.0
 11
13.97254286
 21
-28.71910874
 31
0.0
  0
LINE
  8
0
  6
CONTINUOUS
 62
       7
  5
8E
 10
-8.52745714
 20
-43.92857143
 30
0.0
 11
36.47254286
 21
-43.92857143
 31
0.0
  0
LINE
  8
0
  6
CONTINUOUS
 62
       7
  5
8F
 10
-8.52745714
 20
-88.92857143
 30
0.0
 11
36.47254286
 21
-88.92857143
 31
0.0
  0
LINE
  8
0
  6
CENTER
 62
       2
  5
90
 10
29.97254286
 20
-86.01857143
 30
0.0
 11
29.97254286
 21
-78.82857143
 31
0.0
  0
LINE
  8
0
  6
CENTER
 62
       2
  5
91
 10
25.82254286
 20
-82.42857143
 30
0.0
 11
35.30053956
 21
-82.42857143
 31
0.0
  0
LINE
  8
0
  6
CENTER
 62
       2
  5
92
 10
-2.02745714
 20
-86.01857143
 30
0.0
 11
-2.02745714
 21
-78.22857143
 31
0.0
  0
LINE
  8
0
  6
CENTER
 62
       2
  5
93
 10
-5.63745714
 20
-82.42857143
 30
0.0
 11
2.15254286
 21
-82.42857143
 31
0.0
  0
CIRCLE
  8
0
  6
CONTINUOUS
 62
       7
  5
94
 10
29.97254286
 20
-50.42857143
 30
0.0
 40
2.75
  0
CIRCLE
  8
0
  6
CONTINUOUS
 62
       7
  5
95
 10
29.97254286
 20
-82.42857143
 30
0.0
 40
2.75
  0
CIRCLE
  8
0
  6
CONTINUOUS
 62
       7
  5
96
 10
-2.02745714
 20
-82.42857143
 30
0.0
 40
2.75
  0
LINE
  8
0
  6
CONTINUOUS
 62
       7
  5
97
 10
0.97254286
 20
-15.67563389
 30
0.0
 11
-1.02745714
 21
-15.13563389
 31
0.0
  0
LINE
  8
0
  6
CONTINUOUS
 62
       7
  5
98
 10
28.97254286
 20
-15.13563389
 30
0.0
 11
26.97254286
 21
-15.67563389
 31
0.0
  0
LINE
  8
0
  6
CONTINUOUS
 62
       7
  5
99
 10
28.97254286
 20
-3.21563389
 30
0.0
 11
26.97254286
 21
-2.67563389
 31
0.0
  0
LINE
  8
0
  6
CONTINUOUS
 62
       7
  5
9A
 10
0.97254286
 20
-2.67563389
 30
0.0
 11
-1.02745714
 21
-3.21563389
 31
0.0
  0
LINE
  8
0
  6
CENTER
 62
       2
  5
9B
 10
-18.16524169
 20
54.75936476
 30
0.0
 11
40.04180429
 21
36.62151997
 31
0.0
  0
LINE
  8
0
  6
CENTER
 62
       2
  5
9C
 10
-9.06866468
 20
38.36164976
 30
0.0
 11
-1.36399503
 21
63.08708243
 31
0.0
  0
LINE
  8
0
  6
CENTER
 62
       2
  5
9D
 10
30.76969675
 20
31.75510469
 30
0.0
 11
49.11281133
 21
90.62089203
 31
0.0
  0
ARC
  8
0
  6
CONTINUOUS
 62
       7
  5
9E
 10
32.97254286
 20
38.82436611
 30
0.0
 40
10.0
 50
307.27474049
 51
232.72525946
  0
LINE
  8
0
  6
CONTINUOUS
 62
       7
  5
9F
 10
3.88497489
 20
53.77825728
 30
0.0
 11
34.60654308
 21
48.68996509
 31
0.0
  0
LINE
  8
0
  6
CONTINUOUS
 62
       7
  5
A0
 10
0.53913841
 20
43.0409694
 30
0.0
 11
26.91593711
 21
30.62296352
 31
0.0
  0
CIRCLE
  8
0
  6
PHANTOM
 62
       2
  5
A2
 10
44.87254285
 20
77.01323884
 30
0.0
 40
9.6
  0
LINE
  8
0
  6
PHANTOM
 62
       2
  5
A3
 10
49.31206239
 20
76.27793876
 30
0.0
 11
47.21745957
 21
63.6313609
 31
0.0
  0
LINE
  8
0
  6
PHANTOM
 62
       2
  5
A4
 10
40.80117952
 20
78.93000708
 30
0.0
 11
35.34100307
 21
67.33217272
 31
0.0
  0
ARC
  8
0
  6
PHANTOM
 62
       2
  5
A5
 10
44.87254285
 20
77.01323884
 30
0.0
 40
4.5
 50
350.71436477
 51
154.67061719
  0
CIRCLE
  8
0
  6
PHANTOM
 62
       2
  5
A6
 10
44.87254285
 20
77.01323884
 30
0.0
 40
2.0
  0
LINE
  8
0
  6
CENTER
 62
       2
  5
A7
 10
31.92363106
 20
81.04823749
 30
0.0
 11
57.8214547
 21
72.97824016
 31
0.0
  0
CIRCLE
  8
0
  6
CONTINUOUS
 62
       7
  5
A8
 10
-5.21632984
 20
50.72543363
 30
0.0
 40
9.6
  0
DIMENSION
  8
0
  6
CONTINUOUS
 62
       2
  5
BF
  2
*D0
 10
-29.5105571
 20
60.32543363
 30
0.0
 11
-29.5105571
 21
30.5170001
 31
0.0
 70
     128
  1
作動ストローク（<>）
 13
-5.2163314
 23
57.32543363
 33
0.0
 14
-5.2163314
 24
60.32543363
 34
0.0
 50
90.0
  3
MXDIMSTYLE
1001
ACAD
1000
DSTYLE
1002
{
1070
       6
1000
_NONE
1070
       7
1000
_OPEN30
1070
      76
1070
       1
1070
     173
1070
       1
1070
     271
1070
       2
1002
}
  0
DIMENSION
  8
0
  6
CONTINUOUS
 62
       2
  5
CD
  2
*D3
 10
-41.61015179
 20
57.32543363
 30
0.0
 11
-41.61015179
 21
30.82452001
 31
0.0
 70
     128
  1
予備ストローク（<>）
 13
-5.21633008
 23
53.32543363
 33
0.0
 14
-5.21633008
 24
57.32543363
 34
0.0
 50
90.0
  3
MXDIMSTYLE
1001
ACAD
1000
DSTYLE
1002
{
1070
       6
1000
_OPEN30
1070
       7
1000
_OPEN30
1070
      41
1040
2.77
1070
      75
1070
       1
1070
      76
1070
       1
1070
     173
1070
       1
1070
     271
1070
       2
1002
}
  0
DIMENSION
  8
0
  6
CONTINUOUS
 62
       2
  5
DD
  2
*D4
 10
-53.43664333
 20
60.32543363
 30
0.0
 11
-53.43664333
 21
28.21059408
 31
0.0
 70
     128
  1
ローラストローク（<>）
 13
-5.21632931
 23
53.32543363
 33
0.0
 14
-5.21632931
 24
60.32543363
 34
0.0
 50
90.0
  3
MXDIMSTYLE
1001
ACAD
1000
DSTYLE
1002
{
1070
       6
1000
_OPEN30
1070
       7
1000
_OPEN30
1070
      41
1040
2.77
1070
     173
1070
       1
1070
     271
1070
       2
1002
}
  0
LINE
  8
0
  6
CONTINUOUS
 62
       7
  5
DE
 10
-138.3999939
 20
94.5
 30
0.0
 11
138.3500061
 21
94.5
 31
0.0
  0
LINE
  8
0
  6
CONTINUOUS
 62
       7
  5
DF
 10
138.3500061
 20
94.5
 30
0.0
 11
138.3500061
 21
-94.80000305
 31
0.0
  0
LINE
  8
0
  6
CONTINUOUS
 62
       7
  5
E0
 10
-138.3999939
 20
-94.80000305
 30
0.0
 11
138.3500061
 21
-94.80000305
 31
0.0
  0
LINE
  8
0
  6
CONTINUOUS
 62
       7
  5
E1
 10
-138.3999939
 20
94.5
 30
0.0
 11
-138.3999939
 21
-94.80000305
 31
0.0
  0
TEXT
  8
0
  6
CONTINUOUS
 62
       7
  5
E2
 10
-129.43528796
 20
72.9000001
 30
0.0
 40
3.19999981
  1
MODEL:V125MC
 41
1.05882352
  7
MX_NOTE_STANDARD
 11
-129.43528796
 21
74.5
 31
0.0
 73
       2
  0
ENDSEC
  0
EOF
