  0
SECTION
  2
HEADER
  9
$ACADVER
  1
AC1012
  9
$DWGCODEPAGE
  3
dos932
  9
$INSBASE
 10
0.0
 20
0.0
 30
0.0
  9
$EXTMIN
 10
-194.25
 20
-133.5
 30
0.0
  9
$EXTMAX
 10
196.25000429153442
 20
132.60000610351562
 30
0.0
  9
$LIMMIN
 10
-194.25
 20
-133.5
  9
$LIMMAX
 10
196.25000429153442
 20
132.60000610351562
  9
$ORTHOMODE
 70
               0
  9
$REGENMODE
 70
               1
  9
$FILLMODE
 70
               1
  9
$QTEXTMODE
 70
               0
  9
$MIRRTEXT
 70
               1
  9
$DRAGMODE
 70
               2
  9
$LTSCALE
 40
1.0
  9
$OSMODE
 70
               0
  9
$ATTMODE
 70
               1
  9
$TEXTSIZE
 40
3.2000000476837158
  9
$TRACEWID
 40
0.05
  9
$TEXTSTYLE
  7
MX_NOTE_STANDARD
  9
$CLAYER
  8
0
  9
$CELTYPE
  6
CONTINUOUS
  9
$CECOLOR
 62
             256
  9
$CELTSCALE
 40
1.0
  9
$DELOBJ
 70
               1
  9
$DISPSILH
 70
               0
  9
$DIMSCALE
 40
1.0
  9
$DIMASZ
 40
2.5
  9
$DIMEXO
 40
1.5
  9
$DIMDLI
 40
3.75
  9
$DIMRND
 40
0.0
  9
$DIMDLE
 40
0.0
  9
$DIMEXE
 40
1.5
  9
$DIMTP
 40
0.0
  9
$DIMTM
 40
0.0
  9
$DIMTXT
 40
3.2000000476837158
  9
$DIMCEN
 40
2.5
  9
$DIMTSZ
 40
0.0
  9
$DIMTOL
 70
               0
  9
$DIMLIM
 70
               0
  9
$DIMTIH
 70
               0
  9
$DIMTOH
 70
               0
  9
$DIMSE1
 70
               0
  9
$DIMSE2
 70
               0
  9
$DIMTAD
 70
               1
  9
$DIMZIN
 70
               8
  9
$DIMBLK
  1

  9
$DIMASO
 70
               1
  9
$DIMSHO
 70
               1
  9
$DIMPOST
  1

  9
$DIMAPOST
  1

  9
$DIMALT
 70
               0
  9
$DIMALTD
 70
               4
  9
$DIMALTF
 40
0.03937007874016
  9
$DIMLFAC
 40
1.0
  9
$DIMTOFL
 70
               1
  9
$DIMTVP
 40
0.0
  9
$DIMTIX
 70
               0
  9
$DIMSOXD
 70
               0
  9
$DIMSAH
 70
               0
  9
$DIMBLK1
  1

  9
$DIMBLK2
  1

  9
$DIMSTYLE
  2
MXDIMSTYLE
  9
$DIMCLRD
 70
               0
  9
$DIMCLRE
 70
               0
  9
$DIMCLRT
 70
               0
  9
$DIMTFAC
 40
1.0
  9
$DIMGAP
 40
1.0
  9
$DIMJUST
 70
               0
  9
$DIMSD1
 70
               0
  9
$DIMSD2
 70
               0
  9
$DIMTOLJ
 70
               1
  9
$DIMTZIN
 70
               0
  9
$DIMALTZ
 70
               0
  9
$DIMALTTZ
 70
               0
  9
$DIMFIT
 70
               3
  9
$DIMUPT
 70
               1
  9
$DIMUNIT
 70
               2
  9
$DIMDEC
 70
               4
  9
$DIMTDEC
 70
               4
  9
$DIMALTU
 70
               2
  9
$DIMALTTD
 70
               4
  9
$DIMTXSTY
  7
MX_NOTE_STANDARD
  9
$DIMAUNIT
 70
               0
  9
$LUNITS
 70
               2
  9
$LUPREC
 70
               4
  9
$SKETCHINC
 40
0.1
  9
$FILLETRAD
 40
0.0
  9
$AUNITS
 70
               0
  9
$AUPREC
 70
               0
  9
$MENU
  1
acad
  9
$ELEVATION
 40
0.0
  9
$PELEVATION
 40
0.0
  9
$THICKNESS
 40
0.0
  9
$LIMCHECK
 70
               0
  9
$BLIPMODE
 70
               1
  9
$CHAMFERA
 40
0.0
  9
$CHAMFERB
 40
0.0
  9
$CHAMFERC
 40
0.0
  9
$CHAMFERD
 40
0.0
  9
$SKPOLY
 70
               0
  9
$TDCREATE
 40
2453749.544398148
  9
$TDUPDATE
 40
2453749.544398148
  9
$TDINDWG
 40
0.0000000000
  9
$TDUSRTIMER
 40
0.0000000000
  9
$USRTIMER
 70
               1
  9
$ANGBASE
 50
0.0
  9
$ANGDIR
 70
               0
  9
$PDMODE
 70
               0
  9
$PDSIZE
 40
0.0
  9
$PLINEWID
 40
0.0
  9
$COORDS
 70
               1
  9
$SPLFRAME
 70
               0
  9
$SPLINETYPE
 70
               6
  9
$SPLINESEGS
 70
               8
  9
$ATTDIA
 70
               0
  9
$ATTREQ
 70
               1
  9
$HANDLING
 70
               1
  9
$HANDSEED
  5
52D
  9
$SURFTAB1
 70
               6
  9
$SURFTAB2
 70
               6
  9
$SURFTYPE
 70
               6
  9
$SURFU
 70
               6
  9
$SURFV
 70
               6
  9
$UCSNAME
  2

  9
$UCSORG
 10
0.0
 20
0.0
 30
0.0
  9
$UCSXDIR
 10
1.0
 20
0.0
 30
0.0
  9
$UCSYDIR
 10
0.0
 20
1.0
 30
0.0
  9
$PUCSNAME
  2

  9
$PUCSORG
 10
0.0
 20
0.0
 30
0.0
  9
$PUCSXDIR
 10
1.0
 20
0.0
 30
0.0
  9
$PUCSYDIR
 10
0.0
 20
1.0
 30
0.0
  9
$USERI1
 70
               0
  9
$USERI2
 70
               0
  9
$USERI3
 70
               0
  9
$USERI4
 70
               0
  9
$USERI5
 70
               0
  9
$USERR1
 40
0.0
  9
$USERR2
 40
0.0
  9
$USERR3
 40
0.0
  9
$USERR4
 40
0.0
  9
$USERR5
 40
0.0
  9
$WORLDVIEW
 70
               1
  9
$SHADEDGE
 70
               3
  9
$SHADEDIF
 70
              70
  9
$TILEMODE
 70
               1
  9
$MAXACTVP
 70
              16
  9
$PINSBASE
 10
0.0
 20
0.0
 30
0.0
  9
$PLIMCHECK
 70
               0
  9
$PEXTMIN
 10
1.0000000000000000E+20
 20
1.0000000000000000E+20
 30
1.0000000000000000E+20
  9
$PEXTMAX
 10
-1.0000000000000000E+20
 20
-1.0000000000000000E+20
 30
-1.0000000000000000E+20
  9
$PLIMMIN
 10
0.0
 20
0.0
  9
$PLIMMAX
 10
12.0
 20
9.0
  9
$UNITMODE
 70
               0
  9
$VISRETAIN
 70
               0
  9
$PLINEGEN
 70
               1
  9
$PSLTSCALE
 70
               0
  9
$TREEDEPTH
 70
            3020
  9
$PICKSTYLE
 70
               1
  9
$CMLSTYLE
  2
Standard
  9
$CMLJUST
 70
               0
  9
$CMLSCALE
 40
1.0
  9
$SAVEIMAGES
 70
               0
  0
ENDSEC
  0
SECTION
  2
CLASSES
  0
CLASS
  1
LWPOLYLINE
  2
AcDbPolyline
  3
"AutoCAD"
 90
        0
280
               0
281
               1
  0
CLASS
  1
IMAGE
  2
AcDbRasterImage
  3
ISM
 90
      127
280
               0
281
               1
  0
CLASS
  1
OLE2FRAME
  2
AcDbOle2Frame
  3
""
 90
        0
280
               0
281
               1
  0
CLASS
  1
HATCH
  2
AcDbHatch
  3
"ACAD_SEDONA"
 90
        0
280
               0
281
               1
  0
CLASS
  1
DICTIONARYVAR
  2
AcDbDictionaryVar
  3
"AutoCAD"
 90
        0
280
               0
281
               0
  0
CLASS
  1
RASTERVARIABLES
  2
AcDbRasterVariables
  3
ISM
 90
        0
280
               0
281
               0
  0
CLASS
  1
IMAGEDEF
  2
AcDbRasterImageDef
  3
ISM
 90
        0
280
               0
281
               0
  0
CLASS
  1
IMAGEDEF_REACTOR
  2
AcDbRasterImageDefReactor
  3
ISM
 90
        1
280
               0
281
               0
  0
CLASS
  1
IDBUFFER
  2
AcDbIdBuffer
  3
"Acad"
 90
        0
280
               0
281
               0
  0
CLASS
  1
SPATIAL_FILTER
  2
AcDbSpatialFilter
  3
"Acad"
 90
        0
280
               0
281
               0
  0
CLASS
  1
XRECORD
  2
AcDbXrecord
  3
"<Built In>"
 90
        0
280
               0
281
               0
  0
CLASS
  1
SORTENTSTABLE
  2
AcDbSortentsTable
  3
"AutoCAD"
 90
        0
280
               0
281
               0
  0
CLASS
  1
LAYER_INDEX
  2
AcDbLayerIndex
  3
"Acad"
 90
        0
280
               0
281
               0
  0
CLASS
  1
SPATIAL_INDEX
  2
AcDbSpatialIndex
  3
"Acad"
 90
        0
280
               0
281
               0
  0
CLASS
  1
OBJECT_PTR
  2
CAseDLPNTableRecord
  3
"ASE-LPNTableRecord"
 90
        1
280
               0
281
               0
  0
CLASS
  1
LAYOUT
  2
AcDbLayout
  3
"AutoCAD 2000"
 90
        1
280
               0
281
               0
  0
CLASS
  1
PLOTSETTINGS
  2
AcDbPlotSettings
  3
"AutoCAD 2000"
 90
        1
280
               0
281
               0
  0
CLASS
  1
ACDBDICTIONARYWDFLT
  2
AcDbDictionaryWithDefault
  3
"AutoCAD 2000"
 90
        1
280
               0
281
               0
  0
CLASS
  1
ACDBPLACEHOLDER
  2
AcDbPlaceHolder
  3
"AutoCAD 2000"
 90
        1
280
               0
281
               0
  0
ENDSEC
  0
SECTION
  2
TABLES
  0
TABLE
  2
VPORT
  5
7
100
AcDbSymbolTable
 70
               1
  0
VPORT
  5
15
100
AcDbSymbolTableRecord
100
AcDbViewportTableRecord
  2
*ACTIVE
 70
               0
 10
0.0
 20
0.0
 11
1.0
 21
1.0
 12
1.0000021457672119
 22
-0.4499969482421875
 13
0.0
 23
0.0
 14
1.0
 24
1.0
 15
0.0
 25
0.0
 16
0.0
 26
0.0
 36
1.0
 17
0.0
 27
0.0
 37
0.0
 40
268.76100616455079
 41
1.7320508075688772
 42
50.0
 43
0.0
 44
0.0
 50
0.0
 51
0.0
 71
               0
 72
             100
 73
               1
 74
               1
 75
               0
 76
               0
 77
               0
 78
               0
  0
ENDTAB
  0
TABLE
  2
LTYPE
  5
4
100
AcDbSymbolTable
 70
               4
  0
LTYPE
  5
11
100
AcDbSymbolTableRecord
100
AcDbLinetypeTableRecord
  2
BYBLOCK
 70
              64
  3

 72
              65
 73
               0
 40
0.0
  0
LTYPE
  5
12
100
AcDbSymbolTableRecord
100
AcDbLinetypeTableRecord
  2
BYLAYER
 70
              64
  3

 72
              65
 73
               0
 40
0.0
  0
LTYPE
  5
13
100
AcDbSymbolTableRecord
100
AcDbLinetypeTableRecord
  2
CONTINUOUS
 70
              64
  3
Solid line
 72
              65
 73
               0
 40
0.0
  0
LTYPE
  5
3F9
100
AcDbSymbolTableRecord
100
AcDbLinetypeTableRecord
  2
DASHED
 70
              64
  3
Dashed __ __ __ __ __ __ __ __ __ __ __ __ __ _
 72
              65
 73
               2
 40
4.0
 49
2.0
 74
               0
 49
-2.0
 74
               0
  0
ENDTAB
  0
TABLE
  2
LAYER
  5
2
100
AcDbSymbolTable
 70
               3
  0
LAYER
  5
14
100
AcDbSymbolTableRecord
100
AcDbLayerTableRecord
  2
0
 70
               0
 62
               7
  6
CONTINUOUS
  0
LAYER
  5
1D
100
AcDbSymbolTableRecord
100
AcDbLayerTableRecord
  2
寸法
 70
               4
 62
              -3
  6
CONTINUOUS
  0
LAYER
  5
1E
100
AcDbSymbolTableRecord
100
AcDbLayerTableRecord
  2
DEFPOINTS
 70
               0
 62
               7
  6
CONTINUOUS
  0
ENDTAB
  0
TABLE
  2
STYLE
  5
3
100
AcDbSymbolTable
 70
               6
  0
STYLE
  5
17
100
AcDbSymbolTableRecord
100
AcDbTextStyleTableRecord
  2
MX_NOTE_STANDARD
 70
               0
 40
0.0
 41
1.0
 50
0.0
 71
               0
 42
3.2000000476837158
  3
txt.shx
  4
extfont.shx
  0
STYLE
  5
413
100
AcDbSymbolTableRecord
100
AcDbTextStyleTableRecord
  2
MX_DIMTXSTY_2
 70
               0
 40
0.0
 41
1.25
 50
0.0
 71
               0
 42
3.2000000476837158
  3
txt.shx
  4
extfont.shx
  0
STYLE
  5
424
100
AcDbSymbolTableRecord
100
AcDbTextStyleTableRecord
  2
MX_DIMTXSTY_3
 70
               0
 40
0.0
 41
1.5
 50
0.0
 71
               0
 42
3.2000000476837158
  3
txt.shx
  4
extfont.shx
  0
STYLE
  5
444
100
AcDbSymbolTableRecord
100
AcDbTextStyleTableRecord
  2
MX_DIMTXSTY_4
 70
               0
 40
0.0
 41
1.3
 50
0.0
 71
               0
 42
3.2000000476837158
  3
txt.shx
  4
extfont.shx
  0
STYLE
  5
452
100
AcDbSymbolTableRecord
100
AcDbTextStyleTableRecord
  2
MX_DIMTXSTY_5
 70
               0
 40
0.0
 41
1.3500000000000001
 50
0.0
 71
               0
 42
3.2000000476837158
  3
txt.shx
  4
extfont.shx
  0
STYLE
  5
484
100
AcDbSymbolTableRecord
100
AcDbTextStyleTableRecord
  2
MX_DIMTXSTY_6
 70
               0
 40
0.0
 41
1.1500000000000001
 50
0.0
 71
               0
 42
3.2000000476837158
  3
txt.shx
  4
extfont.shx
  0
ENDTAB
  0
TABLE
  2
VIEW
  5
5
100
AcDbSymbolTable
 70
               0
  0
ENDTAB
  0
TABLE
  2
UCS
  5
6
100
AcDbSymbolTable
 70
               0
  0
ENDTAB
  0
TABLE
  2
APPID
  5
8
100
AcDbSymbolTable
 70
               1
  0
APPID
  5
16
100
AcDbSymbolTableRecord
100
AcDbRegAppTableRecord
  2
ACAD
 70
               0
  0
ENDTAB
  0
TABLE
  2
DIMSTYLE
  5
9
100
AcDbSymbolTable
 70
               1
  0
DIMSTYLE
105
18
100
AcDbSymbolTableRecord
100
AcDbDimStyleTableRecord
  2
MXDIMSTYLE
 70
               0
  3

  4

  5

  6

  7

 40
1.0
 41
2.5
 42
1.5
 43
3.75
 44
1.5
 45
0.0
 46
0.0
 47
0.0
 48
0.0
 71
               0
 72
               0
 73
               0
 74
               0
 75
               0
 76
               0
 77
               1
 78
               8
140
3.2000000476837158
141
2.5
142
0.0
143
0.03937007874016
144
1.0
145
0.0
146
1.0
147
1.0
170
               0
171
               4
172
               1
173
               0
174
               0
175
               0
176
               0
177
               0
178
               0
270
               2
271
               4
272
               4
273
               2
274
               4
275
               0
280
               0
281
               0
282
               0
283
               1
284
               0
285
               0
286
               0
287
               3
288
               1
340
17
  0
ENDTAB
  0
TABLE
  2
BLOCK_RECORD
  5
1
100
AcDbSymbolTable
 70
              28
  0
BLOCK_RECORD
  5
A
100
AcDbSymbolTableRecord
100
AcDbBlockTableRecord
  2
*MODEL_SPACE
  0
BLOCK_RECORD
  5
B
100
AcDbSymbolTableRecord
100
AcDbBlockTableRecord
  2
*PAPER_SPACE
  0
BLOCK_RECORD
  5
1F
100
AcDbSymbolTableRecord
100
AcDbBlockTableRecord
  2
MV180-01-1
  0
BLOCK_RECORD
  5
20
100
AcDbSymbolTableRecord
100
AcDbBlockTableRecord
  2
MV180-01-2
  0
BLOCK_RECORD
  5
21
100
AcDbSymbolTableRecord
100
AcDbBlockTableRecord
  2
MV180-01-3
  0
BLOCK_RECORD
  5
22
100
AcDbSymbolTableRecord
100
AcDbBlockTableRecord
  2
MV180-01-4
  0
BLOCK_RECORD
  5
23
100
AcDbSymbolTableRecord
100
AcDbBlockTableRecord
  2
MV180-01-5
  0
BLOCK_RECORD
  5
3E6
100
AcDbSymbolTableRecord
100
AcDbBlockTableRecord
  2
_OPEN30
  0
BLOCK_RECORD
  5
40C
100
AcDbSymbolTableRecord
100
AcDbBlockTableRecord
  2
*D6
  0
BLOCK_RECORD
  5
41A
100
AcDbSymbolTableRecord
100
AcDbBlockTableRecord
  2
*D7
  0
BLOCK_RECORD
  5
42B
100
AcDbSymbolTableRecord
100
AcDbBlockTableRecord
  2
*D8
  0
BLOCK_RECORD
  5
43B
100
AcDbSymbolTableRecord
100
AcDbBlockTableRecord
  2
*D9
  0
BLOCK_RECORD
  5
44B
100
AcDbSymbolTableRecord
100
AcDbBlockTableRecord
  2
*D10
  0
BLOCK_RECORD
  5
459
100
AcDbSymbolTableRecord
100
AcDbBlockTableRecord
  2
*D11
  0
BLOCK_RECORD
  5
469
100
AcDbSymbolTableRecord
100
AcDbBlockTableRecord
  2
*D12
  0
BLOCK_RECORD
  5
476
100
AcDbSymbolTableRecord
100
AcDbBlockTableRecord
  2
*D13
  0
BLOCK_RECORD
  5
481
100
AcDbSymbolTableRecord
100
AcDbBlockTableRecord
  2
*D14
  0
BLOCK_RECORD
  5
48D
100
AcDbSymbolTableRecord
100
AcDbBlockTableRecord
  2
*D15
  0
BLOCK_RECORD
  5
498
100
AcDbSymbolTableRecord
100
AcDbBlockTableRecord
  2
*D16
  0
BLOCK_RECORD
  5
4A0
100
AcDbSymbolTableRecord
100
AcDbBlockTableRecord
  2
_DOTBLANK
  0
BLOCK_RECORD
  5
4AA
100
AcDbSymbolTableRecord
100
AcDbBlockTableRecord
  2
*D18
  0
BLOCK_RECORD
  5
4B7
100
AcDbSymbolTableRecord
100
AcDbBlockTableRecord
  2
*D19
  0
BLOCK_RECORD
  5
4C4
100
AcDbSymbolTableRecord
100
AcDbBlockTableRecord
  2
*D20
  0
BLOCK_RECORD
  5
4D1
100
AcDbSymbolTableRecord
100
AcDbBlockTableRecord
  2
*D21
  0
BLOCK_RECORD
  5
4DE
100
AcDbSymbolTableRecord
100
AcDbBlockTableRecord
  2
*D22
  0
BLOCK_RECORD
  5
4EA
100
AcDbSymbolTableRecord
100
AcDbBlockTableRecord
  2
*D23
  0
BLOCK_RECORD
  5
4F7
100
AcDbSymbolTableRecord
100
AcDbBlockTableRecord
  2
*D24
  0
BLOCK_RECORD
  5
504
100
AcDbSymbolTableRecord
100
AcDbBlockTableRecord
  2
*D25
  0
BLOCK_RECORD
  5
511
100
AcDbSymbolTableRecord
100
AcDbBlockTableRecord
  2
*D26
  0
BLOCK_RECORD
  5
51E
100
AcDbSymbolTableRecord
100
AcDbBlockTableRecord
  2
*D27
  0
ENDTAB
  0
ENDSEC
  0
SECTION
  2
BLOCKS
  0
BLOCK
  5
D
100
AcDbEntity
  8
0
100
AcDbBlockBegin
  2
*MODEL_SPACE
 70
               0
 10
0.0
 20
0.0
 30
0.0
  3
*MODEL_SPACE
  1

  0
ENDBLK
  5
E
100
AcDbEntity
  8
0
100
AcDbBlockEnd
  0
BLOCK
  5
F
100
AcDbEntity
 67
               1
  8
0
100
AcDbBlockBegin
  2
*PAPER_SPACE
 70
               0
 10
0.0
 20
0.0
 30
0.0
  3
*PAPER_SPACE
  1

  0
ENDBLK
  5
10
100
AcDbEntity
 67
               1
  8
0
100
AcDbBlockEnd
  0
BLOCK
  5
24
100
AcDbEntity
  8
0
100
AcDbBlockBegin
  2
MV180-01-1
 70
               0
 10
0.0
 20
0.0
 30
0.0
  3
MV180-01-1
  1

  0
LINE
  5
25
100
AcDbEntity
  8
0
  6
CONTINUOUS
 62
             200
100
AcDbLine
 10
10.0
 20
-1.6999999999999993
 30
0.0
 11
10.0
 21
3.2999999999999972
 31
0.0
  0
LINE
  5
26
100
AcDbEntity
  8
0
  6
CONTINUOUS
 62
             200
100
AcDbLine
 10
0.0
 20
-1.6999999999999993
 30
0.0
 11
0.0
 21
3.2999999999999972
 31
0.0
  0
CIRCLE
  5
27
100
AcDbEntity
  8
0
  6
CONTINUOUS
 62
               4
100
AcDbCircle
 10
16.5
 20
6.0
 30
0.0
 40
1.9999999999999996
  0
LINE
  5
28
100
AcDbEntity
  8
0
  6
CONTINUOUS
 62
               4
100
AcDbLine
 10
15.5
 20
5.4226496815681458
 30
0.0
 11
15.5
 21
6.5773502588272095
 31
0.0
  0
LINE
  5
29
100
AcDbEntity
  8
0
  6
CONTINUOUS
 62
               4
100
AcDbLine
 10
17.5
 20
5.4226497411727905
 30
0.0
 11
17.5
 21
6.5773502588272095
 31
0.0
  0
LINE
  5
2A
100
AcDbEntity
  8
0
  6
CONTINUOUS
 62
               4
100
AcDbLine
 10
17.499999956111253
 20
6.5773502886295319
 30
0.0
 11
16.499999985913576
 21
7.1547005474567413
 31
0.0
  0
LINE
  5
2B
100
AcDbEntity
  8
0
  6
CONTINUOUS
 62
               4
100
AcDbLine
 10
16.499999956111253
 20
4.8452994525432587
 30
0.0
 11
15.499999985913576
 21
5.4226497113704681
 31
0.0
  0
LINE
  5
2C
100
AcDbEntity
  8
0
  6
CONTINUOUS
 62
               4
100
AcDbLine
 10
16.499999956111253
 20
7.1547005176544189
 30
0.0
 11
15.5
 21
6.5773502738039724
 31
0.0
  0
LINE
  5
2D
100
AcDbEntity
  8
0
  6
CONTINUOUS
 62
               4
100
AcDbLine
 10
17.499999956111253
 20
5.4226497411727905
 30
0.0
 11
16.499999943090586
 21
4.8452994644656826
 31
0.0
  0
CIRCLE
  5
2E
100
AcDbEntity
  8
0
  6
CONTINUOUS
 62
               4
100
AcDbCircle
 10
16.5
 20
6.0
 30
0.0
 40
2.25
  0
CIRCLE
  5
2F
100
AcDbEntity
  8
0
  6
CONTINUOUS
 62
               4
100
AcDbCircle
 10
16.5
 20
19.0
 30
0.0
 40
1.9999999999999996
  0
LINE
  5
30
100
AcDbEntity
  8
0
  6
CONTINUOUS
 62
               4
100
AcDbLine
 10
15.5
 20
18.422649681568146
 30
0.0
 11
15.5
 21
19.577350258827209
 31
0.0
  0
LINE
  5
31
100
AcDbEntity
  8
0
  6
CONTINUOUS
 62
               4
100
AcDbLine
 10
17.5
 20
18.422649741172791
 30
0.0
 11
17.5
 21
19.577350258827209
 31
0.0
  0
LINE
  5
32
100
AcDbEntity
  8
0
  6
CONTINUOUS
 62
               4
100
AcDbLine
 10
17.499999956111253
 20
19.577350288629532
 30
0.0
 11
16.499999985913576
 21
20.154700547456741
 31
0.0
  0
LINE
  5
33
100
AcDbEntity
  8
0
  6
CONTINUOUS
 62
               4
100
AcDbLine
 10
16.499999956111253
 20
17.845299452543259
 30
0.0
 11
15.499999985913576
 21
18.422649711370468
 31
0.0
  0
LINE
  5
34
100
AcDbEntity
  8
0
  6
CONTINUOUS
 62
               4
100
AcDbLine
 10
16.499999956111253
 20
20.154700517654419
 30
0.0
 11
15.5
 21
19.577350273803972
 31
0.0
  0
LINE
  5
35
100
AcDbEntity
  8
0
  6
CONTINUOUS
 62
               4
100
AcDbLine
 10
17.499999956111253
 20
18.422649741172791
 30
0.0
 11
16.499999943090586
 21
17.845299464465683
 31
0.0
  0
CIRCLE
  5
36
100
AcDbEntity
  8
0
  6
CONTINUOUS
 62
               4
100
AcDbCircle
 10
16.5
 20
19.0
 30
0.0
 40
2.25
  0
ARC
  5
37
100
AcDbEntity
  8
0
  6
CONTINUOUS
 62
               4
100
AcDbCircle
 10
16.5
 20
19.0
 30
0.0
 40
4.0
100
AcDbArc
 50
0.0
 51
180.0
  0
LINE
  5
38
100
AcDbEntity
  8
0
  6
CONTINUOUS
 62
               4
100
AcDbLine
 10
20.5
 20
19.0
 30
0.0
 11
20.5
 21
0.5
 31
0.0
  0
LINE
  5
39
100
AcDbEntity
  8
0
  6
CONTINUOUS
 62
               4
100
AcDbLine
 10
12.5
 20
19.0
 30
0.0
 11
12.5
 21
1.6000000000000014
 31
0.0
  0
LINE
  5
3A
100
AcDbEntity
  8
0
  6
CONTINUOUS
 62
               4
100
AcDbLine
 10
20.0
 20
0.0
 30
0.0
 11
-4.0
 21
0.0
 31
0.0
  0
LINE
  5
3B
100
AcDbEntity
  8
0
  6
CONTINUOUS
 62
               4
100
AcDbLine
 10
20.5
 20
1.6000000000000014
 30
0.0
 11
-4.0
 21
1.6000000000000014
 31
0.0
  0
LINE
  5
3C
100
AcDbEntity
  8
0
  6
CONTINUOUS
 62
               4
100
AcDbLine
 10
-4.5
 20
1.1000000000000014
 30
0.0
 11
-4.5
 21
0.5
 31
0.0
  0
ARC
  5
3D
100
AcDbEntity
  8
0
  6
CONTINUOUS
 62
               4
100
AcDbCircle
 10
20.0
 20
0.5
 30
0.0
 40
0.5
100
AcDbArc
 50
270.0
 51
0.0
  0
ARC
  5
3E
100
AcDbEntity
  8
0
  6
CONTINUOUS
 62
               4
100
AcDbCircle
 10
-4.0
 20
0.5
 30
0.0
 40
0.5
100
AcDbArc
 50
180.0
 51
270.0
  0
ARC
  5
3F
100
AcDbEntity
  8
0
  6
CONTINUOUS
 62
               4
100
AcDbCircle
 10
-4.0
 20
1.1000000000000014
 30
0.0
 40
0.5
100
AcDbArc
 50
90.0
 51
180.0
  0
LINE
  5
40
100
AcDbEntity
  8
0
  6
CONTINUOUS
 62
             200
100
AcDbLine
 10
13.471124524314888
 20
16.0
 30
0.0
 11
19.5
 21
16.0
 31
0.0
  0
LINE
  5
41
100
AcDbEntity
  8
0
  6
CONTINUOUS
 62
               7
100
AcDbLine
 10
64.600000000000051
 20
18.5
 30
0.0
 11
53.200000000000045
 21
18.5
 31
0.0
  0
LINE
  5
42
100
AcDbEntity
  8
0
  6
CONTINUOUS
 62
               7
100
AcDbLine
 10
64.600000000000051
 20
48.0
 30
0.0
 11
53.200000000000045
 21
48.0
 31
0.0
  0
ARC
  5
43
100
AcDbEntity
  8
0
  6
CONTINUOUS
 62
               7
100
AcDbCircle
 10
58.800000000000068
 20
1.3000000000000114
 30
0.0
 40
0.3
100
AcDbArc
 50
270.0
 51
0.0
  0
LINE
  5
44
100
AcDbEntity
  8
0
  6
CONTINUOUS
 62
               7
100
AcDbLine
 10
40.700000000000045
 20
1.0
 30
0.0
 11
58.800000000000068
 21
1.0
 31
0.0
  0
LINE
  5
45
100
AcDbEntity
  8
0
  6
CONTINUOUS
 62
               7
100
AcDbLine
 10
59.100000000000072
 20
13.200000000000003
 30
0.0
 11
59.100000000000051
 21
1.3000000000000114
 31
0.0
  0
ARC
  5
46
100
AcDbEntity
  8
0
  6
CONTINUOUS
 62
               7
100
AcDbCircle
 10
58.800000000000068
 20
65.199999999999989
 30
0.0
 40
0.3
100
AcDbArc
 50
0.0000000000000254
 51
90.000000000000028
  0
LINE
  5
47
100
AcDbEntity
  8
0
  6
CONTINUOUS
 62
               7
100
AcDbLine
 10
40.700000000000045
 20
65.5
 30
0.0
 11
58.800000000000068
 21
65.5
 31
0.0
  0
LINE
  5
48
100
AcDbEntity
  8
0
  6
CONTINUOUS
 62
               7
100
AcDbLine
 10
59.100000000000072
 20
53.299999999999997
 30
0.0
 11
59.100000000000051
 21
65.199999999999989
 31
0.0
  0
LINE
  5
49
100
AcDbEntity
  8
0
  6
CONTINUOUS
 62
               7
100
AcDbLine
 10
38.599999999999994
 20
29.0
 30
0.0
 11
38.500000000000028
 21
29.0
 31
0.0
  0
LINE
  5
4A
100
AcDbEntity
  8
0
  6
CONTINUOUS
 62
               7
100
AcDbLine
 10
38.599999999999994
 20
26.0
 30
0.0
 11
38.500000000000028
 21
26.0
 31
0.0
  0
LINE
  5
4B
100
AcDbEntity
  8
0
  6
CONTINUOUS
 62
               7
100
AcDbLine
 10
39.099999999999994
 20
28.5
 30
0.0
 11
39.099999999999994
 21
26.5
 31
0.0
  0
ARC
  5
4C
100
AcDbEntity
  8
0
  6
CONTINUOUS
 62
               7
100
AcDbCircle
 10
38.599999999999994
 20
26.5
 30
0.0
 40
0.5
100
AcDbArc
 50
270.0
 51
0.0
  0
ARC
  5
4D
100
AcDbEntity
  8
0
  6
CONTINUOUS
 62
               7
100
AcDbCircle
 10
38.599999999999994
 20
28.5
 30
0.0
 40
0.5
100
AcDbArc
 50
0.0
 51
90.0
  0
LINE
  5
4E
100
AcDbEntity
  8
0
  6
CONTINUOUS
 62
               7
100
AcDbLine
 10
38.500000000000028
 20
29.199999999999971
 30
0.0
 11
38.500000000000028
 21
25.799999999999972
 31
0.0
  0
LINE
  5
4F
100
AcDbEntity
  8
0
  6
CONTINUOUS
 62
               7
100
AcDbLine
 10
39.500000000000028
 20
25.799999999999972
 30
0.0
 11
38.500000000000028
 21
25.799999999999972
 31
0.0
  0
LINE
  5
50
100
AcDbEntity
  8
0
  6
CONTINUOUS
 62
               7
100
AcDbLine
 10
39.500000000000028
 20
29.199999999999971
 30
0.0
 11
38.500000000000028
 21
29.199999999999971
 31
0.0
  0
LINE
  5
51
100
AcDbEntity
  8
0
  6
CONTINUOUS
 62
             200
100
AcDbLine
 10
13.5
 20
19.0
 30
0.0
 11
19.5
 21
19.0
 31
0.0
  0
LINE
  5
52
100
AcDbEntity
  8
0
  6
CONTINUOUS
 62
             200
100
AcDbLine
 10
16.5
 20
14.100000000000001
 30
0.0
 11
16.5
 21
22.0
 31
0.0
  0
LINE
  5
53
100
AcDbEntity
  8
0
  6
CONTINUOUS
 62
             200
100
AcDbLine
 10
13.499999999999943
 20
6.0
 30
0.0
 11
19.5
 21
6.0
 31
0.0
  0
LINE
  5
54
100
AcDbEntity
  8
0
  6
CONTINUOUS
 62
             200
100
AcDbLine
 10
16.5
 20
3.0
 30
0.0
 11
16.5
 21
9.0
 31
0.0
  0
LINE
  5
55
100
AcDbEntity
  8
0
  6
CONTINUOUS
 62
               7
100
AcDbLine
 10
9.4999999999999432
 20
1.6000000000000014
 30
0.0
 11
9.5
 21
59.5
 31
0.0
  0
LINE
  5
56
100
AcDbEntity
  8
0
  6
CONTINUOUS
 62
               7
100
AcDbLine
 10
23.5
 20
59.5
 30
0.0
 11
23.499999999999943
 21
1.0
 31
0.0
  0
LINE
  5
57
100
AcDbEntity
  8
0
  6
CONTINUOUS
 62
               7
100
AcDbLine
 10
18.000000000000043
 20
73.063402898235935
 30
0.0
 11
18.000000000000043
 21
68.063402898235935
 31
0.0
  0
LINE
  5
58
100
AcDbEntity
  8
0
  6
CONTINUOUS
 62
               7
100
AcDbLine
 10
13.000000000000043
 20
73.063402898235935
 30
0.0
 11
13.000000000000043
 21
68.063402898235935
 31
0.0
  0
LINE
  5
59
100
AcDbEntity
  8
0
  6
CONTINUOUS
 62
               7
100
AcDbLine
 10
14.425000000000054
 20
63.358402898235951
 30
0.0
 11
14.425000000000054
 21
62.719220935761129
 31
0.0
  0
LINE
  5
5A
100
AcDbEntity
  8
0
  6
CONTINUOUS
 62
               2
100
AcDbLine
 10
14.250000000000043
 20
63.358402898235951
 30
0.0
 11
14.250000000000043
 21
62.719220935761129
 31
0.0
  0
LINE
  5
5B
100
AcDbEntity
  8
0
  6
CONTINUOUS
 62
               7
100
AcDbLine
 10
16.575000000000031
 20
63.358402898235951
 30
0.0
 11
16.575000000000031
 21
62.719220935761129
 31
0.0
  0
LINE
  5
5C
100
AcDbEntity
  8
0
  6
CONTINUOUS
 62
               2
100
AcDbLine
 10
16.750000000000043
 20
63.358402898235951
 30
0.0
 11
16.750000000000043
 21
62.719220935761129
 31
0.0
  0
LINE
  5
5D
100
AcDbEntity
  8
0
  6
CONTINUOUS
 62
               7
100
AcDbLine
 10
12.500000000000043
 20
63.858402898235951
 30
0.0
 11
12.500000000000043
 21
65.858402898235951
 31
0.0
  0
LINE
  5
5E
100
AcDbEntity
  8
0
  6
CONTINUOUS
 62
               7
100
AcDbLine
 10
13.500000000000043
 20
67.563402898235935
 30
0.0
 11
17.500000000000043
 21
67.563402898235935
 31
0.0
  0
LINE
  5
5F
100
AcDbEntity
  8
0
  6
CONTINUOUS
 62
               7
100
AcDbLine
 10
18.000000000000043
 20
68.063402898235935
 30
0.0
 11
17.500000000000043
 21
67.563402898235935
 31
0.0
  0
LINE
  5
60
100
AcDbEntity
  8
0
  6
CONTINUOUS
 62
               7
100
AcDbLine
 10
13.500000000000043
 20
67.563402898235935
 30
0.0
 11
13.000000000000043
 21
68.063402898235935
 31
0.0
  0
LINE
  5
61
100
AcDbEntity
  8
0
  6
CONTINUOUS
 62
               7
100
AcDbLine
 10
18.000000000000043
 20
66.358402898235951
 30
0.0
 11
13.000000000000043
 21
66.358402898235951
 31
0.0
  0
LINE
  5
62
100
AcDbEntity
  8
0
  6
CONTINUOUS
 62
               7
100
AcDbLine
 10
12.500000000000043
 20
65.858402898235951
 30
0.0
 11
13.000000000000043
 21
66.358402898235951
 31
0.0
  0
LINE
  5
63
100
AcDbEntity
  8
0
  6
CONTINUOUS
 62
               7
100
AcDbLine
 10
12.500000000000043
 20
63.858402898235951
 30
0.0
 11
13.000000000000043
 21
63.358402898235951
 31
0.0
  0
LINE
  5
64
100
AcDbEntity
  8
0
  6
CONTINUOUS
 62
               7
100
AcDbLine
 10
18.500000000000043
 20
65.858402898235951
 30
0.0
 11
18.000000000000043
 21
66.358402898235951
 31
0.0
  0
LINE
  5
65
100
AcDbEntity
  8
0
  6
CONTINUOUS
 62
               7
100
AcDbLine
 10
18.500000000000043
 20
63.858402898235951
 30
0.0
 11
18.000000000000043
 21
63.358402898235951
 31
0.0
  0
LINE
  5
66
100
AcDbEntity
  8
0
  6
CONTINUOUS
 62
               7
100
AcDbLine
 10
18.500000000000043
 20
63.858402898235951
 30
0.0
 11
18.500000000000043
 21
65.858402898235951
 31
0.0
  0
LINE
  5
67
100
AcDbEntity
  8
0
  6
CONTINUOUS
 62
               7
100
AcDbLine
 10
18.000000000000043
 20
63.358402898235951
 30
0.0
 11
13.000000000000043
 21
63.358402898235951
 31
0.0
  0
LINE
  5
68
100
AcDbEntity
  8
0
  6
CONTINUOUS
 62
               7
100
AcDbLine
 10
18.250000000000043
 20
62.719220935761129
 30
0.0
 11
12.750000000000043
 21
62.719220935761129
 31
0.0
  0
LINE
  5
69
100
AcDbEntity
  8
0
  6
CONTINUOUS
 62
               7
100
AcDbLine
 10
18.750000000000043
 20
62.219220935761115
 30
0.0
 11
18.250000000000043
 21
62.719220935761129
 31
0.0
  0
LINE
  5
6A
100
AcDbEntity
  8
0
  6
CONTINUOUS
 62
               7
100
AcDbLine
 10
12.250000000000043
 20
62.219220935761115
 30
0.0
 11
12.750000000000043
 21
62.719220935761129
 31
0.0
  0
LINE
  5
6B
100
AcDbEntity
  8
0
  6
CONTINUOUS
 62
               7
100
AcDbLine
 10
14.425000000000054
 20
67.563402898235935
 30
0.0
 11
14.425000000000054
 21
66.358402898235951
 31
0.0
  0
LINE
  5
6C
100
AcDbEntity
  8
0
  6
CONTINUOUS
 62
               2
100
AcDbLine
 10
14.250000000000043
 20
67.563402898235935
 30
0.0
 11
14.250000000000043
 21
66.358402898235951
 31
0.0
  0
LINE
  5
6D
100
AcDbEntity
  8
0
  6
CONTINUOUS
 62
               7
100
AcDbLine
 10
16.575000000000031
 20
67.563402898235935
 30
0.0
 11
16.575000000000031
 21
66.358402898235951
 31
0.0
  0
LINE
  5
6E
100
AcDbEntity
  8
0
  6
CONTINUOUS
 62
               2
100
AcDbLine
 10
16.750000000000043
 20
67.563402898235935
 30
0.0
 11
16.750000000000043
 21
66.358402898235951
 31
0.0
  0
LINE
  5
6F
100
AcDbEntity
  8
0
  6
CONTINUOUS
 62
               7
100
AcDbLine
 10
15.000000000000043
 20
73.563402898235935
 30
0.0
 11
13.500000000000043
 21
73.563402898235935
 31
0.0
  0
LINE
  5
70
100
AcDbEntity
  8
0
  6
CONTINUOUS
 62
               7
100
AcDbLine
 10
18.000000000000043
 20
73.063402898235935
 30
0.0
 11
17.500000000000043
 21
73.563402898235935
 31
0.0
  0
LINE
  5
71
100
AcDbEntity
  8
0
  6
CONTINUOUS
 62
               7
100
AcDbLine
 10
13.000000000000043
 20
73.063402898235935
 30
0.0
 11
13.500000000000043
 21
73.563402898235935
 31
0.0
  0
LINE
  5
72
100
AcDbEntity
  8
0
  6
CONTINUOUS
 62
               7
100
AcDbLine
 10
16.000000000000043
 20
72.563402898235935
 30
0.0
 11
15.000000000000043
 21
72.563402898235935
 31
0.0
  0
LINE
  5
73
100
AcDbEntity
  8
0
  6
CONTINUOUS
 62
               7
100
AcDbLine
 10
13.000000000000043
 20
73.063402898235935
 30
0.0
 11
15.000000000000043
 21
73.063402898235935
 31
0.0
  0
LINE
  5
74
100
AcDbEntity
  8
0
  6
CONTINUOUS
 62
               7
100
AcDbLine
 10
13.000000000000043
 20
68.063402898235935
 30
0.0
 11
18.000000000000043
 21
68.063402898235935
 31
0.0
  0
LINE
  5
75
100
AcDbEntity
  8
0
  6
CONTINUOUS
 62
               7
100
AcDbLine
 10
12.500000000000043
 20
65.858402898235951
 30
0.0
 11
18.500000000000043
 21
65.858402898235951
 31
0.0
  0
LINE
  5
76
100
AcDbEntity
  8
0
  6
CONTINUOUS
 62
               7
100
AcDbLine
 10
12.500000000000043
 20
63.858402898235951
 30
0.0
 11
18.500000000000043
 21
63.858402898235951
 31
0.0
  0
LINE
  5
77
100
AcDbEntity
  8
0
  6
CONTINUOUS
 62
               7
100
AcDbLine
 10
12.250000000000043
 20
62.219220935761115
 30
0.0
 11
18.750000000000043
 21
62.219220935761115
 31
0.0
  0
LINE
  5
78
100
AcDbEntity
  8
0
  6
CONTINUOUS
 62
               7
100
AcDbLine
 10
15.000000000000043
 20
73.563402898235935
 30
0.0
 11
15.000000000000043
 21
72.563402898235935
 31
0.0
  0
LINE
  5
79
100
AcDbEntity
  8
0
  6
CONTINUOUS
 62
               7
100
AcDbLine
 10
16.000000000000043
 20
73.563402898235935
 30
0.0
 11
16.000000000000043
 21
72.563402898235935
 31
0.0
  0
LINE
  5
7A
100
AcDbEntity
  8
0
  6
CONTINUOUS
 62
               7
100
AcDbLine
 10
16.000000000000043
 20
73.563402898235935
 30
0.0
 11
17.500000000000043
 21
73.563402898235935
 31
0.0
  0
LINE
  5
7B
100
AcDbEntity
  8
0
  6
CONTINUOUS
 62
               7
100
AcDbLine
 10
16.000000000000043
 20
73.063402898235935
 30
0.0
 11
18.000000000000043
 21
73.063402898235935
 31
0.0
  0
LINE
  5
7C
100
AcDbEntity
  8
0
  6
CONTINUOUS
 62
               2
100
AcDbLine
 10
15.500000000000043
 20
74.563402898235935
 30
0.0
 11
15.500000000000043
 21
58.5
 31
0.0
  0
LINE
  5
7D
100
AcDbEntity
  8
0
  6
CONTINUOUS
 62
               7
100
AcDbLine
 10
12.250000000000043
 20
59.519220935761126
 30
0.0
 11
12.250000000000043
 21
62.219220935761115
 31
0.0
  0
LINE
  5
7E
100
AcDbEntity
  8
0
  6
CONTINUOUS
 62
               7
100
AcDbLine
 10
18.750000000000043
 20
59.519220935761126
 30
0.0
 11
18.750000000000043
 21
62.219220935761115
 31
0.0
  0
LINE
  5
7F
100
AcDbEntity
  8
0
  6
CONTINUOUS
 62
               7
100
AcDbLine
 10
39.500000000000028
 20
65.5
 30
0.0
 11
39.500000000000028
 21
0.9999999999999716
 31
0.0
  0
LINE
  5
80
100
AcDbEntity
  8
0
  6
CONTINUOUS
 62
               7
100
AcDbLine
 10
50.300000000000068
 20
34.200000000000003
 30
0.0
 11
42.700000000000017
 21
34.200000000000003
 31
0.0
  0
LINE
  5
81
100
AcDbEntity
  8
0
  6
CONTINUOUS
 62
               7
100
AcDbLine
 10
50.300000000000068
 20
34.999999999999986
 30
0.0
 11
42.700000000000017
 21
34.999999999999986
 31
0.0
  0
LINE
  5
82
100
AcDbEntity
  8
0
  6
CONTINUOUS
 62
               7
100
AcDbLine
 10
50.300000000000068
 20
34.999999999999986
 30
0.0
 11
50.300000000000068
 21
34.200000000000003
 31
0.0
  0
LINE
  5
83
100
AcDbEntity
  8
0
  6
CONTINUOUS
 62
               7
100
AcDbLine
 10
42.700000000000017
 20
34.200000000000003
 30
0.0
 11
42.700000000000017
 21
34.999999999999986
 31
0.0
  0
LINE
  5
84
100
AcDbEntity
  8
0
  6
CONTINUOUS
 62
               7
100
AcDbLine
 10
39.500000000000028
 20
33.499999999999986
 30
0.0
 11
51.000000000000057
 21
33.499999999999986
 31
0.0
  0
LINE
  5
85
100
AcDbEntity
  8
0
  6
CONTINUOUS
 62
               7
100
AcDbLine
 10
39.500000000000028
 20
65.5
 30
0.0
 11
40.400000000000006
 21
65.5
 31
0.0
  0
LINE
  5
86
100
AcDbEntity
  8
0
  6
CONTINUOUS
 62
               7
100
AcDbLine
 10
51.000000000000057
 20
33.499999999999986
 30
0.0
 11
51.000000000000057
 21
39.282855567520343
 31
0.0
  0
LINE
  5
87
100
AcDbEntity
  8
0
  6
CONTINUOUS
 62
               7
100
AcDbLine
 10
51.000000000000057
 20
39.282855567520343
 30
0.0
 11
54.500000000000057
 21
39.899999999999991
 31
0.0
  0
LINE
  5
88
100
AcDbEntity
  8
0
  6
CONTINUOUS
 62
               7
100
AcDbLine
 10
53.200000000000045
 20
63.999999999999986
 30
0.0
 11
40.700000000000017
 21
63.999999999999986
 31
0.0
  0
LINE
  5
89
100
AcDbEntity
  8
0
  6
CONTINUOUS
 62
               7
100
AcDbLine
 10
40.400000000000006
 20
65.5
 30
0.0
 11
40.700000000000017
 21
65.199999999999989
 31
0.0
  0
LINE
  5
8A
100
AcDbEntity
  8
0
  6
CONTINUOUS
 62
               7
100
AcDbLine
 10
58.500000000000057
 20
48.000000000000014
 30
0.0
 11
58.500000000000057
 21
47.899999999999991
 31
0.0
  0
LINE
  5
8B
100
AcDbEntity
  8
0
  6
CONTINUOUS
 62
               7
100
AcDbLine
 10
59.099999999999966
 20
47.401921563030086
 30
0.0
 11
59.099999999999966
 21
47.899999999999991
 31
0.0
  0
LINE
  5
8C
100
AcDbEntity
  8
0
  6
CONTINUOUS
 62
               7
100
AcDbLine
 10
54.500000000000057
 20
46.590817451771144
 30
0.0
 11
59.099999999999966
 21
47.401921563030086
 31
0.0
  0
LINE
  5
8D
100
AcDbEntity
  8
0
  6
CONTINUOUS
 62
               7
100
AcDbLine
 10
53.200000000000045
 20
47.899999999999991
 30
0.0
 11
59.099999999999966
 21
47.899999999999991
 31
0.0
  0
LINE
  5
8E
100
AcDbEntity
  8
0
  6
CONTINUOUS
 62
               7
100
AcDbLine
 10
54.500000000000057
 20
39.899999999999991
 30
0.0
 11
54.500000000000057
 21
46.590817451771144
 31
0.0
  0
LINE
  5
8F
100
AcDbEntity
  8
0
  6
CONTINUOUS
 62
               7
100
AcDbLine
 10
40.700000000000017
 20
65.5
 30
0.0
 11
40.700000000000017
 21
63.999999999999986
 31
0.0
  0
LINE
  5
90
100
AcDbEntity
  8
0
  6
CONTINUOUS
 62
               7
100
AcDbLine
 10
53.200000000000045
 20
63.999999999999986
 30
0.0
 11
53.200000000000045
 21
47.899999999999991
 31
0.0
  0
LINE
  5
91
100
AcDbEntity
  8
0
  6
CONTINUOUS
 62
               7
100
AcDbLine
 10
53.500000000000057
 20
40.399999999999991
 30
0.0
 11
53.500000000000057
 21
43.600000000000009
 31
0.0
  0
LINE
  5
92
100
AcDbEntity
  8
0
  6
CONTINUOUS
 62
               7
100
AcDbLine
 10
54.500000000000057
 20
43.600000000000009
 30
0.0
 11
53.500000000000057
 21
43.600000000000009
 31
0.0
  0
LINE
  5
93
100
AcDbEntity
  8
0
  6
CONTINUOUS
 62
               7
100
AcDbLine
 10
54.500000000000057
 20
40.399999999999991
 30
0.0
 11
53.500000000000057
 21
40.399999999999991
 31
0.0
  0
LINE
  5
94
100
AcDbEntity
  8
0
  6
CONTINUOUS
 62
               7
100
AcDbLine
 10
53.600000000000023
 20
40.499999999999986
 30
0.0
 11
53.500000000000057
 21
40.499999999999986
 31
0.0
  0
LINE
  5
95
100
AcDbEntity
  8
0
  6
CONTINUOUS
 62
               7
100
AcDbLine
 10
53.600000000000023
 20
43.499999999999986
 30
0.0
 11
53.500000000000057
 21
43.499999999999986
 31
0.0
  0
LINE
  5
96
100
AcDbEntity
  8
0
  6
CONTINUOUS
 62
               7
100
AcDbLine
 10
54.100000000000023
 20
40.999999999999986
 30
0.0
 11
54.100000000000023
 21
42.999999999999986
 31
0.0
  0
ARC
  5
97
100
AcDbEntity
  8
0
  6
CONTINUOUS
 62
               7
100
AcDbCircle
 10
53.600000000000023
 20
42.999999999999986
 30
0.0
 40
0.5
100
AcDbArc
 50
0.0
 51
90.0
  0
ARC
  5
98
100
AcDbEntity
  8
0
  6
CONTINUOUS
 62
               7
100
AcDbCircle
 10
53.600000000000023
 20
40.999999999999986
 30
0.0
 40
0.5
100
AcDbArc
 50
270.0
 51
0.0
  0
LINE
  5
99
100
AcDbEntity
  8
0
  6
CONTINUOUS
 62
               7
100
AcDbLine
 10
9.5
 20
59.5
 30
0.0
 11
39.500000000000028
 21
59.5
 31
0.0
  0
LINE
  5
9A
100
AcDbEntity
  8
0
  6
CONTINUOUS
 62
               7
100
AcDbLine
 10
39.500000000000028
 20
51.0
 30
0.0
 11
23.500000000000043
 21
51.0
 31
0.0
  0
LINE
  5
9B
100
AcDbEntity
  8
0
  6
CONTINUOUS
 62
               7
100
AcDbLine
 10
36.100000000000023
 20
59.5
 30
0.0
 11
36.100000000000023
 21
58.799999999999997
 31
0.0
  0
LINE
  5
9C
100
AcDbEntity
  8
0
  6
CONTINUOUS
 62
               7
100
AcDbLine
 10
36.100000000000023
 20
58.799999999999997
 30
0.0
 11
39.5
 21
58.799999999999997
 31
0.0
  0
ARC
  5
9D
100
AcDbEntity
  8
0
  6
CONTINUOUS
 62
               7
100
AcDbCircle
 10
37.800000000000011
 20
58.799999999999997
 30
0.0
 40
1.6000000000000001
100
AcDbArc
 50
163.39845040097984
 51
180.0
  0
LINE
  5
9E
100
AcDbEntity
  8
0
  6
CONTINUOUS
 62
               7
100
AcDbLine
 10
36.45835921350016
 20
59.400000000000006
 30
0.0
 11
39.14164078649992
 21
59.400000000000006
 31
0.0
  0
ARC
  5
9F
100
AcDbEntity
  8
0
  6
CONTINUOUS
 62
               7
100
AcDbCircle
 10
37.800000000000011
 20
58.799999999999997
 30
0.0
 40
1.6000000000000001
100
AcDbArc
 50
0.0
 51
16.601549599020178
  0
ARC
  5
A0
100
AcDbEntity
  8
0
  6
CONTINUOUS
 62
               7
100
AcDbCircle
 10
36.45835921350016
 20
59.199999999999989
 30
0.0
 40
0.2
100
AcDbArc
 50
90.0
 51
163.39845040097995
  0
ARC
  5
A1
100
AcDbEntity
  8
0
  6
CONTINUOUS
 62
               7
100
AcDbCircle
 10
39.14164078649992
 20
59.199999999999989
 30
0.0
 40
0.2
100
AcDbArc
 50
16.60154959902005
 51
90.0
  0
ARC
  5
A2
100
AcDbEntity
  8
0
  6
CONTINUOUS
 62
               7
100
AcDbCircle
 10
39.141640786499934
 20
1.2999999999999829
 30
0.0
 40
0.2
100
AcDbArc
 50
270.0
 51
343.39845040097993
  0
ARC
  5
A3
100
AcDbEntity
  8
0
  6
CONTINUOUS
 62
               7
100
AcDbCircle
 10
36.458359213500174
 20
1.2999999999999829
 30
0.0
 40
0.2
100
AcDbArc
 50
196.60154959902005
 51
270.0
  0
ARC
  5
A4
100
AcDbEntity
  8
0
  6
CONTINUOUS
 62
               7
100
AcDbCircle
 10
37.800000000000026
 20
1.6999999999999886
 30
0.0
 40
1.6000000000000001
100
AcDbArc
 50
343.39845040097987
 51
0.0
  0
LINE
  5
A5
100
AcDbEntity
  8
0
  6
CONTINUOUS
 62
               7
100
AcDbLine
 10
36.458359213500174
 20
1.0999999999999659
 30
0.0
 11
39.141640786499934
 21
1.0999999999999659
 31
0.0
  0
ARC
  5
A6
100
AcDbEntity
  8
0
  6
CONTINUOUS
 62
               7
100
AcDbCircle
 10
37.800000000000026
 20
1.6999999999999886
 30
0.0
 40
1.6000000000000001
100
AcDbArc
 50
180.0
 51
196.60154959902016
  0
LINE
  5
A7
100
AcDbEntity
  8
0
  6
CONTINUOUS
 62
               7
100
AcDbLine
 10
36.100000000000037
 20
1.6999999999999886
 30
0.0
 11
39.500000000000014
 21
1.6999999999999886
 31
0.0
  0
LINE
  5
A8
100
AcDbEntity
  8
0
  6
CONTINUOUS
 62
               7
100
AcDbLine
 10
36.100000000000037
 20
0.9999999999999716
 30
0.0
 11
36.100000000000037
 21
1.6999999999999886
 31
0.0
  0
LINE
  5
A9
100
AcDbEntity
  8
0
  6
CONTINUOUS
 62
               7
100
AcDbLine
 10
23.500000000000043
 20
9.4999999999999716
 30
0.0
 11
39.500000000000028
 21
9.4999999999999716
 31
0.0
  0
LINE
  5
AA
100
AcDbEntity
  8
0
  6
CONTINUOUS
 62
               7
100
AcDbLine
 10
20.5
 20
1.0
 30
0.0
 11
39.500000000000028
 21
0.9999999999999716
 31
0.0
  0
ARC
  5
AB
100
AcDbEntity
  8
0
  6
CONTINUOUS
 62
               7
100
AcDbCircle
 10
53.600000000000023
 20
25.5
 30
0.0
 40
0.5
100
AcDbArc
 50
0.0
 51
90.0
  0
ARC
  5
AC
100
AcDbEntity
  8
0
  6
CONTINUOUS
 62
               7
100
AcDbCircle
 10
53.600000000000023
 20
23.5
 30
0.0
 40
0.5
100
AcDbArc
 50
270.0
 51
0.0
  0
LINE
  5
AD
100
AcDbEntity
  8
0
  6
CONTINUOUS
 62
               7
100
AcDbLine
 10
54.100000000000023
 20
25.5
 30
0.0
 11
54.100000000000023
 21
23.5
 31
0.0
  0
LINE
  5
AE
100
AcDbEntity
  8
0
  6
CONTINUOUS
 62
               7
100
AcDbLine
 10
53.600000000000023
 20
23.0
 30
0.0
 11
53.500000000000057
 21
23.0
 31
0.0
  0
LINE
  5
AF
100
AcDbEntity
  8
0
  6
CONTINUOUS
 62
               7
100
AcDbLine
 10
53.600000000000023
 20
26.0
 30
0.0
 11
53.500000000000057
 21
26.0
 31
0.0
  0
LINE
  5
B0
100
AcDbEntity
  8
0
  6
CONTINUOUS
 62
               7
100
AcDbLine
 10
54.500000000000057
 20
26.099999999999966
 30
0.0
 11
53.500000000000057
 21
26.099999999999966
 31
0.0
  0
LINE
  5
B1
100
AcDbEntity
  8
0
  6
CONTINUOUS
 62
               7
100
AcDbLine
 10
54.500000000000057
 20
22.899999999999977
 30
0.0
 11
53.500000000000057
 21
22.899999999999977
 31
0.0
  0
LINE
  5
B2
100
AcDbEntity
  8
0
  6
CONTINUOUS
 62
               7
100
AcDbLine
 10
53.500000000000057
 20
26.099999999999966
 30
0.0
 11
53.500000000000057
 21
22.899999999999977
 31
0.0
  0
LINE
  5
B3
100
AcDbEntity
  8
0
  6
CONTINUOUS
 62
               7
100
AcDbLine
 10
53.200000000000045
 20
2.5
 30
0.0
 11
53.200000000000045
 21
18.599999999999966
 31
0.0
  0
LINE
  5
B4
100
AcDbEntity
  8
0
  6
CONTINUOUS
 62
               7
100
AcDbLine
 10
40.700000000000017
 20
0.9999999999999716
 30
0.0
 11
40.700000000000017
 21
2.5
 31
0.0
  0
LINE
  5
B5
100
AcDbEntity
  8
0
  6
CONTINUOUS
 62
               7
100
AcDbLine
 10
54.500000000000057
 20
26.599999999999966
 30
0.0
 11
54.500000000000057
 21
19.909182548228841
 31
0.0
  0
LINE
  5
B6
100
AcDbEntity
  8
0
  6
CONTINUOUS
 62
               7
100
AcDbLine
 10
53.200000000000045
 20
18.599999999999966
 30
0.0
 11
59.099999999999966
 21
18.599999999999966
 31
0.0
  0
LINE
  5
B7
100
AcDbEntity
  8
0
  6
CONTINUOUS
 62
               7
100
AcDbLine
 10
54.500000000000057
 20
19.909182548228841
 30
0.0
 11
59.099999999999966
 21
19.098078436969899
 31
0.0
  0
LINE
  5
B8
100
AcDbEntity
  8
0
  6
CONTINUOUS
 62
               7
100
AcDbLine
 10
59.099999999999966
 20
19.098078436969899
 30
0.0
 11
59.099999999999966
 21
18.599999999999966
 31
0.0
  0
LINE
  5
B9
100
AcDbEntity
  8
0
  6
CONTINUOUS
 62
               7
100
AcDbLine
 10
58.500000000000057
 20
18.499999999999943
 30
0.0
 11
58.500000000000057
 21
18.599999999999966
 31
0.0
  0
LINE
  5
BA
100
AcDbEntity
  8
0
  6
CONTINUOUS
 62
               7
100
AcDbLine
 10
40.400000000000006
 20
0.9999999999999716
 30
0.0
 11
40.700000000000017
 21
1.2999999999999829
 31
0.0
  0
LINE
  5
BB
100
AcDbEntity
  8
0
  6
CONTINUOUS
 62
               7
100
AcDbLine
 10
53.200000000000045
 20
2.5
 30
0.0
 11
40.700000000000017
 21
2.5
 31
0.0
  0
LINE
  5
BC
100
AcDbEntity
  8
0
  6
CONTINUOUS
 62
               7
100
AcDbLine
 10
51.000000000000057
 20
27.217144432479643
 30
0.0
 11
54.500000000000057
 21
26.599999999999966
 31
0.0
  0
LINE
  5
BD
100
AcDbEntity
  8
0
  6
CONTINUOUS
 62
               7
100
AcDbLine
 10
51.000000000000057
 20
32.999999999999986
 30
0.0
 11
51.000000000000057
 21
27.217144432479643
 31
0.0
  0
LINE
  5
BE
100
AcDbEntity
  8
0
  6
CONTINUOUS
 62
               7
100
AcDbLine
 10
39.500000000000028
 20
0.9999999999999716
 30
0.0
 11
40.400000000000006
 21
0.9999999999999716
 31
0.0
  0
LINE
  5
BF
100
AcDbEntity
  8
0
  6
CONTINUOUS
 62
               7
100
AcDbLine
 10
39.500000000000028
 20
32.999999999999986
 30
0.0
 11
51.000000000000057
 21
32.999999999999986
 31
0.0
  0
LINE
  5
C0
100
AcDbEntity
  8
0
  6
CONTINUOUS
 62
               7
100
AcDbLine
 10
42.700000000000017
 20
32.299999999999969
 30
0.0
 11
42.700000000000017
 21
31.499999999999986
 31
0.0
  0
LINE
  5
C1
100
AcDbEntity
  8
0
  6
CONTINUOUS
 62
               7
100
AcDbLine
 10
50.300000000000068
 20
31.499999999999986
 30
0.0
 11
50.300000000000068
 21
32.299999999999969
 31
0.0
  0
LINE
  5
C2
100
AcDbEntity
  8
0
  6
CONTINUOUS
 62
               7
100
AcDbLine
 10
50.300000000000068
 20
31.499999999999986
 30
0.0
 11
42.700000000000017
 21
31.499999999999986
 31
0.0
  0
LINE
  5
C3
100
AcDbEntity
  8
0
  6
CONTINUOUS
 62
               7
100
AcDbLine
 10
50.300000000000068
 20
32.299999999999969
 30
0.0
 11
42.700000000000017
 21
32.299999999999969
 31
0.0
  0
ARC
  5
C4
100
AcDbEntity
  8
0
  6
CONTINUOUS
 62
               4
100
AcDbCircle
 10
16.5
 20
16.0
 30
0.0
 40
1.3999999999999999
100
AcDbArc
 50
180.0
 51
0.0
  0
LINE
  5
C5
100
AcDbEntity
  8
0
  6
CONTINUOUS
 62
               4
100
AcDbLine
 10
15.099999999999994
 20
16.0
 30
0.0
 11
15.099999999999994
 21
17.238608504619151
 31
0.0
  0
LINE
  5
C6
100
AcDbEntity
  8
0
  6
CONTINUOUS
 62
               4
100
AcDbLine
 10
17.900000000000006
 20
16.0
 30
0.0
 11
17.900000000000006
 21
17.238608504619151
 31
0.0
  0
LINE
  5
C7
100
AcDbEntity
  8
0
  6
CONTINUOUS
 62
               7
100
AcDbLine
 10
60.299999999999983
 20
53.299999999999997
 30
0.0
 11
61.16602540378446
 21
53.799999999999997
 31
0.0
  0
LINE
  5
C8
100
AcDbEntity
  8
0
  6
CONTINUOUS
 62
               7
100
AcDbLine
 10
85.130000000000024
 20
49.899999999999991
 30
0.0
 11
85.130000000000024
 21
50.699999999999974
 31
0.0
  0
LINE
  5
C9
100
AcDbEntity
  8
0
  6
CONTINUOUS
 62
               7
100
AcDbLine
 10
80.130000000000024
 20
49.584999999999994
 30
0.0
 11
80.130000000000024
 21
51.015000000000001
 31
0.0
  0
LINE
  5
CA
100
AcDbEntity
  8
0
  6
CONTINUOUS
 62
               7
100
AcDbLine
 10
80.130000000000024
 20
50.699999999999974
 30
0.0
 11
85.130000000000024
 21
50.699999999999974
 31
0.0
  0
LINE
  5
CB
100
AcDbEntity
  8
0
  6
CONTINUOUS
 62
               7
100
AcDbLine
 10
80.130000000000024
 20
49.899999999999991
 30
0.0
 11
85.130000000000024
 21
49.899999999999991
 31
0.0
  0
LINE
  5
CC
100
AcDbEntity
  8
0
  6
CONTINUOUS
 62
               7
100
AcDbLine
 10
64.600000000000051
 20
47.999999999999986
 30
0.0
 11
64.600000000000051
 21
53.299999999999997
 31
0.0
  0
LINE
  5
CD
100
AcDbEntity
  8
0
  6
CONTINUOUS
 62
               7
100
AcDbLine
 10
64.700000000000017
 20
47.999999999999986
 30
0.0
 11
68.700000000000017
 21
47.999999999999986
 31
0.0
  0
LINE
  5
CE
100
AcDbEntity
  8
0
  6
CONTINUOUS
 62
               7
100
AcDbLine
 10
68.700000000000017
 20
53.099755867204394
 30
0.0
 11
68.700000000000017
 21
54.299999999999997
 31
0.0
  0
LINE
  5
CF
100
AcDbEntity
  8
0
  6
CONTINUOUS
 62
               7
100
AcDbLine
 10
64.700000000000017
 20
52.799999999999997
 30
0.0
 11
64.700000000000017
 21
47.999999999999986
 31
0.0
  0
LINE
  5
D0
100
AcDbEntity
  8
0
  6
CONTINUOUS
 62
               7
100
AcDbLine
 10
64.600000000000051
 20
52.799999999999997
 30
0.0
 11
69.700000000000017
 21
52.799999999999997
 31
0.0
  0
LINE
  5
D1
100
AcDbEntity
  8
0
  6
CONTINUOUS
 62
               7
100
AcDbLine
 10
68.700000000000017
 20
53.099755867204394
 30
0.0
 11
67.000000000000028
 21
52.799999999999997
 31
0.0
  0
LINE
  5
D2
100
AcDbEntity
  8
0
  6
CONTINUOUS
 62
               7
100
AcDbLine
 10
69.700000000000017
 20
47.499999999999986
 30
0.0
 11
69.700000000000017
 21
52.799999999999997
 31
0.0
  0
LINE
  5
D3
100
AcDbEntity
  8
0
  6
CONTINUOUS
 62
               7
100
AcDbLine
 10
64.600000000000051
 20
48.700000000000003
 30
0.0
 11
64.700000000000017
 21
48.700000000000003
 31
0.0
  0
LINE
  5
D4
100
AcDbEntity
  8
0
  6
CONTINUOUS
 62
               7
100
AcDbLine
 10
67.988675134594843
 20
54.299999999999997
 30
0.0
 11
68.700000000000017
 21
54.299999999999997
 31
0.0
  0
LINE
  5
D5
100
AcDbEntity
  8
0
  6
CONTINUOUS
 62
               7
100
AcDbLine
 10
67.700000000000017
 20
53.799999999999997
 30
0.0
 11
67.988675134594843
 21
54.299999999999997
 31
0.0
  0
LINE
  5
D6
100
AcDbEntity
  8
0
  6
CONTINUOUS
 62
               7
100
AcDbLine
 10
68.988675134594843
 20
47.499999999999986
 30
0.0
 11
69.700000000000017
 21
47.499999999999986
 31
0.0
  0
LINE
  5
D7
100
AcDbEntity
  8
0
  6
CONTINUOUS
 62
               7
100
AcDbLine
 10
68.700000000000017
 20
47.999999999999986
 30
0.0
 11
68.988675134594843
 21
47.499999999999986
 31
0.0
  0
LINE
  5
D8
100
AcDbEntity
  8
0
  6
CONTINUOUS
 62
               7
100
AcDbLine
 10
61.16602540378446
 20
53.799999999999997
 30
0.0
 11
67.700000000000017
 21
53.799999999999997
 31
0.0
  0
LINE
  5
D9
100
AcDbEntity
  8
0
  6
CONTINUOUS
 62
               7
100
AcDbLine
 10
64.599999999833727
 20
53.299999999999997
 30
0.0
 11
59.099999999833727
 21
53.299999999999997
 31
0.0
  0
LINE
  5
DA
100
AcDbEntity
  8
0
  6
CONTINUOUS
 62
               7
100
AcDbLine
 10
60.299999999999983
 20
13.200000000000003
 30
0.0
 11
61.16602540378446
 21
12.700000000000003
 31
0.0
  0
LINE
  5
DB
100
AcDbEntity
  8
0
  6
CONTINUOUS
 62
               7
100
AcDbLine
 10
64.599999999833727
 20
13.200000000000003
 30
0.0
 11
59.099999999833727
 21
13.200000000000003
 31
0.0
  0
LINE
  5
DC
100
AcDbEntity
  8
0
  6
CONTINUOUS
 62
               7
100
AcDbLine
 10
61.16602540378446
 20
12.700000000000003
 30
0.0
 11
67.700000000000017
 21
12.700000000000003
 31
0.0
  0
LINE
  5
DD
100
AcDbEntity
  8
0
  6
CONTINUOUS
 62
               7
100
AcDbLine
 10
68.700000000000017
 20
18.500000000000014
 30
0.0
 11
68.988675134594843
 21
19.000000000000014
 31
0.0
  0
LINE
  5
DE
100
AcDbEntity
  8
0
  6
CONTINUOUS
 62
               7
100
AcDbLine
 10
68.988675134594843
 20
19.000000000000014
 30
0.0
 11
69.700000000000017
 21
19.000000000000014
 31
0.0
  0
LINE
  5
DF
100
AcDbEntity
  8
0
  6
CONTINUOUS
 62
               7
100
AcDbLine
 10
67.700000000000017
 20
12.700000000000003
 30
0.0
 11
67.988675134594843
 21
12.200000000000003
 31
0.0
  0
LINE
  5
E0
100
AcDbEntity
  8
0
  6
CONTINUOUS
 62
               7
100
AcDbLine
 10
67.988675134594843
 20
12.200000000000003
 30
0.0
 11
68.700000000000017
 21
12.200000000000003
 31
0.0
  0
LINE
  5
E1
100
AcDbEntity
  8
0
  6
CONTINUOUS
 62
               7
100
AcDbLine
 10
64.600000000000051
 20
17.799999999999997
 30
0.0
 11
64.700000000000017
 21
17.799999999999997
 31
0.0
  0
LINE
  5
E2
100
AcDbEntity
  8
0
  6
CONTINUOUS
 62
               7
100
AcDbLine
 10
69.700000000000017
 20
19.000000000000014
 30
0.0
 11
69.700000000000017
 21
13.700000000000003
 31
0.0
  0
LINE
  5
E3
100
AcDbEntity
  8
0
  6
CONTINUOUS
 62
               7
100
AcDbLine
 10
68.700000000000017
 20
13.400244132795606
 30
0.0
 11
67.000000000000028
 21
13.700000000000003
 31
0.0
  0
LINE
  5
E4
100
AcDbEntity
  8
0
  6
CONTINUOUS
 62
               7
100
AcDbLine
 10
64.600000000000051
 20
13.700000000000003
 30
0.0
 11
69.700000000000017
 21
13.700000000000003
 31
0.0
  0
LINE
  5
E5
100
AcDbEntity
  8
0
  6
CONTINUOUS
 62
               7
100
AcDbLine
 10
64.700000000000017
 20
13.700000000000003
 30
0.0
 11
64.700000000000017
 21
18.500000000000014
 31
0.0
  0
LINE
  5
E6
100
AcDbEntity
  8
0
  6
CONTINUOUS
 62
               7
100
AcDbLine
 10
68.700000000000017
 20
13.400244132795606
 30
0.0
 11
68.700000000000017
 21
12.200000000000003
 31
0.0
  0
LINE
  5
E7
100
AcDbEntity
  8
0
  6
CONTINUOUS
 62
               7
100
AcDbLine
 10
64.700000000000017
 20
18.500000000000014
 30
0.0
 11
68.700000000000017
 21
18.500000000000014
 31
0.0
  0
LINE
  5
E8
100
AcDbEntity
  8
0
  6
CONTINUOUS
 62
               7
100
AcDbLine
 10
64.600000000000051
 20
18.500000000000014
 30
0.0
 11
64.600000000000051
 21
13.200000000000003
 31
0.0
  0
LINE
  5
E9
100
AcDbEntity
  8
0
  6
CONTINUOUS
 62
               7
100
AcDbLine
 10
80.130000000000024
 20
16.600000000000009
 30
0.0
 11
85.130000000000024
 21
16.600000000000009
 31
0.0
  0
LINE
  5
EA
100
AcDbEntity
  8
0
  6
CONTINUOUS
 62
               7
100
AcDbLine
 10
80.130000000000024
 20
15.800000000000026
 30
0.0
 11
85.130000000000024
 21
15.800000000000026
 31
0.0
  0
LINE
  5
EB
100
AcDbEntity
  8
0
  6
CONTINUOUS
 62
               7
100
AcDbLine
 10
80.130000000000024
 20
16.915000000000006
 30
0.0
 11
80.130000000000024
 21
15.484999999999999
 31
0.0
  0
LINE
  5
EC
100
AcDbEntity
  8
0
  6
CONTINUOUS
 62
               7
100
AcDbLine
 10
85.130000000000024
 20
16.600000000000009
 30
0.0
 11
85.130000000000024
 21
15.800000000000026
 31
0.0
  0
LINE
  5
ED
100
AcDbEntity
  8
0
  6
CONTINUOUS
 62
               7
100
AcDbLine
 10
75.570000000000022
 20
16.915000000000024
 30
0.0
 11
80.130000000000024
 21
16.915000000000024
 31
0.0
  0
LINE
  5
EE
100
AcDbEntity
  8
0
  6
CONTINUOUS
 62
               7
100
AcDbLine
 10
75.31785241758692
 20
15.485000000000017
 30
0.0
 11
80.130000000000024
 21
15.485000000000017
 31
0.0
  0
LINE
  5
EF
100
AcDbEntity
  8
0
  6
CONTINUOUS
 62
               7
100
AcDbLine
 10
69.700000000000017
 20
15.485000000000017
 30
0.0
 11
74.81785241758692
 21
15.485000000000017
 31
0.0
  0
LINE
  5
F0
100
AcDbEntity
  8
0
  6
CONTINUOUS
 62
               7
100
AcDbLine
 10
69.700000000000017
 20
16.915000000000024
 30
0.0
 11
75.070000000000022
 21
16.915000000000024
 31
0.0
  0
LINE
  5
F1
100
AcDbEntity
  8
0
  6
CONTINUOUS
 62
               7
100
AcDbLine
 10
69.700000000000017
 20
49.584999999999994
 30
0.0
 11
74.81785241758692
 21
49.584999999999994
 31
0.0
  0
LINE
  5
F2
100
AcDbEntity
  8
0
  6
CONTINUOUS
 62
               7
100
AcDbLine
 10
69.700000000000017
 20
51.015000000000001
 30
0.0
 11
75.070000000000036
 21
51.015000000000001
 31
0.0
  0
LINE
  5
F3
100
AcDbEntity
  8
0
  6
CONTINUOUS
 62
               7
100
AcDbLine
 10
75.570000000000036
 20
51.015000000000001
 30
0.0
 11
80.130000000000024
 21
51.015000000000001
 31
0.0
  0
LINE
  5
F4
100
AcDbEntity
  8
0
  6
CONTINUOUS
 62
               7
100
AcDbLine
 10
75.31785241758692
 20
49.584999999999994
 30
0.0
 11
80.130000000000024
 21
49.584999999999994
 31
0.0
  0
LINE
  5
F5
100
AcDbEntity
  8
0
  6
CONTINUOUS
 62
               2
100
AcDbLine
 10
75.141525436878425
 20
14.484999999999989
 30
0.0
 11
75.746326980708517
 21
17.914999999999996
 31
0.0
  0
LINE
  5
F6
100
AcDbEntity
  8
0
  6
CONTINUOUS
 62
               2
100
AcDbLine
 10
74.641525436878425
 20
14.484999999999989
 30
0.0
 11
75.246326980708517
 21
17.914999999999996
 31
0.0
  0
LINE
  5
F7
100
AcDbEntity
  8
0
  6
CONTINUOUS
 62
               2
100
AcDbLine
 10
75.141525436878425
 20
48.584999999999965
 30
0.0
 11
75.746326980708517
 21
52.014999999999986
 31
0.0
  0
LINE
  5
F8
100
AcDbEntity
  8
0
  6
CONTINUOUS
 62
               2
100
AcDbLine
 10
74.641525436878425
 20
48.584999999999965
 30
0.0
 11
75.246326980708517
 21
52.014999999999986
 31
0.0
  0
ENDBLK
  5
F9
100
AcDbEntity
  8
0
100
AcDbBlockEnd
  0
BLOCK
  5
FA
100
AcDbEntity
  8
0
100
AcDbBlockBegin
  2
MV180-01-2
 70
               0
 10
0.0
 20
0.0
 30
0.0
  3
MV180-01-2
  1

  0
LINE
  5
FB
100
AcDbEntity
  8
0
  6
CONTINUOUS
 62
             200
100
AcDbLine
 10
0.0
 20
-1.6999999999999993
 30
0.0
 11
0.0
 21
3.2999999999999972
 31
0.0
  0
LINE
  5
FC
100
AcDbEntity
  8
0
  6
CONTINUOUS
 62
               4
100
AcDbLine
 10
-2.0500000000000114
 20
8.25
 30
0.0
 11
-1.8000000000000114
 21
8.0
 31
0.0
  0
LINE
  5
FD
100
AcDbEntity
  8
0
  6
CONTINUOUS
 62
               4
100
AcDbLine
 10
-2.0500000000000114
 20
3.75
 30
0.0
 11
-1.8000000000000114
 21
4.0
 31
0.0
  0
LINE
  5
FE
100
AcDbEntity
  8
0
  6
CONTINUOUS
 62
               4
100
AcDbLine
 10
-2.0500000000000114
 20
8.25
 30
0.0
 11
-2.0500000000000114
 21
3.75
 31
0.0
  0
LINE
  5
FF
100
AcDbEntity
  8
0
  6
CONTINUOUS
 62
               4
100
AcDbLine
 10
-1.8000000000000114
 20
8.0
 30
0.0
 11
-1.8000000000000114
 21
4.0
 31
0.0
  0
LINE
  5
100
100
AcDbEntity
  8
0
  6
CONTINUOUS
 62
               4
100
AcDbLine
 10
-2.0500000000000114
 20
8.25
 30
0.0
 11
-4.4000000000000057
 21
8.25
 31
0.0
  0
LINE
  5
101
100
AcDbEntity
  8
0
  6
CONTINUOUS
 62
               4
100
AcDbLine
 10
-2.0500000000000114
 20
3.75
 30
0.0
 11
-4.4000000000000057
 21
3.75
 31
0.0
  0
LINE
  5
102
100
AcDbEntity
  8
0
  6
CONTINUOUS
 62
               4
100
AcDbLine
 10
-2.0500000000000114
 20
16.75
 30
0.0
 11
-4.4000000000000057
 21
16.75
 31
0.0
  0
LINE
  5
103
100
AcDbEntity
  8
0
  6
CONTINUOUS
 62
               4
100
AcDbLine
 10
-2.0500000000000114
 20
21.25
 30
0.0
 11
-4.4000000000000057
 21
21.25
 31
0.0
  0
LINE
  5
104
100
AcDbEntity
  8
0
  6
CONTINUOUS
 62
               4
100
AcDbLine
 10
-1.8000000000000114
 20
21.0
 30
0.0
 11
-1.8000000000000114
 21
17.0
 31
0.0
  0
LINE
  5
105
100
AcDbEntity
  8
0
  6
CONTINUOUS
 62
               4
100
AcDbLine
 10
-2.0500000000000114
 20
21.25
 30
0.0
 11
-2.0500000000000114
 21
16.75
 31
0.0
  0
LINE
  5
106
100
AcDbEntity
  8
0
  6
CONTINUOUS
 62
               4
100
AcDbLine
 10
-2.0500000000000114
 20
16.75
 30
0.0
 11
-1.8000000000000114
 21
17.0
 31
0.0
  0
LINE
  5
107
100
AcDbEntity
  8
0
  6
CONTINUOUS
 62
               4
100
AcDbLine
 10
-2.0500000000000114
 20
21.25
 30
0.0
 11
-1.8000000000000114
 21
21.0
 31
0.0
  0
LINE
  5
108
100
AcDbEntity
  8
0
  6
CONTINUOUS
 62
               4
100
AcDbLine
 10
4.0
 20
1.1000000000000014
 30
0.0
 11
4.0
 21
0.5
 31
0.0
  0
LINE
  5
109
100
AcDbEntity
  8
0
  6
CONTINUOUS
 62
               4
100
AcDbLine
 10
-6.0
 20
1.0
 30
0.0
 11
-6.0
 21
0.5
 31
0.0
  0
LINE
  5
10A
100
AcDbEntity
  8
0
  6
CONTINUOUS
 62
               4
100
AcDbLine
 10
-4.4000000000000057
 20
22.5
 30
0.0
 11
-4.4000000000000057
 21
2.0
 31
0.0
  0
LINE
  5
10B
100
AcDbEntity
  8
0
  6
CONTINUOUS
 62
               4
100
AcDbLine
 10
3.5
 20
0.0
 30
0.0
 11
-5.5
 21
0.0
 31
0.0
  0
LINE
  5
10C
100
AcDbEntity
  8
0
  6
CONTINUOUS
 62
               4
100
AcDbLine
 10
3.5
 20
1.6000000000000014
 30
0.0
 11
-5.9595917942265544
 21
1.6000000000000014
 31
0.0
  0
LINE
  5
10D
100
AcDbEntity
  8
0
  6
CONTINUOUS
 62
               4
100
AcDbLine
 10
-5.5
 20
23.0
 30
0.0
 11
-4.9000000000000057
 21
23.0
 31
0.0
  0
ARC
  5
10E
100
AcDbEntity
  8
0
  6
CONTINUOUS
 62
               4
100
AcDbCircle
 10
-5.5
 20
22.5
 30
0.0
 40
0.5
100
AcDbArc
 50
90.0
 51
180.0
  0
ARC
  5
10F
100
AcDbEntity
  8
0
  6
CONTINUOUS
 62
               4
100
AcDbCircle
 10
-4.9000000000000057
 20
22.5
 30
0.0
 40
0.5
100
AcDbArc
 50
0.0
 51
90.0
  0
ARC
  5
110
100
AcDbEntity
  8
0
  6
CONTINUOUS
 62
               4
100
AcDbCircle
 10
3.5
 20
1.1000000000000014
 30
0.0
 40
0.5
100
AcDbArc
 50
0.0
 51
90.0
  0
ARC
  5
111
100
AcDbEntity
  8
0
  6
CONTINUOUS
 62
               4
100
AcDbCircle
 10
3.5
 20
0.5
 30
0.0
 40
0.5
100
AcDbArc
 50
270.0
 51
0.0
  0
ARC
  5
112
100
AcDbEntity
  8
0
  6
CONTINUOUS
 62
               4
100
AcDbCircle
 10
-4.0
 20
2.0
 30
0.0
 40
0.4
100
AcDbArc
 50
180.0
 51
270.0
  0
ARC
  5
113
100
AcDbEntity
  8
0
  6
CONTINUOUS
 62
               4
100
AcDbCircle
 10
-5.5
 20
0.5
 30
0.0
 40
0.5
100
AcDbArc
 50
180.0
 51
270.0
  0
LINE
  5
114
100
AcDbEntity
  8
0
  6
CONTINUOUS
 62
             200
100
AcDbLine
 10
-7.7000000000000171
 20
19.0
 30
0.0
 11
-0.4512971541956006
 21
19.0
 31
0.0
  0
LINE
  5
115
100
AcDbEntity
  8
0
  6
CONTINUOUS
 62
             200
100
AcDbLine
 10
-7.7000000000000171
 20
6.0
 30
0.0
 11
-0.4512971541956006
 21
6.0
 31
0.0
  0
LINE
  5
116
100
AcDbEntity
  8
0
  6
CONTINUOUS
 62
               7
100
AcDbLine
 10
-16.0
 20
63.35840289823598
 30
0.0
 11
-16.0
 21
62.719220935761157
 31
0.0
  0
LINE
  5
117
100
AcDbEntity
  8
0
  6
CONTINUOUS
 62
               7
100
AcDbLine
 10
-6.0
 20
65.5
 30
0.0
 11
-11.099999999999994
 21
65.5
 31
0.0
  0
LINE
  5
118
100
AcDbEntity
  8
0
  6
CONTINUOUS
 62
               2
100
AcDbLine
 10
-14.100000000000023
 20
18.0
 30
0.0
 11
-14.100000000000023
 21
25.0
 31
0.0
  0
LINE
  5
119
100
AcDbEntity
  8
0
  6
CONTINUOUS
 62
               7
100
AcDbLine
 10
-16.599999999999994
 20
73.063402898235964
 30
0.0
 11
-11.599999999999994
 21
73.063402898235964
 31
0.0
  0
LINE
  5
11A
100
AcDbEntity
  8
0
  6
CONTINUOUS
 62
               7
100
AcDbLine
 10
-16.099999999999994
 20
73.563402898235964
 30
0.0
 11
-12.099999999999994
 21
73.563402898235964
 31
0.0
  0
LINE
  5
11B
100
AcDbEntity
  8
0
  6
CONTINUOUS
 62
               7
100
AcDbLine
 10
-17.349999999999994
 20
62.219220935761143
 30
0.0
 11
-10.849999999999994
 21
62.219220935761143
 31
0.0
  0
LINE
  5
11C
100
AcDbEntity
  8
0
  6
CONTINUOUS
 62
               7
100
AcDbLine
 10
-17.099999999999994
 20
63.85840289823598
 30
0.0
 11
-11.099999999999994
 21
63.85840289823598
 31
0.0
  0
LINE
  5
11D
100
AcDbEntity
  8
0
  6
CONTINUOUS
 62
               7
100
AcDbLine
 10
-17.099999999999994
 20
65.85840289823598
 30
0.0
 11
-11.099999999999994
 21
65.85840289823598
 31
0.0
  0
LINE
  5
11E
100
AcDbEntity
  8
0
  6
CONTINUOUS
 62
               7
100
AcDbLine
 10
-16.599999999999994
 20
68.063402898235964
 30
0.0
 11
-11.599999999999994
 21
68.063402898235964
 31
0.0
  0
LINE
  5
11F
100
AcDbEntity
  8
0
  6
CONTINUOUS
 62
               7
100
AcDbLine
 10
-16.599999999999994
 20
73.063402898235964
 30
0.0
 11
-16.099999999999994
 21
73.563402898235964
 31
0.0
  0
LINE
  5
120
100
AcDbEntity
  8
0
  6
CONTINUOUS
 62
               7
100
AcDbLine
 10
-11.599999999999994
 20
73.063402898235964
 30
0.0
 11
-12.099999999999994
 21
73.563402898235964
 31
0.0
  0
LINE
  5
121
100
AcDbEntity
  8
0
  6
CONTINUOUS
 62
               2
100
AcDbLine
 10
-12.849999999999994
 20
67.563402898235964
 30
0.0
 11
-12.849999999999994
 21
66.35840289823598
 31
0.0
  0
LINE
  5
122
100
AcDbEntity
  8
0
  6
CONTINUOUS
 62
               7
100
AcDbLine
 10
-13.025000000000006
 20
67.563402898235964
 30
0.0
 11
-13.025000000000006
 21
66.35840289823598
 31
0.0
  0
LINE
  5
123
100
AcDbEntity
  8
0
  6
CONTINUOUS
 62
               2
100
AcDbLine
 10
-15.349999999999994
 20
67.563402898235964
 30
0.0
 11
-15.349999999999994
 21
66.35840289823598
 31
0.0
  0
LINE
  5
124
100
AcDbEntity
  8
0
  6
CONTINUOUS
 62
               7
100
AcDbLine
 10
-15.174999999999983
 20
67.563402898235964
 30
0.0
 11
-15.174999999999983
 21
66.35840289823598
 31
0.0
  0
LINE
  5
125
100
AcDbEntity
  8
0
  6
CONTINUOUS
 62
               7
100
AcDbLine
 10
-17.349999999999994
 20
62.219220935761143
 30
0.0
 11
-16.849999999999994
 21
62.719220935761157
 31
0.0
  0
LINE
  5
126
100
AcDbEntity
  8
0
  6
CONTINUOUS
 62
               7
100
AcDbLine
 10
-10.849999999999994
 20
62.219220935761143
 30
0.0
 11
-11.349999999999994
 21
62.719220935761157
 31
0.0
  0
LINE
  5
127
100
AcDbEntity
  8
0
  6
CONTINUOUS
 62
               7
100
AcDbLine
 10
-11.349999999999994
 20
62.719220935761157
 30
0.0
 11
-16.849999999999994
 21
62.719220935761157
 31
0.0
  0
LINE
  5
128
100
AcDbEntity
  8
0
  6
CONTINUOUS
 62
               7
100
AcDbLine
 10
-11.599999999999994
 20
63.35840289823598
 30
0.0
 11
-16.599999999999994
 21
63.35840289823598
 31
0.0
  0
LINE
  5
129
100
AcDbEntity
  8
0
  6
CONTINUOUS
 62
               7
100
AcDbLine
 10
-11.099999999999994
 20
63.85840289823598
 30
0.0
 11
-11.099999999999994
 21
65.85840289823598
 31
0.0
  0
LINE
  5
12A
100
AcDbEntity
  8
0
  6
CONTINUOUS
 62
               7
100
AcDbLine
 10
-11.099999999999994
 20
63.85840289823598
 30
0.0
 11
-11.599999999999994
 21
63.35840289823598
 31
0.0
  0
LINE
  5
12B
100
AcDbEntity
  8
0
  6
CONTINUOUS
 62
               7
100
AcDbLine
 10
-11.099999999999994
 20
65.85840289823598
 30
0.0
 11
-11.599999999999994
 21
66.35840289823598
 31
0.0
  0
LINE
  5
12C
100
AcDbEntity
  8
0
  6
CONTINUOUS
 62
               7
100
AcDbLine
 10
-17.099999999999994
 20
63.85840289823598
 30
0.0
 11
-16.599999999999994
 21
63.35840289823598
 31
0.0
  0
LINE
  5
12D
100
AcDbEntity
  8
0
  6
CONTINUOUS
 62
               7
100
AcDbLine
 10
-17.099999999999994
 20
65.85840289823598
 30
0.0
 11
-16.599999999999994
 21
66.35840289823598
 31
0.0
  0
LINE
  5
12E
100
AcDbEntity
  8
0
  6
CONTINUOUS
 62
               7
100
AcDbLine
 10
-11.599999999999994
 20
66.35840289823598
 30
0.0
 11
-16.599999999999994
 21
66.35840289823598
 31
0.0
  0
LINE
  5
12F
100
AcDbEntity
  8
0
  6
CONTINUOUS
 62
               7
100
AcDbLine
 10
-16.099999999999994
 20
67.563402898235964
 30
0.0
 11
-16.599999999999994
 21
68.063402898235964
 31
0.0
  0
LINE
  5
130
100
AcDbEntity
  8
0
  6
CONTINUOUS
 62
               7
100
AcDbLine
 10
-11.599999999999994
 20
68.063402898235964
 30
0.0
 11
-12.099999999999994
 21
67.563402898235964
 31
0.0
  0
LINE
  5
131
100
AcDbEntity
  8
0
  6
CONTINUOUS
 62
               7
100
AcDbLine
 10
-16.099999999999994
 20
67.563402898235964
 30
0.0
 11
-12.099999999999994
 21
67.563402898235964
 31
0.0
  0
LINE
  5
132
100
AcDbEntity
  8
0
  6
CONTINUOUS
 62
               7
100
AcDbLine
 10
-17.099999999999994
 20
63.85840289823598
 30
0.0
 11
-17.099999999999994
 21
65.85840289823598
 31
0.0
  0
LINE
  5
133
100
AcDbEntity
  8
0
  6
CONTINUOUS
 62
               2
100
AcDbLine
 10
-12.849999999999994
 20
63.35840289823598
 30
0.0
 11
-12.849999999999994
 21
62.719220935761157
 31
0.0
  0
LINE
  5
134
100
AcDbEntity
  8
0
  6
CONTINUOUS
 62
               7
100
AcDbLine
 10
-13.025000000000006
 20
63.35840289823598
 30
0.0
 11
-13.025000000000006
 21
62.719220935761157
 31
0.0
  0
LINE
  5
135
100
AcDbEntity
  8
0
  6
CONTINUOUS
 62
               2
100
AcDbLine
 10
-15.349999999999994
 20
63.35840289823598
 30
0.0
 11
-15.349999999999994
 21
62.719220935761157
 31
0.0
  0
LINE
  5
136
100
AcDbEntity
  8
0
  6
CONTINUOUS
 62
               7
100
AcDbLine
 10
-15.174999999999983
 20
63.35840289823598
 30
0.0
 11
-15.174999999999983
 21
62.719220935761157
 31
0.0
  0
LINE
  5
137
100
AcDbEntity
  8
0
  6
CONTINUOUS
 62
               7
100
AcDbLine
 10
-16.599999999999994
 20
73.063402898235964
 30
0.0
 11
-16.599999999999994
 21
68.063402898235964
 31
0.0
  0
LINE
  5
138
100
AcDbEntity
  8
0
  6
CONTINUOUS
 62
               7
100
AcDbLine
 10
-11.599999999999994
 20
73.063402898235964
 30
0.0
 11
-11.599999999999994
 21
68.063402898235964
 31
0.0
  0
LINE
  5
139
100
AcDbEntity
  8
0
  6
CONTINUOUS
 62
               2
100
AcDbLine
 10
-14.099999999999994
 20
74.563402898235964
 30
0.0
 11
-14.099999999999994
 21
58.500000000000028
 31
0.0
  0
LINE
  5
13A
100
AcDbEntity
  8
0
  6
CONTINUOUS
 62
               7
100
AcDbLine
 10
-17.349999999999994
 20
59.519220935761155
 30
0.0
 11
-17.349999999999994
 21
62.219220935761143
 31
0.0
  0
LINE
  5
13B
100
AcDbEntity
  8
0
  6
CONTINUOUS
 62
               7
100
AcDbLine
 10
-10.849999999999994
 20
59.519220935761155
 30
0.0
 11
-10.849999999999994
 21
62.219220935761143
 31
0.0
  0
CIRCLE
  5
13C
100
AcDbEntity
  8
0
  6
CONTINUOUS
 62
               2
100
AcDbCircle
 10
-14.100000000000023
 20
21.5
 30
0.0
 40
2.5
  0
CIRCLE
  5
13D
100
AcDbEntity
  8
0
  6
CONTINUOUS
 62
               7
100
AcDbCircle
 10
-14.100000000000023
 20
21.5
 30
0.0
 40
2.1000000000000001
  0
LINE
  5
13E
100
AcDbEntity
  8
0
  6
CONTINUOUS
 62
               2
100
AcDbLine
 10
-10.600000000000023
 20
21.5
 30
0.0
 11
-17.600000000000023
 21
21.5
 31
0.0
  0
LINE
  5
13F
100
AcDbEntity
  8
0
  6
CONTINUOUS
 62
               2
100
AcDbLine
 10
-10.100000000000023
 20
29.75
 30
0.0
 11
-10.100000000000023
 21
36.75
 31
0.0
  0
LINE
  5
140
100
AcDbEntity
  8
0
  6
CONTINUOUS
 62
               2
100
AcDbLine
 10
-13.600000000000023
 20
48.149999982500049
 30
0.0
 11
-6.6000000000000227
 21
48.149999982500049
 31
0.0
  0
LINE
  5
141
100
AcDbEntity
  8
0
  6
CONTINUOUS
 62
               2
100
AcDbLine
 10
-10.100000000000023
 20
44.649999982500049
 30
0.0
 11
-10.100000000000023
 21
51.649999982500049
 31
0.0
  0
LINE
  5
142
100
AcDbEntity
  8
0
  6
CONTINUOUS
 62
               2
100
AcDbLine
 10
-13.600000000000023
 20
33.25
 30
0.0
 11
-6.6000000000000227
 21
33.25
 31
0.0
  0
LINE
  5
143
100
AcDbEntity
  8
0
  6
CONTINUOUS
 62
               2
100
AcDbLine
 10
-13.600000000000023
 20
11.85000001749998
 30
0.0
 11
-6.6000000000000227
 21
11.85000001749998
 31
0.0
  0
LINE
  5
144
100
AcDbEntity
  8
0
  6
CONTINUOUS
 62
               2
100
AcDbLine
 10
-10.100000000000023
 20
8.3500000174999798
 30
0.0
 11
-10.100000000000023
 21
15.35000001749998
 31
0.0
  0
LINE
  5
145
100
AcDbEntity
  8
0
  6
CONTINUOUS
 62
               7
100
AcDbLine
 10
-6.0
 20
1.0
 30
0.0
 11
-18.199999999999989
 21
1.0
 31
0.0
  0
LINE
  5
146
100
AcDbEntity
  8
0
  6
CONTINUOUS
 62
               7
100
AcDbLine
 10
-6.0
 20
59.500000000000028
 30
0.0
 11
-18.199999999999989
 21
59.500000000000028
 31
0.0
  0
LINE
  5
147
100
AcDbEntity
  8
0
  6
CONTINUOUS
 62
               7
100
AcDbLine
 10
-6.0
 20
65.5
 30
0.0
 11
-6.0
 21
1.0
 31
0.0
  0
LINE
  5
148
100
AcDbEntity
  8
0
  6
CONTINUOUS
 62
               7
100
AcDbLine
 10
-18.199999999999989
 20
59.500000000000028
 30
0.0
 11
-18.199999999999989
 21
1.0
 31
0.0
  0
CIRCLE
  5
149
100
AcDbEntity
  8
0
  6
CONTINUOUS
 62
               2
100
AcDbCircle
 10
-10.100000000000023
 20
48.149999982500049
 30
0.0
 40
2.5
  0
CIRCLE
  5
14A
100
AcDbEntity
  8
0
  6
CONTINUOUS
 62
               7
100
AcDbCircle
 10
-10.100000000000023
 20
48.149999982500049
 30
0.0
 40
2.1000000000000001
  0
CIRCLE
  5
14B
100
AcDbEntity
  8
0
  6
CONTINUOUS
 62
               2
100
AcDbCircle
 10
-10.100000000000023
 20
33.25
 30
0.0
 40
2.5
  0
CIRCLE
  5
14C
100
AcDbEntity
  8
0
  6
CONTINUOUS
 62
               7
100
AcDbCircle
 10
-10.100000000000023
 20
33.25
 30
0.0
 40
2.1000000000000001
  0
CIRCLE
  5
14D
100
AcDbEntity
  8
0
  6
CONTINUOUS
 62
               2
100
AcDbCircle
 10
-10.100000000000023
 20
11.85000001749998
 30
0.0
 40
2.5
  0
CIRCLE
  5
14E
100
AcDbEntity
  8
0
  6
CONTINUOUS
 62
               7
100
AcDbCircle
 10
-10.100000000000023
 20
11.85000001749998
 30
0.0
 40
2.1000000000000001
  0
ENDBLK
  5
14F
100
AcDbEntity
  8
0
100
AcDbBlockEnd
  0
BLOCK
  5
150
100
AcDbEntity
  8
0
100
AcDbBlockBegin
  2
MV180-01-3
 70
               0
 10
0.0
 20
0.0
 30
0.0
  3
MV180-01-3
  1

  0
LINE
  5
151
100
AcDbEntity
  8
0
  6
CONTINUOUS
 62
             200
100
AcDbLine
 10
0.0
 20
-1.6999999999999993
 30
0.0
 11
0.0
 21
3.2999999999999972
 31
0.0
  0
LINE
  5
152
100
AcDbEntity
  8
0
  6
CONTINUOUS
 62
             200
100
AcDbLine
 10
7.7000000000000171
 20
19.0
 30
0.0
 11
0.4512971541956006
 21
19.0
 31
0.0
  0
LINE
  5
153
100
AcDbEntity
  8
0
  6
CONTINUOUS
 62
             200
100
AcDbLine
 10
7.7000000000000171
 20
6.0
 30
0.0
 11
0.4512971541956006
 21
6.0
 31
0.0
  0
ARC
  5
154
100
AcDbEntity
  8
0
  6
CONTINUOUS
 62
               4
100
AcDbCircle
 10
5.5
 20
0.5
 30
0.0
 40
0.5
100
AcDbArc
 50
270.0
 51
0.0
  0
ARC
  5
155
100
AcDbEntity
  8
0
  6
CONTINUOUS
 62
               4
100
AcDbCircle
 10
4.0
 20
2.0
 30
0.0
 40
0.4
100
AcDbArc
 50
270.0
 51
0.0
  0
ARC
  5
156
100
AcDbEntity
  8
0
  6
CONTINUOUS
 62
               4
100
AcDbCircle
 10
-3.5
 20
0.5
 30
0.0
 40
0.5
100
AcDbArc
 50
180.0
 51
270.0
  0
ARC
  5
157
100
AcDbEntity
  8
0
  6
CONTINUOUS
 62
               4
100
AcDbCircle
 10
-3.5
 20
1.0999999999999943
 30
0.0
 40
0.5
100
AcDbArc
 50
90.0
 51
180.0
  0
ARC
  5
158
100
AcDbEntity
  8
0
  6
CONTINUOUS
 62
               4
100
AcDbCircle
 10
4.9000000000000057
 20
22.5
 30
0.0
 40
0.5
100
AcDbArc
 50
90.0
 51
180.0
  0
ARC
  5
159
100
AcDbEntity
  8
0
  6
CONTINUOUS
 62
               4
100
AcDbCircle
 10
5.5
 20
22.5
 30
0.0
 40
0.5
100
AcDbArc
 50
0.0
 51
90.0
  0
LINE
  5
15A
100
AcDbEntity
  8
0
  6
CONTINUOUS
 62
               4
100
AcDbLine
 10
5.5
 20
23.0
 30
0.0
 11
4.9000000000000057
 21
23.0
 31
0.0
  0
LINE
  5
15B
100
AcDbEntity
  8
0
  6
CONTINUOUS
 62
               4
100
AcDbLine
 10
-3.5
 20
1.5999999999999943
 30
0.0
 11
4.0
 21
1.5999999999999943
 31
0.0
  0
LINE
  5
15C
100
AcDbEntity
  8
0
  6
CONTINUOUS
 62
               4
100
AcDbLine
 10
-3.5
 20
0.0
 30
0.0
 11
5.5
 21
0.0
 31
0.0
  0
LINE
  5
15D
100
AcDbEntity
  8
0
  6
CONTINUOUS
 62
               4
100
AcDbLine
 10
4.4000000000000057
 20
22.5
 30
0.0
 11
4.4000000000000057
 21
2.0
 31
0.0
  0
LINE
  5
15E
100
AcDbEntity
  8
0
  6
CONTINUOUS
 62
               4
100
AcDbLine
 10
-4.0
 20
1.0999999999999943
 30
0.0
 11
-4.0
 21
0.5
 31
0.0
  0
LINE
  5
15F
100
AcDbEntity
  8
0
  6
CONTINUOUS
 62
               4
100
AcDbLine
 10
2.0500000000000114
 20
21.25
 30
0.0
 11
1.8000000000000114
 21
21.0
 31
0.0
  0
LINE
  5
160
100
AcDbEntity
  8
0
  6
CONTINUOUS
 62
               4
100
AcDbLine
 10
2.0500000000000114
 20
16.75
 30
0.0
 11
1.8000000000000114
 21
17.0
 31
0.0
  0
LINE
  5
161
100
AcDbEntity
  8
0
  6
CONTINUOUS
 62
               4
100
AcDbLine
 10
2.0500000000000114
 20
21.25
 30
0.0
 11
2.0500000000000114
 21
16.75
 31
0.0
  0
LINE
  5
162
100
AcDbEntity
  8
0
  6
CONTINUOUS
 62
               4
100
AcDbLine
 10
1.8000000000000114
 20
21.0
 30
0.0
 11
1.8000000000000114
 21
17.0
 31
0.0
  0
LINE
  5
163
100
AcDbEntity
  8
0
  6
CONTINUOUS
 62
               4
100
AcDbLine
 10
2.0500000000000114
 20
21.25
 30
0.0
 11
4.4000000000000057
 21
21.25
 31
0.0
  0
LINE
  5
164
100
AcDbEntity
  8
0
  6
CONTINUOUS
 62
               4
100
AcDbLine
 10
2.0500000000000114
 20
16.75
 30
0.0
 11
4.4000000000000057
 21
16.75
 31
0.0
  0
LINE
  5
165
100
AcDbEntity
  8
0
  6
CONTINUOUS
 62
               4
100
AcDbLine
 10
2.0500000000000114
 20
3.75
 30
0.0
 11
4.4000000000000057
 21
3.75
 31
0.0
  0
LINE
  5
166
100
AcDbEntity
  8
0
  6
CONTINUOUS
 62
               4
100
AcDbLine
 10
2.0500000000000114
 20
8.25
 30
0.0
 11
4.4000000000000057
 21
8.25
 31
0.0
  0
LINE
  5
167
100
AcDbEntity
  8
0
  6
CONTINUOUS
 62
               4
100
AcDbLine
 10
1.8000000000000114
 20
8.0
 30
0.0
 11
1.8000000000000114
 21
4.0
 31
0.0
  0
LINE
  5
168
100
AcDbEntity
  8
0
  6
CONTINUOUS
 62
               4
100
AcDbLine
 10
2.0500000000000114
 20
8.25
 30
0.0
 11
2.0500000000000114
 21
3.75
 31
0.0
  0
LINE
  5
169
100
AcDbEntity
  8
0
  6
CONTINUOUS
 62
               4
100
AcDbLine
 10
2.0500000000000114
 20
3.75
 30
0.0
 11
1.8000000000000114
 21
4.0
 31
0.0
  0
LINE
  5
16A
100
AcDbEntity
  8
0
  6
CONTINUOUS
 62
               4
100
AcDbLine
 10
2.0500000000000114
 20
8.25
 30
0.0
 11
1.8000000000000114
 21
8.0
 31
0.0
  0
ARC
  5
16B
100
AcDbEntity
  8
0
  6
CONTINUOUS
 62
               7
100
AcDbCircle
 10
7.6000000330120976
 20
3.7421728535520664
 30
0.0
 40
2.7421728535518359
100
AcDbArc
 50
236.8519048111784
 51
282.63882966642063
  0
LINE
  5
16C
100
AcDbEntity
  8
0
  6
CONTINUOUS
 62
               7
100
AcDbLine
 10
5.9999999999999467
 20
65.199999999999989
 30
0.0
 11
6.0000000000000036
 21
1.0000000000000533
 31
0.0
  0
LINE
  5
16D
100
AcDbEntity
  8
0
  6
CONTINUOUS
 62
               7
100
AcDbLine
 10
18.199999996676187
 20
18.499999999999961
 30
0.0
 11
17.900000000000038
 21
18.500000001249965
 31
0.0
  0
ARC
  5
16E
100
AcDbEntity
  8
0
  6
CONTINUOUS
 62
               7
100
AcDbCircle
 10
8.500000033012018
 20
1.3000000000001428
 30
0.0
 40
0.3
100
AcDbArc
 50
180.0
 51
270.0
  0
ARC
  5
16F
100
AcDbEntity
  8
0
  6
CONTINUOUS
 62
               7
100
AcDbCircle
 10
6.2023797317776292
 20
1.6184065347142855
 30
0.0
 40
0.2
100
AcDbArc
 50
183.34115129169879
 51
239.39828617920105
  0
ARC
  5
170
100
AcDbEntity
  8
0
  6
CONTINUOUS
 62
               7
100
AcDbCircle
 10
7.600000033012126
 20
1.7000000000001059
 30
0.0
 40
1.6000000000000001
100
AcDbArc
 50
180.0
 51
183.34115129169891
  0
LINE
  5
171
100
AcDbEntity
  8
0
  6
CONTINUOUS
 62
               7
100
AcDbLine
 10
6.0000000330121033
 20
1.7000000000001343
 30
0.0
 11
8.2000000330120351
 21
1.7000000000001059
 31
0.0
  0
ARC
  5
172
100
AcDbEntity
  8
0
  6
CONTINUOUS
 62
               7
100
AcDbCircle
 10
16.599999999999969
 20
39.000000027499965
 30
0.0
 40
1.6999999999999993
100
AcDbArc
 50
90.0
 51
110.66731649351347
  0
ARC
  5
173
100
AcDbEntity
  8
0
  6
CONTINUOUS
 62
               7
100
AcDbCircle
 10
7.5999999999999694
 20
27.499999972499925
 30
0.0
 40
1.6999999999999993
100
AcDbArc
 50
270.0
 51
290.66731649351345
  0
LINE
  5
174
100
AcDbEntity
  8
0
  6
CONTINUOUS
 62
               7
100
AcDbLine
 10
16.599999999999969
 20
37.300000027499976
 30
0.0
 11
18.199999999999964
 21
37.300000027499976
 31
0.0
  0
LINE
  5
175
100
AcDbEntity
  8
0
  6
CONTINUOUS
 62
               7
100
AcDbLine
 10
18.199999999999964
 20
40.70000002750001
 30
0.0
 11
16.599999999999969
 21
40.70000002750001
 31
0.0
  0
LINE
  5
176
100
AcDbEntity
  8
0
  6
CONTINUOUS
 62
               7
100
AcDbLine
 10
18.199999999999964
 20
50.999999999999972
 30
0.0
 11
15.999999999999947
 21
50.999999999999972
 31
0.0
  0
LINE
  5
177
100
AcDbEntity
  8
0
  6
CONTINUOUS
 62
               7
100
AcDbLine
 10
7.5999999999999694
 20
29.19999997249997
 30
0.0
 11
6.0000000000000036
 21
29.19999997249997
 31
0.0
  0
LINE
  5
178
100
AcDbEntity
  8
0
  6
CONTINUOUS
 62
               7
100
AcDbLine
 10
6.0000000000000036
 20
25.799999972499936
 30
0.0
 11
7.5999999999999694
 21
25.799999972499936
 31
0.0
  0
LINE
  5
179
100
AcDbEntity
  8
0
  6
CONTINUOUS
 62
               7
100
AcDbLine
 10
8.1999999999999922
 20
9.500000000000032
 30
0.0
 11
5.9999999999999751
 21
9.500000000000032
 31
0.0
  0
LINE
  5
17A
100
AcDbEntity
  8
0
  6
CONTINUOUS
 62
               7
100
AcDbLine
 10
15.999999999999947
 20
59.500000000000057
 30
0.0
 11
18.199999999999964
 21
59.500000000000057
 31
0.0
  0
LINE
  5
17B
100
AcDbEntity
  8
0
  6
CONTINUOUS
 62
               7
100
AcDbLine
 10
5.9999999999999467
 20
1.0000000000000604
 30
0.0
 11
18.199999999999964
 21
1.0000000000000604
 31
0.0
  0
LINE
  5
17C
100
AcDbEntity
  8
0
  6
CONTINUOUS
 62
               7
100
AcDbLine
 10
18.199999999999964
 20
59.500000000000057
 30
0.0
 11
18.199999999999964
 21
1.0000000000000604
 31
0.0
  0
LINE
  5
17D
100
AcDbEntity
  8
0
  6
CONTINUOUS
 62
               7
100
AcDbLine
 10
8.6056295938760492
 20
39.459182548228817
 30
0.0
 11
8.349999999999941
 21
39.899999999999977
 31
0.0
  0
LINE
  5
17E
100
AcDbEntity
  8
0
  6
CONTINUOUS
 62
               7
100
AcDbLine
 10
13.649999999999952
 20
39.899999999999977
 30
0.0
 11
13.394370406123844
 21
39.459182548228817
 31
0.0
  0
LINE
  5
17F
100
AcDbEntity
  8
0
  6
CONTINUOUS
 62
               7
100
AcDbLine
 10
9.8556295938760492
 20
40.709182548228817
 30
0.0
 11
9.599999999999941
 21
41.149999999999977
 31
0.0
  0
LINE
  5
180
100
AcDbEntity
  8
0
  6
CONTINUOUS
 62
               7
100
AcDbLine
 10
8.349999999999941
 20
39.899999999999977
 30
0.0
 11
9.599999999999941
 21
41.149999999999977
 31
0.0
  0
LINE
  5
181
100
AcDbEntity
  8
0
  6
CONTINUOUS
 62
               7
100
AcDbLine
 10
9.8556295938760492
 20
40.709182548228817
 30
0.0
 11
8.6056295938760492
 21
39.459182548228817
 31
0.0
  0
LINE
  5
182
100
AcDbEntity
  8
0
  6
CONTINUOUS
 62
               7
100
AcDbLine
 10
12.144370406123844
 20
40.709182548228817
 30
0.0
 11
12.399999999999952
 21
41.149999999999977
 31
0.0
  0
LINE
  5
183
100
AcDbEntity
  8
0
  6
CONTINUOUS
 62
               7
100
AcDbLine
 10
15.999999999999947
 20
46.590817451771159
 30
0.0
 11
5.9999999999999467
 21
46.590817451771144
 31
0.0
  0
LINE
  5
184
100
AcDbEntity
  8
0
  6
CONTINUOUS
 62
               7
100
AcDbLine
 10
12.144370406123844
 20
40.709182548228817
 30
0.0
 11
13.394370406123844
 21
39.459182548228817
 31
0.0
  0
LINE
  5
185
100
AcDbEntity
  8
0
  6
CONTINUOUS
 62
               7
100
AcDbLine
 10
15.999999999999947
 20
39.45918254822881
 30
0.0
 11
13.394370406123844
 21
39.459182548228817
 31
0.0
  0
LINE
  5
186
100
AcDbEntity
  8
0
  6
CONTINUOUS
 62
               7
100
AcDbLine
 10
8.6056295938760492
 20
39.459182548228817
 30
0.0
 11
5.9999999999999467
 21
39.459182548228817
 31
0.0
  0
LINE
  5
187
100
AcDbEntity
  8
0
  6
CONTINUOUS
 62
               7
100
AcDbLine
 10
9.8556295938760492
 20
40.709182548228817
 30
0.0
 11
12.144370406123844
 21
40.709182548228817
 31
0.0
  0
LINE
  5
188
100
AcDbEntity
  8
0
  6
CONTINUOUS
 62
               7
100
AcDbLine
 10
15.999999999999975
 20
39.899999999999977
 30
0.0
 11
13.649999999999952
 21
39.899999999999977
 31
0.0
  0
LINE
  5
189
100
AcDbEntity
  8
0
  6
CONTINUOUS
 62
               7
100
AcDbLine
 10
13.649999999999952
 20
39.899999999999977
 30
0.0
 11
12.399999999999952
 21
41.149999999999977
 31
0.0
  0
LINE
  5
18A
100
AcDbEntity
  8
0
  6
CONTINUOUS
 62
               7
100
AcDbLine
 10
9.599999999999941
 20
41.149999999999977
 30
0.0
 11
12.399999999999952
 21
41.149999999999977
 31
0.0
  0
LINE
  5
18B
100
AcDbEntity
  8
0
  6
CONTINUOUS
 62
               7
100
AcDbLine
 10
8.349999999999941
 20
39.899999999999977
 30
0.0
 11
5.9999999999999467
 21
39.899999999999977
 31
0.0
  0
CIRCLE
  5
18C
100
AcDbEntity
  8
0
  6
CONTINUOUS
 62
               7
100
AcDbCircle
 10
10.999999999999947
 20
43.749999999999986
 30
0.0
 40
2.0500000000000003
  0
LINE
  5
18D
100
AcDbEntity
  8
0
  6
CONTINUOUS
 62
               7
100
AcDbLine
 10
5.9999999999999467
 20
47.401921563030086
 30
0.0
 11
15.999999999999947
 21
47.401921563030086
 31
0.0
  0
LINE
  5
18E
100
AcDbEntity
  8
0
  6
CONTINUOUS
 62
               7
100
AcDbLine
 10
14.499999999999947
 20
43.59999999999998
 30
0.0
 11
15.999999999999947
 21
43.59999999999998
 31
0.0
  0
LINE
  5
18F
100
AcDbEntity
  8
0
  6
CONTINUOUS
 62
               7
100
AcDbLine
 10
15.999999999999947
 20
40.399999999999977
 30
0.0
 11
14.499999999999947
 21
40.399999999999977
 31
0.0
  0
LINE
  5
190
100
AcDbEntity
  8
0
  6
CONTINUOUS
 62
               7
100
AcDbLine
 10
7.4999999999999467
 20
40.399999999999977
 30
0.0
 11
5.9999999999999467
 21
40.399999999999977
 31
0.0
  0
LINE
  5
191
100
AcDbEntity
  8
0
  6
CONTINUOUS
 62
               7
100
AcDbLine
 10
5.9999999999999467
 20
43.59999999999998
 30
0.0
 11
7.4999999999999467
 21
43.59999999999998
 31
0.0
  0
ARC
  5
192
100
AcDbEntity
  8
0
  6
CONTINUOUS
 62
               7
100
AcDbCircle
 10
7.4999999999999467
 20
41.999999999999979
 30
0.0
 40
1.6000000000000001
100
AcDbArc
 50
270.0
 51
90.0
  0
ARC
  5
193
100
AcDbEntity
  8
0
  6
CONTINUOUS
 62
               7
100
AcDbCircle
 10
14.499999999999947
 20
41.999999999999972
 30
0.0
 40
1.6000000000000001
100
AcDbArc
 50
90.0
 51
270.0
  0
LINE
  5
194
100
AcDbEntity
  8
0
  6
CONTINUOUS
 62
               7
100
AcDbLine
 10
15.999999999999947
 20
65.199999999999989
 30
0.0
 11
15.999999999999947
 21
33.499999999999972
 31
0.0
  0
CIRCLE
  5
195
100
AcDbEntity
  8
0
  6
CONTINUOUS
 62
               7
100
AcDbCircle
 10
10.999999999999947
 20
43.749999999999986
 30
0.0
 40
1.9000000000000001
  0
LINE
  5
196
100
AcDbEntity
  8
0
  6
CONTINUOUS
 62
               7
100
AcDbLine
 10
6.2999999999999297
 20
65.499999999999986
 30
0.0
 11
15.699999999999935
 21
65.499999999999986
 31
0.0
  0
ARC
  5
197
100
AcDbEntity
  8
0
  6
CONTINUOUS
 62
               7
100
AcDbCircle
 10
6.2999999999999297
 20
65.199999999999989
 30
0.0
 40
0.3
100
AcDbArc
 50
90.0
 51
180.0
  0
ARC
  5
198
100
AcDbEntity
  8
0
  6
CONTINUOUS
 62
               7
100
AcDbCircle
 10
15.699999999999935
 20
65.199999999999989
 30
0.0
 40
0.3
100
AcDbArc
 50
0.0
 51
90.0
  0
LINE
  5
199
100
AcDbEntity
  8
0
  6
CONTINUOUS
 62
               2
100
AcDbLine
 10
12.499999999999947
 20
60.499999999999986
 30
0.0
 11
12.499999999999947
 21
65.499999999999986
 31
0.0
  0
LINE
  5
19A
100
AcDbEntity
  8
0
  6
CONTINUOUS
 62
               2
100
AcDbLine
 10
9.4999999999999467
 20
60.499999999999986
 30
0.0
 11
9.4999999999999467
 21
65.499999999999986
 31
0.0
  0
LINE
  5
19B
100
AcDbEntity
  8
0
  6
CONTINUOUS
 62
               2
100
AcDbLine
 10
9.4999999999999467
 20
60.499999999999986
 30
0.0
 11
12.499999999999947
 21
60.499999999999986
 31
0.0
  0
LINE
  5
19C
100
AcDbEntity
  8
0
  6
CONTINUOUS
 62
               7
100
AcDbLine
 10
12.825513626352805
 20
43.449999999999974
 30
0.0
 11
9.1744863736470599
 21
43.449999999999982
 31
0.0
  0
LINE
  5
19D
100
AcDbEntity
  8
0
  6
CONTINUOUS
 62
               7
100
AcDbLine
 10
12.825513626352805
 20
44.049999999999969
 30
0.0
 11
9.1744863736470599
 21
44.049999999999983
 31
0.0
  0
CIRCLE
  5
19E
100
AcDbEntity
  8
0
  6
CONTINUOUS
 62
               7
100
AcDbCircle
 10
10.999999999999947
 20
43.749999999999986
 30
0.0
 40
1.8500000000000001
  0
ARC
  5
19F
100
AcDbEntity
  8
0
  6
CONTINUOUS
 62
               7
100
AcDbCircle
 10
10.999999999999947
 20
43.749999999999986
 30
0.0
 40
0.8
100
AcDbArc
 50
22.024312837042206
 51
157.97568716295788
  0
ARC
  5
1A0
100
AcDbEntity
  8
0
  6
CONTINUOUS
 62
               7
100
AcDbCircle
 10
10.999999999999947
 20
43.749999999999986
 30
0.0
 40
0.8
100
AcDbArc
 50
202.0243128370422
 51
337.97568716295791
  0
CIRCLE
  5
1A1
100
AcDbEntity
  8
0
  6
CONTINUOUS
 62
               7
100
AcDbCircle
 10
7.4999999999999467
 20
41.999999999999979
 30
0.0
 40
1.5
  0
LINE
  5
1A2
100
AcDbEntity
  8
0
  6
CONTINUOUS
 62
               7
100
AcDbLine
 10
6.7928932188133935
 20
41.292893218813433
 30
0.0
 11
8.2071067811864999
 21
42.707106781186525
 31
0.0
  0
LINE
  5
1A3
100
AcDbEntity
  8
0
  6
CONTINUOUS
 62
               7
100
AcDbLine
 10
6.7928932188133935
 20
42.707106781186525
 30
0.0
 11
8.2071067811864999
 21
41.292893218813433
 31
0.0
  0
LINE
  5
1A4
100
AcDbEntity
  8
0
  6
CONTINUOUS
 62
               7
100
AcDbLine
 10
15.2071067811865
 20
42.707106781186525
 30
0.0
 11
13.792893218813393
 21
41.292893218813433
 31
0.0
  0
LINE
  5
1A5
100
AcDbEntity
  8
0
  6
CONTINUOUS
 62
               7
100
AcDbLine
 10
15.2071067811865
 20
41.292893218813433
 30
0.0
 11
13.792893218813393
 21
42.707106781186525
 31
0.0
  0
CIRCLE
  5
1A6
100
AcDbEntity
  8
0
  6
CONTINUOUS
 62
               7
100
AcDbCircle
 10
14.499999999999947
 20
41.999999999999972
 30
0.0
 40
1.5
  0
LINE
  5
1A7
100
AcDbEntity
  8
0
  6
CONTINUOUS
 62
               7
100
AcDbLine
 10
15.999999999999947
 20
33.499999999999972
 30
0.0
 11
5.9999999999999467
 21
33.499999999999979
 31
0.0
  0
LINE
  5
1A8
100
AcDbEntity
  8
0
  6
CONTINUOUS
 62
               7
100
AcDbLine
 10
15.59437040612389
 20
27.040817451771137
 30
0.0
 11
15.849999999999998
 21
26.599999999999977
 31
0.0
  0
LINE
  5
1A9
100
AcDbEntity
  8
0
  6
CONTINUOUS
 62
               7
100
AcDbLine
 10
10.549999999999986
 20
26.599999999999977
 30
0.0
 11
10.805629593876095
 21
27.040817451771137
 31
0.0
  0
LINE
  5
1AA
100
AcDbEntity
  8
0
  6
CONTINUOUS
 62
               7
100
AcDbLine
 10
14.34437040612389
 20
25.790817451771137
 30
0.0
 11
14.599999999999998
 21
25.349999999999977
 31
0.0
  0
LINE
  5
1AB
100
AcDbEntity
  8
0
  6
CONTINUOUS
 62
               7
100
AcDbLine
 10
15.849999999999998
 20
26.599999999999977
 30
0.0
 11
14.599999999999998
 21
25.349999999999977
 31
0.0
  0
LINE
  5
1AC
100
AcDbEntity
  8
0
  6
CONTINUOUS
 62
               7
100
AcDbLine
 10
14.34437040612389
 20
25.790817451771137
 30
0.0
 11
15.59437040612389
 21
27.040817451771137
 31
0.0
  0
LINE
  5
1AD
100
AcDbEntity
  8
0
  6
CONTINUOUS
 62
               7
100
AcDbLine
 10
12.055629593876095
 20
25.790817451771137
 30
0.0
 11
11.799999999999986
 21
25.349999999999977
 31
0.0
  0
LINE
  5
1AE
100
AcDbEntity
  8
0
  6
CONTINUOUS
 62
               7
100
AcDbLine
 10
8.1999999999999922
 20
19.909182548228802
 30
0.0
 11
18.199999999999992
 21
19.909182548228809
 31
0.0
  0
LINE
  5
1AF
100
AcDbEntity
  8
0
  6
CONTINUOUS
 62
               7
100
AcDbLine
 10
12.055629593876095
 20
25.790817451771137
 30
0.0
 11
10.805629593876095
 21
27.040817451771137
 31
0.0
  0
LINE
  5
1B0
100
AcDbEntity
  8
0
  6
CONTINUOUS
 62
               7
100
AcDbLine
 10
8.1999999999999922
 20
27.040817451771137
 30
0.0
 11
10.805629593876095
 21
27.040817451771137
 31
0.0
  0
LINE
  5
1B1
100
AcDbEntity
  8
0
  6
CONTINUOUS
 62
               7
100
AcDbLine
 10
15.59437040612389
 20
27.040817451771137
 30
0.0
 11
18.199999999999992
 21
27.040817451771137
 31
0.0
  0
LINE
  5
1B2
100
AcDbEntity
  8
0
  6
CONTINUOUS
 62
               7
100
AcDbLine
 10
14.34437040612389
 20
25.790817451771137
 30
0.0
 11
12.055629593876095
 21
25.790817451771137
 31
0.0
  0
LINE
  5
1B3
100
AcDbEntity
  8
0
  6
CONTINUOUS
 62
               7
100
AcDbLine
 10
8.1999999999999638
 20
26.599999999999984
 30
0.0
 11
10.549999999999986
 21
26.599999999999977
 31
0.0
  0
LINE
  5
1B4
100
AcDbEntity
  8
0
  6
CONTINUOUS
 62
               7
100
AcDbLine
 10
10.549999999999986
 20
26.599999999999977
 30
0.0
 11
11.799999999999986
 21
25.349999999999977
 31
0.0
  0
LINE
  5
1B5
100
AcDbEntity
  8
0
  6
CONTINUOUS
 62
               7
100
AcDbLine
 10
14.599999999999998
 20
25.349999999999977
 30
0.0
 11
11.799999999999986
 21
25.349999999999977
 31
0.0
  0
LINE
  5
1B6
100
AcDbEntity
  8
0
  6
CONTINUOUS
 62
               7
100
AcDbLine
 10
15.849999999999998
 20
26.599999999999977
 30
0.0
 11
18.199999999999992
 21
26.599999999999977
 31
0.0
  0
CIRCLE
  5
1B7
100
AcDbEntity
  8
0
  6
CONTINUOUS
 62
               7
100
AcDbCircle
 10
13.199999999999992
 20
22.749999999999975
 30
0.0
 40
2.0500000000000003
  0
LINE
  5
1B8
100
AcDbEntity
  8
0
  6
CONTINUOUS
 62
               7
100
AcDbLine
 10
18.199999999999992
 20
19.098078436969875
 30
0.0
 11
8.1999999999999922
 21
19.098078436969875
 31
0.0
  0
LINE
  5
1B9
100
AcDbEntity
  8
0
  6
CONTINUOUS
 62
               7
100
AcDbLine
 10
8.1999999999999922
 20
18.599999999999969
 30
0.0
 11
8.4999999999999467
 21
18.599999999999969
 31
0.0
  0
LINE
  5
1BA
100
AcDbEntity
  8
0
  6
CONTINUOUS
 62
               7
100
AcDbLine
 10
9.6999999999999922
 20
22.899999999999974
 30
0.0
 11
8.1999999999999922
 21
22.899999999999967
 31
0.0
  0
LINE
  5
1BB
100
AcDbEntity
  8
0
  6
CONTINUOUS
 62
               7
100
AcDbLine
 10
8.1999999999999922
 20
26.099999999999969
 30
0.0
 11
9.6999999999999922
 21
26.099999999999977
 31
0.0
  0
LINE
  5
1BC
100
AcDbEntity
  8
0
  6
CONTINUOUS
 62
               7
100
AcDbLine
 10
16.699999999999992
 20
26.099999999999977
 30
0.0
 11
18.199999999999992
 21
26.099999999999977
 31
0.0
  0
LINE
  5
1BD
100
AcDbEntity
  8
0
  6
CONTINUOUS
 62
               7
100
AcDbLine
 10
18.199999999999992
 20
22.899999999999974
 30
0.0
 11
16.699999999999992
 21
22.899999999999974
 31
0.0
  0
ARC
  5
1BE
100
AcDbEntity
  8
0
  6
CONTINUOUS
 62
               7
100
AcDbCircle
 10
16.699999999999992
 20
24.499999999999975
 30
0.0
 40
1.6000000000000001
100
AcDbArc
 50
90.0
 51
270.0
  0
ARC
  5
1BF
100
AcDbEntity
  8
0
  6
CONTINUOUS
 62
               7
100
AcDbCircle
 10
9.6999999999999922
 20
24.499999999999975
 30
0.0
 40
1.6000000000000001
100
AcDbArc
 50
270.0
 51
90.0
  0
LINE
  5
1C0
100
AcDbEntity
  8
0
  6
CONTINUOUS
 62
               7
100
AcDbLine
 10
8.1999999999999922
 20
0.9999999999999751
 30
0.0
 11
8.1999999999999922
 21
32.999999999999972
 31
0.0
  0
CIRCLE
  5
1C1
100
AcDbEntity
  8
0
  6
CONTINUOUS
 62
               7
100
AcDbCircle
 10
13.199999999999992
 20
22.749999999999975
 30
0.0
 40
1.9000000000000001
  0
ARC
  5
1C2
100
AcDbEntity
  8
0
  6
CONTINUOUS
 62
               7
100
AcDbCircle
 10
17.900000000000009
 20
1.2999999999999723
 30
0.0
 40
0.3
100
AcDbArc
 50
270.0
 51
0.0
  0
LINE
  5
1C3
100
AcDbEntity
  8
0
  6
CONTINUOUS
 62
               2
100
AcDbLine
 10
11.699999999999992
 20
5.9999999999999751
 30
0.0
 11
11.699999999999992
 21
0.9999999999999751
 31
0.0
  0
LINE
  5
1C4
100
AcDbEntity
  8
0
  6
CONTINUOUS
 62
               2
100
AcDbLine
 10
14.699999999999992
 20
5.9999999999999751
 30
0.0
 11
14.699999999999992
 21
0.9999999999999751
 31
0.0
  0
LINE
  5
1C5
100
AcDbEntity
  8
0
  6
CONTINUOUS
 62
               2
100
AcDbLine
 10
14.699999999999992
 20
5.9999999999999751
 30
0.0
 11
11.699999999999992
 21
5.9999999999999751
 31
0.0
  0
LINE
  5
1C6
100
AcDbEntity
  8
0
  6
CONTINUOUS
 62
               7
100
AcDbLine
 10
11.374486373647134
 20
23.049999999999972
 30
0.0
 11
15.025513626352879
 21
23.049999999999972
 31
0.0
  0
LINE
  5
1C7
100
AcDbEntity
  8
0
  6
CONTINUOUS
 62
               7
100
AcDbLine
 10
11.374486373647134
 20
22.449999999999978
 30
0.0
 11
15.025513626352879
 21
22.449999999999978
 31
0.0
  0
CIRCLE
  5
1C8
100
AcDbEntity
  8
0
  6
CONTINUOUS
 62
               7
100
AcDbCircle
 10
13.199999999999992
 20
22.749999999999975
 30
0.0
 40
1.8500000000000001
  0
ARC
  5
1C9
100
AcDbEntity
  8
0
  6
CONTINUOUS
 62
               7
100
AcDbCircle
 10
13.199999999999992
 20
22.749999999999975
 30
0.0
 40
0.8
100
AcDbArc
 50
202.0243128370422
 51
337.97568716295791
  0
ARC
  5
1CA
100
AcDbEntity
  8
0
  6
CONTINUOUS
 62
               7
100
AcDbCircle
 10
13.199999999999992
 20
22.749999999999975
 30
0.0
 40
0.8
100
AcDbArc
 50
22.024312837042206
 51
157.97568716295788
  0
CIRCLE
  5
1CB
100
AcDbEntity
  8
0
  6
CONTINUOUS
 62
               7
100
AcDbCircle
 10
16.699999999999992
 20
24.499999999999975
 30
0.0
 40
1.5
  0
LINE
  5
1CC
100
AcDbEntity
  8
0
  6
CONTINUOUS
 62
               7
100
AcDbLine
 10
17.407106781186545
 20
25.207106781186521
 30
0.0
 11
15.992893218813439
 21
23.792893218813429
 31
0.0
  0
LINE
  5
1CD
100
AcDbEntity
  8
0
  6
CONTINUOUS
 62
               7
100
AcDbLine
 10
17.407106781186545
 20
23.792893218813429
 30
0.0
 11
15.992893218813439
 21
25.207106781186521
 31
0.0
  0
LINE
  5
1CE
100
AcDbEntity
  8
0
  6
CONTINUOUS
 62
               7
100
AcDbLine
 10
8.9928932188134389
 20
23.792893218813429
 30
0.0
 11
10.407106781186545
 21
25.207106781186521
 31
0.0
  0
LINE
  5
1CF
100
AcDbEntity
  8
0
  6
CONTINUOUS
 62
               7
100
AcDbLine
 10
8.9928932188134389
 20
25.207106781186528
 30
0.0
 11
10.407106781186545
 21
23.792893218813429
 31
0.0
  0
CIRCLE
  5
1D0
100
AcDbEntity
  8
0
  6
CONTINUOUS
 62
               7
100
AcDbCircle
 10
9.6999999999999922
 20
24.499999999999975
 30
0.0
 40
1.5
  0
LINE
  5
1D1
100
AcDbEntity
  8
0
  6
CONTINUOUS
 62
               7
100
AcDbLine
 10
8.1999999999999922
 20
32.999999999999972
 30
0.0
 11
18.199999999999992
 21
32.999999999999972
 31
0.0
  0
ARC
  5
1D2
100
AcDbEntity
  8
0
  6
CONTINUOUS
 62
               7
100
AcDbCircle
 10
16.599999999999969
 20
39.000000027499965
 30
0.0
 40
1.6999999999999993
100
AcDbArc
 50
249.33268350648655
 51
270.0
  0
ARC
  5
1D3
100
AcDbEntity
  8
0
  6
CONTINUOUS
 62
               7
100
AcDbCircle
 10
7.5999999999999694
 20
27.499999972499925
 30
0.0
 40
1.6999999999999993
100
AcDbArc
 50
69.332683506486546
 51
90.0
  0
LINE
  5
1D4
100
AcDbEntity
  8
0
  6
CONTINUOUS
 62
               7
100
AcDbLine
 10
17.307106781186523
 20
39.707106808686518
 30
0.0
 11
15.999999999999947
 21
38.400000027499956
 31
0.0
  0
LINE
  5
1D5
100
AcDbEntity
  8
0
  6
CONTINUOUS
 62
               7
100
AcDbLine
 10
17.307106781186523
 20
38.292893246313426
 30
0.0
 11
15.999999999999947
 21
39.600000027499988
 31
0.0
  0
ARC
  5
1D6
100
AcDbEntity
  8
0
  6
CONTINUOUS
 62
               7
100
AcDbCircle
 10
16.599999999999969
 20
39.000000027499965
 30
0.0
 40
1.5
100
AcDbArc
 50
246.4218215217972
 51
113.57817847820279
  0
LINE
  5
1D7
100
AcDbEntity
  8
0
  6
CONTINUOUS
 62
               7
100
AcDbLine
 10
8.1999999999999922
 20
28.099999972499941
 30
0.0
 11
6.8928932188134162
 21
26.792893191313379
 31
0.0
  0
LINE
  5
1D8
100
AcDbEntity
  8
0
  6
CONTINUOUS
 62
               7
100
AcDbLine
 10
8.1999999999999922
 20
26.899999972499906
 30
0.0
 11
6.8928932188134162
 21
28.207106753686471
 31
0.0
  0
ARC
  5
1D9
100
AcDbEntity
  8
0
  6
CONTINUOUS
 62
               7
100
AcDbCircle
 10
7.5999999999999694
 20
27.499999972499925
 30
0.0
 40
1.5
100
AcDbArc
 50
66.421821521797213
 51
293.5781784782028
  0
LINE
  5
1DA
100
AcDbEntity
  8
0
  6
CONTINUOUS
 62
               7
100
AcDbLine
 10
16.599999999999969
 20
73.063402898235992
 30
0.0
 11
11.599999999999969
 21
73.063402898235992
 31
0.0
  0
LINE
  5
1DB
100
AcDbEntity
  8
0
  6
CONTINUOUS
 62
               7
100
AcDbLine
 10
16.099999999999969
 20
73.563402898235992
 30
0.0
 11
12.099999999999969
 21
73.563402898235992
 31
0.0
  0
LINE
  5
1DC
100
AcDbEntity
  8
0
  6
CONTINUOUS
 62
               7
100
AcDbLine
 10
17.349999999999969
 20
62.219220935761172
 30
0.0
 11
15.999999999999947
 21
62.219220935761172
 31
0.0
  0
LINE
  5
1DD
100
AcDbEntity
  8
0
  6
CONTINUOUS
 62
               7
100
AcDbLine
 10
17.099999999999969
 20
63.858402898235994
 30
0.0
 11
15.999999999999947
 21
63.858402898235994
 31
0.0
  0
LINE
  5
1DE
100
AcDbEntity
  8
0
  6
CONTINUOUS
 62
               7
100
AcDbLine
 10
17.099999999999969
 20
65.858402898235994
 30
0.0
 11
11.099999999999969
 21
65.858402898235994
 31
0.0
  0
LINE
  5
1DF
100
AcDbEntity
  8
0
  6
CONTINUOUS
 62
               7
100
AcDbLine
 10
16.599999999999969
 20
68.063402898235978
 30
0.0
 11
11.599999999999969
 21
68.063402898235978
 31
0.0
  0
LINE
  5
1E0
100
AcDbEntity
  8
0
  6
CONTINUOUS
 62
               7
100
AcDbLine
 10
16.599999999999969
 20
73.063402898235992
 30
0.0
 11
16.099999999999969
 21
73.563402898235992
 31
0.0
  0
LINE
  5
1E1
100
AcDbEntity
  8
0
  6
CONTINUOUS
 62
               7
100
AcDbLine
 10
11.599999999999969
 20
73.063402898235992
 30
0.0
 11
12.099999999999969
 21
73.563402898235992
 31
0.0
  0
LINE
  5
1E2
100
AcDbEntity
  8
0
  6
CONTINUOUS
 62
               2
100
AcDbLine
 10
12.849999999999969
 20
67.563402898235978
 30
0.0
 11
12.849999999999969
 21
66.358402898235994
 31
0.0
  0
LINE
  5
1E3
100
AcDbEntity
  8
0
  6
CONTINUOUS
 62
               7
100
AcDbLine
 10
13.024999999999981
 20
67.563402898235978
 30
0.0
 11
13.024999999999981
 21
66.358402898235994
 31
0.0
  0
LINE
  5
1E4
100
AcDbEntity
  8
0
  6
CONTINUOUS
 62
               2
100
AcDbLine
 10
15.349999999999969
 20
67.563402898235978
 30
0.0
 11
15.349999999999969
 21
66.358402898235994
 31
0.0
  0
LINE
  5
1E5
100
AcDbEntity
  8
0
  6
CONTINUOUS
 62
               7
100
AcDbLine
 10
15.174999999999958
 20
67.563402898235978
 30
0.0
 11
15.174999999999958
 21
66.358402898235994
 31
0.0
  0
LINE
  5
1E6
100
AcDbEntity
  8
0
  6
CONTINUOUS
 62
               7
100
AcDbLine
 10
17.349999999999969
 20
62.219220935761172
 30
0.0
 11
16.849999999999969
 21
62.719220935761172
 31
0.0
  0
LINE
  5
1E7
100
AcDbEntity
  8
0
  6
CONTINUOUS
 62
               7
100
AcDbLine
 10
15.999999999999947
 20
62.719220935761172
 30
0.0
 11
16.849999999999969
 21
62.719220935761172
 31
0.0
  0
LINE
  5
1E8
100
AcDbEntity
  8
0
  6
CONTINUOUS
 62
               7
100
AcDbLine
 10
15.999999999999947
 20
63.358402898235994
 30
0.0
 11
16.599999999999969
 21
63.358402898235994
 31
0.0
  0
LINE
  5
1E9
100
AcDbEntity
  8
0
  6
CONTINUOUS
 62
               7
100
AcDbLine
 10
11.099999999999969
 20
65.499999999999986
 30
0.0
 11
11.099999999999969
 21
65.858402898235994
 31
0.0
  0
LINE
  5
1EA
100
AcDbEntity
  8
0
  6
CONTINUOUS
 62
               7
100
AcDbLine
 10
11.099999999999969
 20
65.858402898235994
 30
0.0
 11
11.599999999999969
 21
66.358402898235994
 31
0.0
  0
LINE
  5
1EB
100
AcDbEntity
  8
0
  6
CONTINUOUS
 62
               7
100
AcDbLine
 10
17.099999999999969
 20
63.858402898235994
 30
0.0
 11
16.599999999999969
 21
63.358402898235994
 31
0.0
  0
LINE
  5
1EC
100
AcDbEntity
  8
0
  6
CONTINUOUS
 62
               7
100
AcDbLine
 10
17.099999999999969
 20
65.858402898235994
 30
0.0
 11
16.599999999999969
 21
66.358402898235994
 31
0.0
  0
LINE
  5
1ED
100
AcDbEntity
  8
0
  6
CONTINUOUS
 62
               7
100
AcDbLine
 10
11.599999999999969
 20
66.358402898235994
 30
0.0
 11
16.599999999999969
 21
66.358402898235994
 31
0.0
  0
LINE
  5
1EE
100
AcDbEntity
  8
0
  6
CONTINUOUS
 62
               7
100
AcDbLine
 10
16.099999999999969
 20
67.563402898235978
 30
0.0
 11
16.599999999999969
 21
68.063402898235978
 31
0.0
  0
LINE
  5
1EF
100
AcDbEntity
  8
0
  6
CONTINUOUS
 62
               7
100
AcDbLine
 10
11.599999999999969
 20
68.063402898235978
 30
0.0
 11
12.099999999999969
 21
67.563402898235978
 31
0.0
  0
LINE
  5
1F0
100
AcDbEntity
  8
0
  6
CONTINUOUS
 62
               7
100
AcDbLine
 10
16.099999999999969
 20
67.563402898235978
 30
0.0
 11
12.099999999999969
 21
67.563402898235978
 31
0.0
  0
LINE
  5
1F1
100
AcDbEntity
  8
0
  6
CONTINUOUS
 62
               7
100
AcDbLine
 10
17.099999999999969
 20
63.858402898235994
 30
0.0
 11
17.099999999999969
 21
65.858402898235994
 31
0.0
  0
LINE
  5
1F2
100
AcDbEntity
  8
0
  6
CONTINUOUS
 62
               7
100
AcDbLine
 10
16.599999999999969
 20
73.063402898235992
 30
0.0
 11
16.599999999999969
 21
68.063402898235978
 31
0.0
  0
LINE
  5
1F3
100
AcDbEntity
  8
0
  6
CONTINUOUS
 62
               7
100
AcDbLine
 10
11.599999999999969
 20
73.063402898235992
 30
0.0
 11
11.599999999999969
 21
68.063402898235978
 31
0.0
  0
LINE
  5
1F4
100
AcDbEntity
  8
0
  6
CONTINUOUS
 62
               2
100
AcDbLine
 10
14.099999999999969
 20
74.563402898235992
 30
0.0
 11
14.099999999999969
 21
64.499999999999986
 31
0.0
  0
LINE
  5
1F5
100
AcDbEntity
  8
0
  6
CONTINUOUS
 62
               7
100
AcDbLine
 10
17.349999999999969
 20
59.500000000000057
 30
0.0
 11
17.349999999999969
 21
62.219220935761172
 31
0.0
  0
LINE
  5
1F6
100
AcDbEntity
  8
0
  6
CONTINUOUS
 62
               7
100
AcDbLine
 10
6.3000000000000149
 20
47.500000000000099
 30
0.0
 11
6.3000000000000149
 21
52.800000000000054
 31
0.0
  0
ARC
  5
1F7
100
AcDbEntity
  8
0
  6
CONTINUOUS
 62
               7
100
AcDbCircle
 10
6.2999999999999012
 20
53.000000000000099
 30
0.0
 40
0.3
100
AcDbArc
 50
90.0
 51
180.0
  0
LINE
  5
1F8
100
AcDbEntity
  8
0
  6
CONTINUOUS
 62
               7
100
AcDbLine
 10
15.999999999999947
 20
48.000000000000099
 30
0.0
 11
15.699999999999992
 21
48.000000000000099
 31
0.0
  0
ARC
  5
1F9
100
AcDbEntity
  8
0
  6
CONTINUOUS
 62
               7
100
AcDbCircle
 10
15.699999999999992
 20
53.000000000000099
 30
0.0
 40
0.3
100
AcDbArc
 50
0.0
 51
90.0
  0
LINE
  5
1FA
100
AcDbEntity
  8
0
  6
CONTINUOUS
 62
               7
100
AcDbLine
 10
15.999999999999947
 20
47.899999999999963
 30
0.0
 11
15.699999999999992
 21
47.899999999999963
 31
0.0
  0
LINE
  5
1FB
100
AcDbEntity
  8
0
  6
CONTINUOUS
 62
               7
100
AcDbLine
 10
15.699999999999992
 20
47.500000000000099
 30
0.0
 11
15.699999999999992
 21
52.800000000000054
 31
0.0
  0
LINE
  5
1FC
100
AcDbEntity
  8
0
  6
CONTINUOUS
 62
               7
100
AcDbLine
 10
13.499999999999947
 20
52.300000000000054
 30
0.0
 11
13.899999999999924
 21
52.300000000000054
 31
0.0
  0
CIRCLE
  5
1FD
100
AcDbEntity
  8
0
  6
CONTINUOUS
 62
               7
100
AcDbCircle
 10
13.53999999999991
 20
50.300000000000054
 30
0.0
 40
0.75
  0
CIRCLE
  5
1FE
100
AcDbEntity
  8
0
  6
CONTINUOUS
 62
               7
100
AcDbCircle
 10
8.4599999999999831
 20
50.300000000000054
 30
0.0
 40
0.75
  0
LINE
  5
1FF
100
AcDbEntity
  8
0
  6
CONTINUOUS
 62
               7
100
AcDbLine
 10
8.4999999999999467
 20
53.100000000000009
 30
0.0
 11
13.499999999999947
 21
53.100000000000009
 31
0.0
  0
LINE
  5
200
100
AcDbEntity
  8
0
  6
CONTINUOUS
 62
               7
100
AcDbLine
 10
8.4999999994233271
 20
54.300000000000054
 30
0.0
 11
13.499999999423327
 21
54.300000000000054
 31
0.0
  0
LINE
  5
201
100
AcDbEntity
  8
0
  6
CONTINUOUS
 62
               7
100
AcDbLine
 10
7.3000000000000149
 20
51.800000000000054
 30
0.0
 11
14.699999999999992
 21
51.800000000000054
 31
0.0
  0
LINE
  5
202
100
AcDbEntity
  8
0
  6
CONTINUOUS
 62
               7
100
AcDbLine
 10
7.9099999999999149
 20
49.200000000000031
 30
0.0
 11
7.9099999999999149
 21
48.700000000000031
 31
0.0
  0
ARC
  5
203
100
AcDbEntity
  8
0
  6
CONTINUOUS
 62
               7
100
AcDbCircle
 10
7.5843441079742355
 20
49.400664252805981
 30
0.0
 40
0.2006645478515588
100
AcDbArc
 50
176.7615783549173
 51
269.90174674849595
  0
LINE
  5
204
100
AcDbEntity
  8
0
  6
CONTINUOUS
 62
               7
100
AcDbLine
 10
9.0099999999999376
 20
49.200000000000031
 30
0.0
 11
9.0099999999999376
 21
48.700000000000031
 31
0.0
  0
ARC
  5
205
100
AcDbEntity
  8
0
  6
CONTINUOUS
 62
               7
100
AcDbCircle
 10
9.3347148526388004
 20
49.399665233359528
 30
0.0
 40
0.1996665130331531
100
AcDbArc
 50
269.79486732121302
 51
3.5418075753734648
  0
LINE
  5
206
100
AcDbEntity
  8
0
  6
CONTINUOUS
 62
               7
100
AcDbLine
 10
7.5099999999999376
 20
51.300000000000054
 30
0.0
 11
9.4099999999999149
 21
51.300000000000054
 31
0.0
  0
LINE
  5
207
100
AcDbEntity
  8
0
  6
CONTINUOUS
 62
               7
100
AcDbLine
 10
7.5840000000000067
 20
49.200000000000031
 30
0.0
 11
9.3340000000000067
 21
49.200000000000031
 31
0.0
  0
LINE
  5
208
100
AcDbEntity
  8
0
  6
CONTINUOUS
 62
               7
100
AcDbLine
 10
7.9099999999999149
 20
48.700000000000031
 30
0.0
 11
9.0099999999999376
 21
48.700000000000031
 31
0.0
  0
LINE
  5
209
100
AcDbEntity
  8
0
  6
CONTINUOUS
 62
               7
100
AcDbLine
 10
12.249999999999947
 20
52.800000000000054
 30
0.0
 11
12.249999999999947
 21
51.800000000000054
 31
0.0
  0
LINE
  5
20A
100
AcDbEntity
  8
0
  6
CONTINUOUS
 62
               7
100
AcDbLine
 10
9.7499999999999467
 20
52.800000000000054
 30
0.0
 11
9.7499999999999467
 21
51.800000000000054
 31
0.0
  0
LINE
  5
20B
100
AcDbEntity
  8
0
  6
CONTINUOUS
 62
               7
100
AcDbLine
 10
7.3000000000000149
 20
51.800000000000054
 30
0.0
 11
7.3000000000000149
 21
52.800000000000054
 31
0.0
  0
LINE
  5
20C
100
AcDbEntity
  8
0
  6
CONTINUOUS
 62
               7
100
AcDbLine
 10
14.699999999999992
 20
51.800000000000054
 30
0.0
 11
14.699999999999992
 21
52.800000000000054
 31
0.0
  0
LINE
  5
20D
100
AcDbEntity
  8
0
  6
CONTINUOUS
 62
               7
100
AcDbLine
 10
9.4099999999999149
 20
51.300000000000054
 30
0.0
 11
9.5339999999999385
 21
49.41200000000002
 31
0.0
  0
LINE
  5
20E
100
AcDbEntity
  8
0
  6
CONTINUOUS
 62
               7
100
AcDbLine
 10
7.3839999999999613
 20
49.41200000000002
 30
0.0
 11
7.5099999999999376
 21
51.300000000000054
 31
0.0
  0
LINE
  5
20F
100
AcDbEntity
  8
0
  6
CONTINUOUS
 62
               7
100
AcDbLine
 10
10.050000000000015
 20
51.300000000000054
 30
0.0
 11
11.949999999999992
 21
51.300000000000054
 31
0.0
  0
LINE
  5
210
100
AcDbEntity
  8
0
  6
CONTINUOUS
 62
               7
100
AcDbLine
 10
9.9239999999999249
 20
49.41200000000002
 30
0.0
 11
10.050000000000015
 21
51.300000000000054
 31
0.0
  0
ARC
  5
211
100
AcDbEntity
  8
0
  6
CONTINUOUS
 62
               7
100
AcDbCircle
 10
10.124344107974313
 20
49.400664252805981
 30
0.0
 40
0.2006645478515588
100
AcDbArc
 50
176.7615783549173
 51
269.90174674849595
  0
LINE
  5
212
100
AcDbEntity
  8
0
  6
CONTINUOUS
 62
               7
100
AcDbLine
 10
10.12399999999997
 20
49.200000000000031
 30
0.0
 11
11.87399999999997
 21
49.200000000000031
 31
0.0
  0
LINE
  5
213
100
AcDbEntity
  8
0
  6
CONTINUOUS
 62
               7
100
AcDbLine
 10
10.449999999999992
 20
49.200000000000031
 30
0.0
 11
10.449999999999992
 21
48.700000000000031
 31
0.0
  0
LINE
  5
214
100
AcDbEntity
  8
0
  6
CONTINUOUS
 62
               7
100
AcDbLine
 10
10.449999999999992
 20
48.700000000000031
 30
0.0
 11
11.550000000000015
 21
48.700000000000031
 31
0.0
  0
LINE
  5
215
100
AcDbEntity
  8
0
  6
CONTINUOUS
 62
               7
100
AcDbLine
 10
11.550000000000015
 20
49.200000000000031
 30
0.0
 11
11.550000000000015
 21
48.700000000000031
 31
0.0
  0
ARC
  5
216
100
AcDbEntity
  8
0
  6
CONTINUOUS
 62
               7
100
AcDbCircle
 10
11.874714852638878
 20
49.399665233359528
 30
0.0
 40
0.1996665130331531
100
AcDbArc
 50
269.79486732121302
 51
3.5418075753734648
  0
LINE
  5
217
100
AcDbEntity
  8
0
  6
CONTINUOUS
 62
               7
100
AcDbLine
 10
11.949999999999992
 20
51.300000000000054
 30
0.0
 11
12.074000000000016
 21
49.41200000000002
 31
0.0
  0
LINE
  5
218
100
AcDbEntity
  8
0
  6
CONTINUOUS
 62
               7
100
AcDbLine
 10
10.599999999999969
 20
50.700000000000031
 30
0.0
 11
10.599999999999969
 21
49.900000000000077
 31
0.0
  0
LINE
  5
219
100
AcDbEntity
  8
0
  6
CONTINUOUS
 62
               7
100
AcDbLine
 10
11.399999999999924
 20
50.700000000000031
 30
0.0
 11
10.599999999999969
 21
50.700000000000031
 31
0.0
  0
LINE
  5
21A
100
AcDbEntity
  8
0
  6
CONTINUOUS
 62
               7
100
AcDbLine
 10
11.399999999999924
 20
50.700000000000031
 30
0.0
 11
11.399999999999924
 21
49.900000000000077
 31
0.0
  0
LINE
  5
21B
100
AcDbEntity
  8
0
  6
CONTINUOUS
 62
               7
100
AcDbLine
 10
11.399999999999924
 20
49.900000000000077
 30
0.0
 11
10.599999999999969
 21
49.900000000000077
 31
0.0
  0
LINE
  5
21C
100
AcDbEntity
  8
0
  6
CONTINUOUS
 62
               7
100
AcDbLine
 10
12.589999999999979
 20
51.300000000000054
 30
0.0
 11
14.489999999999956
 21
51.300000000000054
 31
0.0
  0
LINE
  5
21D
100
AcDbEntity
  8
0
  6
CONTINUOUS
 62
               7
100
AcDbLine
 10
12.464000000000002
 20
49.41200000000002
 30
0.0
 11
12.589999999999979
 21
51.300000000000054
 31
0.0
  0
ARC
  5
21E
100
AcDbEntity
  8
0
  6
CONTINUOUS
 62
               7
100
AcDbCircle
 10
12.664344107974276
 20
49.400664252805981
 30
0.0
 40
0.2006645478515588
100
AcDbArc
 50
176.7615783549173
 51
269.90174674849595
  0
LINE
  5
21F
100
AcDbEntity
  8
0
  6
CONTINUOUS
 62
               7
100
AcDbLine
 10
12.663999999999934
 20
49.200000000000031
 30
0.0
 11
14.413999999999934
 21
49.200000000000031
 31
0.0
  0
LINE
  5
220
100
AcDbEntity
  8
0
  6
CONTINUOUS
 62
               7
100
AcDbLine
 10
12.989999999999956
 20
49.200000000000031
 30
0.0
 11
12.989999999999956
 21
48.700000000000031
 31
0.0
  0
LINE
  5
221
100
AcDbEntity
  8
0
  6
CONTINUOUS
 62
               7
100
AcDbLine
 10
12.989999999999956
 20
48.700000000000031
 30
0.0
 11
14.089999999999979
 21
48.700000000000031
 31
0.0
  0
LINE
  5
222
100
AcDbEntity
  8
0
  6
CONTINUOUS
 62
               7
100
AcDbLine
 10
14.089999999999979
 20
49.200000000000031
 30
0.0
 11
14.089999999999979
 21
48.700000000000031
 31
0.0
  0
ARC
  5
223
100
AcDbEntity
  8
0
  6
CONTINUOUS
 62
               7
100
AcDbCircle
 10
14.414714852638841
 20
49.399665233359528
 30
0.0
 40
0.1996665130331531
100
AcDbArc
 50
269.79486732121302
 51
3.5418075753734648
  0
LINE
  5
224
100
AcDbEntity
  8
0
  6
CONTINUOUS
 62
               7
100
AcDbLine
 10
14.489999999999956
 20
51.300000000000054
 30
0.0
 11
14.613999999999979
 21
49.41200000000002
 31
0.0
  0
LINE
  5
225
100
AcDbEntity
  8
0
  6
CONTINUOUS
 62
               7
100
AcDbLine
 10
8.4999999999999467
 20
54.300000000000054
 30
0.0
 11
8.4999999999999467
 21
51.800000000000054
 31
0.0
  0
LINE
  5
226
100
AcDbEntity
  8
0
  6
CONTINUOUS
 62
               7
100
AcDbLine
 10
13.499999999999947
 20
54.300000000000054
 30
0.0
 11
13.499999999999947
 21
51.800000000000054
 31
0.0
  0
LINE
  5
227
100
AcDbEntity
  8
0
  6
CONTINUOUS
 62
               7
100
AcDbLine
 10
8.0999999999999694
 20
52.800000000000054
 30
0.0
 11
13.899999999999924
 21
52.800000000000054
 31
0.0
  0
LINE
  5
228
100
AcDbEntity
  8
0
  6
CONTINUOUS
 62
               7
100
AcDbLine
 10
13.899999999999924
 20
52.300000000000054
 30
0.0
 11
13.899999999999924
 21
53.300000000000054
 31
0.0
  0
LINE
  5
229
100
AcDbEntity
  8
0
  6
CONTINUOUS
 62
               7
100
AcDbLine
 10
8.0999999999999694
 20
52.300000000000054
 30
0.0
 11
8.0999999999999694
 21
53.300000000000054
 31
0.0
  0
LINE
  5
22A
100
AcDbEntity
  8
0
  6
CONTINUOUS
 62
               7
100
AcDbLine
 10
8.0999999999999694
 20
52.300000000000054
 30
0.0
 11
8.4999999999999467
 21
52.300000000000054
 31
0.0
  0
LINE
  5
22B
100
AcDbEntity
  8
0
  6
CONTINUOUS
 62
               7
100
AcDbLine
 10
6.2999999999999012
 20
53.300000000000054
 30
0.0
 11
8.4999999999999467
 21
53.300000000000054
 31
0.0
  0
LINE
  5
22C
100
AcDbEntity
  8
0
  6
CONTINUOUS
 62
               7
100
AcDbLine
 10
15.699999999999992
 20
52.800000000000054
 30
0.0
 11
14.699999999999992
 21
52.800000000000054
 31
0.0
  0
LINE
  5
22D
100
AcDbEntity
  8
0
  6
CONTINUOUS
 62
               7
100
AcDbLine
 10
6.3000000000000149
 20
52.800000000000054
 30
0.0
 11
7.3000000000000149
 21
52.800000000000054
 31
0.0
  0
LINE
  5
22E
100
AcDbEntity
  8
0
  6
CONTINUOUS
 62
               7
100
AcDbLine
 10
13.499999999999947
 20
53.300000000000054
 30
0.0
 11
15.699999999999992
 21
53.300000000000054
 31
0.0
  0
LINE
  5
22F
100
AcDbEntity
  8
0
  6
CONTINUOUS
 62
               7
100
AcDbLine
 10
6.3000000000000149
 20
47.500000000000099
 30
0.0
 11
15.699999999999992
 21
47.500000000000099
 31
0.0
  0
LINE
  5
230
100
AcDbEntity
  8
0
  6
CONTINUOUS
 62
               7
100
AcDbLine
 10
6.3000000000000149
 20
48.0
 30
0.0
 11
6.0000000033237519
 21
48.0
 31
0.0
  0
LINE
  5
231
100
AcDbEntity
  8
0
  6
CONTINUOUS
 62
               7
100
AcDbLine
 10
6.3000000000000149
 20
47.899999999999977
 30
0.0
 11
5.9999999999999467
 21
47.899999999999977
 31
0.0
  0
LINE
  5
232
100
AcDbEntity
  8
0
  6
CONTINUOUS
 62
               7
100
AcDbLine
 10
8.4999999999999467
 20
18.999999999999975
 30
0.0
 11
8.4999999999999467
 21
13.699999999999964
 31
0.0
  0
LINE
  5
233
100
AcDbEntity
  8
0
  6
CONTINUOUS
 62
               7
100
AcDbLine
 10
17.900000000000038
 20
18.999999999999975
 30
0.0
 11
8.4999999999999467
 21
18.999999999999975
 31
0.0
  0
LINE
  5
234
100
AcDbEntity
  8
0
  6
CONTINUOUS
 62
               7
100
AcDbLine
 10
17.900000000000038
 20
18.999999999999975
 30
0.0
 11
17.900000000000038
 21
13.699999999999964
 31
0.0
  0
ARC
  5
235
100
AcDbEntity
  8
0
  6
CONTINUOUS
 62
               7
100
AcDbCircle
 10
8.5000000000000604
 20
13.499999999999975
 30
0.0
 40
0.3
100
AcDbArc
 50
180.0
 51
270.0
  0
ARC
  5
236
100
AcDbEntity
  8
0
  6
CONTINUOUS
 62
               7
100
AcDbCircle
 10
17.900000000000038
 20
13.499999999999975
 30
0.0
 40
0.3
100
AcDbArc
 50
270.0
 51
0.0
  0
LINE
  5
237
100
AcDbEntity
  8
0
  6
CONTINUOUS
 62
               7
100
AcDbLine
 10
16.815999999999978
 20
17.087999999999997
 30
0.0
 11
16.690000000000001
 21
15.199999999999964
 31
0.0
  0
LINE
  5
238
100
AcDbEntity
  8
0
  6
CONTINUOUS
 62
               7
100
AcDbLine
 10
16.900000000000038
 20
14.699999999999964
 30
0.0
 11
16.900000000000038
 21
13.699999999999964
 31
0.0
  0
LINE
  5
239
100
AcDbEntity
  8
0
  6
CONTINUOUS
 62
               7
100
AcDbLine
 10
17.900000000000038
 20
13.699999999999964
 30
0.0
 11
16.900000000000038
 21
13.699999999999964
 31
0.0
  0
LINE
  5
23A
100
AcDbEntity
  8
0
  6
CONTINUOUS
 62
               7
100
AcDbLine
 10
16.100000000000083
 20
14.199999999999964
 30
0.0
 11
15.699999999999992
 21
14.199999999999964
 31
0.0
  0
LINE
  5
23B
100
AcDbEntity
  8
0
  6
CONTINUOUS
 62
               7
100
AcDbLine
 10
16.100000000000083
 20
14.199999999999964
 30
0.0
 11
16.100000000000083
 21
13.199999999999964
 31
0.0
  0
LINE
  5
23C
100
AcDbEntity
  8
0
  6
CONTINUOUS
 62
               7
100
AcDbLine
 10
10.300000000000015
 20
14.199999999999964
 30
0.0
 11
10.300000000000015
 21
13.199999999999964
 31
0.0
  0
LINE
  5
23D
100
AcDbEntity
  8
0
  6
CONTINUOUS
 62
               7
100
AcDbLine
 10
16.100000000000083
 20
13.699999999999964
 30
0.0
 11
10.300000000000015
 21
13.699999999999964
 31
0.0
  0
LINE
  5
23E
100
AcDbEntity
  8
0
  6
CONTINUOUS
 62
               7
100
AcDbLine
 10
10.699999999999992
 20
12.199999999999964
 30
0.0
 11
10.699999999999992
 21
14.699999999999964
 31
0.0
  0
LINE
  5
23F
100
AcDbEntity
  8
0
  6
CONTINUOUS
 62
               7
100
AcDbLine
 10
15.699999999999992
 20
12.199999999999964
 30
0.0
 11
15.699999999999992
 21
14.699999999999964
 31
0.0
  0
LINE
  5
240
100
AcDbEntity
  8
0
  6
CONTINUOUS
 62
               7
100
AcDbLine
 10
9.7099999999999831
 20
15.199999999999964
 30
0.0
 11
9.5859999999999594
 21
17.087999999999997
 31
0.0
  0
ARC
  5
241
100
AcDbEntity
  8
0
  6
CONTINUOUS
 62
               7
100
AcDbCircle
 10
9.7852851473610976
 20
17.100334766640433
 30
0.0
 40
0.1996665130331531
100
AcDbArc
 50
89.794867321213019
 51
183.54180757537347
  0
LINE
  5
242
100
AcDbEntity
  8
0
  6
CONTINUOUS
 62
               7
100
AcDbLine
 10
10.10999999999996
 20
17.299999999999986
 30
0.0
 11
10.10999999999996
 21
17.799999999999986
 31
0.0
  0
LINE
  5
243
100
AcDbEntity
  8
0
  6
CONTINUOUS
 62
               7
100
AcDbLine
 10
11.209999999999983
 20
17.799999999999986
 30
0.0
 11
10.10999999999996
 21
17.799999999999986
 31
0.0
  0
LINE
  5
244
100
AcDbEntity
  8
0
  6
CONTINUOUS
 62
               7
100
AcDbLine
 10
11.209999999999983
 20
17.299999999999986
 30
0.0
 11
11.209999999999983
 21
17.799999999999986
 31
0.0
  0
LINE
  5
245
100
AcDbEntity
  8
0
  6
CONTINUOUS
 62
               7
100
AcDbLine
 10
11.536000000000005
 20
17.299999999999986
 30
0.0
 11
9.7860000000000049
 21
17.299999999999986
 31
0.0
  0
ARC
  5
246
100
AcDbEntity
  8
0
  6
CONTINUOUS
 62
               7
100
AcDbCircle
 10
11.535655892025662
 20
17.099335747194036
 30
0.0
 40
0.2006645478515588
100
AcDbArc
 50
356.76157835491733
 51
89.901746748495952
  0
LINE
  5
247
100
AcDbEntity
  8
0
  6
CONTINUOUS
 62
               7
100
AcDbLine
 10
11.73600000000005
 20
17.087999999999997
 30
0.0
 11
11.60999999999996
 21
15.199999999999964
 31
0.0
  0
LINE
  5
248
100
AcDbEntity
  8
0
  6
CONTINUOUS
 62
               7
100
AcDbLine
 10
11.60999999999996
 20
15.199999999999964
 30
0.0
 11
9.7099999999999831
 21
15.199999999999964
 31
0.0
  0
LINE
  5
249
100
AcDbEntity
  8
0
  6
CONTINUOUS
 62
               7
100
AcDbLine
 10
12.800000000000015
 20
16.599999999999941
 30
0.0
 11
13.599999999999969
 21
16.599999999999941
 31
0.0
  0
LINE
  5
24A
100
AcDbEntity
  8
0
  6
CONTINUOUS
 62
               7
100
AcDbLine
 10
12.800000000000015
 20
15.799999999999986
 30
0.0
 11
12.800000000000015
 21
16.599999999999941
 31
0.0
  0
LINE
  5
24B
100
AcDbEntity
  8
0
  6
CONTINUOUS
 62
               7
100
AcDbLine
 10
12.800000000000015
 20
15.799999999999986
 30
0.0
 11
13.599999999999969
 21
15.799999999999986
 31
0.0
  0
LINE
  5
24C
100
AcDbEntity
  8
0
  6
CONTINUOUS
 62
               7
100
AcDbLine
 10
13.599999999999969
 20
15.799999999999986
 30
0.0
 11
13.599999999999969
 21
16.599999999999941
 31
0.0
  0
LINE
  5
24D
100
AcDbEntity
  8
0
  6
CONTINUOUS
 62
               7
100
AcDbLine
 10
12.25000000000006
 20
15.199999999999964
 30
0.0
 11
12.126000000000037
 21
17.087999999999997
 31
0.0
  0
ARC
  5
24E
100
AcDbEntity
  8
0
  6
CONTINUOUS
 62
               7
100
AcDbCircle
 10
12.325285147361175
 20
17.100334766640433
 30
0.0
 40
0.1996665130331531
100
AcDbArc
 50
89.794867321213019
 51
183.54180757537347
  0
LINE
  5
24F
100
AcDbEntity
  8
0
  6
CONTINUOUS
 62
               7
100
AcDbLine
 10
12.650000000000038
 20
17.299999999999986
 30
0.0
 11
12.650000000000038
 21
17.799999999999986
 31
0.0
  0
LINE
  5
250
100
AcDbEntity
  8
0
  6
CONTINUOUS
 62
               7
100
AcDbLine
 10
13.75000000000006
 20
17.799999999999986
 30
0.0
 11
12.650000000000038
 21
17.799999999999986
 31
0.0
  0
LINE
  5
251
100
AcDbEntity
  8
0
  6
CONTINUOUS
 62
               7
100
AcDbLine
 10
13.75000000000006
 20
17.299999999999986
 30
0.0
 11
13.75000000000006
 21
17.799999999999986
 31
0.0
  0
LINE
  5
252
100
AcDbEntity
  8
0
  6
CONTINUOUS
 62
               7
100
AcDbLine
 10
14.075999999999969
 20
17.299999999999986
 30
0.0
 11
12.325999999999969
 21
17.299999999999986
 31
0.0
  0
ARC
  5
253
100
AcDbEntity
  8
0
  6
CONTINUOUS
 62
               7
100
AcDbCircle
 10
14.07565589202574
 20
17.099335747194036
 30
0.0
 40
0.2006645478515588
100
AcDbArc
 50
356.76157835491733
 51
89.901746748495952
  0
LINE
  5
254
100
AcDbEntity
  8
0
  6
CONTINUOUS
 62
               7
100
AcDbLine
 10
14.276000000000014
 20
17.087999999999997
 30
0.0
 11
14.150000000000038
 21
15.199999999999964
 31
0.0
  0
LINE
  5
255
100
AcDbEntity
  8
0
  6
CONTINUOUS
 62
               7
100
AcDbLine
 10
14.150000000000038
 20
15.199999999999964
 30
0.0
 11
12.25000000000006
 21
15.199999999999964
 31
0.0
  0
LINE
  5
256
100
AcDbEntity
  8
0
  6
CONTINUOUS
 62
               7
100
AcDbLine
 10
14.790000000000024
 20
15.199999999999964
 30
0.0
 11
14.666
 21
17.087999999999997
 31
0.0
  0
LINE
  5
257
100
AcDbEntity
  8
0
  6
CONTINUOUS
 62
               7
100
AcDbLine
 10
9.5000000000000604
 20
14.699999999999964
 30
0.0
 11
9.5000000000000604
 21
13.699999999999964
 31
0.0
  0
LINE
  5
258
100
AcDbEntity
  8
0
  6
CONTINUOUS
 62
               7
100
AcDbLine
 10
14.449999999999992
 20
13.699999999999964
 30
0.0
 11
14.449999999999992
 21
14.699999999999964
 31
0.0
  0
LINE
  5
259
100
AcDbEntity
  8
0
  6
CONTINUOUS
 62
               7
100
AcDbLine
 10
11.949999999999992
 20
13.699999999999964
 30
0.0
 11
11.949999999999992
 21
14.699999999999964
 31
0.0
  0
LINE
  5
25A
100
AcDbEntity
  8
0
  6
CONTINUOUS
 62
               7
100
AcDbLine
 10
16.290000000000024
 20
17.799999999999986
 30
0.0
 11
15.190000000000001
 21
17.799999999999986
 31
0.0
  0
LINE
  5
25B
100
AcDbEntity
  8
0
  6
CONTINUOUS
 62
               7
100
AcDbLine
 10
16.616000000000046
 20
17.299999999999986
 30
0.0
 11
14.866000000000046
 21
17.299999999999986
 31
0.0
  0
ARC
  5
25C
100
AcDbEntity
  8
0
  6
CONTINUOUS
 62
               7
100
AcDbCircle
 10
14.865285147361138
 20
17.100334766640433
 30
0.0
 40
0.1996665130331531
100
AcDbArc
 50
89.794867321213019
 51
183.54180757537347
  0
LINE
  5
25D
100
AcDbEntity
  8
0
  6
CONTINUOUS
 62
               7
100
AcDbLine
 10
15.190000000000001
 20
17.299999999999986
 30
0.0
 11
15.190000000000001
 21
17.799999999999986
 31
0.0
  0
LINE
  5
25E
100
AcDbEntity
  8
0
  6
CONTINUOUS
 62
               7
100
AcDbLine
 10
16.290000000000024
 20
17.299999999999986
 30
0.0
 11
16.290000000000024
 21
17.799999999999986
 31
0.0
  0
LINE
  5
25F
100
AcDbEntity
  8
0
  6
CONTINUOUS
 62
               7
100
AcDbLine
 10
15.700000000576612
 20
12.199999999999964
 30
0.0
 11
10.700000000576612
 21
12.199999999999964
 31
0.0
  0
LINE
  5
260
100
AcDbEntity
  8
0
  6
CONTINUOUS
 62
               7
100
AcDbLine
 10
15.699999999999992
 20
13.400000000000009
 30
0.0
 11
10.699999999999992
 21
13.400000000000009
 31
0.0
  0
CIRCLE
  5
261
100
AcDbEntity
  8
0
  6
CONTINUOUS
 62
               7
100
AcDbCircle
 10
15.739999999999956
 20
16.199999999999964
 30
0.0
 40
0.75
  0
CIRCLE
  5
262
100
AcDbEntity
  8
0
  6
CONTINUOUS
 62
               7
100
AcDbCircle
 10
10.660000000000029
 20
16.199999999999964
 30
0.0
 40
0.75
  0
LINE
  5
263
100
AcDbEntity
  8
0
  6
CONTINUOUS
 62
               7
100
AcDbLine
 10
10.699999999999992
 20
14.199999999999964
 30
0.0
 11
10.300000000000015
 21
14.199999999999964
 31
0.0
  0
LINE
  5
264
100
AcDbEntity
  8
0
  6
CONTINUOUS
 62
               7
100
AcDbLine
 10
10.699999999999992
 20
13.199999999999964
 30
0.0
 11
8.5000000000000604
 21
13.199999999999964
 31
0.0
  0
LINE
  5
265
100
AcDbEntity
  8
0
  6
CONTINUOUS
 62
               7
100
AcDbLine
 10
16.900000000000038
 20
14.699999999999964
 30
0.0
 11
9.5000000000000604
 21
14.699999999999964
 31
0.0
  0
ARC
  5
266
100
AcDbEntity
  8
0
  6
CONTINUOUS
 62
               7
100
AcDbCircle
 10
16.615655892025703
 20
17.099335747194036
 30
0.0
 40
0.2006645478515588
100
AcDbArc
 50
356.76157835491733
 51
89.901746748495952
  0
LINE
  5
267
100
AcDbEntity
  8
0
  6
CONTINUOUS
 62
               7
100
AcDbLine
 10
16.690000000000001
 20
15.199999999999964
 30
0.0
 11
14.790000000000024
 21
15.199999999999964
 31
0.0
  0
LINE
  5
268
100
AcDbEntity
  8
0
  6
CONTINUOUS
 62
               7
100
AcDbLine
 10
8.5000000000000604
 20
13.699999999999964
 30
0.0
 11
9.5000000000000604
 21
13.699999999999964
 31
0.0
  0
LINE
  5
269
100
AcDbEntity
  8
0
  6
CONTINUOUS
 62
               7
100
AcDbLine
 10
17.900000000000038
 20
13.199999999999964
 30
0.0
 11
15.699999999999992
 21
13.199999999999964
 31
0.0
  0
LINE
  5
26A
100
AcDbEntity
  8
0
  6
CONTINUOUS
 62
               7
100
AcDbLine
 10
17.900000000000038
 20
18.599999999999977
 30
0.0
 11
18.199999999999992
 21
18.599999999999977
 31
0.0
  0
LINE
  5
26B
100
AcDbEntity
  8
0
  6
CONTINUOUS
 62
               7
100
AcDbLine
 10
8.4999999999999467
 20
18.500000040416701
 30
0.0
 11
8.1999999999999922
 21
18.500000041666702
 31
0.0
  0
LINE
  5
26C
100
AcDbEntity
  8
0
  6
CONTINUOUS
 62
               4
100
AcDbLine
 10
6.0000000000000036
 20
1.0000000000000533
 30
0.0
 11
6.0000000000000036
 21
0.4999999999999965
 31
0.0
  0
ENDBLK
  5
26D
100
AcDbEntity
  8
0
100
AcDbBlockEnd
  0
BLOCK
  5
26E
100
AcDbEntity
  8
0
100
AcDbBlockBegin
  2
MV180-01-4
 70
               0
 10
0.0
 20
0.0
 30
0.0
  3
MV180-01-4
  1

  0
LINE
  5
26F
100
AcDbEntity
  8
0
  6
CONTINUOUS
 62
               4
100
AcDbLine
 10
17.900000000000006
 20
16.0
 30
0.0
 11
17.900000000000006
 21
17.238608504619151
 31
0.0
  0
LINE
  5
270
100
AcDbEntity
  8
0
  6
CONTINUOUS
 62
               4
100
AcDbLine
 10
15.099999999999994
 20
16.0
 30
0.0
 11
15.099999999999994
 21
17.238608504619151
 31
0.0
  0
ARC
  5
271
100
AcDbEntity
  8
0
  6
CONTINUOUS
 62
               4
100
AcDbCircle
 10
16.5
 20
16.0
 30
0.0
 40
1.3999999999999999
100
AcDbArc
 50
180.0
 51
0.0
  0
LINE
  5
272
100
AcDbEntity
  8
0
  6
CONTINUOUS
 62
               7
100
AcDbLine
 10
50.300000000000068
 20
32.299999999999969
 30
0.0
 11
42.700000000000017
 21
32.299999999999969
 31
0.0
  0
LINE
  5
273
100
AcDbEntity
  8
0
  6
CONTINUOUS
 62
               7
100
AcDbLine
 10
50.300000000000068
 20
31.499999999999986
 30
0.0
 11
42.700000000000017
 21
31.499999999999986
 31
0.0
  0
LINE
  5
274
100
AcDbEntity
  8
0
  6
CONTINUOUS
 62
               7
100
AcDbLine
 10
50.300000000000068
 20
31.499999999999986
 30
0.0
 11
50.300000000000068
 21
32.299999999999969
 31
0.0
  0
LINE
  5
275
100
AcDbEntity
  8
0
  6
CONTINUOUS
 62
               7
100
AcDbLine
 10
42.700000000000017
 20
32.299999999999969
 30
0.0
 11
42.700000000000017
 21
31.499999999999986
 31
0.0
  0
LINE
  5
276
100
AcDbEntity
  8
0
  6
CONTINUOUS
 62
               7
100
AcDbLine
 10
39.500000000000028
 20
32.999999999999986
 30
0.0
 11
51.000000000000057
 21
32.999999999999986
 31
0.0
  0
LINE
  5
277
100
AcDbEntity
  8
0
  6
CONTINUOUS
 62
               7
100
AcDbLine
 10
39.500000000000028
 20
0.9999999999999716
 30
0.0
 11
40.400000000000006
 21
0.9999999999999716
 31
0.0
  0
LINE
  5
278
100
AcDbEntity
  8
0
  6
CONTINUOUS
 62
               7
100
AcDbLine
 10
51.000000000000057
 20
32.999999999999986
 30
0.0
 11
51.000000000000057
 21
27.217144432479643
 31
0.0
  0
LINE
  5
279
100
AcDbEntity
  8
0
  6
CONTINUOUS
 62
               7
100
AcDbLine
 10
51.000000000000057
 20
27.217144432479643
 30
0.0
 11
54.500000000000057
 21
26.599999999999966
 31
0.0
  0
LINE
  5
27A
100
AcDbEntity
  8
0
  6
CONTINUOUS
 62
               7
100
AcDbLine
 10
53.200000000000045
 20
2.5
 30
0.0
 11
40.700000000000017
 21
2.5
 31
0.0
  0
LINE
  5
27B
100
AcDbEntity
  8
0
  6
CONTINUOUS
 62
               7
100
AcDbLine
 10
40.400000000000006
 20
0.9999999999999716
 30
0.0
 11
40.700000000000017
 21
1.2999999999999829
 31
0.0
  0
LINE
  5
27C
100
AcDbEntity
  8
0
  6
CONTINUOUS
 62
               7
100
AcDbLine
 10
58.500000000000057
 20
18.499999999999943
 30
0.0
 11
58.500000000000057
 21
18.599999999999966
 31
0.0
  0
LINE
  5
27D
100
AcDbEntity
  8
0
  6
CONTINUOUS
 62
               7
100
AcDbLine
 10
59.099999999999966
 20
19.098078436969899
 30
0.0
 11
59.099999999999966
 21
18.599999999999966
 31
0.0
  0
LINE
  5
27E
100
AcDbEntity
  8
0
  6
CONTINUOUS
 62
               7
100
AcDbLine
 10
54.500000000000057
 20
19.909182548228841
 30
0.0
 11
59.099999999999966
 21
19.098078436969899
 31
0.0
  0
LINE
  5
27F
100
AcDbEntity
  8
0
  6
CONTINUOUS
 62
               7
100
AcDbLine
 10
53.200000000000045
 20
18.599999999999966
 30
0.0
 11
59.099999999999966
 21
18.599999999999966
 31
0.0
  0
LINE
  5
280
100
AcDbEntity
  8
0
  6
CONTINUOUS
 62
               7
100
AcDbLine
 10
54.500000000000057
 20
26.599999999999966
 30
0.0
 11
54.500000000000057
 21
19.909182548228841
 31
0.0
  0
LINE
  5
281
100
AcDbEntity
  8
0
  6
CONTINUOUS
 62
               7
100
AcDbLine
 10
40.700000000000017
 20
0.9999999999999716
 30
0.0
 11
40.700000000000017
 21
2.5
 31
0.0
  0
LINE
  5
282
100
AcDbEntity
  8
0
  6
CONTINUOUS
 62
               7
100
AcDbLine
 10
53.200000000000045
 20
2.5
 30
0.0
 11
53.200000000000045
 21
18.599999999999966
 31
0.0
  0
LINE
  5
283
100
AcDbEntity
  8
0
  6
CONTINUOUS
 62
               7
100
AcDbLine
 10
53.500000000000057
 20
26.099999999999966
 30
0.0
 11
53.500000000000057
 21
22.899999999999977
 31
0.0
  0
LINE
  5
284
100
AcDbEntity
  8
0
  6
CONTINUOUS
 62
               7
100
AcDbLine
 10
54.500000000000057
 20
22.899999999999977
 30
0.0
 11
53.500000000000057
 21
22.899999999999977
 31
0.0
  0
LINE
  5
285
100
AcDbEntity
  8
0
  6
CONTINUOUS
 62
               7
100
AcDbLine
 10
54.500000000000057
 20
26.099999999999966
 30
0.0
 11
53.500000000000057
 21
26.099999999999966
 31
0.0
  0
LINE
  5
286
100
AcDbEntity
  8
0
  6
CONTINUOUS
 62
               7
100
AcDbLine
 10
53.600000000000023
 20
26.0
 30
0.0
 11
53.500000000000057
 21
26.0
 31
0.0
  0
LINE
  5
287
100
AcDbEntity
  8
0
  6
CONTINUOUS
 62
               7
100
AcDbLine
 10
53.600000000000023
 20
23.0
 30
0.0
 11
53.500000000000057
 21
23.0
 31
0.0
  0
LINE
  5
288
100
AcDbEntity
  8
0
  6
CONTINUOUS
 62
               7
100
AcDbLine
 10
54.100000000000023
 20
25.5
 30
0.0
 11
54.100000000000023
 21
23.5
 31
0.0
  0
ARC
  5
289
100
AcDbEntity
  8
0
  6
CONTINUOUS
 62
               7
100
AcDbCircle
 10
53.600000000000023
 20
23.5
 30
0.0
 40
0.5
100
AcDbArc
 50
270.0
 51
0.0
  0
ARC
  5
28A
100
AcDbEntity
  8
0
  6
CONTINUOUS
 62
               7
100
AcDbCircle
 10
53.600000000000023
 20
25.5
 30
0.0
 40
0.5
100
AcDbArc
 50
0.0
 51
90.0
  0
LINE
  5
28B
100
AcDbEntity
  8
0
  6
CONTINUOUS
 62
               7
100
AcDbLine
 10
20.5
 20
1.0
 30
0.0
 11
39.500000000000028
 21
0.9999999999999716
 31
0.0
  0
LINE
  5
28C
100
AcDbEntity
  8
0
  6
CONTINUOUS
 62
               7
100
AcDbLine
 10
23.500000000000043
 20
9.4999999999999716
 30
0.0
 11
39.500000000000028
 21
9.4999999999999716
 31
0.0
  0
LINE
  5
28D
100
AcDbEntity
  8
0
  6
CONTINUOUS
 62
               7
100
AcDbLine
 10
36.100000000000037
 20
0.9999999999999716
 30
0.0
 11
36.100000000000037
 21
1.6999999999999886
 31
0.0
  0
LINE
  5
28E
100
AcDbEntity
  8
0
  6
CONTINUOUS
 62
               7
100
AcDbLine
 10
36.100000000000037
 20
1.6999999999999886
 30
0.0
 11
39.500000000000014
 21
1.6999999999999886
 31
0.0
  0
ARC
  5
28F
100
AcDbEntity
  8
0
  6
CONTINUOUS
 62
               7
100
AcDbCircle
 10
37.800000000000026
 20
1.6999999999999886
 30
0.0
 40
1.6000000000000001
100
AcDbArc
 50
180.0
 51
196.60154959902016
  0
LINE
  5
290
100
AcDbEntity
  8
0
  6
CONTINUOUS
 62
               7
100
AcDbLine
 10
36.458359213500174
 20
1.0999999999999659
 30
0.0
 11
39.141640786499934
 21
1.0999999999999659
 31
0.0
  0
ARC
  5
291
100
AcDbEntity
  8
0
  6
CONTINUOUS
 62
               7
100
AcDbCircle
 10
37.800000000000026
 20
1.6999999999999886
 30
0.0
 40
1.6000000000000001
100
AcDbArc
 50
343.39845040097987
 51
0.0
  0
ARC
  5
292
100
AcDbEntity
  8
0
  6
CONTINUOUS
 62
               7
100
AcDbCircle
 10
36.458359213500174
 20
1.2999999999999829
 30
0.0
 40
0.2
100
AcDbArc
 50
196.60154959902005
 51
270.0
  0
ARC
  5
293
100
AcDbEntity
  8
0
  6
CONTINUOUS
 62
               7
100
AcDbCircle
 10
39.141640786499934
 20
1.2999999999999829
 30
0.0
 40
0.2
100
AcDbArc
 50
270.0
 51
343.39845040097993
  0
ARC
  5
294
100
AcDbEntity
  8
0
  6
CONTINUOUS
 62
               7
100
AcDbCircle
 10
39.14164078649992
 20
59.199999999999989
 30
0.0
 40
0.2
100
AcDbArc
 50
16.60154959902005
 51
90.0
  0
ARC
  5
295
100
AcDbEntity
  8
0
  6
CONTINUOUS
 62
               7
100
AcDbCircle
 10
36.45835921350016
 20
59.199999999999989
 30
0.0
 40
0.2
100
AcDbArc
 50
90.0
 51
163.39845040097995
  0
ARC
  5
296
100
AcDbEntity
  8
0
  6
CONTINUOUS
 62
               7
100
AcDbCircle
 10
37.800000000000011
 20
58.799999999999997
 30
0.0
 40
1.6000000000000001
100
AcDbArc
 50
0.0
 51
16.601549599020178
  0
LINE
  5
297
100
AcDbEntity
  8
0
  6
CONTINUOUS
 62
               7
100
AcDbLine
 10
36.45835921350016
 20
59.400000000000006
 30
0.0
 11
39.14164078649992
 21
59.400000000000006
 31
0.0
  0
ARC
  5
298
100
AcDbEntity
  8
0
  6
CONTINUOUS
 62
               7
100
AcDbCircle
 10
37.800000000000011
 20
58.799999999999997
 30
0.0
 40
1.6000000000000001
100
AcDbArc
 50
163.39845040097984
 51
180.0
  0
LINE
  5
299
100
AcDbEntity
  8
0
  6
CONTINUOUS
 62
               7
100
AcDbLine
 10
36.100000000000023
 20
58.799999999999997
 30
0.0
 11
39.5
 21
58.799999999999997
 31
0.0
  0
LINE
  5
29A
100
AcDbEntity
  8
0
  6
CONTINUOUS
 62
               7
100
AcDbLine
 10
36.100000000000023
 20
59.5
 30
0.0
 11
36.100000000000023
 21
58.799999999999997
 31
0.0
  0
LINE
  5
29B
100
AcDbEntity
  8
0
  6
CONTINUOUS
 62
               7
100
AcDbLine
 10
39.500000000000028
 20
51.0
 30
0.0
 11
23.500000000000043
 21
51.0
 31
0.0
  0
LINE
  5
29C
100
AcDbEntity
  8
0
  6
CONTINUOUS
 62
               7
100
AcDbLine
 10
9.5
 20
59.5
 30
0.0
 11
39.500000000000028
 21
59.5
 31
0.0
  0
ARC
  5
29D
100
AcDbEntity
  8
0
  6
CONTINUOUS
 62
               7
100
AcDbCircle
 10
53.600000000000023
 20
40.999999999999986
 30
0.0
 40
0.5
100
AcDbArc
 50
270.0
 51
0.0
  0
ARC
  5
29E
100
AcDbEntity
  8
0
  6
CONTINUOUS
 62
               7
100
AcDbCircle
 10
53.600000000000023
 20
42.999999999999986
 30
0.0
 40
0.5
100
AcDbArc
 50
0.0
 51
90.0
  0
LINE
  5
29F
100
AcDbEntity
  8
0
  6
CONTINUOUS
 62
               7
100
AcDbLine
 10
54.100000000000023
 20
40.999999999999986
 30
0.0
 11
54.100000000000023
 21
42.999999999999986
 31
0.0
  0
LINE
  5
2A0
100
AcDbEntity
  8
0
  6
CONTINUOUS
 62
               7
100
AcDbLine
 10
53.600000000000023
 20
43.499999999999986
 30
0.0
 11
53.500000000000057
 21
43.499999999999986
 31
0.0
  0
LINE
  5
2A1
100
AcDbEntity
  8
0
  6
CONTINUOUS
 62
               7
100
AcDbLine
 10
53.600000000000023
 20
40.499999999999986
 30
0.0
 11
53.500000000000057
 21
40.499999999999986
 31
0.0
  0
LINE
  5
2A2
100
AcDbEntity
  8
0
  6
CONTINUOUS
 62
               7
100
AcDbLine
 10
54.500000000000057
 20
40.399999999999991
 30
0.0
 11
53.500000000000057
 21
40.399999999999991
 31
0.0
  0
LINE
  5
2A3
100
AcDbEntity
  8
0
  6
CONTINUOUS
 62
               7
100
AcDbLine
 10
54.500000000000057
 20
43.600000000000009
 30
0.0
 11
53.500000000000057
 21
43.600000000000009
 31
0.0
  0
LINE
  5
2A4
100
AcDbEntity
  8
0
  6
CONTINUOUS
 62
               7
100
AcDbLine
 10
53.500000000000057
 20
40.399999999999991
 30
0.0
 11
53.500000000000057
 21
43.600000000000009
 31
0.0
  0
LINE
  5
2A5
100
AcDbEntity
  8
0
  6
CONTINUOUS
 62
               7
100
AcDbLine
 10
53.200000000000045
 20
63.999999999999986
 30
0.0
 11
53.200000000000045
 21
47.899999999999991
 31
0.0
  0
LINE
  5
2A6
100
AcDbEntity
  8
0
  6
CONTINUOUS
 62
               7
100
AcDbLine
 10
40.700000000000017
 20
65.5
 30
0.0
 11
40.700000000000017
 21
63.999999999999986
 31
0.0
  0
LINE
  5
2A7
100
AcDbEntity
  8
0
  6
CONTINUOUS
 62
               7
100
AcDbLine
 10
54.500000000000057
 20
39.899999999999991
 30
0.0
 11
54.500000000000057
 21
46.590817451771144
 31
0.0
  0
LINE
  5
2A8
100
AcDbEntity
  8
0
  6
CONTINUOUS
 62
               7
100
AcDbLine
 10
53.200000000000045
 20
47.899999999999991
 30
0.0
 11
59.099999999999966
 21
47.899999999999991
 31
0.0
  0
LINE
  5
2A9
100
AcDbEntity
  8
0
  6
CONTINUOUS
 62
               7
100
AcDbLine
 10
54.500000000000057
 20
46.590817451771144
 30
0.0
 11
59.099999999999966
 21
47.401921563030086
 31
0.0
  0
LINE
  5
2AA
100
AcDbEntity
  8
0
  6
CONTINUOUS
 62
               7
100
AcDbLine
 10
59.099999999999966
 20
47.401921563030086
 30
0.0
 11
59.099999999999966
 21
47.899999999999991
 31
0.0
  0
LINE
  5
2AB
100
AcDbEntity
  8
0
  6
CONTINUOUS
 62
               7
100
AcDbLine
 10
58.500000000000057
 20
48.000000000000014
 30
0.0
 11
58.500000000000057
 21
47.899999999999991
 31
0.0
  0
LINE
  5
2AC
100
AcDbEntity
  8
0
  6
CONTINUOUS
 62
               7
100
AcDbLine
 10
40.400000000000006
 20
65.5
 30
0.0
 11
40.700000000000017
 21
65.199999999999989
 31
0.0
  0
LINE
  5
2AD
100
AcDbEntity
  8
0
  6
CONTINUOUS
 62
               7
100
AcDbLine
 10
53.200000000000045
 20
63.999999999999986
 30
0.0
 11
40.700000000000017
 21
63.999999999999986
 31
0.0
  0
LINE
  5
2AE
100
AcDbEntity
  8
0
  6
CONTINUOUS
 62
               7
100
AcDbLine
 10
51.000000000000057
 20
39.282855567520343
 30
0.0
 11
54.500000000000057
 21
39.899999999999991
 31
0.0
  0
LINE
  5
2AF
100
AcDbEntity
  8
0
  6
CONTINUOUS
 62
               7
100
AcDbLine
 10
51.000000000000057
 20
33.499999999999986
 30
0.0
 11
51.000000000000057
 21
39.282855567520343
 31
0.0
  0
LINE
  5
2B0
100
AcDbEntity
  8
0
  6
CONTINUOUS
 62
               7
100
AcDbLine
 10
39.500000000000028
 20
65.5
 30
0.0
 11
40.400000000000006
 21
65.5
 31
0.0
  0
LINE
  5
2B1
100
AcDbEntity
  8
0
  6
CONTINUOUS
 62
               7
100
AcDbLine
 10
39.500000000000028
 20
33.499999999999986
 30
0.0
 11
51.000000000000057
 21
33.499999999999986
 31
0.0
  0
LINE
  5
2B2
100
AcDbEntity
  8
0
  6
CONTINUOUS
 62
               7
100
AcDbLine
 10
42.700000000000017
 20
34.200000000000003
 30
0.0
 11
42.700000000000017
 21
34.999999999999986
 31
0.0
  0
LINE
  5
2B3
100
AcDbEntity
  8
0
  6
CONTINUOUS
 62
               7
100
AcDbLine
 10
50.300000000000068
 20
34.999999999999986
 30
0.0
 11
50.300000000000068
 21
34.200000000000003
 31
0.0
  0
LINE
  5
2B4
100
AcDbEntity
  8
0
  6
CONTINUOUS
 62
               7
100
AcDbLine
 10
50.300000000000068
 20
34.999999999999986
 30
0.0
 11
42.700000000000017
 21
34.999999999999986
 31
0.0
  0
LINE
  5
2B5
100
AcDbEntity
  8
0
  6
CONTINUOUS
 62
               7
100
AcDbLine
 10
50.300000000000068
 20
34.200000000000003
 30
0.0
 11
42.700000000000017
 21
34.200000000000003
 31
0.0
  0
LINE
  5
2B6
100
AcDbEntity
  8
0
  6
CONTINUOUS
 62
               7
100
AcDbLine
 10
39.500000000000028
 20
65.5
 30
0.0
 11
39.500000000000028
 21
0.9999999999999716
 31
0.0
  0
LINE
  5
2B7
100
AcDbEntity
  8
0
  6
CONTINUOUS
 62
               7
100
AcDbLine
 10
18.750000000000043
 20
59.519220935761126
 30
0.0
 11
18.750000000000043
 21
62.219220935761115
 31
0.0
  0
LINE
  5
2B8
100
AcDbEntity
  8
0
  6
CONTINUOUS
 62
               7
100
AcDbLine
 10
12.250000000000043
 20
59.519220935761126
 30
0.0
 11
12.250000000000043
 21
62.219220935761115
 31
0.0
  0
LINE
  5
2B9
100
AcDbEntity
  8
0
  6
CONTINUOUS
 62
               2
100
AcDbLine
 10
15.500000000000043
 20
74.563402898235935
 30
0.0
 11
15.500000000000043
 21
58.5
 31
0.0
  0
LINE
  5
2BA
100
AcDbEntity
  8
0
  6
CONTINUOUS
 62
               7
100
AcDbLine
 10
16.000000000000043
 20
73.063402898235935
 30
0.0
 11
18.000000000000043
 21
73.063402898235935
 31
0.0
  0
LINE
  5
2BB
100
AcDbEntity
  8
0
  6
CONTINUOUS
 62
               7
100
AcDbLine
 10
16.000000000000043
 20
73.563402898235935
 30
0.0
 11
17.500000000000043
 21
73.563402898235935
 31
0.0
  0
LINE
  5
2BC
100
AcDbEntity
  8
0
  6
CONTINUOUS
 62
               7
100
AcDbLine
 10
16.000000000000043
 20
73.563402898235935
 30
0.0
 11
16.000000000000043
 21
72.563402898235935
 31
0.0
  0
LINE
  5
2BD
100
AcDbEntity
  8
0
  6
CONTINUOUS
 62
               7
100
AcDbLine
 10
15.000000000000043
 20
73.563402898235935
 30
0.0
 11
15.000000000000043
 21
72.563402898235935
 31
0.0
  0
LINE
  5
2BE
100
AcDbEntity
  8
0
  6
CONTINUOUS
 62
               7
100
AcDbLine
 10
12.250000000000043
 20
62.219220935761115
 30
0.0
 11
18.750000000000043
 21
62.219220935761115
 31
0.0
  0
LINE
  5
2BF
100
AcDbEntity
  8
0
  6
CONTINUOUS
 62
               7
100
AcDbLine
 10
12.500000000000043
 20
63.858402898235951
 30
0.0
 11
18.500000000000043
 21
63.858402898235951
 31
0.0
  0
LINE
  5
2C0
100
AcDbEntity
  8
0
  6
CONTINUOUS
 62
               7
100
AcDbLine
 10
12.500000000000043
 20
65.858402898235951
 30
0.0
 11
18.500000000000043
 21
65.858402898235951
 31
0.0
  0
LINE
  5
2C1
100
AcDbEntity
  8
0
  6
CONTINUOUS
 62
               7
100
AcDbLine
 10
13.000000000000043
 20
68.063402898235935
 30
0.0
 11
18.000000000000043
 21
68.063402898235935
 31
0.0
  0
LINE
  5
2C2
100
AcDbEntity
  8
0
  6
CONTINUOUS
 62
               7
100
AcDbLine
 10
13.000000000000043
 20
73.063402898235935
 30
0.0
 11
15.000000000000043
 21
73.063402898235935
 31
0.0
  0
LINE
  5
2C3
100
AcDbEntity
  8
0
  6
CONTINUOUS
 62
               7
100
AcDbLine
 10
16.000000000000043
 20
72.563402898235935
 30
0.0
 11
15.000000000000043
 21
72.563402898235935
 31
0.0
  0
LINE
  5
2C4
100
AcDbEntity
  8
0
  6
CONTINUOUS
 62
               7
100
AcDbLine
 10
13.000000000000043
 20
73.063402898235935
 30
0.0
 11
13.500000000000043
 21
73.563402898235935
 31
0.0
  0
LINE
  5
2C5
100
AcDbEntity
  8
0
  6
CONTINUOUS
 62
               7
100
AcDbLine
 10
18.000000000000043
 20
73.063402898235935
 30
0.0
 11
17.500000000000043
 21
73.563402898235935
 31
0.0
  0
LINE
  5
2C6
100
AcDbEntity
  8
0
  6
CONTINUOUS
 62
               7
100
AcDbLine
 10
15.000000000000043
 20
73.563402898235935
 30
0.0
 11
13.500000000000043
 21
73.563402898235935
 31
0.0
  0
LINE
  5
2C7
100
AcDbEntity
  8
0
  6
CONTINUOUS
 62
               2
100
AcDbLine
 10
16.750000000000043
 20
67.563402898235935
 30
0.0
 11
16.750000000000043
 21
66.358402898235951
 31
0.0
  0
LINE
  5
2C8
100
AcDbEntity
  8
0
  6
CONTINUOUS
 62
               7
100
AcDbLine
 10
16.575000000000031
 20
67.563402898235935
 30
0.0
 11
16.575000000000031
 21
66.358402898235951
 31
0.0
  0
LINE
  5
2C9
100
AcDbEntity
  8
0
  6
CONTINUOUS
 62
               2
100
AcDbLine
 10
14.250000000000043
 20
67.563402898235935
 30
0.0
 11
14.250000000000043
 21
66.358402898235951
 31
0.0
  0
LINE
  5
2CA
100
AcDbEntity
  8
0
  6
CONTINUOUS
 62
               7
100
AcDbLine
 10
14.425000000000054
 20
67.563402898235935
 30
0.0
 11
14.425000000000054
 21
66.358402898235951
 31
0.0
  0
LINE
  5
2CB
100
AcDbEntity
  8
0
  6
CONTINUOUS
 62
               7
100
AcDbLine
 10
12.250000000000043
 20
62.219220935761115
 30
0.0
 11
12.750000000000043
 21
62.719220935761129
 31
0.0
  0
LINE
  5
2CC
100
AcDbEntity
  8
0
  6
CONTINUOUS
 62
               7
100
AcDbLine
 10
18.750000000000043
 20
62.219220935761115
 30
0.0
 11
18.250000000000043
 21
62.719220935761129
 31
0.0
  0
LINE
  5
2CD
100
AcDbEntity
  8
0
  6
CONTINUOUS
 62
               7
100
AcDbLine
 10
18.250000000000043
 20
62.719220935761129
 30
0.0
 11
12.750000000000043
 21
62.719220935761129
 31
0.0
  0
LINE
  5
2CE
100
AcDbEntity
  8
0
  6
CONTINUOUS
 62
               7
100
AcDbLine
 10
18.000000000000043
 20
63.358402898235951
 30
0.0
 11
13.000000000000043
 21
63.358402898235951
 31
0.0
  0
LINE
  5
2CF
100
AcDbEntity
  8
0
  6
CONTINUOUS
 62
               7
100
AcDbLine
 10
18.500000000000043
 20
63.858402898235951
 30
0.0
 11
18.500000000000043
 21
65.858402898235951
 31
0.0
  0
LINE
  5
2D0
100
AcDbEntity
  8
0
  6
CONTINUOUS
 62
               7
100
AcDbLine
 10
18.500000000000043
 20
63.858402898235951
 30
0.0
 11
18.000000000000043
 21
63.358402898235951
 31
0.0
  0
LINE
  5
2D1
100
AcDbEntity
  8
0
  6
CONTINUOUS
 62
               7
100
AcDbLine
 10
18.500000000000043
 20
65.858402898235951
 30
0.0
 11
18.000000000000043
 21
66.358402898235951
 31
0.0
  0
LINE
  5
2D2
100
AcDbEntity
  8
0
  6
CONTINUOUS
 62
               7
100
AcDbLine
 10
12.500000000000043
 20
63.858402898235951
 30
0.0
 11
13.000000000000043
 21
63.358402898235951
 31
0.0
  0
LINE
  5
2D3
100
AcDbEntity
  8
0
  6
CONTINUOUS
 62
               7
100
AcDbLine
 10
12.500000000000043
 20
65.858402898235951
 30
0.0
 11
13.000000000000043
 21
66.358402898235951
 31
0.0
  0
LINE
  5
2D4
100
AcDbEntity
  8
0
  6
CONTINUOUS
 62
               7
100
AcDbLine
 10
18.000000000000043
 20
66.358402898235951
 30
0.0
 11
13.000000000000043
 21
66.358402898235951
 31
0.0
  0
LINE
  5
2D5
100
AcDbEntity
  8
0
  6
CONTINUOUS
 62
               7
100
AcDbLine
 10
13.500000000000043
 20
67.563402898235935
 30
0.0
 11
13.000000000000043
 21
68.063402898235935
 31
0.0
  0
LINE
  5
2D6
100
AcDbEntity
  8
0
  6
CONTINUOUS
 62
               7
100
AcDbLine
 10
18.000000000000043
 20
68.063402898235935
 30
0.0
 11
17.500000000000043
 21
67.563402898235935
 31
0.0
  0
LINE
  5
2D7
100
AcDbEntity
  8
0
  6
CONTINUOUS
 62
               7
100
AcDbLine
 10
13.500000000000043
 20
67.563402898235935
 30
0.0
 11
17.500000000000043
 21
67.563402898235935
 31
0.0
  0
LINE
  5
2D8
100
AcDbEntity
  8
0
  6
CONTINUOUS
 62
               7
100
AcDbLine
 10
12.500000000000043
 20
63.858402898235951
 30
0.0
 11
12.500000000000043
 21
65.858402898235951
 31
0.0
  0
LINE
  5
2D9
100
AcDbEntity
  8
0
  6
CONTINUOUS
 62
               2
100
AcDbLine
 10
16.750000000000043
 20
63.358402898235951
 30
0.0
 11
16.750000000000043
 21
62.719220935761129
 31
0.0
  0
LINE
  5
2DA
100
AcDbEntity
  8
0
  6
CONTINUOUS
 62
               7
100
AcDbLine
 10
16.575000000000031
 20
63.358402898235951
 30
0.0
 11
16.575000000000031
 21
62.719220935761129
 31
0.0
  0
LINE
  5
2DB
100
AcDbEntity
  8
0
  6
CONTINUOUS
 62
               2
100
AcDbLine
 10
14.250000000000043
 20
63.358402898235951
 30
0.0
 11
14.250000000000043
 21
62.719220935761129
 31
0.0
  0
LINE
  5
2DC
100
AcDbEntity
  8
0
  6
CONTINUOUS
 62
               7
100
AcDbLine
 10
14.425000000000054
 20
63.358402898235951
 30
0.0
 11
14.425000000000054
 21
62.719220935761129
 31
0.0
  0
LINE
  5
2DD
100
AcDbEntity
  8
0
  6
CONTINUOUS
 62
               7
100
AcDbLine
 10
13.000000000000043
 20
73.063402898235935
 30
0.0
 11
13.000000000000043
 21
68.063402898235935
 31
0.0
  0
LINE
  5
2DE
100
AcDbEntity
  8
0
  6
CONTINUOUS
 62
               7
100
AcDbLine
 10
18.000000000000043
 20
73.063402898235935
 30
0.0
 11
18.000000000000043
 21
68.063402898235935
 31
0.0
  0
LINE
  5
2DF
100
AcDbEntity
  8
0
  6
CONTINUOUS
 62
               7
100
AcDbLine
 10
23.5
 20
59.5
 30
0.0
 11
23.499999999999943
 21
1.0
 31
0.0
  0
LINE
  5
2E0
100
AcDbEntity
  8
0
  6
CONTINUOUS
 62
               7
100
AcDbLine
 10
9.4999999999999432
 20
1.6000000000000014
 30
0.0
 11
9.5
 21
59.5
 31
0.0
  0
LINE
  5
2E1
100
AcDbEntity
  8
0
  6
CONTINUOUS
 62
             200
100
AcDbLine
 10
16.5
 20
14.100000000000001
 30
0.0
 11
16.5
 21
22.0
 31
0.0
  0
LINE
  5
2E2
100
AcDbEntity
  8
0
  6
CONTINUOUS
 62
               7
100
AcDbLine
 10
39.500000000000028
 20
29.199999999999971
 30
0.0
 11
38.500000000000028
 21
29.199999999999971
 31
0.0
  0
LINE
  5
2E3
100
AcDbEntity
  8
0
  6
CONTINUOUS
 62
               7
100
AcDbLine
 10
39.500000000000028
 20
25.799999999999972
 30
0.0
 11
38.500000000000028
 21
25.799999999999972
 31
0.0
  0
LINE
  5
2E4
100
AcDbEntity
  8
0
  6
CONTINUOUS
 62
               7
100
AcDbLine
 10
38.500000000000028
 20
29.199999999999971
 30
0.0
 11
38.500000000000028
 21
25.799999999999972
 31
0.0
  0
ARC
  5
2E5
100
AcDbEntity
  8
0
  6
CONTINUOUS
 62
               7
100
AcDbCircle
 10
38.599999999999994
 20
28.5
 30
0.0
 40
0.5
100
AcDbArc
 50
0.0
 51
90.0
  0
ARC
  5
2E6
100
AcDbEntity
  8
0
  6
CONTINUOUS
 62
               7
100
AcDbCircle
 10
38.599999999999994
 20
26.5
 30
0.0
 40
0.5
100
AcDbArc
 50
270.0
 51
0.0
  0
LINE
  5
2E7
100
AcDbEntity
  8
0
  6
CONTINUOUS
 62
               7
100
AcDbLine
 10
39.099999999999994
 20
28.5
 30
0.0
 11
39.099999999999994
 21
26.5
 31
0.0
  0
LINE
  5
2E8
100
AcDbEntity
  8
0
  6
CONTINUOUS
 62
               7
100
AcDbLine
 10
38.599999999999994
 20
26.0
 30
0.0
 11
38.500000000000028
 21
26.0
 31
0.0
  0
LINE
  5
2E9
100
AcDbEntity
  8
0
  6
CONTINUOUS
 62
               7
100
AcDbLine
 10
38.599999999999994
 20
29.0
 30
0.0
 11
38.500000000000028
 21
29.0
 31
0.0
  0
LINE
  5
2EA
100
AcDbEntity
  8
0
  6
CONTINUOUS
 62
               7
100
AcDbLine
 10
59.10000000000008
 20
48.0
 30
0.0
 11
59.100000000000051
 21
65.199999999999989
 31
0.0
  0
LINE
  5
2EB
100
AcDbEntity
  8
0
  6
CONTINUOUS
 62
               7
100
AcDbLine
 10
40.700000000000045
 20
65.5
 30
0.0
 11
58.800000000000068
 21
65.5
 31
0.0
  0
LINE
  5
2EC
100
AcDbEntity
  8
0
  6
CONTINUOUS
 62
               7
100
AcDbLine
 10
68.300000000000068
 20
51.950000000000003
 30
0.0
 11
72.300000000000068
 21
51.950000000000003
 31
0.0
  0
LINE
  5
2ED
100
AcDbEntity
  8
0
  6
CONTINUOUS
 62
               7
100
AcDbLine
 10
68.300000000000068
 20
52.450000000000003
 30
0.0
 11
72.300000000000068
 21
52.450000000000003
 31
0.0
  0
LINE
  5
2EE
100
AcDbEntity
  8
0
  6
CONTINUOUS
 62
               7
100
AcDbLine
 10
68.300000000000068
 20
52.849999999999994
 30
0.0
 11
68.300000000000068
 21
51.549999999999997
 31
0.0
  0
LINE
  5
2EF
100
AcDbEntity
  8
0
  6
CONTINUOUS
 62
               7
100
AcDbLine
 10
72.300000000000068
 20
52.450000000000003
 30
0.0
 11
72.300000000000068
 21
51.950000000000003
 31
0.0
  0
ARC
  5
2F0
100
AcDbEntity
  8
0
  6
CONTINUOUS
 62
               7
100
AcDbCircle
 10
58.800000000000068
 20
65.199999999999989
 30
0.0
 40
0.3
100
AcDbArc
 50
0.0000000000000254
 51
90.000000000000028
  0
LINE
  5
2F1
100
AcDbEntity
  8
0
  6
CONTINUOUS
 62
               7
100
AcDbLine
 10
59.900000000000063
 20
54.199999999999989
 30
0.0
 11
59.100000000000051
 21
54.199999999999989
 31
0.0
  0
ARC
  5
2F2
100
AcDbEntity
  8
0
  6
CONTINUOUS
 62
               7
100
AcDbCircle
 10
59.900711437663801
 20
54.000711437663753
 30
0.0
 40
0.1992898322082596
100
AcDbArc
 50
359.79546140589542
 51
90.204538594104449
  0
LINE
  5
2F3
100
AcDbEntity
  8
0
  6
CONTINUOUS
 62
               7
100
AcDbLine
 10
60.100000000000051
 20
50.400000000000006
 30
0.0
 11
60.100000000000051
 21
54.0
 31
0.0
  0
ARC
  5
2F4
100
AcDbEntity
  8
0
  6
CONTINUOUS
 62
               7
100
AcDbCircle
 10
59.900711437663801
 20
50.399288562336238
 30
0.0
 40
0.1992898322082596
100
AcDbArc
 50
269.79546140589565
 51
0.2045385941044271
  0
LINE
  5
2F5
100
AcDbEntity
  8
0
  6
CONTINUOUS
 62
               7
100
AcDbLine
 10
59.900000000000063
 20
50.199999999999989
 30
0.0
 11
59.100000000000051
 21
50.199999999999989
 31
0.0
  0
LINE
  5
2F6
100
AcDbEntity
  8
0
  6
CONTINUOUS
 62
               7
100
AcDbLine
 10
59.10000000000008
 20
18.5
 30
0.0
 11
59.100000000000051
 21
1.3000000000000114
 31
0.0
  0
LINE
  5
2F7
100
AcDbEntity
  8
0
  6
CONTINUOUS
 62
               7
100
AcDbLine
 10
40.700000000000045
 20
1.0
 30
0.0
 11
58.800000000000068
 21
1.0
 31
0.0
  0
LINE
  5
2F8
100
AcDbEntity
  8
0
  6
CONTINUOUS
 62
               7
100
AcDbLine
 10
68.300000000000068
 20
14.549999999999997
 30
0.0
 11
72.300000000000068
 21
14.549999999999997
 31
0.0
  0
LINE
  5
2F9
100
AcDbEntity
  8
0
  6
CONTINUOUS
 62
               7
100
AcDbLine
 10
68.300000000000068
 20
14.049999999999997
 30
0.0
 11
72.300000000000068
 21
14.049999999999997
 31
0.0
  0
LINE
  5
2FA
100
AcDbEntity
  8
0
  6
CONTINUOUS
 62
               7
100
AcDbLine
 10
68.300000000000068
 20
13.650000000000006
 30
0.0
 11
68.300000000000068
 21
14.950000000000003
 31
0.0
  0
LINE
  5
2FB
100
AcDbEntity
  8
0
  6
CONTINUOUS
 62
               7
100
AcDbLine
 10
72.300000000000068
 20
14.049999999999997
 30
0.0
 11
72.300000000000068
 21
14.549999999999997
 31
0.0
  0
ARC
  5
2FC
100
AcDbEntity
  8
0
  6
CONTINUOUS
 62
               7
100
AcDbCircle
 10
58.800000000000068
 20
1.3000000000000114
 30
0.0
 40
0.3
100
AcDbArc
 50
270.0
 51
0.0
  0
LINE
  5
2FD
100
AcDbEntity
  8
0
  6
CONTINUOUS
 62
               7
100
AcDbLine
 10
59.900000000000063
 20
12.300000000000011
 30
0.0
 11
59.100000000000051
 21
12.300000000000011
 31
0.0
  0
ARC
  5
2FE
100
AcDbEntity
  8
0
  6
CONTINUOUS
 62
               7
100
AcDbCircle
 10
59.900711437663801
 20
12.499288562336247
 30
0.0
 40
0.1992898322082596
100
AcDbArc
 50
269.79546140589554
 51
0.2045385941045798
  0
LINE
  5
2FF
100
AcDbEntity
  8
0
  6
CONTINUOUS
 62
               7
100
AcDbLine
 10
60.100000000000051
 20
16.099999999999994
 30
0.0
 11
60.100000000000051
 21
12.5
 31
0.0
  0
ARC
  5
300
100
AcDbEntity
  8
0
  6
CONTINUOUS
 62
               7
100
AcDbCircle
 10
59.900711437663801
 20
16.100711437663762
 30
0.0
 40
0.1992898322082596
100
AcDbArc
 50
359.79546140589559
 51
90.204538594104378
  0
LINE
  5
301
100
AcDbEntity
  8
0
  6
CONTINUOUS
 62
               7
100
AcDbLine
 10
59.900000000000063
 20
16.300000000000011
 30
0.0
 11
59.100000000000051
 21
16.300000000000011
 31
0.0
  0
LINE
  5
302
100
AcDbEntity
  8
0
  6
CONTINUOUS
 62
               7
100
AcDbLine
 10
59.10000000000008
 20
48.0
 30
0.0
 11
53.200000000000045
 21
48.0
 31
0.0
  0
LINE
  5
303
100
AcDbEntity
  8
0
  6
CONTINUOUS
 62
               7
100
AcDbLine
 10
59.10000000000008
 20
18.5
 30
0.0
 11
53.200000000000045
 21
18.5
 31
0.0
  0
LINE
  5
304
100
AcDbEntity
  8
0
  6
CONTINUOUS
 62
             200
100
AcDbLine
 10
13.471124524314888
 20
16.0
 30
0.0
 11
19.5
 21
16.0
 31
0.0
  0
ARC
  5
305
100
AcDbEntity
  8
0
  6
CONTINUOUS
 62
               4
100
AcDbCircle
 10
-4.0
 20
1.1000000000000014
 30
0.0
 40
0.5
100
AcDbArc
 50
90.0
 51
180.0
  0
ARC
  5
306
100
AcDbEntity
  8
0
  6
CONTINUOUS
 62
               4
100
AcDbCircle
 10
-4.0
 20
0.5
 30
0.0
 40
0.5
100
AcDbArc
 50
180.0
 51
270.0
  0
ARC
  5
307
100
AcDbEntity
  8
0
  6
CONTINUOUS
 62
               4
100
AcDbCircle
 10
20.0
 20
0.5
 30
0.0
 40
0.5
100
AcDbArc
 50
270.0
 51
0.0
  0
LINE
  5
308
100
AcDbEntity
  8
0
  6
CONTINUOUS
 62
               4
100
AcDbLine
 10
-4.5
 20
1.1000000000000014
 30
0.0
 11
-4.5
 21
0.5
 31
0.0
  0
LINE
  5
309
100
AcDbEntity
  8
0
  6
CONTINUOUS
 62
               4
100
AcDbLine
 10
20.5
 20
1.6000000000000014
 30
0.0
 11
-4.0
 21
1.6000000000000014
 31
0.0
  0
LINE
  5
30A
100
AcDbEntity
  8
0
  6
CONTINUOUS
 62
               4
100
AcDbLine
 10
20.0
 20
0.0
 30
0.0
 11
-4.0
 21
0.0
 31
0.0
  0
LINE
  5
30B
100
AcDbEntity
  8
0
  6
CONTINUOUS
 62
               4
100
AcDbLine
 10
12.5
 20
19.0
 30
0.0
 11
12.5
 21
1.6000000000000014
 31
0.0
  0
LINE
  5
30C
100
AcDbEntity
  8
0
  6
CONTINUOUS
 62
               4
100
AcDbLine
 10
20.5
 20
19.0
 30
0.0
 11
20.5
 21
0.5
 31
0.0
  0
ARC
  5
30D
100
AcDbEntity
  8
0
  6
CONTINUOUS
 62
               4
100
AcDbCircle
 10
16.5
 20
19.0
 30
0.0
 40
4.0
100
AcDbArc
 50
0.0
 51
180.0
  0
LINE
  5
30E
100
AcDbEntity
  8
0
  6
CONTINUOUS
 62
             200
100
AcDbLine
 10
13.471124524314888
 20
19.0
 30
0.0
 11
19.5
 21
19.0
 31
0.0
  0
LINE
  5
30F
100
AcDbEntity
  8
0
  6
CONTINUOUS
 62
             200
100
AcDbLine
 10
16.5
 20
3.0
 30
0.0
 11
16.5
 21
9.0
 31
0.0
  0
LINE
  5
310
100
AcDbEntity
  8
0
  6
CONTINUOUS
 62
             200
100
AcDbLine
 10
13.471124524314888
 20
6.0
 30
0.0
 11
19.5
 21
6.0
 31
0.0
  0
CIRCLE
  5
311
100
AcDbEntity
  8
0
  6
CONTINUOUS
 62
               4
100
AcDbCircle
 10
16.5
 20
19.0
 30
0.0
 40
2.25
  0
LINE
  5
312
100
AcDbEntity
  8
0
  6
CONTINUOUS
 62
               4
100
AcDbLine
 10
17.499999956111253
 20
18.422649741172791
 30
0.0
 11
16.499999943090586
 21
17.845299464465683
 31
0.0
  0
LINE
  5
313
100
AcDbEntity
  8
0
  6
CONTINUOUS
 62
               4
100
AcDbLine
 10
16.499999956111253
 20
20.154700517654419
 30
0.0
 11
15.5
 21
19.577350273803972
 31
0.0
  0
LINE
  5
314
100
AcDbEntity
  8
0
  6
CONTINUOUS
 62
               4
100
AcDbLine
 10
16.499999956111253
 20
17.845299452543259
 30
0.0
 11
15.499999985913576
 21
18.422649711370468
 31
0.0
  0
LINE
  5
315
100
AcDbEntity
  8
0
  6
CONTINUOUS
 62
               4
100
AcDbLine
 10
17.499999956111253
 20
19.577350288629532
 30
0.0
 11
16.499999985913576
 21
20.154700547456741
 31
0.0
  0
LINE
  5
316
100
AcDbEntity
  8
0
  6
CONTINUOUS
 62
               4
100
AcDbLine
 10
17.5
 20
18.422649741172791
 30
0.0
 11
17.5
 21
19.577350258827209
 31
0.0
  0
LINE
  5
317
100
AcDbEntity
  8
0
  6
CONTINUOUS
 62
               4
100
AcDbLine
 10
15.5
 20
18.422649681568146
 30
0.0
 11
15.5
 21
19.577350258827209
 31
0.0
  0
CIRCLE
  5
318
100
AcDbEntity
  8
0
  6
CONTINUOUS
 62
               4
100
AcDbCircle
 10
16.5
 20
19.0
 30
0.0
 40
1.9999999999999996
  0
CIRCLE
  5
319
100
AcDbEntity
  8
0
  6
CONTINUOUS
 62
               4
100
AcDbCircle
 10
16.5
 20
6.0
 30
0.0
 40
2.25
  0
LINE
  5
31A
100
AcDbEntity
  8
0
  6
CONTINUOUS
 62
               4
100
AcDbLine
 10
17.499999956111253
 20
5.4226497411727905
 30
0.0
 11
16.499999943090586
 21
4.8452994644656826
 31
0.0
  0
LINE
  5
31B
100
AcDbEntity
  8
0
  6
CONTINUOUS
 62
               4
100
AcDbLine
 10
16.499999956111253
 20
7.1547005176544189
 30
0.0
 11
15.5
 21
6.5773502738039724
 31
0.0
  0
LINE
  5
31C
100
AcDbEntity
  8
0
  6
CONTINUOUS
 62
               4
100
AcDbLine
 10
16.499999956111253
 20
4.8452994525432587
 30
0.0
 11
15.499999985913576
 21
5.4226497113704681
 31
0.0
  0
LINE
  5
31D
100
AcDbEntity
  8
0
  6
CONTINUOUS
 62
               4
100
AcDbLine
 10
17.499999956111253
 20
6.5773502886295319
 30
0.0
 11
16.499999985913576
 21
7.1547005474567413
 31
0.0
  0
LINE
  5
31E
100
AcDbEntity
  8
0
  6
CONTINUOUS
 62
               4
100
AcDbLine
 10
17.5
 20
5.4226497411727905
 30
0.0
 11
17.5
 21
6.5773502588272095
 31
0.0
  0
LINE
  5
31F
100
AcDbEntity
  8
0
  6
CONTINUOUS
 62
               4
100
AcDbLine
 10
15.5
 20
5.4226496815681458
 30
0.0
 11
15.5
 21
6.5773502588272095
 31
0.0
  0
CIRCLE
  5
320
100
AcDbEntity
  8
0
  6
CONTINUOUS
 62
               4
100
AcDbCircle
 10
16.5
 20
6.0
 30
0.0
 40
1.9999999999999996
  0
LINE
  5
321
100
AcDbEntity
  8
0
  6
CONTINUOUS
 62
             200
100
AcDbLine
 10
0.0
 20
-1.6999999999999993
 30
0.0
 11
0.0
 21
3.2999999999999972
 31
0.0
  0
LINE
  5
322
100
AcDbEntity
  8
0
  6
CONTINUOUS
 62
             200
100
AcDbLine
 10
10.0
 20
-1.6999999999999993
 30
0.0
 11
10.0
 21
3.2999999999999972
 31
0.0
  0
LINE
  5
323
100
AcDbEntity
  8
0
  6
CONTINUOUS
 62
               7
100
AcDbLine
 10
65.219225074921013
 20
13.650000000000023
 30
0.0
 11
68.300000000000068
 21
13.650000000000023
 31
0.0
  0
LINE
  5
324
100
AcDbEntity
  8
0
  6
CONTINUOUS
 62
               7
100
AcDbLine
 10
64.990000000000009
 20
14.950000000000006
 30
0.0
 11
68.300000000000068
 21
14.950000000000006
 31
0.0
  0
LINE
  5
325
100
AcDbEntity
  8
0
  6
CONTINUOUS
 62
               7
100
AcDbLine
 10
60.100000000000023
 20
13.650000000000023
 30
0.0
 11
64.719225074921013
 21
13.650000000000023
 31
0.0
  0
LINE
  5
326
100
AcDbEntity
  8
0
  6
CONTINUOUS
 62
               7
100
AcDbLine
 10
60.100000000000023
 20
14.950000000000006
 30
0.0
 11
64.490000000000009
 21
14.950000000000006
 31
0.0
  0
LINE
  5
327
100
AcDbEntity
  8
0
  6
CONTINUOUS
 62
               7
100
AcDbLine
 10
64.990000000000009
 20
52.845295004232369
 30
0.0
 11
68.300000000000068
 21
52.845295004232369
 31
0.0
  0
LINE
  5
328
100
AcDbEntity
  8
0
  6
CONTINUOUS
 62
               7
100
AcDbLine
 10
65.219225074921013
 20
51.545295004232358
 30
0.0
 11
68.300000000000068
 21
51.545295004232358
 31
0.0
  0
LINE
  5
329
100
AcDbEntity
  8
0
  6
CONTINUOUS
 62
               7
100
AcDbLine
 10
60.100000000000023
 20
52.845295004232369
 30
0.0
 11
64.490000000000009
 21
52.845295004232369
 31
0.0
  0
LINE
  5
32A
100
AcDbEntity
  8
0
  6
CONTINUOUS
 62
               7
100
AcDbLine
 10
60.100000000000023
 20
51.545295004232358
 30
0.0
 11
64.719225074921013
 21
51.545295004232358
 31
0.0
  0
LINE
  5
32B
100
AcDbEntity
  8
0
  6
CONTINUOUS
 62
               2
100
AcDbLine
 10
64.918474563121606
 20
12.52
 30
0.0
 11
64.313673019291514
 21
15.950000000000006
 31
0.0
  0
LINE
  5
32C
100
AcDbEntity
  8
0
  6
CONTINUOUS
 62
               2
100
AcDbLine
 10
65.418474563121606
 20
12.52
 30
0.0
 11
64.813673019291514
 21
15.950000000000006
 31
0.0
  0
LINE
  5
32D
100
AcDbEntity
  8
0
  6
CONTINUOUS
 62
               2
100
AcDbLine
 10
64.918474563121606
 20
50.415295004232334
 30
0.0
 11
64.313673019291514
 21
53.845295004232341
 31
0.0
  0
LINE
  5
32E
100
AcDbEntity
  8
0
  6
CONTINUOUS
 62
               2
100
AcDbLine
 10
65.418474563121606
 20
50.415295004232334
 30
0.0
 11
64.813673019291514
 21
53.845295004232341
 31
0.0
  0
ENDBLK
  5
32F
100
AcDbEntity
  8
0
100
AcDbBlockEnd
  0
BLOCK
  5
330
100
AcDbEntity
  8
0
100
AcDbBlockBegin
  2
MV180-01-5
 70
               0
 10
0.0
 20
0.0
 30
0.0
  3
MV180-01-5
  1

  0
LINE
  5
331
100
AcDbEntity
  8
0
  6
CONTINUOUS
 62
               7
100
AcDbLine
 10
17.349999999999966
 20
59.500000000000057
 30
0.0
 11
17.349999999999966
 21
62.219220935761172
 31
0.0
  0
LINE
  5
332
100
AcDbEntity
  8
0
  6
CONTINUOUS
 62
               2
100
AcDbLine
 10
14.099999999999966
 20
74.563402898235992
 30
0.0
 11
14.099999999999966
 21
64.499999999999986
 31
0.0
  0
LINE
  5
333
100
AcDbEntity
  8
0
  6
CONTINUOUS
 62
               7
100
AcDbLine
 10
11.599999999999966
 20
73.063402898235992
 30
0.0
 11
11.599999999999966
 21
68.063402898235978
 31
0.0
  0
LINE
  5
334
100
AcDbEntity
  8
0
  6
CONTINUOUS
 62
               7
100
AcDbLine
 10
16.599999999999966
 20
73.063402898235992
 30
0.0
 11
16.599999999999966
 21
68.063402898235978
 31
0.0
  0
LINE
  5
335
100
AcDbEntity
  8
0
  6
CONTINUOUS
 62
               7
100
AcDbLine
 10
17.099999999999966
 20
63.858402898235994
 30
0.0
 11
17.099999999999966
 21
65.858402898235994
 31
0.0
  0
LINE
  5
336
100
AcDbEntity
  8
0
  6
CONTINUOUS
 62
               7
100
AcDbLine
 10
16.099999999999966
 20
67.563402898235978
 30
0.0
 11
12.099999999999966
 21
67.563402898235978
 31
0.0
  0
LINE
  5
337
100
AcDbEntity
  8
0
  6
CONTINUOUS
 62
               7
100
AcDbLine
 10
11.599999999999966
 20
68.063402898235978
 30
0.0
 11
12.099999999999966
 21
67.563402898235978
 31
0.0
  0
LINE
  5
338
100
AcDbEntity
  8
0
  6
CONTINUOUS
 62
               7
100
AcDbLine
 10
16.099999999999966
 20
67.563402898235978
 30
0.0
 11
16.599999999999966
 21
68.063402898235978
 31
0.0
  0
LINE
  5
339
100
AcDbEntity
  8
0
  6
CONTINUOUS
 62
               7
100
AcDbLine
 10
11.599999999999966
 20
66.358402898235994
 30
0.0
 11
16.599999999999966
 21
66.358402898235994
 31
0.0
  0
LINE
  5
33A
100
AcDbEntity
  8
0
  6
CONTINUOUS
 62
               7
100
AcDbLine
 10
17.099999999999966
 20
65.858402898235994
 30
0.0
 11
16.599999999999966
 21
66.358402898235994
 31
0.0
  0
LINE
  5
33B
100
AcDbEntity
  8
0
  6
CONTINUOUS
 62
               7
100
AcDbLine
 10
17.099999999999966
 20
63.858402898235994
 30
0.0
 11
16.599999999999966
 21
63.358402898235994
 31
0.0
  0
LINE
  5
33C
100
AcDbEntity
  8
0
  6
CONTINUOUS
 62
               7
100
AcDbLine
 10
11.099999999999966
 20
65.858402898235994
 30
0.0
 11
11.599999999999966
 21
66.358402898235994
 31
0.0
  0
LINE
  5
33D
100
AcDbEntity
  8
0
  6
CONTINUOUS
 62
               7
100
AcDbLine
 10
11.099999999999966
 20
65.499999999999986
 30
0.0
 11
11.099999999999966
 21
65.858402898235994
 31
0.0
  0
LINE
  5
33E
100
AcDbEntity
  8
0
  6
CONTINUOUS
 62
               7
100
AcDbLine
 10
15.999999999999943
 20
63.358402898235994
 30
0.0
 11
16.599999999999966
 21
63.358402898235994
 31
0.0
  0
LINE
  5
33F
100
AcDbEntity
  8
0
  6
CONTINUOUS
 62
               7
100
AcDbLine
 10
15.999999999999943
 20
62.719220935761172
 30
0.0
 11
16.849999999999966
 21
62.719220935761172
 31
0.0
  0
LINE
  5
340
100
AcDbEntity
  8
0
  6
CONTINUOUS
 62
               7
100
AcDbLine
 10
17.349999999999966
 20
62.219220935761172
 30
0.0
 11
16.849999999999966
 21
62.719220935761172
 31
0.0
  0
LINE
  5
341
100
AcDbEntity
  8
0
  6
CONTINUOUS
 62
               7
100
AcDbLine
 10
15.174999999999955
 20
67.563402898235978
 30
0.0
 11
15.174999999999955
 21
66.358402898235994
 31
0.0
  0
LINE
  5
342
100
AcDbEntity
  8
0
  6
CONTINUOUS
 62
               2
100
AcDbLine
 10
15.349999999999966
 20
67.563402898235978
 30
0.0
 11
15.349999999999966
 21
66.358402898235994
 31
0.0
  0
LINE
  5
343
100
AcDbEntity
  8
0
  6
CONTINUOUS
 62
               7
100
AcDbLine
 10
13.024999999999977
 20
67.563402898235978
 30
0.0
 11
13.024999999999977
 21
66.358402898235994
 31
0.0
  0
LINE
  5
344
100
AcDbEntity
  8
0
  6
CONTINUOUS
 62
               2
100
AcDbLine
 10
12.849999999999966
 20
67.563402898235978
 30
0.0
 11
12.849999999999966
 21
66.358402898235994
 31
0.0
  0
LINE
  5
345
100
AcDbEntity
  8
0
  6
CONTINUOUS
 62
               7
100
AcDbLine
 10
11.599999999999966
 20
73.063402898235992
 30
0.0
 11
12.099999999999966
 21
73.563402898235992
 31
0.0
  0
LINE
  5
346
100
AcDbEntity
  8
0
  6
CONTINUOUS
 62
               7
100
AcDbLine
 10
16.599999999999966
 20
73.063402898235992
 30
0.0
 11
16.099999999999966
 21
73.563402898235992
 31
0.0
  0
LINE
  5
347
100
AcDbEntity
  8
0
  6
CONTINUOUS
 62
               7
100
AcDbLine
 10
16.599999999999966
 20
68.063402898235978
 30
0.0
 11
11.599999999999966
 21
68.063402898235978
 31
0.0
  0
LINE
  5
348
100
AcDbEntity
  8
0
  6
CONTINUOUS
 62
               7
100
AcDbLine
 10
17.099999999999966
 20
65.858402898235994
 30
0.0
 11
11.099999999999966
 21
65.858402898235994
 31
0.0
  0
LINE
  5
349
100
AcDbEntity
  8
0
  6
CONTINUOUS
 62
               7
100
AcDbLine
 10
17.099999999999966
 20
63.858402898235994
 30
0.0
 11
15.999999999999943
 21
63.858402898235994
 31
0.0
  0
LINE
  5
34A
100
AcDbEntity
  8
0
  6
CONTINUOUS
 62
               7
100
AcDbLine
 10
17.349999999999966
 20
62.219220935761172
 30
0.0
 11
15.999999999999943
 21
62.219220935761172
 31
0.0
  0
LINE
  5
34B
100
AcDbEntity
  8
0
  6
CONTINUOUS
 62
               7
100
AcDbLine
 10
16.099999999999966
 20
73.563402898235992
 30
0.0
 11
12.099999999999966
 21
73.563402898235992
 31
0.0
  0
LINE
  5
34C
100
AcDbEntity
  8
0
  6
CONTINUOUS
 62
               7
100
AcDbLine
 10
16.599999999999966
 20
73.063402898235992
 30
0.0
 11
11.599999999999966
 21
73.063402898235992
 31
0.0
  0
ARC
  5
34D
100
AcDbEntity
  8
0
  6
CONTINUOUS
 62
               7
100
AcDbCircle
 10
7.5999999999999659
 20
27.499999972499925
 30
0.0
 40
1.5
100
AcDbArc
 50
66.421821521797213
 51
293.5781784782028
  0
LINE
  5
34E
100
AcDbEntity
  8
0
  6
CONTINUOUS
 62
               7
100
AcDbLine
 10
8.1999999999999886
 20
26.899999972499906
 30
0.0
 11
6.8928932188134127
 21
28.207106753686471
 31
0.0
  0
LINE
  5
34F
100
AcDbEntity
  8
0
  6
CONTINUOUS
 62
               7
100
AcDbLine
 10
8.1999999999999886
 20
28.099999972499941
 30
0.0
 11
6.8928932188134127
 21
26.792893191313379
 31
0.0
  0
ARC
  5
350
100
AcDbEntity
  8
0
  6
CONTINUOUS
 62
               7
100
AcDbCircle
 10
16.599999999999966
 20
39.000000027499965
 30
0.0
 40
1.5
100
AcDbArc
 50
246.4218215217972
 51
113.57817847820279
  0
LINE
  5
351
100
AcDbEntity
  8
0
  6
CONTINUOUS
 62
               7
100
AcDbLine
 10
17.307106781186519
 20
38.292893246313426
 30
0.0
 11
15.999999999999943
 21
39.600000027499988
 31
0.0
  0
LINE
  5
352
100
AcDbEntity
  8
0
  6
CONTINUOUS
 62
               7
100
AcDbLine
 10
17.307106781186519
 20
39.707106808686518
 30
0.0
 11
15.999999999999943
 21
38.400000027499956
 31
0.0
  0
ARC
  5
353
100
AcDbEntity
  8
0
  6
CONTINUOUS
 62
               7
100
AcDbCircle
 10
7.5999999999999659
 20
27.499999972499925
 30
0.0
 40
1.6999999999999993
100
AcDbArc
 50
69.332683506486546
 51
90.0
  0
ARC
  5
354
100
AcDbEntity
  8
0
  6
CONTINUOUS
 62
               7
100
AcDbCircle
 10
16.599999999999966
 20
39.000000027499965
 30
0.0
 40
1.6999999999999993
100
AcDbArc
 50
249.33268350648655
 51
270.0
  0
LINE
  5
355
100
AcDbEntity
  8
0
  6
CONTINUOUS
 62
               7
100
AcDbLine
 10
8.1999999999999886
 20
32.999999999999972
 30
0.0
 11
18.199999999999989
 21
32.999999999999972
 31
0.0
  0
CIRCLE
  5
356
100
AcDbEntity
  8
0
  6
CONTINUOUS
 62
               7
100
AcDbCircle
 10
9.6999999999999886
 20
24.499999999999975
 30
0.0
 40
1.5
  0
LINE
  5
357
100
AcDbEntity
  8
0
  6
CONTINUOUS
 62
               7
100
AcDbLine
 10
8.9928932188134354
 20
25.207106781186528
 30
0.0
 11
10.407106781186542
 21
23.792893218813429
 31
0.0
  0
LINE
  5
358
100
AcDbEntity
  8
0
  6
CONTINUOUS
 62
               7
100
AcDbLine
 10
8.9928932188134354
 20
23.792893218813429
 30
0.0
 11
10.407106781186542
 21
25.207106781186521
 31
0.0
  0
LINE
  5
359
100
AcDbEntity
  8
0
  6
CONTINUOUS
 62
               7
100
AcDbLine
 10
17.407106781186542
 20
23.792893218813429
 30
0.0
 11
15.992893218813435
 21
25.207106781186521
 31
0.0
  0
LINE
  5
35A
100
AcDbEntity
  8
0
  6
CONTINUOUS
 62
               7
100
AcDbLine
 10
17.407106781186542
 20
25.207106781186521
 30
0.0
 11
15.992893218813435
 21
23.792893218813429
 31
0.0
  0
CIRCLE
  5
35B
100
AcDbEntity
  8
0
  6
CONTINUOUS
 62
               7
100
AcDbCircle
 10
16.699999999999989
 20
24.499999999999975
 30
0.0
 40
1.5
  0
ARC
  5
35C
100
AcDbEntity
  8
0
  6
CONTINUOUS
 62
               7
100
AcDbCircle
 10
13.199999999999989
 20
22.749999999999975
 30
0.0
 40
0.8
100
AcDbArc
 50
22.024312837042206
 51
157.97568716295788
  0
ARC
  5
35D
100
AcDbEntity
  8
0
  6
CONTINUOUS
 62
               7
100
AcDbCircle
 10
13.199999999999989
 20
22.749999999999975
 30
0.0
 40
0.8
100
AcDbArc
 50
202.0243128370422
 51
337.97568716295791
  0
CIRCLE
  5
35E
100
AcDbEntity
  8
0
  6
CONTINUOUS
 62
               7
100
AcDbCircle
 10
13.199999999999989
 20
22.749999999999975
 30
0.0
 40
1.8500000000000001
  0
LINE
  5
35F
100
AcDbEntity
  8
0
  6
CONTINUOUS
 62
               7
100
AcDbLine
 10
11.37448637364713
 20
22.449999999999978
 30
0.0
 11
15.025513626352875
 21
22.449999999999978
 31
0.0
  0
LINE
  5
360
100
AcDbEntity
  8
0
  6
CONTINUOUS
 62
               7
100
AcDbLine
 10
11.37448637364713
 20
23.049999999999972
 30
0.0
 11
15.025513626352875
 21
23.049999999999972
 31
0.0
  0
LINE
  5
361
100
AcDbEntity
  8
0
  6
CONTINUOUS
 62
               7
100
AcDbLine
 10
10.300000000000011
 20
12.299999999999976
 30
0.0
 11
16.099999999999994
 21
12.299999999999972
 31
0.0
  0
LINE
  5
362
100
AcDbEntity
  8
0
  6
CONTINUOUS
 62
               7
100
AcDbLine
 10
10.300000000000011
 20
16.299999999999983
 30
0.0
 11
16.099999999999994
 21
16.299999999999979
 31
0.0
  0
ARC
  5
363
100
AcDbEntity
  8
0
  6
CONTINUOUS
 62
               7
100
AcDbCircle
 10
16.099999999999994
 20
14.299999999999972
 30
0.0
 40
2.0000000881710069
100
AcDbArc
 50
270.0
 51
90.0
  0
ARC
  5
364
100
AcDbEntity
  8
0
  6
CONTINUOUS
 62
               7
100
AcDbCircle
 10
10.300000000000011
 20
14.299999999999976
 30
0.0
 40
2.0000000881710069
100
AcDbArc
 50
90.0
 51
270.0
  0
LINE
  5
365
100
AcDbEntity
  8
0
  6
CONTINUOUS
 62
               2
100
AcDbLine
 10
14.699999999999989
 20
5.9999999999999751
 30
0.0
 11
11.699999999999989
 21
5.9999999999999751
 31
0.0
  0
LINE
  5
366
100
AcDbEntity
  8
0
  6
CONTINUOUS
 62
               2
100
AcDbLine
 10
14.699999999999989
 20
5.9999999999999751
 30
0.0
 11
14.699999999999989
 21
0.9999999999999751
 31
0.0
  0
LINE
  5
367
100
AcDbEntity
  8
0
  6
CONTINUOUS
 62
               2
100
AcDbLine
 10
11.699999999999989
 20
5.9999999999999751
 30
0.0
 11
11.699999999999989
 21
0.9999999999999751
 31
0.0
  0
CIRCLE
  5
368
100
AcDbEntity
  8
0
  6
CONTINUOUS
 62
               7
100
AcDbCircle
 10
10.300000000000011
 20
14.299999999999976
 30
0.0
 40
0.875
  0
CIRCLE
  5
369
100
AcDbEntity
  8
0
  6
CONTINUOUS
 62
               7
100
AcDbCircle
 10
16.099999999999994
 20
14.300000167936023
 30
0.0
 40
0.875
  0
ARC
  5
36A
100
AcDbEntity
  8
0
  6
CONTINUOUS
 62
               7
100
AcDbCircle
 10
17.900000000000006
 20
1.2999999999999723
 30
0.0
 40
0.3
100
AcDbArc
 50
270.0
 51
0.0
  0
CIRCLE
  5
36B
100
AcDbEntity
  8
0
  6
CONTINUOUS
 62
               7
100
AcDbCircle
 10
13.199999999999989
 20
22.749999999999975
 30
0.0
 40
1.9000000000000001
  0
LINE
  5
36C
100
AcDbEntity
  8
0
  6
CONTINUOUS
 62
               7
100
AcDbLine
 10
8.1999999999999886
 20
0.9999999999999751
 30
0.0
 11
8.1999999999999886
 21
32.999999999999972
 31
0.0
  0
ARC
  5
36D
100
AcDbEntity
  8
0
  6
CONTINUOUS
 62
               7
100
AcDbCircle
 10
9.6999999999999886
 20
24.499999999999975
 30
0.0
 40
1.6000000000000001
100
AcDbArc
 50
270.0
 51
90.0
  0
ARC
  5
36E
100
AcDbEntity
  8
0
  6
CONTINUOUS
 62
               7
100
AcDbCircle
 10
16.699999999999989
 20
24.499999999999975
 30
0.0
 40
1.6000000000000001
100
AcDbArc
 50
90.0
 51
270.0
  0
LINE
  5
36F
100
AcDbEntity
  8
0
  6
CONTINUOUS
 62
               7
100
AcDbLine
 10
18.199999999999989
 20
22.899999999999974
 30
0.0
 11
16.699999999999989
 21
22.899999999999974
 31
0.0
  0
LINE
  5
370
100
AcDbEntity
  8
0
  6
CONTINUOUS
 62
               7
100
AcDbLine
 10
16.699999999999989
 20
26.099999999999977
 30
0.0
 11
18.199999999999989
 21
26.099999999999977
 31
0.0
  0
LINE
  5
371
100
AcDbEntity
  8
0
  6
CONTINUOUS
 62
               7
100
AcDbLine
 10
8.1999999999999886
 20
26.099999999999969
 30
0.0
 11
9.6999999999999886
 21
26.099999999999977
 31
0.0
  0
LINE
  5
372
100
AcDbEntity
  8
0
  6
CONTINUOUS
 62
               7
100
AcDbLine
 10
9.6999999999999886
 20
22.899999999999974
 30
0.0
 11
8.1999999999999886
 21
22.899999999999967
 31
0.0
  0
LINE
  5
373
100
AcDbEntity
  8
0
  6
CONTINUOUS
 62
               7
100
AcDbLine
 10
8.1999999999999886
 20
18.599999999999969
 30
0.0
 11
18.199999999999989
 21
18.599999999999977
 31
0.0
  0
LINE
  5
374
100
AcDbEntity
  8
0
  6
CONTINUOUS
 62
               7
100
AcDbLine
 10
18.199999999999989
 20
19.098078436969875
 30
0.0
 11
8.1999999999999886
 21
19.098078436969875
 31
0.0
  0
CIRCLE
  5
375
100
AcDbEntity
  8
0
  6
CONTINUOUS
 62
               7
100
AcDbCircle
 10
13.199999999999989
 20
22.749999999999975
 30
0.0
 40
2.0500000000000003
  0
LINE
  5
376
100
AcDbEntity
  8
0
  6
CONTINUOUS
 62
               7
100
AcDbLine
 10
15.849999999999994
 20
26.599999999999977
 30
0.0
 11
18.199999999999989
 21
26.599999999999977
 31
0.0
  0
LINE
  5
377
100
AcDbEntity
  8
0
  6
CONTINUOUS
 62
               7
100
AcDbLine
 10
14.599999999999994
 20
25.349999999999977
 30
0.0
 11
11.799999999999983
 21
25.349999999999977
 31
0.0
  0
LINE
  5
378
100
AcDbEntity
  8
0
  6
CONTINUOUS
 62
               7
100
AcDbLine
 10
10.549999999999983
 20
26.599999999999977
 30
0.0
 11
11.799999999999983
 21
25.349999999999977
 31
0.0
  0
LINE
  5
379
100
AcDbEntity
  8
0
  6
CONTINUOUS
 62
               7
100
AcDbLine
 10
8.1999999999999602
 20
26.599999999999984
 30
0.0
 11
10.549999999999983
 21
26.599999999999977
 31
0.0
  0
LINE
  5
37A
100
AcDbEntity
  8
0
  6
CONTINUOUS
 62
               7
100
AcDbLine
 10
14.344370406123886
 20
25.790817451771137
 30
0.0
 11
12.055629593876091
 21
25.790817451771137
 31
0.0
  0
LINE
  5
37B
100
AcDbEntity
  8
0
  6
CONTINUOUS
 62
               7
100
AcDbLine
 10
15.594370406123886
 20
27.040817451771137
 30
0.0
 11
18.199999999999989
 21
27.040817451771137
 31
0.0
  0
LINE
  5
37C
100
AcDbEntity
  8
0
  6
CONTINUOUS
 62
               7
100
AcDbLine
 10
8.1999999999999886
 20
27.040817451771137
 30
0.0
 11
10.805629593876091
 21
27.040817451771137
 31
0.0
  0
LINE
  5
37D
100
AcDbEntity
  8
0
  6
CONTINUOUS
 62
               7
100
AcDbLine
 10
12.055629593876091
 20
25.790817451771137
 30
0.0
 11
10.805629593876091
 21
27.040817451771137
 31
0.0
  0
LINE
  5
37E
100
AcDbEntity
  8
0
  6
CONTINUOUS
 62
               7
100
AcDbLine
 10
8.1999999999999886
 20
19.909182548228802
 30
0.0
 11
18.199999999999989
 21
19.909182548228809
 31
0.0
  0
LINE
  5
37F
100
AcDbEntity
  8
0
  6
CONTINUOUS
 62
               7
100
AcDbLine
 10
12.055629593876091
 20
25.790817451771137
 30
0.0
 11
11.799999999999983
 21
25.349999999999977
 31
0.0
  0
LINE
  5
380
100
AcDbEntity
  8
0
  6
CONTINUOUS
 62
               7
100
AcDbLine
 10
14.344370406123886
 20
25.790817451771137
 30
0.0
 11
15.594370406123886
 21
27.040817451771137
 31
0.0
  0
LINE
  5
381
100
AcDbEntity
  8
0
  6
CONTINUOUS
 62
               7
100
AcDbLine
 10
15.849999999999994
 20
26.599999999999977
 30
0.0
 11
14.599999999999994
 21
25.349999999999977
 31
0.0
  0
LINE
  5
382
100
AcDbEntity
  8
0
  6
CONTINUOUS
 62
               7
100
AcDbLine
 10
14.344370406123886
 20
25.790817451771137
 30
0.0
 11
14.599999999999994
 21
25.349999999999977
 31
0.0
  0
LINE
  5
383
100
AcDbEntity
  8
0
  6
CONTINUOUS
 62
               7
100
AcDbLine
 10
10.549999999999983
 20
26.599999999999977
 30
0.0
 11
10.805629593876091
 21
27.040817451771137
 31
0.0
  0
LINE
  5
384
100
AcDbEntity
  8
0
  6
CONTINUOUS
 62
               7
100
AcDbLine
 10
15.594370406123886
 20
27.040817451771137
 30
0.0
 11
15.849999999999994
 21
26.599999999999977
 31
0.0
  0
LINE
  5
385
100
AcDbEntity
  8
0
  6
CONTINUOUS
 62
               7
100
AcDbLine
 10
15.999999999999943
 20
33.499999999999972
 30
0.0
 11
5.9999999999999432
 21
33.499999999999979
 31
0.0
  0
CIRCLE
  5
386
100
AcDbEntity
  8
0
  6
CONTINUOUS
 62
               7
100
AcDbCircle
 10
14.499999999999943
 20
41.999999999999972
 30
0.0
 40
1.5
  0
LINE
  5
387
100
AcDbEntity
  8
0
  6
CONTINUOUS
 62
               7
100
AcDbLine
 10
15.207106781186496
 20
41.292893218813433
 30
0.0
 11
13.79289321881339
 21
42.707106781186525
 31
0.0
  0
LINE
  5
388
100
AcDbEntity
  8
0
  6
CONTINUOUS
 62
               7
100
AcDbLine
 10
15.207106781186496
 20
42.707106781186525
 30
0.0
 11
13.79289321881339
 21
41.292893218813433
 31
0.0
  0
LINE
  5
389
100
AcDbEntity
  8
0
  6
CONTINUOUS
 62
               7
100
AcDbLine
 10
6.7928932188133899
 20
42.707106781186525
 30
0.0
 11
8.2071067811864964
 21
41.292893218813433
 31
0.0
  0
LINE
  5
38A
100
AcDbEntity
  8
0
  6
CONTINUOUS
 62
               7
100
AcDbLine
 10
6.7928932188133899
 20
41.292893218813433
 30
0.0
 11
8.2071067811864964
 21
42.707106781186525
 31
0.0
  0
CIRCLE
  5
38B
100
AcDbEntity
  8
0
  6
CONTINUOUS
 62
               7
100
AcDbCircle
 10
7.4999999999999432
 20
41.999999999999979
 30
0.0
 40
1.5
  0
ARC
  5
38C
100
AcDbEntity
  8
0
  6
CONTINUOUS
 62
               7
100
AcDbCircle
 10
10.999999999999943
 20
43.749999999999986
 30
0.0
 40
0.8
100
AcDbArc
 50
202.0243128370422
 51
337.97568716295791
  0
ARC
  5
38D
100
AcDbEntity
  8
0
  6
CONTINUOUS
 62
               7
100
AcDbCircle
 10
10.999999999999943
 20
43.749999999999986
 30
0.0
 40
0.8
100
AcDbArc
 50
22.024312837042206
 51
157.97568716295788
  0
CIRCLE
  5
38E
100
AcDbEntity
  8
0
  6
CONTINUOUS
 62
               7
100
AcDbCircle
 10
10.999999999999943
 20
43.749999999999986
 30
0.0
 40
1.8500000000000001
  0
LINE
  5
38F
100
AcDbEntity
  8
0
  6
CONTINUOUS
 62
               7
100
AcDbLine
 10
12.825513626352802
 20
44.049999999999969
 30
0.0
 11
9.1744863736470563
 21
44.049999999999983
 31
0.0
  0
LINE
  5
390
100
AcDbEntity
  8
0
  6
CONTINUOUS
 62
               7
100
AcDbLine
 10
12.825513626352802
 20
43.449999999999974
 30
0.0
 11
9.1744863736470563
 21
43.449999999999982
 31
0.0
  0
LINE
  5
391
100
AcDbEntity
  8
0
  6
CONTINUOUS
 62
               7
100
AcDbLine
 10
13.89999999999992
 20
54.199999999999989
 30
0.0
 11
8.0999999999999375
 21
54.199999999999989
 31
0.0
  0
LINE
  5
392
100
AcDbEntity
  8
0
  6
CONTINUOUS
 62
               7
100
AcDbLine
 10
13.89999999999992
 20
50.199999999999974
 30
0.0
 11
8.0999999999999375
 21
50.199999999999974
 31
0.0
  0
ARC
  5
393
100
AcDbEntity
  8
0
  6
CONTINUOUS
 62
               7
100
AcDbCircle
 10
8.0999999999999375
 20
52.199999999999989
 30
0.0
 40
2.0000000881710069
100
AcDbArc
 50
90.0
 51
270.0
  0
ARC
  5
394
100
AcDbEntity
  8
0
  6
CONTINUOUS
 62
               7
100
AcDbCircle
 10
13.89999999999992
 20
52.199999999999989
 30
0.0
 40
2.0000000881710069
100
AcDbArc
 50
270.0
 51
90.0
  0
LINE
  5
395
100
AcDbEntity
  8
0
  6
CONTINUOUS
 62
               2
100
AcDbLine
 10
9.4999999999999432
 20
60.499999999999986
 30
0.0
 11
12.499999999999943
 21
60.499999999999986
 31
0.0
  0
LINE
  5
396
100
AcDbEntity
  8
0
  6
CONTINUOUS
 62
               2
100
AcDbLine
 10
9.4999999999999432
 20
60.499999999999986
 30
0.0
 11
9.4999999999999432
 21
65.499999999999986
 31
0.0
  0
LINE
  5
397
100
AcDbEntity
  8
0
  6
CONTINUOUS
 62
               2
100
AcDbLine
 10
12.499999999999943
 20
60.499999999999986
 30
0.0
 11
12.499999999999943
 21
65.499999999999986
 31
0.0
  0
CIRCLE
  5
398
100
AcDbEntity
  8
0
  6
CONTINUOUS
 62
               7
100
AcDbCircle
 10
13.89999999999992
 20
52.199999999999989
 30
0.0
 40
0.875
  0
CIRCLE
  5
399
100
AcDbEntity
  8
0
  6
CONTINUOUS
 62
               7
100
AcDbCircle
 10
8.0999999999999375
 20
52.199999832063938
 30
0.0
 40
0.875
  0
ARC
  5
39A
100
AcDbEntity
  8
0
  6
CONTINUOUS
 62
               7
100
AcDbCircle
 10
15.699999999999932
 20
65.199999999999989
 30
0.0
 40
0.3
100
AcDbArc
 50
0.0
 51
90.0
  0
ARC
  5
39B
100
AcDbEntity
  8
0
  6
CONTINUOUS
 62
               7
100
AcDbCircle
 10
6.2999999999999261
 20
65.199999999999989
 30
0.0
 40
0.3
100
AcDbArc
 50
90.0
 51
180.0
  0
LINE
  5
39C
100
AcDbEntity
  8
0
  6
CONTINUOUS
 62
               7
100
AcDbLine
 10
16.000000003323748
 20
48.0
 30
0.0
 11
6.0000000033237484
 21
48.0
 31
0.0
  0
LINE
  5
39D
100
AcDbEntity
  8
0
  6
CONTINUOUS
 62
               7
100
AcDbLine
 10
6.2999999999999261
 20
65.499999999999986
 30
0.0
 11
15.699999999999932
 21
65.499999999999986
 31
0.0
  0
CIRCLE
  5
39E
100
AcDbEntity
  8
0
  6
CONTINUOUS
 62
               7
100
AcDbCircle
 10
10.999999999999943
 20
43.749999999999986
 30
0.0
 40
1.9000000000000001
  0
LINE
  5
39F
100
AcDbEntity
  8
0
  6
CONTINUOUS
 62
               7
100
AcDbLine
 10
15.999999999999943
 20
65.199999999999989
 30
0.0
 11
15.999999999999943
 21
33.499999999999972
 31
0.0
  0
ARC
  5
3A0
100
AcDbEntity
  8
0
  6
CONTINUOUS
 62
               7
100
AcDbCircle
 10
14.499999999999943
 20
41.999999999999972
 30
0.0
 40
1.6000000000000001
100
AcDbArc
 50
90.0
 51
270.0
  0
ARC
  5
3A1
100
AcDbEntity
  8
0
  6
CONTINUOUS
 62
               7
100
AcDbCircle
 10
7.4999999999999432
 20
41.999999999999979
 30
0.0
 40
1.6000000000000001
100
AcDbArc
 50
270.0
 51
90.0
  0
LINE
  5
3A2
100
AcDbEntity
  8
0
  6
CONTINUOUS
 62
               7
100
AcDbLine
 10
5.9999999999999432
 20
43.59999999999998
 30
0.0
 11
7.4999999999999432
 21
43.59999999999998
 31
0.0
  0
LINE
  5
3A3
100
AcDbEntity
  8
0
  6
CONTINUOUS
 62
               7
100
AcDbLine
 10
7.4999999999999432
 20
40.399999999999977
 30
0.0
 11
5.9999999999999432
 21
40.399999999999977
 31
0.0
  0
LINE
  5
3A4
100
AcDbEntity
  8
0
  6
CONTINUOUS
 62
               7
100
AcDbLine
 10
15.999999999999943
 20
40.399999999999977
 30
0.0
 11
14.499999999999943
 21
40.399999999999977
 31
0.0
  0
LINE
  5
3A5
100
AcDbEntity
  8
0
  6
CONTINUOUS
 62
               7
100
AcDbLine
 10
14.499999999999943
 20
43.59999999999998
 30
0.0
 11
15.999999999999943
 21
43.59999999999998
 31
0.0
  0
LINE
  5
3A6
100
AcDbEntity
  8
0
  6
CONTINUOUS
 62
               7
100
AcDbLine
 10
15.999999999999943
 20
47.899999999999991
 30
0.0
 11
5.9999999999999432
 21
47.899999999999977
 31
0.0
  0
LINE
  5
3A7
100
AcDbEntity
  8
0
  6
CONTINUOUS
 62
               7
100
AcDbLine
 10
5.9999999999999432
 20
47.401921563030086
 30
0.0
 11
15.999999999999943
 21
47.401921563030086
 31
0.0
  0
CIRCLE
  5
3A8
100
AcDbEntity
  8
0
  6
CONTINUOUS
 62
               7
100
AcDbCircle
 10
10.999999999999943
 20
43.749999999999986
 30
0.0
 40
2.0500000000000003
  0
LINE
  5
3A9
100
AcDbEntity
  8
0
  6
CONTINUOUS
 62
               7
100
AcDbLine
 10
8.3499999999999375
 20
39.899999999999977
 30
0.0
 11
5.9999999999999432
 21
39.899999999999977
 31
0.0
  0
LINE
  5
3AA
100
AcDbEntity
  8
0
  6
CONTINUOUS
 62
               7
100
AcDbLine
 10
9.5999999999999375
 20
41.149999999999977
 30
0.0
 11
12.399999999999949
 21
41.149999999999977
 31
0.0
  0
LINE
  5
3AB
100
AcDbEntity
  8
0
  6
CONTINUOUS
 62
               7
100
AcDbLine
 10
13.649999999999949
 20
39.899999999999977
 30
0.0
 11
12.399999999999949
 21
41.149999999999977
 31
0.0
  0
LINE
  5
3AC
100
AcDbEntity
  8
0
  6
CONTINUOUS
 62
               7
100
AcDbLine
 10
15.999999999999972
 20
39.899999999999977
 30
0.0
 11
13.649999999999949
 21
39.899999999999977
 31
0.0
  0
LINE
  5
3AD
100
AcDbEntity
  8
0
  6
CONTINUOUS
 62
               7
100
AcDbLine
 10
9.8556295938760456
 20
40.709182548228817
 30
0.0
 11
12.144370406123841
 21
40.709182548228817
 31
0.0
  0
LINE
  5
3AE
100
AcDbEntity
  8
0
  6
CONTINUOUS
 62
               7
100
AcDbLine
 10
8.6056295938760456
 20
39.459182548228817
 30
0.0
 11
5.9999999999999432
 21
39.459182548228817
 31
0.0
  0
LINE
  5
3AF
100
AcDbEntity
  8
0
  6
CONTINUOUS
 62
               7
100
AcDbLine
 10
15.999999999999943
 20
39.45918254822881
 30
0.0
 11
13.394370406123841
 21
39.459182548228817
 31
0.0
  0
LINE
  5
3B0
100
AcDbEntity
  8
0
  6
CONTINUOUS
 62
               7
100
AcDbLine
 10
12.144370406123841
 20
40.709182548228817
 30
0.0
 11
13.394370406123841
 21
39.459182548228817
 31
0.0
  0
LINE
  5
3B1
100
AcDbEntity
  8
0
  6
CONTINUOUS
 62
               7
100
AcDbLine
 10
15.999999999999943
 20
46.590817451771159
 30
0.0
 11
5.9999999999999432
 21
46.590817451771144
 31
0.0
  0
LINE
  5
3B2
100
AcDbEntity
  8
0
  6
CONTINUOUS
 62
               7
100
AcDbLine
 10
12.144370406123841
 20
40.709182548228817
 30
0.0
 11
12.399999999999949
 21
41.149999999999977
 31
0.0
  0
LINE
  5
3B3
100
AcDbEntity
  8
0
  6
CONTINUOUS
 62
               7
100
AcDbLine
 10
9.8556295938760456
 20
40.709182548228817
 30
0.0
 11
8.6056295938760456
 21
39.459182548228817
 31
0.0
  0
LINE
  5
3B4
100
AcDbEntity
  8
0
  6
CONTINUOUS
 62
               7
100
AcDbLine
 10
8.3499999999999375
 20
39.899999999999977
 30
0.0
 11
9.5999999999999375
 21
41.149999999999977
 31
0.0
  0
LINE
  5
3B5
100
AcDbEntity
  8
0
  6
CONTINUOUS
 62
               7
100
AcDbLine
 10
9.8556295938760456
 20
40.709182548228817
 30
0.0
 11
9.5999999999999375
 21
41.149999999999977
 31
0.0
  0
LINE
  5
3B6
100
AcDbEntity
  8
0
  6
CONTINUOUS
 62
               7
100
AcDbLine
 10
13.649999999999949
 20
39.899999999999977
 30
0.0
 11
13.394370406123841
 21
39.459182548228817
 31
0.0
  0
LINE
  5
3B7
100
AcDbEntity
  8
0
  6
CONTINUOUS
 62
               7
100
AcDbLine
 10
8.6056295938760456
 20
39.459182548228817
 30
0.0
 11
8.3499999999999375
 21
39.899999999999977
 31
0.0
  0
LINE
  5
3B8
100
AcDbEntity
  8
0
  6
CONTINUOUS
 62
               7
100
AcDbLine
 10
18.19999999999996
 20
59.500000000000057
 30
0.0
 11
18.19999999999996
 21
1.0000000000000604
 31
0.0
  0
LINE
  5
3B9
100
AcDbEntity
  8
0
  6
CONTINUOUS
 62
               7
100
AcDbLine
 10
5.9999999999999432
 20
1.0000000000000604
 30
0.0
 11
18.19999999999996
 21
1.0000000000000604
 31
0.0
  0
LINE
  5
3BA
100
AcDbEntity
  8
0
  6
CONTINUOUS
 62
               7
100
AcDbLine
 10
15.999999999999943
 20
59.500000000000057
 30
0.0
 11
18.19999999999996
 21
59.500000000000057
 31
0.0
  0
LINE
  5
3BB
100
AcDbEntity
  8
0
  6
CONTINUOUS
 62
               7
100
AcDbLine
 10
8.1999999999999886
 20
9.500000000000032
 30
0.0
 11
5.9999999999999716
 21
9.500000000000032
 31
0.0
  0
LINE
  5
3BC
100
AcDbEntity
  8
0
  6
CONTINUOUS
 62
               7
100
AcDbLine
 10
6.0
 20
25.799999972499936
 30
0.0
 11
7.5999999999999659
 21
25.799999972499936
 31
0.0
  0
LINE
  5
3BD
100
AcDbEntity
  8
0
  6
CONTINUOUS
 62
               7
100
AcDbLine
 10
7.5999999999999659
 20
29.19999997249997
 30
0.0
 11
6.0
 21
29.19999997249997
 31
0.0
  0
LINE
  5
3BE
100
AcDbEntity
  8
0
  6
CONTINUOUS
 62
               7
100
AcDbLine
 10
18.19999999999996
 20
50.999999999999972
 30
0.0
 11
15.999999999999943
 21
50.999999999999972
 31
0.0
  0
LINE
  5
3BF
100
AcDbEntity
  8
0
  6
CONTINUOUS
 62
               7
100
AcDbLine
 10
18.19999999999996
 20
40.70000002750001
 30
0.0
 11
16.599999999999966
 21
40.70000002750001
 31
0.0
  0
LINE
  5
3C0
100
AcDbEntity
  8
0
  6
CONTINUOUS
 62
               7
100
AcDbLine
 10
16.599999999999966
 20
37.300000027499976
 30
0.0
 11
18.19999999999996
 21
37.300000027499976
 31
0.0
  0
ARC
  5
3C1
100
AcDbEntity
  8
0
  6
CONTINUOUS
 62
               7
100
AcDbCircle
 10
7.5999999999999659
 20
27.499999972499925
 30
0.0
 40
1.6999999999999993
100
AcDbArc
 50
270.0
 51
290.66731649351345
  0
ARC
  5
3C2
100
AcDbEntity
  8
0
  6
CONTINUOUS
 62
               7
100
AcDbCircle
 10
16.599999999999966
 20
39.000000027499965
 30
0.0
 40
1.6999999999999993
100
AcDbArc
 50
90.0
 51
110.66731649351347
  0
LINE
  5
3C3
100
AcDbEntity
  8
0
  6
CONTINUOUS
 62
               7
100
AcDbLine
 10
6.0000000330120997
 20
1.7000000000001343
 30
0.0
 11
8.2000000330120315
 21
1.7000000000001059
 31
0.0
  0
ARC
  5
3C4
100
AcDbEntity
  8
0
  6
CONTINUOUS
 62
               7
100
AcDbCircle
 10
7.6000000330121225
 20
1.7000000000001059
 30
0.0
 40
1.6000000000000001
100
AcDbArc
 50
180.0
 51
183.34115129169891
  0
ARC
  5
3C5
100
AcDbEntity
  8
0
  6
CONTINUOUS
 62
               7
100
AcDbCircle
 10
6.2023797317776257
 20
1.6184065347142855
 30
0.0
 40
0.2
100
AcDbArc
 50
183.34115129169879
 51
239.39828617920105
  0
ARC
  5
3C6
100
AcDbEntity
  8
0
  6
CONTINUOUS
 62
               7
100
AcDbCircle
 10
8.5000000330120145
 20
1.3000000000001428
 30
0.0
 40
0.3
100
AcDbArc
 50
180.0
 51
270.0
  0
LINE
  5
3C7
100
AcDbEntity
  8
0
  6
CONTINUOUS
 62
               7
100
AcDbLine
 10
18.199999996676183
 20
18.499999999999961
 30
0.0
 11
8.1999999999999886
 21
18.500000041666702
 31
0.0
  0
LINE
  5
3C8
100
AcDbEntity
  8
0
  6
CONTINUOUS
 62
               7
100
AcDbLine
 10
5.9999999999999432
 20
65.199999999999989
 30
0.0
 11
6.0
 21
1.0000000000000533
 31
0.0
  0
ARC
  5
3C9
100
AcDbEntity
  8
0
  6
CONTINUOUS
 62
               7
100
AcDbCircle
 10
7.600000033012094
 20
3.7421728535520664
 30
0.0
 40
2.7421728535518359
100
AcDbArc
 50
236.8519048111784
 51
282.63882966642063
  0
LINE
  5
3CA
100
AcDbEntity
  8
0
  6
CONTINUOUS
 62
               4
100
AcDbLine
 10
2.0500000000000114
 20
8.25
 30
0.0
 11
1.8000000000000114
 21
8.0
 31
0.0
  0
LINE
  5
3CB
100
AcDbEntity
  8
0
  6
CONTINUOUS
 62
               4
100
AcDbLine
 10
2.0500000000000114
 20
3.75
 30
0.0
 11
1.8000000000000114
 21
4.0
 31
0.0
  0
LINE
  5
3CC
100
AcDbEntity
  8
0
  6
CONTINUOUS
 62
               4
100
AcDbLine
 10
2.0500000000000114
 20
8.25
 30
0.0
 11
2.0500000000000114
 21
3.75
 31
0.0
  0
LINE
  5
3CD
100
AcDbEntity
  8
0
  6
CONTINUOUS
 62
               4
100
AcDbLine
 10
1.8000000000000114
 20
8.0
 30
0.0
 11
1.8000000000000114
 21
4.0
 31
0.0
  0
LINE
  5
3CE
100
AcDbEntity
  8
0
  6
CONTINUOUS
 62
               4
100
AcDbLine
 10
2.0500000000000114
 20
8.25
 30
0.0
 11
4.4000000000000057
 21
8.25
 31
0.0
  0
LINE
  5
3CF
100
AcDbEntity
  8
0
  6
CONTINUOUS
 62
               4
100
AcDbLine
 10
2.0500000000000114
 20
3.75
 30
0.0
 11
4.4000000000000057
 21
3.75
 31
0.0
  0
LINE
  5
3D0
100
AcDbEntity
  8
0
  6
CONTINUOUS
 62
               4
100
AcDbLine
 10
2.0500000000000114
 20
16.75
 30
0.0
 11
4.4000000000000057
 21
16.75
 31
0.0
  0
LINE
  5
3D1
100
AcDbEntity
  8
0
  6
CONTINUOUS
 62
               4
100
AcDbLine
 10
2.0500000000000114
 20
21.25
 30
0.0
 11
4.4000000000000057
 21
21.25
 31
0.0
  0
LINE
  5
3D2
100
AcDbEntity
  8
0
  6
CONTINUOUS
 62
               4
100
AcDbLine
 10
1.8000000000000114
 20
21.0
 30
0.0
 11
1.8000000000000114
 21
17.0
 31
0.0
  0
LINE
  5
3D3
100
AcDbEntity
  8
0
  6
CONTINUOUS
 62
               4
100
AcDbLine
 10
2.0500000000000114
 20
21.25
 30
0.0
 11
2.0500000000000114
 21
16.75
 31
0.0
  0
LINE
  5
3D4
100
AcDbEntity
  8
0
  6
CONTINUOUS
 62
               4
100
AcDbLine
 10
2.0500000000000114
 20
16.75
 30
0.0
 11
1.8000000000000114
 21
17.0
 31
0.0
  0
LINE
  5
3D5
100
AcDbEntity
  8
0
  6
CONTINUOUS
 62
               4
100
AcDbLine
 10
2.0500000000000114
 20
21.25
 30
0.0
 11
1.8000000000000114
 21
21.0
 31
0.0
  0
LINE
  5
3D6
100
AcDbEntity
  8
0
  6
CONTINUOUS
 62
               4
100
AcDbLine
 10
-4.0
 20
1.0999999999999943
 30
0.0
 11
-4.0
 21
0.5
 31
0.0
  0
LINE
  5
3D7
100
AcDbEntity
  8
0
  6
CONTINUOUS
 62
               4
100
AcDbLine
 10
4.4000000000000057
 20
22.5
 30
0.0
 11
4.4000000000000057
 21
2.0
 31
0.0
  0
LINE
  5
3D8
100
AcDbEntity
  8
0
  6
CONTINUOUS
 62
               4
100
AcDbLine
 10
-3.5
 20
0.0
 30
0.0
 11
5.5
 21
0.0
 31
0.0
  0
LINE
  5
3D9
100
AcDbEntity
  8
0
  6
CONTINUOUS
 62
               4
100
AcDbLine
 10
-3.5
 20
1.5999999999999943
 30
0.0
 11
4.0
 21
1.5999999999999943
 31
0.0
  0
LINE
  5
3DA
100
AcDbEntity
  8
0
  6
CONTINUOUS
 62
               4
100
AcDbLine
 10
5.5
 20
23.0
 30
0.0
 11
4.9000000000000057
 21
23.0
 31
0.0
  0
ARC
  5
3DB
100
AcDbEntity
  8
0
  6
CONTINUOUS
 62
               4
100
AcDbCircle
 10
5.5
 20
22.5
 30
0.0
 40
0.5
100
AcDbArc
 50
0.0
 51
90.0
  0
ARC
  5
3DC
100
AcDbEntity
  8
0
  6
CONTINUOUS
 62
               4
100
AcDbCircle
 10
4.9000000000000057
 20
22.5
 30
0.0
 40
0.5
100
AcDbArc
 50
90.0
 51
180.0
  0
ARC
  5
3DD
100
AcDbEntity
  8
0
  6
CONTINUOUS
 62
               4
100
AcDbCircle
 10
-3.5
 20
1.0999999999999943
 30
0.0
 40
0.5
100
AcDbArc
 50
90.0
 51
180.0
  0
ARC
  5
3DE
100
AcDbEntity
  8
0
  6
CONTINUOUS
 62
               4
100
AcDbCircle
 10
-3.5
 20
0.5
 30
0.0
 40
0.5
100
AcDbArc
 50
180.0
 51
270.0
  0
ARC
  5
3DF
100
AcDbEntity
  8
0
  6
CONTINUOUS
 62
               4
100
AcDbCircle
 10
4.0
 20
2.0
 30
0.0
 40
0.4
100
AcDbArc
 50
270.0
 51
0.0
  0
ARC
  5
3E0
100
AcDbEntity
  8
0
  6
CONTINUOUS
 62
               4
100
AcDbCircle
 10
5.5
 20
0.5
 30
0.0
 40
0.5
100
AcDbArc
 50
270.0
 51
0.0
  0
LINE
  5
3E1
100
AcDbEntity
  8
0
  6
CONTINUOUS
 62
             200
100
AcDbLine
 10
7.7000000000000171
 20
6.0
 30
0.0
 11
0.4512971541956006
 21
6.0
 31
0.0
  0
LINE
  5
3E2
100
AcDbEntity
  8
0
  6
CONTINUOUS
 62
             200
100
AcDbLine
 10
7.7000000000000171
 20
19.0
 30
0.0
 11
0.4512971541956006
 21
19.0
 31
0.0
  0
LINE
  5
3E3
100
AcDbEntity
  8
0
  6
CONTINUOUS
 62
             200
100
AcDbLine
 10
0.0
 20
-1.6999999999999993
 30
0.0
 11
0.0
 21
3.2999999999999972
 31
0.0
  0
LINE
  5
3E4
100
AcDbEntity
  8
0
  6
CONTINUOUS
 62
               4
100
AcDbLine
 10
6.0
 20
1.0000000000000533
 30
0.0
 11
6.0
 21
0.4999999999999965
 31
0.0
  0
ENDBLK
  5
3E5
100
AcDbEntity
  8
0
100
AcDbBlockEnd
  0
BLOCK
  5
3E7
100
AcDbEntity
  8
0
  6
ByBlock
 62
               0
100
AcDbBlockBegin
  2
_OPEN30
 70
               2
 10
0.0
 20
0.0
 30
0.0
  3
_OPEN30
  1

  0
LINE
  5
3E8
100
AcDbEntity
  8
0
  6
ByBlock
 62
               0
100
AcDbLine
 10
-1.0
 20
0.267949
 30
0.0
 11
0.0
 21
0.0
 31
0.0
  0
LINE
  5
3E9
100
AcDbEntity
  8
0
  6
ByBlock
 62
               0
100
AcDbLine
 10
0.0
 20
0.0
 30
0.0
 11
-1.0
 21
-0.267949
 31
0.0
  0
LINE
  5
3EA
100
AcDbEntity
  8
0
  6
ByBlock
 62
               0
100
AcDbLine
 10
0.0
 20
0.0
 30
0.0
 11
-1.0
 21
0.0
 31
0.0
  0
ENDBLK
  5
3EB
100
AcDbEntity
  8
0
  6
ByBlock
 62
               0
100
AcDbBlockEnd
  0
BLOCK
  5
40D
100
AcDbEntity
  8
0
  6
ByBlock
 62
               0
100
AcDbBlockBegin
  2
*D6
 70
               1
 10
0.0
 20
0.0
 30
0.0
  3
*D6
  1

  0
LINE
  5
40E
100
AcDbEntity
  8
0
  6
CONTINUOUS
 62
               3
100
AcDbLine
 10
-41.049999999999983
 20
-49.721618866975732
 30
0.0
 11
-101.25000000000006
 21
-49.721618866975732
 31
0.0
  0
LINE
  5
40F
100
AcDbEntity
  8
0
  6
CONTINUOUS
 62
               3
100
AcDbLine
 10
-41.049999999999983
 20
-16.519046998079247
 30
0.0
 11
-41.049999999999983
 21
-51.221618866975732
 31
0.0
  0
LINE
  5
410
100
AcDbEntity
  8
0
  6
CONTINUOUS
 62
               3
100
AcDbLine
 10
-101.25000000000006
 20
-30.404047226961083
 30
0.0
 11
-101.25000000000006
 21
-51.221618866975732
 31
0.0
  0
INSERT
  5
411
100
AcDbEntity
  8
0
  6
CONTINUOUS
 62
               3
100
AcDbBlockReference
  2
_OPEN30
 10
-41.049999999999983
 20
-49.721618866975732
 30
0.0
 41
2.77
 42
2.77
 43
2.77
  0
INSERT
  5
412
100
AcDbEntity
  8
0
  6
CONTINUOUS
 62
               3
100
AcDbBlockReference
  2
_OPEN30
 10
-101.25000000000006
 20
-49.721618866975732
 30
0.0
 41
2.77
 42
2.77
 43
2.77
 50
180.0
  0
MTEXT
  5
414
100
AcDbEntity
  8
0
  6
CONTINUOUS
 62
               3
100
AcDbMText
 10
-71.15000038146971
 20
-47.121618843133874
 30
0.0
 40
3.2000000476837158
 41
0.0
 71
               5
 72
               1
  1
\A1;60.2
  7
MX_DIMTXSTY_2
 11
1.0
 21
-0.0000000000000001
 31
0.0
  0
POINT
  5
415
100
AcDbEntity
  8
DEFPOINTS
  6
CONTINUOUS
 62
               0
100
AcDbPoint
 10
-41.049999999999983
 20
-15.019046998079247
 30
0.0
  0
POINT
  5
416
100
AcDbEntity
  8
DEFPOINTS
  6
CONTINUOUS
 62
               0
100
AcDbPoint
 10
-101.25000000000006
 20
-28.904047226961083
 30
0.0
  0
POINT
  5
417
100
AcDbEntity
  8
DEFPOINTS
  6
CONTINUOUS
 62
               0
100
AcDbPoint
 10
-101.25000000000006
 20
-49.721618866975732
 30
0.0
  0
ENDBLK
  5
418
100
AcDbEntity
  8
0
  6
ByBlock
 62
               0
100
AcDbBlockEnd
  0
BLOCK
  5
41B
100
AcDbEntity
  8
0
  6
ByBlock
 62
               0
100
AcDbBlockBegin
  2
*D7
 70
               1
 10
0.0
 20
0.0
 30
0.0
  3
*D7
  1

  0
LINE
  5
41C
100
AcDbEntity
  8
0
  6
CONTINUOUS
 62
               3
100
AcDbLine
 10
-163.35000000000002
 20
-50.493004128824055
 30
0.0
 11
-171.44999999999999
 21
-50.493004128824055
 31
0.0
  0
LINE
  5
41D
100
AcDbEntity
  8
0
  6
CONTINUOUS
 62
               3
100
AcDbLine
 10
-171.44999999999999
 20
-50.493004128824055
 30
0.0
 11
-186.93428847789767
 21
-50.493004128824055
 31
0.0
  0
LINE
  5
41E
100
AcDbEntity
  8
0
  6
CONTINUOUS
 62
               3
100
AcDbLine
 10
-163.35000000000002
 20
-23.654047295938312
 30
0.0
 11
-163.35000000000002
 21
-51.993004128824055
 31
0.0
  0
LINE
  5
41F
100
AcDbEntity
  8
0
  6
CONTINUOUS
 62
               3
100
AcDbLine
 10
-171.44999999999999
 20
-43.260093018899738
 30
0.0
 11
-171.44999999999999
 21
-51.993004128824055
 31
0.0
  0
LINE
  5
420
100
AcDbEntity
  8
0
  6
CONTINUOUS
 62
               3
100
AcDbLine
 10
-163.35000000000002
 20
-50.493004128824055
 30
0.0
 11
-159.79400000572207
 21
-50.493004128824055
 31
0.0
  0
LINE
  5
421
100
AcDbEntity
  8
0
  6
CONTINUOUS
 62
               3
100
AcDbLine
 10
-171.44999999999999
 20
-50.493004128824055
 30
0.0
 11
-175.00599999427794
 21
-50.493004128824055
 31
0.0
  0
INSERT
  5
422
100
AcDbEntity
  8
0
  6
CONTINUOUS
 62
               3
100
AcDbBlockReference
  2
_OPEN30
 10
-163.35000000000002
 20
-50.493004128824055
 30
0.0
 41
2.77
 42
2.77
 43
2.77
 50
180.0
  0
INSERT
  5
423
100
AcDbEntity
  8
0
  6
CONTINUOUS
 62
               3
100
AcDbBlockReference
  2
_OPEN30
 10
-171.44999999999999
 20
-50.493004128824055
 30
0.0
 41
2.77
 42
2.77
 43
2.77
  0
MTEXT
  5
425
100
AcDbEntity
  8
0
  6
CONTINUOUS
 62
               3
100
AcDbMText
 10
-182.13428840637209
 20
-47.893004104982197
 30
0.0
 40
3.2000000476837158
 41
0.0
 71
               5
 72
               1
  1
\A1;8.1
  7
MX_DIMTXSTY_3
 11
1.0
 21
-0.0000000000000001
 31
0.0
  0
POINT
  5
426
100
AcDbEntity
  8
DEFPOINTS
  6
CONTINUOUS
 62
               0
100
AcDbPoint
 10
-163.35000000000002
 20
-22.154047295938312
 30
0.0
  0
POINT
  5
427
100
AcDbEntity
  8
DEFPOINTS
  6
CONTINUOUS
 62
               0
100
AcDbPoint
 10
-171.44999999999999
 20
-41.760093018899738
 30
0.0
  0
POINT
  5
428
100
AcDbEntity
  8
DEFPOINTS
  6
CONTINUOUS
 62
               0
100
AcDbPoint
 10
-171.44999999999999
 20
-50.493004128824055
 30
0.0
  0
ENDBLK
  5
429
100
AcDbEntity
  8
0
  6
ByBlock
 62
               0
100
AcDbBlockEnd
  0
BLOCK
  5
42C
100
AcDbEntity
  8
0
  6
ByBlock
 62
               0
100
AcDbBlockBegin
  2
*D8
 70
               1
 10
0.0
 20
0.0
 30
0.0
  3
*D8
  1

  0
LINE
  5
42D
100
AcDbEntity
  8
0
  6
CONTINUOUS
 62
               3
100
AcDbLine
 10
-167.35000000000002
 20
-41.760092696113446
 30
0.0
 11
-171.44999999999999
 21
-41.760092696113446
 31
0.0
  0
LINE
  5
42E
100
AcDbEntity
  8
0
  6
CONTINUOUS
 62
               3
100
AcDbLine
 10
-171.44999999999999
 20
-41.760092696113446
 30
0.0
 11
-188.1471924543381
 21
-41.760092696113446
 31
0.0
  0
LINE
  5
42F
100
AcDbEntity
  8
0
  6
CONTINUOUS
 62
               3
100
AcDbLine
 10
-167.35000000000002
 20
-14.004048308296063
 30
0.0
 11
-167.35000000000002
 21
-43.260092696113446
 31
0.0
  0
LINE
  5
430
100
AcDbEntity
  8
0
  6
CONTINUOUS
 62
               3
100
AcDbLine
 10
-171.44999999999999
 20
-31.004048308296063
 30
0.0
 11
-171.44999999999999
 21
-43.260092696113446
 31
0.0
  0
LINE
  5
431
100
AcDbEntity
  8
0
  6
CONTINUOUS
 62
               3
100
AcDbLine
 10
-167.35000000000002
 20
-41.760092696113446
 30
0.0
 11
-163.79400000572207
 21
-41.760092696113446
 31
0.0
  0
LINE
  5
432
100
AcDbEntity
  8
0
  6
CONTINUOUS
 62
               3
100
AcDbLine
 10
-171.44999999999999
 20
-41.760092696113446
 30
0.0
 11
-175.00599999427794
 21
-41.760092696113446
 31
0.0
  0
INSERT
  5
433
100
AcDbEntity
  8
0
  6
CONTINUOUS
 62
               3
100
AcDbBlockReference
  2
_OPEN30
 10
-167.35000000000002
 20
-41.760092696113446
 30
0.0
 41
2.77
 42
2.77
 43
2.77
 50
180.0
  0
INSERT
  5
434
100
AcDbEntity
  8
0
  6
CONTINUOUS
 62
               3
100
AcDbBlockReference
  2
_OPEN30
 10
-171.44999999999999
 20
-41.760092696113446
 30
0.0
 41
2.77
 42
2.77
 43
2.77
  0
MTEXT
  5
435
100
AcDbEntity
  8
0
  6
CONTINUOUS
 62
               3
100
AcDbMText
 10
-183.34719238281252
 20
-39.160092672271588
 30
0.0
 40
3.2000000476837158
 41
0.0
 71
               5
 72
               1
  1
\A1;4.1
  7
MX_DIMTXSTY_3
 11
1.0
 21
-0.0000000000000001
 31
0.0
  0
POINT
  5
436
100
AcDbEntity
  8
DEFPOINTS
  6
CONTINUOUS
 62
               0
100
AcDbPoint
 10
-167.35000000000002
 20
-12.504048308296063
 30
0.0
  0
POINT
  5
437
100
AcDbEntity
  8
DEFPOINTS
  6
CONTINUOUS
 62
               0
100
AcDbPoint
 10
-171.44999999999999
 20
-29.504048308296063
 30
0.0
  0
POINT
  5
438
100
AcDbEntity
  8
DEFPOINTS
  6
CONTINUOUS
 62
               0
100
AcDbPoint
 10
-171.44999999999999
 20
-41.760092696113446
 30
0.0
  0
ENDBLK
  5
439
100
AcDbEntity
  8
0
  6
ByBlock
 62
               0
100
AcDbBlockEnd
  0
BLOCK
  5
43C
100
AcDbEntity
  8
0
  6
ByBlock
 62
               0
100
AcDbBlockBegin
  2
*D9
 70
               1
 10
0.0
 20
0.0
 30
0.0
  3
*D9
  1

  0
LINE
  5
43D
100
AcDbEntity
  8
0
  6
CONTINUOUS
 62
               3
100
AcDbLine
 10
-182.72117704895734
 20
28.995952136173383
 30
0.0
 11
-182.72117704895734
 21
43.059355034409322
 31
0.0
  0
LINE
  5
43E
100
AcDbEntity
  8
0
  6
CONTINUOUS
 62
               3
100
AcDbLine
 10
-172.94999975708723
 20
28.995952136173383
 30
0.0
 11
-184.22117704895734
 21
28.995952136173383
 31
0.0
  0
LINE
  5
43F
100
AcDbEntity
  8
0
  6
CONTINUOUS
 62
               3
100
AcDbLine
 10
-170.85000032929182
 20
43.059355034409322
 30
0.0
 11
-184.22117704895734
 21
43.059355034409322
 31
0.0
  0
LINE
  5
440
100
AcDbEntity
  8
0
  6
CONTINUOUS
 62
               3
100
AcDbLine
 10
-182.72117704895734
 20
28.995952136173383
 30
0.0
 11
-182.72117704895734
 21
25.439952141895429
 31
0.0
  0
LINE
  5
441
100
AcDbEntity
  8
0
  6
CONTINUOUS
 62
               3
100
AcDbLine
 10
-182.72117704895734
 20
43.059355034409322
 30
0.0
 11
-182.72117704895734
 21
46.615355028687276
 31
0.0
  0
INSERT
  5
442
100
AcDbEntity
  8
0
  6
CONTINUOUS
 62
               3
100
AcDbBlockReference
  2
_OPEN30
 10
-182.72117704895734
 20
28.995952136173383
 30
0.0
 41
2.77
 42
2.77
 43
2.77
 50
90.0
  0
INSERT
  5
443
100
AcDbEntity
  8
0
  6
CONTINUOUS
 62
               3
100
AcDbBlockReference
  2
_OPEN30
 10
-182.72117704895734
 20
43.059355034409322
 30
0.0
 41
2.77
 42
2.77
 43
2.77
 50
270.0
  0
MTEXT
  5
445
100
AcDbEntity
  8
0
  6
CONTINUOUS
 62
               3
100
AcDbMText
 10
-185.3211770727992
 20
36.027653700962205
 30
0.0
 40
3.2000000476837158
 41
0.0
 71
               5
 72
               1
  1
\A1;14.06
  7
MX_DIMTXSTY_4
 11
0.0000000000000001
 21
1.0
 31
0.0
  0
POINT
  5
446
100
AcDbEntity
  8
DEFPOINTS
  6
CONTINUOUS
 62
               0
100
AcDbPoint
 10
-171.44999975708723
 20
28.995952136173383
 30
0.0
  0
POINT
  5
447
100
AcDbEntity
  8
DEFPOINTS
  6
CONTINUOUS
 62
               0
100
AcDbPoint
 10
-169.35000032929182
 20
43.059355034409322
 30
0.0
  0
POINT
  5
448
100
AcDbEntity
  8
DEFPOINTS
  6
CONTINUOUS
 62
               0
100
AcDbPoint
 10
-182.72117704895734
 20
43.059355034409322
 30
0.0
  0
ENDBLK
  5
449
100
AcDbEntity
  8
0
  6
ByBlock
 62
               0
100
AcDbBlockEnd
  0
BLOCK
  5
44C
100
AcDbEntity
  8
0
  6
ByBlock
 62
               0
100
AcDbBlockBegin
  2
*D10
 70
               1
 10
0.0
 20
0.0
 30
0.0
  3
*D10
  1

  0
LINE
  5
44D
100
AcDbEntity
  8
0
  6
CONTINUOUS
 62
               3
100
AcDbLine
 10
-171.44999999999999
 20
57.825106224459063
 30
0.0
 11
-159.25
 21
57.825106224459063
 31
0.0
  0
LINE
  5
44E
100
AcDbEntity
  8
0
  6
CONTINUOUS
 62
               3
100
AcDbLine
 10
-171.44999999999999
 20
52.625756344240557
 30
0.0
 11
-171.44999999999999
 21
59.325106224459063
 31
0.0
  0
LINE
  5
44F
100
AcDbEntity
  8
0
  6
CONTINUOUS
 62
               3
100
AcDbLine
 10
-159.25
 20
36.495951256197344
 30
0.0
 11
-159.25
 21
59.325106224459063
 31
0.0
  0
INSERT
  5
450
100
AcDbEntity
  8
0
  6
CONTINUOUS
 62
               3
100
AcDbBlockReference
  2
_OPEN30
 10
-171.44999999999999
 20
57.825106224459063
 30
0.0
 41
2.77
 42
2.77
 43
2.77
 50
180.0
  0
INSERT
  5
451
100
AcDbEntity
  8
0
  6
CONTINUOUS
 62
               3
100
AcDbBlockReference
  2
_OPEN30
 10
-159.25
 20
57.825106224459063
 30
0.0
 41
2.77
 42
2.77
 43
2.77
  0
MTEXT
  5
453
100
AcDbEntity
  8
0
  6
CONTINUOUS
 62
               3
100
AcDbMText
 10
-165.35000009536742
 20
60.425106248300921
 30
0.0
 40
3.2000000476837158
 41
0.0
 71
               5
 72
               1
  1
\A1;12.2
  7
MX_DIMTXSTY_5
  0
POINT
  5
454
100
AcDbEntity
  8
DEFPOINTS
  6
CONTINUOUS
 62
               0
100
AcDbPoint
 10
-171.44999999999999
 20
51.125756344240557
 30
0.0
  0
POINT
  5
455
100
AcDbEntity
  8
DEFPOINTS
  6
CONTINUOUS
 62
               0
100
AcDbPoint
 10
-159.25
 20
34.995951256197344
 30
0.0
  0
POINT
  5
456
100
AcDbEntity
  8
DEFPOINTS
  6
CONTINUOUS
 62
               0
100
AcDbPoint
 10
-159.25
 20
57.825106224459063
 30
0.0
  0
ENDBLK
  5
457
100
AcDbEntity
  8
0
  6
ByBlock
 62
               0
100
AcDbBlockEnd
  0
BLOCK
  5
45A
100
AcDbEntity
  8
0
  6
ByBlock
 62
               0
100
AcDbBlockBegin
  2
*D11
 70
               1
 10
0.0
 20
0.0
 30
0.0
  3
*D11
  1

  0
LINE
  5
45B
100
AcDbEntity
  8
0
  6
CONTINUOUS
 62
               3
100
AcDbLine
 10
-171.44999999999999
 20
51.125756423368699
 30
0.0
 11
-167.34999999999999
 21
51.125756423368699
 31
0.0
  0
LINE
  5
45C
100
AcDbEntity
  8
0
  6
CONTINUOUS
 62
               3
100
AcDbLine
 10
-187.73053176403045
 20
51.125756423368699
 30
0.0
 11
-171.44999999999999
 21
51.125756423368699
 31
0.0
  0
LINE
  5
45D
100
AcDbEntity
  8
0
  6
CONTINUOUS
 62
               3
100
AcDbLine
 10
-171.44999999999999
 20
30.495951812162645
 30
0.0
 11
-171.44999999999999
 21
52.625756423368699
 31
0.0
  0
LINE
  5
45E
100
AcDbEntity
  8
0
  6
CONTINUOUS
 62
               3
100
AcDbLine
 10
-167.34999999999999
 20
45.559354941740281
 30
0.0
 11
-167.34999999999999
 21
52.625756423368699
 31
0.0
  0
LINE
  5
45F
100
AcDbEntity
  8
0
  6
CONTINUOUS
 62
               3
100
AcDbLine
 10
-171.44999999999999
 20
51.125756423368699
 30
0.0
 11
-175.00599999427794
 21
51.125756423368699
 31
0.0
  0
LINE
  5
460
100
AcDbEntity
  8
0
  6
CONTINUOUS
 62
               3
100
AcDbLine
 10
-167.34999999999999
 20
51.125756423368699
 30
0.0
 11
-163.79400000572204
 21
51.125756423368699
 31
0.0
  0
INSERT
  5
461
100
AcDbEntity
  8
0
  6
CONTINUOUS
 62
               3
100
AcDbBlockReference
  2
_OPEN30
 10
-171.44999999999999
 20
51.125756423368699
 30
0.0
 41
2.77
 42
2.77
 43
2.77
  0
INSERT
  5
462
100
AcDbEntity
  8
0
  6
CONTINUOUS
 62
               3
100
AcDbBlockReference
  2
_OPEN30
 10
-167.34999999999999
 20
51.125756423368699
 30
0.0
 41
2.77
 42
2.77
 43
2.77
 50
180.0
  0
MTEXT
  5
463
100
AcDbEntity
  8
0
  6
CONTINUOUS
 62
               3
100
AcDbMText
 10
-182.93053169250487
 20
53.725756447210557
 30
0.0
 40
3.2000000476837158
 41
0.0
 71
               5
 72
               1
  1
\A1;4.1
  7
MX_DIMTXSTY_3
  0
POINT
  5
464
100
AcDbEntity
  8
DEFPOINTS
  6
CONTINUOUS
 62
               0
100
AcDbPoint
 10
-171.44999999999999
 20
28.995951812162645
 30
0.0
  0
POINT
  5
465
100
AcDbEntity
  8
DEFPOINTS
  6
CONTINUOUS
 62
               0
100
AcDbPoint
 10
-167.34999999999999
 20
44.059354941740281
 30
0.0
  0
POINT
  5
466
100
AcDbEntity
  8
DEFPOINTS
  6
CONTINUOUS
 62
               0
100
AcDbPoint
 10
-167.34999999999999
 20
51.125756423368699
 30
0.0
  0
ENDBLK
  5
467
100
AcDbEntity
  8
0
  6
ByBlock
 62
               0
100
AcDbBlockEnd
  0
BLOCK
  5
46A
100
AcDbEntity
  8
0
  6
ByBlock
 62
               0
100
AcDbBlockBegin
  2
*D12
 70
               1
 10
0.0
 20
0.0
 30
0.0
  3
*D12
  1

  0
LINE
  5
46B
100
AcDbEntity
  8
0
  6
CONTINUOUS
 62
               3
100
AcDbLine
 10
-182.72117704895734
 20
-29.504047863826646
 30
0.0
 11
-182.72117704895734
 21
28.995952136173383
 31
0.0
  0
LINE
  5
46C
100
AcDbEntity
  8
0
  6
CONTINUOUS
 62
               3
100
AcDbLine
 10
-172.94999975708723
 20
-29.504047863826646
 30
0.0
 11
-184.22117704895734
 21
-29.504047863826646
 31
0.0
  0
LINE
  5
46D
100
AcDbEntity
  8
0
  6
CONTINUOUS
 62
               3
100
AcDbLine
 10
-172.94999975708723
 20
28.995952136173383
 30
0.0
 11
-184.22117704895734
 21
28.995952136173383
 31
0.0
  0
INSERT
  5
46E
100
AcDbEntity
  8
0
  6
CONTINUOUS
 62
               3
100
AcDbBlockReference
  2
_OPEN30
 10
-182.72117704895734
 20
-29.504047863826646
 30
0.0
 41
2.77
 42
2.77
 43
2.77
 50
270.0
  0
INSERT
  5
46F
100
AcDbEntity
  8
0
  6
CONTINUOUS
 62
               3
100
AcDbBlockReference
  2
_OPEN30
 10
-182.72117704895734
 20
28.995952136173383
 30
0.0
 41
2.77
 42
2.77
 43
2.77
 50
90.0
  0
MTEXT
  5
470
100
AcDbEntity
  8
0
  6
CONTINUOUS
 62
               3
100
AcDbMText
 10
-185.3211770727992
 20
-0.2540478638266455
 30
0.0
 40
3.2000000476837158
 41
0.0
 71
               5
 72
               1
  1
\A1;58.5
  7
MX_DIMTXSTY_2
 11
0.0000000000000001
 21
1.0
 31
0.0
  0
POINT
  5
471
100
AcDbEntity
  8
DEFPOINTS
  6
CONTINUOUS
 62
               0
100
AcDbPoint
 10
-171.44999975708723
 20
-29.504047863826646
 30
0.0
  0
POINT
  5
472
100
AcDbEntity
  8
DEFPOINTS
  6
CONTINUOUS
 62
               0
100
AcDbPoint
 10
-171.44999975708723
 20
28.995952136173383
 30
0.0
  0
POINT
  5
473
100
AcDbEntity
  8
DEFPOINTS
  6
CONTINUOUS
 62
               0
100
AcDbPoint
 10
-182.72117704895734
 20
28.995952136173383
 30
0.0
  0
ENDBLK
  5
474
100
AcDbEntity
  8
0
  6
ByBlock
 62
               0
100
AcDbBlockEnd
  0
BLOCK
  5
477
100
AcDbEntity
  8
0
  6
ByBlock
 62
               0
100
AcDbBlockBegin
  2
*D13
 70
               1
 10
0.0
 20
0.0
 30
0.0
  3
*D13
  1

  0
LINE
  5
478
100
AcDbEntity
  8
0
  6
CONTINUOUS
 62
               3
100
AcDbLine
 10
-158.34999974960002
 20
17.645952118673403
 30
0.0
 11
-145.34233793014201
 21
17.645952118673403
 31
0.0
  0
MTEXT
  5
479
100
AcDbEntity
  8
0
  6
CONTINUOUS
 62
               3
100
AcDbMText
 10
-137.34233781093272
 20
17.645952118673403
 30
0.0
 40
3.2000000476837158
 41
0.0
 71
               5
 72
               1
  1
\A1;47.15
  7
MX_DIMTXSTY_2
  0
POINT
  5
47A
100
AcDbEntity
  8
DEFPOINTS
  6
CONTINUOUS
 62
               0
100
AcDbPoint
 10
-159.84999974960002
 20
17.645952118673403
 30
0.0
  0
POINT
  5
47B
100
AcDbEntity
  8
DEFPOINTS
  6
CONTINUOUS
 62
               0
100
AcDbPoint
 10
-145.34233793014201
 20
17.645952118673403
 30
0.0
  0
POINT
  5
47C
100
AcDbEntity
  8
DEFPOINTS
  6
CONTINUOUS
 62
               0
100
AcDbPoint
 10
-146.84233793014201
 20
-29.504047863826646
 30
0.0
  0
ENDBLK
  5
47D
100
AcDbEntity
  8
0
  6
ByBlock
 62
               0
100
AcDbBlockEnd
  0
BLOCK
  5
482
100
AcDbEntity
  8
0
  6
ByBlock
 62
               0
100
AcDbBlockBegin
  2
*D14
 70
               1
 10
0.0
 20
0.0
 30
0.0
  3
*D14
  1

  0
LINE
  5
483
100
AcDbEntity
  8
0
  6
CONTINUOUS
 62
               3
100
AcDbLine
 10
-158.34999974960002
 20
2.7459521361733543
 30
0.0
 11
-145.34233793014201
 21
2.7459521361733543
 31
0.0
  0
MTEXT
  5
485
100
AcDbEntity
  8
0
  6
CONTINUOUS
 62
               3
100
AcDbMText
 10
-137.34233781093272
 20
2.7459521361733534
 30
0.0
 40
3.2000000476837158
 41
0.0
 71
               5
 72
               1
  1
\A1;32.25
  7
MX_DIMTXSTY_6
  0
POINT
  5
486
100
AcDbEntity
  8
DEFPOINTS
  6
CONTINUOUS
 62
               0
100
AcDbPoint
 10
-159.84999974960002
 20
2.7459521361733543
 30
0.0
  0
POINT
  5
487
100
AcDbEntity
  8
DEFPOINTS
  6
CONTINUOUS
 62
               0
100
AcDbPoint
 10
-145.34233793014201
 20
2.7459521361733543
 30
0.0
  0
POINT
  5
488
100
AcDbEntity
  8
DEFPOINTS
  6
CONTINUOUS
 62
               0
100
AcDbPoint
 10
-146.84233793014201
 20
-29.504047863826646
 30
0.0
  0
ENDBLK
  5
489
100
AcDbEntity
  8
0
  6
ByBlock
 62
               0
100
AcDbBlockEnd
  0
BLOCK
  5
48E
100
AcDbEntity
  8
0
  6
ByBlock
 62
               0
100
AcDbBlockBegin
  2
*D15
 70
               1
 10
0.0
 20
0.0
 30
0.0
  3
*D15
  1

  0
LINE
  5
48F
100
AcDbEntity
  8
0
  6
CONTINUOUS
 62
               3
100
AcDbLine
 10
-162.34999974960002
 20
-9.0040478638266457
 30
0.0
 11
-145.34233793014201
 21
-9.0040478638266457
 31
0.0
  0
MTEXT
  5
490
100
AcDbEntity
  8
0
  6
CONTINUOUS
 62
               3
100
AcDbMText
 10
-138.94233783477458
 20
-9.0040478638266457
 30
0.0
 40
3.2000000476837158
 41
0.0
 71
               5
 72
               1
  1
\A1;20.5
  7
MX_DIMTXSTY_2
  0
POINT
  5
491
100
AcDbEntity
  8
DEFPOINTS
  6
CONTINUOUS
 62
               0
100
AcDbPoint
 10
-163.84999974960002
 20
-9.0040478638266457
 30
0.0
  0
POINT
  5
492
100
AcDbEntity
  8
DEFPOINTS
  6
CONTINUOUS
 62
               0
100
AcDbPoint
 10
-145.34233793014201
 20
-9.0040478638266457
 30
0.0
  0
POINT
  5
493
100
AcDbEntity
  8
DEFPOINTS
  6
CONTINUOUS
 62
               0
100
AcDbPoint
 10
-146.84233793014201
 20
-29.504047863826646
 30
0.0
  0
ENDBLK
  5
494
100
AcDbEntity
  8
0
  6
ByBlock
 62
               0
100
AcDbBlockEnd
  0
BLOCK
  5
499
100
AcDbEntity
  8
0
  6
ByBlock
 62
               0
100
AcDbBlockBegin
  2
*D16
 70
               1
 10
0.0
 20
0.0
 30
0.0
  3
*D16
  1

  0
LINE
  5
49A
100
AcDbEntity
  8
0
  6
CONTINUOUS
 62
               3
100
AcDbLine
 10
-158.34999974960002
 20
-18.654047846326666
 30
0.0
 11
-145.34233793014201
 21
-18.654047846326666
 31
0.0
  0
MTEXT
  5
49B
100
AcDbEntity
  8
0
  6
CONTINUOUS
 62
               3
100
AcDbMText
 10
-137.34233781093272
 20
-18.654047846326666
 30
0.0
 40
3.2000000476837158
 41
0.0
 71
               5
 72
               1
  1
\A1;10.85
  7
MX_DIMTXSTY_4
  0
POINT
  5
49C
100
AcDbEntity
  8
DEFPOINTS
  6
CONTINUOUS
 62
               0
100
AcDbPoint
 10
-159.84999974960002
 20
-18.654047846326666
 30
0.0
  0
POINT
  5
49D
100
AcDbEntity
  8
DEFPOINTS
  6
CONTINUOUS
 62
               0
100
AcDbPoint
 10
-145.34233793014201
 20
-18.654047846326666
 30
0.0
  0
POINT
  5
49E
100
AcDbEntity
  8
DEFPOINTS
  6
CONTINUOUS
 62
               0
100
AcDbPoint
 10
-146.84233793014201
 20
-29.504047863826646
 30
0.0
  0
ENDBLK
  5
49F
100
AcDbEntity
  8
0
  6
ByBlock
 62
               0
100
AcDbBlockEnd
  0
BLOCK
  5
4A1
100
AcDbEntity
  8
0
  6
ByBlock
 62
               0
100
AcDbBlockBegin
  2
_DOTBLANK
 70
               2
 10
0.0
 20
0.0
 30
0.0
  3
_DOTBLANK
  1

  0
CIRCLE
  5
4A2
100
AcDbEntity
  8
0
  6
ByBlock
 62
               0
100
AcDbCircle
 10
0.0
 20
0.0
 30
0.0
 40
0.5
  0
LINE
  5
4A3
100
AcDbEntity
  8
0
  6
ByBlock
 62
               0
100
AcDbLine
 10
-0.5
 20
0.0
 30
0.0
 11
-1.0
 21
0.0
 31
0.0
  0
ENDBLK
  5
4A4
100
AcDbEntity
  8
0
  6
ByBlock
 62
               0
100
AcDbBlockEnd
  0
BLOCK
  5
4AB
100
AcDbEntity
  8
0
  6
ByBlock
 62
               0
100
AcDbBlockBegin
  2
*D18
 70
               1
 10
0.0
 20
0.0
 30
0.0
  3
*D18
  1

  0
LINE
  5
4AC
100
AcDbEntity
  8
0
  6
CONTINUOUS
 62
               3
100
AcDbLine
 10
68.75
 20
52.281614909539925
 30
0.0
 11
74.750000000000043
 21
52.281614909539925
 31
0.0
  0
LINE
  5
4AD
100
AcDbEntity
  8
0
  6
CONTINUOUS
 62
               3
100
AcDbLine
 10
68.75
 20
30.495951304803597
 30
0.0
 11
68.75
 21
53.781614909539925
 31
0.0
  0
LINE
  5
4AE
100
AcDbEntity
  8
0
  6
CONTINUOUS
 62
               3
100
AcDbLine
 10
74.750000000000043
 20
45.55935538805555
 30
0.0
 11
74.750000000000043
 21
53.781614909539925
 31
0.0
  0
INSERT
  5
4AF
100
AcDbEntity
  8
0
  6
CONTINUOUS
 62
               3
100
AcDbBlockReference
  2
_OPEN30
 10
68.75
 20
52.281614909539925
 30
0.0
 41
2.77
 42
2.77
 43
2.77
 50
180.0
  0
INSERT
  5
4B0
100
AcDbEntity
  8
0
  6
CONTINUOUS
 62
               3
100
AcDbBlockReference
  2
_OPEN30
 10
74.750000000000043
 20
52.281614909539925
 30
0.0
 41
2.77
 42
2.77
 43
2.77
  0
MTEXT
  5
4B1
100
AcDbEntity
  8
0
  6
CONTINUOUS
 62
               3
100
AcDbMText
 10
71.75
 20
54.881614933381783
 30
0.0
 40
3.2000000476837158
 41
0.0
 71
               5
 72
               1
  1
\A1;6
  0
POINT
  5
4B2
100
AcDbEntity
  8
DEFPOINTS
  6
CONTINUOUS
 62
               0
100
AcDbPoint
 10
68.75
 20
28.995951304803597
 30
0.0
  0
POINT
  5
4B3
100
AcDbEntity
  8
DEFPOINTS
  6
CONTINUOUS
 62
               0
100
AcDbPoint
 10
74.750000000000043
 20
44.05935538805555
 30
0.0
  0
POINT
  5
4B4
100
AcDbEntity
  8
DEFPOINTS
  6
CONTINUOUS
 62
               0
100
AcDbPoint
 10
74.750000000000043
 20
52.281614909539925
 30
0.0
  0
ENDBLK
  5
4B5
100
AcDbEntity
  8
0
  6
ByBlock
 62
               0
100
AcDbBlockEnd
  0
BLOCK
  5
4B8
100
AcDbEntity
  8
0
  6
ByBlock
 62
               0
100
AcDbBlockBegin
  2
*D19
 70
               1
 10
0.0
 20
0.0
 30
0.0
  3
*D19
  1

  0
LINE
  5
4B9
100
AcDbEntity
  8
0
  6
CONTINUOUS
 62
               3
100
AcDbLine
 10
143.78350002951021
 20
34.995952136173358
 30
0.0
 11
143.78350002951021
 21
-29.504047863826646
 31
0.0
  0
LINE
  5
4BA
100
AcDbEntity
  8
0
  6
CONTINUOUS
 62
               3
100
AcDbLine
 10
119.55000050253267
 20
34.995952136173358
 30
0.0
 11
145.28350002951021
 21
34.995952136173358
 31
0.0
  0
LINE
  5
4BB
100
AcDbEntity
  8
0
  6
CONTINUOUS
 62
               3
100
AcDbLine
 10
119.55000050253267
 20
-29.504047863826646
 30
0.0
 11
145.28350002951021
 21
-29.504047863826646
 31
0.0
  0
INSERT
  5
4BC
100
AcDbEntity
  8
0
  6
CONTINUOUS
 62
               3
100
AcDbBlockReference
  2
_OPEN30
 10
143.78350002951021
 20
34.995952136173358
 30
0.0
 41
2.77
 42
2.77
 43
2.77
 50
90.0
  0
INSERT
  5
4BD
100
AcDbEntity
  8
0
  6
CONTINUOUS
 62
               3
100
AcDbBlockReference
  2
_OPEN30
 10
143.78350002951021
 20
-29.504047863826646
 30
0.0
 41
2.77
 42
2.77
 43
2.77
 50
270.0
  0
MTEXT
  5
4BE
100
AcDbEntity
  8
0
  6
CONTINUOUS
 62
               3
100
AcDbMText
 10
141.18350000566835
 20
2.7459521361733579
 30
0.0
 40
3.2000000476837158
 41
0.0
 71
               5
 72
               1
  1
\A1;64.5
  7
MX_DIMTXSTY_2
 11
-0.0000000000000001
 21
1.0
 31
0.0
  0
POINT
  5
4BF
100
AcDbEntity
  8
DEFPOINTS
  6
CONTINUOUS
 62
               0
100
AcDbPoint
 10
118.05000050253267
 20
34.995952136173358
 30
0.0
  0
POINT
  5
4C0
100
AcDbEntity
  8
DEFPOINTS
  6
CONTINUOUS
 62
               0
100
AcDbPoint
 10
118.05000050253267
 20
-29.504047863826646
 30
0.0
  0
POINT
  5
4C1
100
AcDbEntity
  8
DEFPOINTS
  6
CONTINUOUS
 62
               0
100
AcDbPoint
 10
143.78350002951021
 20
-29.504047863826646
 30
0.0
  0
ENDBLK
  5
4C2
100
AcDbEntity
  8
0
  6
ByBlock
 62
               0
100
AcDbBlockEnd
  0
BLOCK
  5
4C5
100
AcDbEntity
  8
0
  6
ByBlock
 62
               0
100
AcDbBlockBegin
  2
*D20
 70
               1
 10
0.0
 20
0.0
 30
0.0
  3
*D20
  1

  0
LINE
  5
4C6
100
AcDbEntity
  8
0
  6
CONTINUOUS
 62
               3
100
AcDbLine
 10
119.35000000000005
 20
-51.078649790811383
 30
0.0
 11
68.749999999999943
 21
-51.078649790811383
 31
0.0
  0
LINE
  5
4C7
100
AcDbEntity
  8
0
  6
CONTINUOUS
 62
               3
100
AcDbLine
 10
119.35000000000005
 20
-19.504049571084821
 30
0.0
 11
119.35000000000005
 21
-52.578649790811383
 31
0.0
  0
LINE
  5
4C8
100
AcDbEntity
  8
0
  6
CONTINUOUS
 62
               3
100
AcDbLine
 10
68.749999999999943
 20
-45.780109675454938
 30
0.0
 11
68.749999999999943
 21
-52.578649790811383
 31
0.0
  0
INSERT
  5
4C9
100
AcDbEntity
  8
0
  6
CONTINUOUS
 62
               3
100
AcDbBlockReference
  2
_OPEN30
 10
119.35000000000005
 20
-51.078649790811383
 30
0.0
 41
2.77
 42
2.77
 43
2.77
  0
INSERT
  5
4CA
100
AcDbEntity
  8
0
  6
CONTINUOUS
 62
               3
100
AcDbBlockReference
  2
_OPEN30
 10
68.749999999999943
 20
-51.078649790811383
 30
0.0
 41
2.77
 42
2.77
 43
2.77
 50
180.0
  0
MTEXT
  5
4CB
100
AcDbEntity
  8
0
  6
CONTINUOUS
 62
               3
100
AcDbMText
 10
94.050000762939504
 20
-48.478649766969525
 30
0.0
 40
3.2000000476837158
 41
0.0
 71
               5
 72
               1
  1
\A1;50.6
  7
MX_DIMTXSTY_2
 11
1.0
 21
-0.0000000000000001
 31
0.0
  0
POINT
  5
4CC
100
AcDbEntity
  8
DEFPOINTS
  6
CONTINUOUS
 62
               0
100
AcDbPoint
 10
119.35000000000005
 20
-18.004049571084821
 30
0.0
  0
POINT
  5
4CD
100
AcDbEntity
  8
DEFPOINTS
  6
CONTINUOUS
 62
               0
100
AcDbPoint
 10
68.749999999999943
 20
-44.280109675454938
 30
0.0
  0
POINT
  5
4CE
100
AcDbEntity
  8
DEFPOINTS
  6
CONTINUOUS
 62
               0
100
AcDbPoint
 10
68.749999999999943
 20
-51.078649790811383
 30
0.0
  0
ENDBLK
  5
4CF
100
AcDbEntity
  8
0
  6
ByBlock
 62
               0
100
AcDbBlockEnd
  0
BLOCK
  5
4D2
100
AcDbEntity
  8
0
  6
ByBlock
 62
               0
100
AcDbBlockBegin
  2
*D21
 70
               1
 10
0.0
 20
0.0
 30
0.0
  3
*D21
  1

  0
LINE
  5
4D3
100
AcDbEntity
  8
0
  6
CONTINUOUS
 62
               3
100
AcDbLine
 10
75.75
 20
-44.280109767741656
 30
0.0
 11
68.749999999999943
 21
-44.280109767741656
 31
0.0
  0
LINE
  5
4D4
100
AcDbEntity
  8
0
  6
CONTINUOUS
 62
               3
100
AcDbLine
 10
75.75
 20
-29.004047756022906
 30
0.0
 11
75.75
 21
-45.780109767741656
 31
0.0
  0
LINE
  5
4D5
100
AcDbEntity
  8
0
  6
CONTINUOUS
 62
               3
100
AcDbLine
 10
68.749999999999943
 20
-30.404048328227496
 30
0.0
 11
68.749999999999943
 21
-45.780109767741656
 31
0.0
  0
INSERT
  5
4D6
100
AcDbEntity
  8
0
  6
CONTINUOUS
 62
               3
100
AcDbBlockReference
  2
_OPEN30
 10
75.75
 20
-44.280109767741656
 30
0.0
 41
2.77
 42
2.77
 43
2.77
  0
INSERT
  5
4D7
100
AcDbEntity
  8
0
  6
CONTINUOUS
 62
               3
100
AcDbBlockReference
  2
_OPEN30
 10
68.749999999999943
 20
-44.280109767741656
 30
0.0
 41
2.77
 42
2.77
 43
2.77
 50
180.0
  0
MTEXT
  5
4D8
100
AcDbEntity
  8
0
  6
CONTINUOUS
 62
               3
100
AcDbMText
 10
72.25
 20
-41.680109743899799
 30
0.0
 40
3.2000000476837158
 41
0.0
 71
               5
 72
               1
  1
\A1;7
 11
1.0
 21
-0.0000000000000001
 31
0.0
  0
POINT
  5
4D9
100
AcDbEntity
  8
DEFPOINTS
  6
CONTINUOUS
 62
               0
100
AcDbPoint
 10
75.75
 20
-27.504047756022906
 30
0.0
  0
POINT
  5
4DA
100
AcDbEntity
  8
DEFPOINTS
  6
CONTINUOUS
 62
               0
100
AcDbPoint
 10
68.749999999999943
 20
-28.904048328227496
 30
0.0
  0
POINT
  5
4DB
100
AcDbEntity
  8
DEFPOINTS
  6
CONTINUOUS
 62
               0
100
AcDbPoint
 10
68.749999999999943
 20
-44.280109767741656
 30
0.0
  0
ENDBLK
  5
4DC
100
AcDbEntity
  8
0
  6
ByBlock
 62
               0
100
AcDbBlockEnd
  0
BLOCK
  5
4DF
100
AcDbEntity
  8
0
  6
ByBlock
 62
               0
100
AcDbBlockBegin
  2
*D22
 70
               1
 10
0.0
 20
0.0
 30
0.0
  3
*D22
  1

  0
LINE
  5
4E0
100
AcDbEntity
  8
0
  6
CONTINUOUS
 62
               3
100
AcDbLine
 10
48.185568012806762
 20
-24.504047863826646
 30
0.0
 11
48.185568012806762
 21
-11.504047863826646
 31
0.0
  0
LINE
  5
4E1
100
AcDbEntity
  8
0
  6
CONTINUOUS
 62
               3
100
AcDbLine
 10
71.221124806019645
 20
-11.504047863826646
 30
0.0
 11
46.685568012806762
 21
-11.504047863826646
 31
0.0
  0
INSERT
  5
4E2
100
AcDbEntity
  8
0
  6
CONTINUOUS
 62
               3
100
AcDbBlockReference
  2
_OPEN30
 10
48.185568012806762
 20
-24.504047863826646
 30
0.0
 41
2.77
 42
2.77
 43
2.77
 50
270.0
  0
INSERT
  5
4E3
100
AcDbEntity
  8
0
  6
CONTINUOUS
 62
               3
100
AcDbBlockReference
  2
_OPEN30
 10
48.185568012806762
 20
-11.504047863826646
 30
0.0
 41
2.77
 42
2.77
 43
2.77
 50
90.0
  0
MTEXT
  5
4E4
100
AcDbEntity
  8
0
  6
CONTINUOUS
 62
               3
100
AcDbMText
 10
45.585567988964904
 20
-18.004047863826646
 30
0.0
 40
3.2000000476837158
 41
0.0
 71
               5
 72
               1
  1
\A1;13
  7
MX_DIMTXSTY_2
 11
0.0000000000000001
 21
1.0
 31
0.0
  0
POINT
  5
4E5
100
AcDbEntity
  8
DEFPOINTS
  6
CONTINUOUS
 62
               0
100
AcDbPoint
 10
48.185568012806762
 20
-24.504047863826646
 30
0.0
  0
POINT
  5
4E6
100
AcDbEntity
  8
DEFPOINTS
  6
CONTINUOUS
 62
               0
100
AcDbPoint
 10
72.721124806019645
 20
-11.504047863826646
 30
0.0
  0
POINT
  5
4E7
100
AcDbEntity
  8
DEFPOINTS
  6
CONTINUOUS
 62
               0
100
AcDbPoint
 10
48.185568012806762
 20
-11.504047863826646
 30
0.0
  0
ENDBLK
  5
4E8
100
AcDbEntity
  8
0
  6
ByBlock
 62
               0
100
AcDbBlockEnd
  0
BLOCK
  5
4EB
100
AcDbEntity
  8
0
  6
ByBlock
 62
               0
100
AcDbBlockBegin
  2
*D23
 70
               1
 10
0.0
 20
0.0
 30
0.0
  3
*D23
  1

  0
LINE
  5
4EC
100
AcDbEntity
  8
0
  6
CONTINUOUS
 62
               3
100
AcDbLine
 10
48.185568012806762
 20
-29.504047863826646
 30
0.0
 11
48.185568012806762
 21
-24.504047863826646
 31
0.0
  0
LINE
  5
4ED
100
AcDbEntity
  8
0
  6
CONTINUOUS
 62
               3
100
AcDbLine
 10
78.250000156971794
 20
-29.504047863826646
 30
0.0
 11
46.685568012806762
 21
-29.504047863826646
 31
0.0
  0
LINE
  5
4EE
100
AcDbEntity
  8
0
  6
CONTINUOUS
 62
               3
100
AcDbLine
 10
71.221124806019645
 20
-24.504047863826646
 30
0.0
 11
46.685568012806762
 21
-24.504047863826646
 31
0.0
  0
INSERT
  5
4EF
100
AcDbEntity
  8
0
  6
CONTINUOUS
 62
               3
100
AcDbBlockReference
  2
_OPEN30
 10
48.185568012806762
 20
-29.504047863826646
 30
0.0
 41
2.77
 42
2.77
 43
2.77
 50
270.0
  0
INSERT
  5
4F0
100
AcDbEntity
  8
0
  6
CONTINUOUS
 62
               3
100
AcDbBlockReference
  2
_OPEN30
 10
48.185568012806762
 20
-24.504047863826646
 30
0.0
 41
2.77
 42
2.77
 43
2.77
 50
90.0
  0
MTEXT
  5
4F1
100
AcDbEntity
  8
0
  6
CONTINUOUS
 62
               3
100
AcDbMText
 10
45.585567988964904
 20
-27.004047863826646
 30
0.0
 40
3.2000000476837158
 41
0.0
 71
               5
 72
               1
  1
\A1;5
 11
0.0000000000000001
 21
1.0
 31
0.0
  0
POINT
  5
4F2
100
AcDbEntity
  8
DEFPOINTS
  6
CONTINUOUS
 62
               0
100
AcDbPoint
 10
79.750000156971794
 20
-29.504047863826646
 30
0.0
  0
POINT
  5
4F3
100
AcDbEntity
  8
DEFPOINTS
  6
CONTINUOUS
 62
               0
100
AcDbPoint
 10
72.721124806019645
 20
-24.504047863826646
 30
0.0
  0
POINT
  5
4F4
100
AcDbEntity
  8
DEFPOINTS
  6
CONTINUOUS
 62
               0
100
AcDbPoint
 10
48.185568012806762
 20
-24.504047863826646
 30
0.0
  0
ENDBLK
  5
4F5
100
AcDbEntity
  8
0
  6
ByBlock
 62
               0
100
AcDbBlockEnd
  0
BLOCK
  5
4F8
100
AcDbEntity
  8
0
  6
ByBlock
 62
               0
100
AcDbBlockBegin
  2
*D24
 70
               1
 10
0.0
 20
0.0
 30
0.0
  3
*D24
  1

  0
LINE
  5
4F9
100
AcDbEntity
  8
0
  6
CONTINUOUS
 62
               3
100
AcDbLine
 10
-94.25
 20
-42.120396640028396
 30
0.0
 11
-101.25000000000006
 21
-42.120396640028396
 31
0.0
  0
LINE
  5
4FA
100
AcDbEntity
  8
0
  6
CONTINUOUS
 62
               3
100
AcDbLine
 10
-94.25
 20
-29.004047419752517
 30
0.0
 11
-94.25
 21
-43.620396640028396
 31
0.0
  0
LINE
  5
4FB
100
AcDbEntity
  8
0
  6
CONTINUOUS
 62
               3
100
AcDbLine
 10
-101.25000000000006
 20
-30.404047991957107
 30
0.0
 11
-101.25000000000006
 21
-43.620396640028396
 31
0.0
  0
INSERT
  5
4FC
100
AcDbEntity
  8
0
  6
CONTINUOUS
 62
               3
100
AcDbBlockReference
  2
_OPEN30
 10
-94.25
 20
-42.120396640028396
 30
0.0
 41
2.77
 42
2.77
 43
2.77
  0
INSERT
  5
4FD
100
AcDbEntity
  8
0
  6
CONTINUOUS
 62
               3
100
AcDbBlockReference
  2
_OPEN30
 10
-101.25000000000006
 20
-42.120396640028396
 30
0.0
 41
2.77
 42
2.77
 43
2.77
 50
180.0
  0
MTEXT
  5
4FE
100
AcDbEntity
  8
0
  6
CONTINUOUS
 62
               3
100
AcDbMText
 10
-97.75
 20
-39.520396616186538
 30
0.0
 40
3.2000000476837158
 41
0.0
 71
               5
 72
               1
  1
\A1;7
 11
1.0
 21
-0.0000000000000001
 31
0.0
  0
POINT
  5
4FF
100
AcDbEntity
  8
DEFPOINTS
  6
CONTINUOUS
 62
               0
100
AcDbPoint
 10
-94.25
 20
-27.504047419752517
 30
0.0
  0
POINT
  5
500
100
AcDbEntity
  8
DEFPOINTS
  6
CONTINUOUS
 62
               0
100
AcDbPoint
 10
-101.25000000000006
 20
-28.904047991957107
 30
0.0
  0
POINT
  5
501
100
AcDbEntity
  8
DEFPOINTS
  6
CONTINUOUS
 62
               0
100
AcDbPoint
 10
-101.25000000000006
 20
-42.120396640028396
 30
0.0
  0
ENDBLK
  5
502
100
AcDbEntity
  8
0
  6
ByBlock
 62
               0
100
AcDbBlockEnd
  0
BLOCK
  5
505
100
AcDbEntity
  8
0
  6
ByBlock
 62
               0
100
AcDbBlockBegin
  2
*D25
 70
               1
 10
0.0
 20
0.0
 30
0.0
  3
*D25
  1

  0
LINE
  5
506
100
AcDbEntity
  8
0
  6
CONTINUOUS
 62
               3
100
AcDbLine
 10
-116.87646536691933
 20
-24.504047863826646
 30
0.0
 11
-116.87646536691933
 21
-11.504047863826646
 31
0.0
  0
LINE
  5
507
100
AcDbEntity
  8
0
  6
CONTINUOUS
 62
               3
100
AcDbLine
 10
-98.278875874121482
 20
-24.504047863826646
 30
0.0
 11
-118.37646536691933
 21
-24.504047863826646
 31
0.0
  0
LINE
  5
508
100
AcDbEntity
  8
0
  6
CONTINUOUS
 62
               3
100
AcDbLine
 10
-98.278875874121482
 20
-11.504047863826646
 30
0.0
 11
-118.37646536691933
 21
-11.504047863826646
 31
0.0
  0
INSERT
  5
509
100
AcDbEntity
  8
0
  6
CONTINUOUS
 62
               3
100
AcDbBlockReference
  2
_OPEN30
 10
-116.87646536691933
 20
-24.504047863826646
 30
0.0
 41
2.77
 42
2.77
 43
2.77
 50
270.0
  0
INSERT
  5
50A
100
AcDbEntity
  8
0
  6
CONTINUOUS
 62
               3
100
AcDbBlockReference
  2
_OPEN30
 10
-116.87646536691933
 20
-11.504047863826646
 30
0.0
 41
2.77
 42
2.77
 43
2.77
 50
90.0
  0
MTEXT
  5
50B
100
AcDbEntity
  8
0
  6
CONTINUOUS
 62
               3
100
AcDbMText
 10
-119.47646539076119
 20
-18.004047863826646
 30
0.0
 40
3.2000000476837158
 41
0.0
 71
               5
 72
               1
  1
\A1;13
  7
MX_DIMTXSTY_2
 11
0.0000000000000001
 21
1.0
 31
0.0
  0
POINT
  5
50C
100
AcDbEntity
  8
DEFPOINTS
  6
CONTINUOUS
 62
               0
100
AcDbPoint
 10
-96.778875874121482
 20
-24.504047863826646
 30
0.0
  0
POINT
  5
50D
100
AcDbEntity
  8
DEFPOINTS
  6
CONTINUOUS
 62
               0
100
AcDbPoint
 10
-96.778875874121482
 20
-11.504047863826646
 30
0.0
  0
POINT
  5
50E
100
AcDbEntity
  8
DEFPOINTS
  6
CONTINUOUS
 62
               0
100
AcDbPoint
 10
-116.87646536691933
 20
-11.504047863826646
 30
0.0
  0
ENDBLK
  5
50F
100
AcDbEntity
  8
0
  6
ByBlock
 62
               0
100
AcDbBlockEnd
  0
BLOCK
  5
512
100
AcDbEntity
  8
0
  6
ByBlock
 62
               0
100
AcDbBlockBegin
  2
*D26
 70
               1
 10
0.0
 20
0.0
 30
0.0
  3
*D26
  1

  0
LINE
  5
513
100
AcDbEntity
  8
0
  6
CONTINUOUS
 62
               3
100
AcDbLine
 10
-116.87646536691933
 20
-29.504047863826646
 30
0.0
 11
-116.87646536691933
 21
-24.504047863826646
 31
0.0
  0
LINE
  5
514
100
AcDbEntity
  8
0
  6
CONTINUOUS
 62
               3
100
AcDbLine
 10
-91.749998615820701
 20
-29.504047863826646
 30
0.0
 11
-118.37646536691933
 21
-29.504047863826646
 31
0.0
  0
LINE
  5
515
100
AcDbEntity
  8
0
  6
CONTINUOUS
 62
               3
100
AcDbLine
 10
-98.750000523169334
 20
-24.504047863826646
 30
0.0
 11
-118.37646536691933
 21
-24.504047863826646
 31
0.0
  0
INSERT
  5
516
100
AcDbEntity
  8
0
  6
CONTINUOUS
 62
               3
100
AcDbBlockReference
  2
_OPEN30
 10
-116.87646536691933
 20
-29.504047863826646
 30
0.0
 41
2.77
 42
2.77
 43
2.77
 50
270.0
  0
INSERT
  5
517
100
AcDbEntity
  8
0
  6
CONTINUOUS
 62
               3
100
AcDbBlockReference
  2
_OPEN30
 10
-116.87646536691933
 20
-24.504047863826646
 30
0.0
 41
2.77
 42
2.77
 43
2.77
 50
90.0
  0
MTEXT
  5
518
100
AcDbEntity
  8
0
  6
CONTINUOUS
 62
               3
100
AcDbMText
 10
-119.47646539076119
 20
-27.004047863826646
 30
0.0
 40
3.2000000476837158
 41
0.0
 71
               5
 72
               1
  1
\A1;5
 11
0.0000000000000001
 21
1.0
 31
0.0
  0
POINT
  5
519
100
AcDbEntity
  8
DEFPOINTS
  6
CONTINUOUS
 62
               0
100
AcDbPoint
 10
-90.249998615820701
 20
-29.504047863826646
 30
0.0
  0
POINT
  5
51A
100
AcDbEntity
  8
DEFPOINTS
  6
CONTINUOUS
 62
               0
100
AcDbPoint
 10
-97.250000523169334
 20
-24.504047863826646
 30
0.0
  0
POINT
  5
51B
100
AcDbEntity
  8
DEFPOINTS
  6
CONTINUOUS
 62
               0
100
AcDbPoint
 10
-116.87646536691933
 20
-24.504047863826646
 30
0.0
  0
ENDBLK
  5
51C
100
AcDbEntity
  8
0
  6
ByBlock
 62
               0
100
AcDbBlockEnd
  0
BLOCK
  5
51F
100
AcDbEntity
  8
0
  6
ByBlock
 62
               0
100
AcDbBlockBegin
  2
*D27
 70
               1
 10
0.0
 20
0.0
 30
0.0
  3
*D27
  1

  0
LINE
  5
520
100
AcDbEntity
  8
0
  6
CONTINUOUS
 62
               3
100
AcDbLine
 10
-101.25
 20
51.487281462229106
 30
0.0
 11
-95.249999999999957
 21
51.487281462229106
 31
0.0
  0
LINE
  5
521
100
AcDbEntity
  8
0
  6
CONTINUOUS
 62
               3
100
AcDbLine
 10
-101.25
 20
30.495952269113872
 30
0.0
 11
-101.25
 21
52.987281462229106
 31
0.0
  0
LINE
  5
522
100
AcDbEntity
  8
0
  6
CONTINUOUS
 62
               3
100
AcDbLine
 10
-95.249999999999957
 20
45.55935492185435
 30
0.0
 11
-95.249999999999957
 21
52.987281462229106
 31
0.0
  0
INSERT
  5
523
100
AcDbEntity
  8
0
  6
CONTINUOUS
 62
               3
100
AcDbBlockReference
  2
_OPEN30
 10
-101.25
 20
51.487281462229106
 30
0.0
 41
2.77
 42
2.77
 43
2.77
 50
180.0
  0
INSERT
  5
524
100
AcDbEntity
  8
0
  6
CONTINUOUS
 62
               3
100
AcDbBlockReference
  2
_OPEN30
 10
-95.249999999999957
 20
51.487281462229106
 30
0.0
 41
2.77
 42
2.77
 43
2.77
  0
MTEXT
  5
525
100
AcDbEntity
  8
0
  6
CONTINUOUS
 62
               3
100
AcDbMText
 10
-98.25
 20
54.087281486070964
 30
0.0
 40
3.2000000476837158
 41
0.0
 71
               5
 72
               1
  1
\A1;6
  0
POINT
  5
526
100
AcDbEntity
  8
DEFPOINTS
  6
CONTINUOUS
 62
               0
100
AcDbPoint
 10
-101.25
 20
28.995952269113872
 30
0.0
  0
POINT
  5
527
100
AcDbEntity
  8
DEFPOINTS
  6
CONTINUOUS
 62
               0
100
AcDbPoint
 10
-95.249999999999957
 20
44.05935492185435
 30
0.0
  0
POINT
  5
528
100
AcDbEntity
  8
DEFPOINTS
  6
CONTINUOUS
 62
               0
100
AcDbPoint
 10
-95.249999999999957
 20
51.487281462229106
 30
0.0
  0
ENDBLK
  5
529
100
AcDbEntity
  8
0
  6
ByBlock
 62
               0
100
AcDbBlockEnd
  0
ENDSEC
  0
SECTION
  2
ENTITIES
  0
LEADER
  5
3EC
100
AcDbEntity
  8
0
  6
CONTINUOUS
 62
               2
100
AcDbLeader
  3
MXDIMSTYLE
 73
               3
 74
               0
 75
               0
 40
0.0
 76
               3
 10
55.25
 20
-30.504047863826646
 30
0.0
 10
68.529183307491834
 20
-53.504268035422996
 30
0.0
 10
85.98858276923805
 20
-53.504268035422996
 30
0.0
 77
               2
1001
ACAD
1000
DSTYLE
1002
{
1070
               6
1000
_OPEN30
1070
               7
1000
_OPEN30
1070
              41
1040
2.77
1070
             173
1070
               1
1070
             341
1005
3E6
1002
}
  0
MTEXT
  5
3ED
100
AcDbEntity
  8
0
  6
CONTINUOUS
 62
               2
100
AcDbMText
 10
70.98858276923805
 20
-49.904268130790427
 30
0.0
 40
3.2000000476837158
 41
0.0
 71
               4
 72
               1
  1
\W0.937;\A1;MV-21
  0
LEADER
  5
3EE
100
AcDbEntity
  8
0
  6
CONTINUOUS
 62
               2
100
AcDbLeader
  3
MXDIMSTYLE
 73
               3
 74
               0
 75
               0
 40
0.0
 76
               3
 10
-114.75
 20
-30.504047863826646
 30
0.0
 10
-127.98880977578106
 20
-53.434339027218954
 30
0.0
 10
-145.17203755326216
 20
-53.434339027218954
 30
0.0
 77
               2
1001
ACAD
1000
DSTYLE
1002
{
1070
               6
1000
_OPEN30
1070
               7
1000
_OPEN30
1070
              41
1040
2.77
1070
             173
1070
               1
1070
             341
1005
3E6
1002
}
  0
MTEXT
  5
3EF
100
AcDbEntity
  8
0
  6
CONTINUOUS
 62
               2
100
AcDbMText
 10
-145.17203755326216
 20
-49.834339122586385
 30
0.0
 40
3.2000000476837158
 41
0.0
 71
               4
 72
               1
  1
\W0.937;\A1;MV-21
  0
INSERT
  5
3F0
100
AcDbEntity
  8
0
  6
ByBlock
100
AcDbBlockReference
  2
MV180-01-5
 10
165.11704696131181
 20
-30.504047863826646
 30
0.0
  0
INSERT
  5
3F1
100
AcDbEntity
  8
0
  6
ByBlock
100
AcDbBlockReference
  2
MV180-01-4
 10
59.25
 20
-30.504047863826646
 30
0.0
  0
INSERT
  5
3F2
100
AcDbEntity
  8
0
  6
ByBlock
100
AcDbBlockReference
  2
MV180-01-3
 10
-4.8829530386881856
 20
-30.504047863826646
 30
0.0
  0
INSERT
  5
3F3
100
AcDbEntity
  8
0
  6
ByBlock
100
AcDbBlockReference
  2
MV180-01-2
 10
-153.25
 20
-30.504047863826646
 30
0.0
  0
INSERT
  5
3F4
100
AcDbEntity
  8
0
  6
ByBlock
100
AcDbBlockReference
  2
MV180-01-1
 10
-110.75
 20
-30.504047863826646
 30
0.0
  0
MTEXT
  5
3F5
100
AcDbEntity
  8
0
  6
CONTINUOUS
 62
               7
100
AcDbMText
 10
74.712610524678752
 20
77.600006103515625
 30
0.0
 40
4.5
 41
0.0
 71
               4
 72
               1
  1
\W1.043;\A1;MV180-04
  0
MTEXT
  5
3F6
100
AcDbEntity
  8
0
  6
CONTINUOUS
 62
               7
100
AcDbMText
 10
-158.69642857484976
 20
77.600006103515625
 30
0.0
 40
4.5
 41
0.0
 71
               4
 72
               1
  1
\W1.071;\A1;MV180-04-PL(ML)
  0
MTEXT
  5
3F7
100
AcDbEntity
  8
0
  6
CONTINUOUS
 62
               7
100
AcDbMText
 10
74.712610524678752
 20
87.600006103515625
 30
0.0
 40
4.5
 41
0.0
 71
               4
 72
               1
  1
\W1.043;\A1;MV180-03
  0
MTEXT
  5
3F8
100
AcDbEntity
  8
0
  6
CONTINUOUS
 62
               7
100
AcDbMText
 10
-158.69642857484976
 20
87.600006103515625
 30
0.0
 40
4.5
 41
0.0
 71
               4
 72
               1
  1
\W1.071;\A1;MV180-03-PL(ML)
  0
LINE
  5
3FA
100
AcDbEntity
  8
0
  6
DASHED
 62
               2
100
AcDbLine
 10
39.18000183105471
 20
-133.5
 30
0.0
 11
39.18000183105471
 21
132.60000610351562
 31
0.0
  0
MTEXT
  5
3FB
100
AcDbEntity
  8
0
  6
CONTINUOUS
 62
               7
100
AcDbMText
 10
74.712610524678752
 20
97.600006103515625
 30
0.0
 40
4.5
 41
0.0
 71
               4
 72
               1
  1
\W1.043;\A1;MV180-02
  0
MTEXT
  5
3FC
100
AcDbEntity
  8
0
  6
CONTINUOUS
 62
               7
100
AcDbMText
 10
47.75894919622516
 20
107.60000610351562
 30
0.0
 40
4.5
 41
0.0
 71
               4
 72
               1
  1
\W1.105;\A1;MODEL:MV180-01
  0
MTEXT
  5
3FD
100
AcDbEntity
  8
0
  6
CONTINUOUS
 62
               7
100
AcDbMText
 10
-158.69642857484976
 20
97.600006103515625
 30
0.0
 40
4.5
 41
0.0
 71
               4
 72
               1
  1
\W1.071;\A1;MV180-02-PL(ML)
  0
MTEXT
  5
3FE
100
AcDbEntity
  8
0
  6
CONTINUOUS
 62
               7
100
AcDbMText
 10
-185.67105263547967
 20
107.60000610351562
 30
0.0
 40
4.5
 41
0.0
 71
               4
 72
               1
  1
\W1.105;\A1;MODEL:MV180-01-PL(ML)
  0
MTEXT
  5
3FF
100
AcDbEntity
  8
0
  6
CONTINUOUS
 62
               7
100
AcDbMText
 10
-189.24406320644874
 20
125.10000610351562
 30
0.0
 40
4.5
 41
0.0
 71
               4
 72
               1
  1
\W1.008;\A1;VACUUM VALVE UNIT
  0
MTEXT
  5
400
100
AcDbEntity
  8
0
  6
CONTINUOUS
 62
               7
100
AcDbMText
 10
135.28361320576767
 20
125.10000610351562
 30
0.0
 40
4.5
 41
0.0
 71
               4
 72
               1
  1
\W1.311;\A1;Ver. 1.0
  0
LINE
  5
401
100
AcDbEntity
  8
0
  6
CONTINUOUS
 62
               7
100
AcDbLine
 10
-194.25
 20
132.60000610351562
 30
0.0
 11
194.80000305175781
 21
132.60000610351562
 31
0.0
  0
LINE
  5
402
100
AcDbEntity
  8
0
  6
CONTINUOUS
 62
               7
100
AcDbLine
 10
194.80000305175781
 20
132.60000610351562
 30
0.0
 11
194.80000305175781
 21
-133.5
 31
0.0
  0
LINE
  5
403
100
AcDbEntity
  8
0
  6
CONTINUOUS
 62
               7
100
AcDbLine
 10
-194.25
 20
132.60000610351562
 30
0.0
 11
-194.25
 21
-133.5
 31
0.0
  0
LINE
  5
404
100
AcDbEntity
  8
0
  6
CONTINUOUS
 62
               7
100
AcDbLine
 10
-194.25
 20
-133.5
 30
0.0
 11
194.80000305175781
 21
-133.5
 31
0.0
  0
LINE
  5
405
100
AcDbEntity
  8
0
  6
CONTINUOUS
 62
               7
100
AcDbLine
 10
109.80000305175781
 20
-118.5
 30
0.0
 11
109.80000305175781
 21
-133.5
 31
0.0
  0
LINE
  5
406
100
AcDbEntity
  8
0
  6
CONTINUOUS
 62
               7
100
AcDbLine
 10
109.80000305175781
 20
-118.5
 30
0.0
 11
194.80000305175781
 21
-118.5
 31
0.0
  0
LINE
  5
407
100
AcDbEntity
  8
0
  6
CONTINUOUS
 62
               7
100
AcDbLine
 10
109.80000305175781
 20
132.60000610351562
 30
0.0
 11
109.80000305175781
 21
117.60000610351562
 31
0.0
  0
LINE
  5
408
100
AcDbEntity
  8
0
  6
CONTINUOUS
 62
               7
100
AcDbLine
 10
109.80000305175781
 20
117.60000610351562
 30
0.0
 11
194.80000305175781
 21
117.60000610351562
 31
0.0
  0
LINE
  5
409
100
AcDbEntity
  8
0
  6
CONTINUOUS
 62
               7
100
AcDbLine
 10
-194.25
 20
117.60000610351562
 30
0.0
 11
-109.25
 21
117.60000610351562
 31
0.0
  0
LINE
  5
40A
100
AcDbEntity
  8
0
  6
CONTINUOUS
 62
               7
100
AcDbLine
 10
-109.25
 20
132.60000610351562
 30
0.0
 11
-109.25
 21
117.60000610351562
 31
0.0
  0
MTEXT
  5
40B
100
AcDbEntity
  8
0
  6
CONTINUOUS
 62
               7
100
AcDbMText
 10
115.5267259825148
 20
-126.0
 30
0.0
 40
6.3000001907348633
 41
0.0
 71
               4
 72
               1
  1
\W1.121;\A1;KOGANEI CORP.
  0
DIMENSION
  5
419
100
AcDbEntity
  8
寸法
  6
CONTINUOUS
 62
               3
100
AcDbDimension
  2
*D6
 10
-101.25000000000006
 20
-49.721618866975732
 30
0.0
 11
-71.15000038146971
 21
-49.721618866975732
 31
0.0
 70
             128
  1
<>
  3
MXDIMSTYLE
100
AcDbAlignedDimension
 13
-41.049999999999983
 23
-15.019046998079247
 33
0.0
 14
-101.25000000000006
 24
-28.904047226961083
 34
0.0
100
AcDbRotatedDimension
1001
ACAD
1000
DSTYLE
1002
{
1070
               6
1000
_OPEN30
1070
               7
1000
_OPEN30
1070
              41
1040
2.77
1070
             173
1070
               1
1070
             271
1070
               2
1070
             284
1070
               8
1070
             340
1005
413
1070
             341
1005
3E6
1002
}
  0
DIMENSION
  5
42A
100
AcDbEntity
  8
寸法
  6
CONTINUOUS
 62
               3
100
AcDbDimension
  2
*D7
 10
-171.44999999999999
 20
-50.493004128824055
 30
0.0
 11
-182.13428840637209
 21
-50.493004128824055
 31
0.0
 70
             128
  1
<>
  3
MXDIMSTYLE
100
AcDbAlignedDimension
 13
-163.35000000000002
 23
-22.154047295938312
 33
0.0
 14
-171.44999999999999
 24
-41.760093018899738
 34
0.0
100
AcDbRotatedDimension
1001
ACAD
1000
DSTYLE
1002
{
1070
               6
1000
_OPEN30
1070
               7
1000
_OPEN30
1070
              41
1040
2.77
1070
             173
1070
               1
1070
             271
1070
               2
1070
             284
1070
               8
1070
             340
1005
424
1070
             341
1005
3E6
1002
}
  0
DIMENSION
  5
43A
100
AcDbEntity
  8
寸法
  6
CONTINUOUS
 62
               3
100
AcDbDimension
  2
*D8
 10
-171.44999999999999
 20
-41.760092696113446
 30
0.0
 11
-183.34719238281252
 21
-41.760092696113446
 31
0.0
 70
             128
  1
<>
  3
MXDIMSTYLE
100
AcDbAlignedDimension
 13
-167.35000000000002
 23
-12.504048308296063
 33
0.0
 14
-171.44999999999999
 24
-29.504048308296063
 34
0.0
100
AcDbRotatedDimension
1001
ACAD
1000
DSTYLE
1002
{
1070
               6
1000
_OPEN30
1070
               7
1000
_OPEN30
1070
              41
1040
2.77
1070
             173
1070
               1
1070
             271
1070
               2
1070
             284
1070
               8
1070
             340
1005
424
1070
             341
1005
3E6
1002
}
  0
DIMENSION
  5
44A
100
AcDbEntity
  8
寸法
  6
CONTINUOUS
 62
               3
100
AcDbDimension
  2
*D9
 10
-182.72117704895734
 20
43.059355034409322
 30
0.0
 11
-182.72117704895734
 21
36.027653700962205
 31
0.0
 70
             128
  1
<>
  3
MXDIMSTYLE
100
AcDbAlignedDimension
 13
-171.44999975708723
 23
28.995952136173383
 33
0.0
 14
-169.35000032929182
 24
43.059355034409322
 34
0.0
 50
90.0
100
AcDbRotatedDimension
1001
ACAD
1000
DSTYLE
1002
{
1070
               6
1000
_OPEN30
1070
               7
1000
_OPEN30
1070
              41
1040
2.77
1070
             173
1070
               1
1070
             271
1070
               2
1070
             284
1070
               8
1070
             340
1005
444
1070
             341
1005
3E6
1002
}
  0
DIMENSION
  5
458
100
AcDbEntity
  8
寸法
  6
CONTINUOUS
 62
               3
100
AcDbDimension
  2
*D10
 10
-159.25
 20
57.825106224459063
 30
0.0
 11
-165.35000009536742
 21
57.825106224459063
 31
0.0
 70
             128
  1
<>
  3
MXDIMSTYLE
100
AcDbAlignedDimension
 13
-171.44999999999999
 23
51.125756344240557
 33
0.0
 14
-159.25
 24
34.995951256197344
 34
0.0
100
AcDbRotatedDimension
1001
ACAD
1000
DSTYLE
1002
{
1070
               6
1000
_OPEN30
1070
               7
1000
_OPEN30
1070
              41
1040
2.77
1070
             173
1070
               1
1070
             271
1070
               2
1070
             284
1070
               8
1070
             340
1005
452
1070
             341
1005
3E6
1002
}
  0
DIMENSION
  5
468
100
AcDbEntity
  8
寸法
  6
CONTINUOUS
 62
               3
100
AcDbDimension
  2
*D11
 10
-167.34999999999999
 20
51.125756423368699
 30
0.0
 11
-182.93053169250487
 21
51.125756423368699
 31
0.0
 70
             128
  1
<>
  3
MXDIMSTYLE
100
AcDbAlignedDimension
 13
-171.44999999999999
 23
28.995951812162645
 33
0.0
 14
-167.34999999999999
 24
44.059354941740281
 34
0.0
100
AcDbRotatedDimension
1001
ACAD
1000
DSTYLE
1002
{
1070
               6
1000
_OPEN30
1070
               7
1000
_OPEN30
1070
              41
1040
2.77
1070
             173
1070
               1
1070
             271
1070
               2
1070
             284
1070
               8
1070
             340
1005
424
1070
             341
1005
3E6
1002
}
  0
DIMENSION
  5
475
100
AcDbEntity
  8
寸法
  6
CONTINUOUS
 62
               3
100
AcDbDimension
  2
*D12
 10
-182.72117704895734
 20
28.995952136173383
 30
0.0
 11
-182.72117704895734
 21
-0.2540478638266457
 31
0.0
 70
             128
  1
<>
  3
MXDIMSTYLE
100
AcDbAlignedDimension
 13
-171.44999975708723
 23
-29.504047863826646
 33
0.0
 14
-171.44999975708723
 24
28.995952136173383
 34
0.0
 50
90.0
100
AcDbRotatedDimension
1001
ACAD
1000
DSTYLE
1002
{
1070
               6
1000
_OPEN30
1070
               7
1000
_OPEN30
1070
              41
1040
2.77
1070
             173
1070
               1
1070
             271
1070
               2
1070
             284
1070
               8
1070
             340
1005
413
1070
             341
1005
3E6
1002
}
  0
DIMENSION
  5
47E
100
AcDbEntity
  8
寸法
  6
CONTINUOUS
 62
               3
100
AcDbDimension
  2
*D13
 10
-146.84233793014201
 20
-29.504047863826646
 30
0.0
 11
-137.34233781093272
 21
17.645952118673403
 31
0.0
 70
             134
  1
<>
  3
MXDIMSTYLE
100
AcDbOrdinateDimension
 13
-159.84999974960002
 23
17.645952118673403
 33
0.0
 14
-145.34233793014201
 24
17.645952118673403
 34
0.0
1001
ACAD
1000
DSTYLE
1002
{
1070
               6
1000
_OPEN30
1070
              41
1040
2.77
1070
              76
1070
               1
1070
              77
1070
               0
1070
             173
1070
               1
1070
             271
1070
               2
1070
             284
1070
               8
1070
             340
1005
413
1070
             341
1005
3E6
1002
}
  0
LINE
  5
47F
100
AcDbEntity
  8
寸法
  6
CONTINUOUS
 62
               3
100
AcDbLine
 10
-146.84233793014201
 20
2.7459521361733543
 30
0.0
 11
-146.84233793014201
 21
17.645952118673403
 31
0.0
  0
INSERT
  5
480
100
AcDbEntity
  8
寸法
  6
CONTINUOUS
 62
               3
100
AcDbBlockReference
  2
_OPEN30
 10
-146.84233793014201
 20
17.645952118673403
 30
0.0
 41
2.77
 42
2.77
 43
2.77
 50
90.0
  0
DIMENSION
  5
48A
100
AcDbEntity
  8
寸法
  6
CONTINUOUS
 62
               3
100
AcDbDimension
  2
*D14
 10
-146.84233793014201
 20
-29.504047863826646
 30
0.0
 11
-137.34233781093272
 21
2.7459521361733534
 31
0.0
 70
             134
  1
<>
  3
MXDIMSTYLE
100
AcDbOrdinateDimension
 13
-159.84999974960002
 23
2.7459521361733543
 33
0.0
 14
-145.34233793014201
 24
2.7459521361733543
 34
0.0
1001
ACAD
1000
DSTYLE
1002
{
1070
               6
1000
_OPEN30
1070
              41
1040
2.77
1070
              76
1070
               1
1070
              77
1070
               0
1070
             173
1070
               1
1070
             271
1070
               2
1070
             284
1070
               8
1070
             340
1005
484
1070
             341
1005
3E6
1002
}
  0
LINE
  5
48B
100
AcDbEntity
  8
寸法
  6
CONTINUOUS
 62
               3
100
AcDbLine
 10
-146.84233793014201
 20
-9.0040478638266457
 30
0.0
 11
-146.84233793014201
 21
2.7459521361733543
 31
0.0
  0
INSERT
  5
48C
100
AcDbEntity
  8
寸法
  6
CONTINUOUS
 62
               3
100
AcDbBlockReference
  2
_OPEN30
 10
-146.84233793014201
 20
2.7459521361733543
 30
0.0
 41
2.77
 42
2.77
 43
2.77
 50
90.0
  0
DIMENSION
  5
495
100
AcDbEntity
  8
寸法
  6
CONTINUOUS
 62
               3
100
AcDbDimension
  2
*D15
 10
-146.84233793014201
 20
-29.504047863826646
 30
0.0
 11
-138.94233783477458
 21
-9.0040478638266457
 31
0.0
 70
             134
  1
<>
  3
MXDIMSTYLE
100
AcDbOrdinateDimension
 13
-163.84999974960002
 23
-9.0040478638266457
 33
0.0
 14
-145.34233793014201
 24
-9.0040478638266457
 34
0.0
1001
ACAD
1000
DSTYLE
1002
{
1070
               6
1000
_OPEN30
1070
              41
1040
2.77
1070
              76
1070
               1
1070
              77
1070
               0
1070
             173
1070
               1
1070
             271
1070
               2
1070
             284
1070
               8
1070
             340
1005
413
1070
             341
1005
3E6
1002
}
  0
LINE
  5
496
100
AcDbEntity
  8
寸法
  6
CONTINUOUS
 62
               3
100
AcDbLine
 10
-146.84233793014201
 20
-18.654047846326666
 30
0.0
 11
-146.84233793014201
 21
-9.0040478638266457
 31
0.0
  0
INSERT
  5
497
100
AcDbEntity
  8
寸法
  6
CONTINUOUS
 62
               3
100
AcDbBlockReference
  2
_OPEN30
 10
-146.84233793014201
 20
-9.0040478638266457
 30
0.0
 41
2.77
 42
2.77
 43
2.77
 50
90.0
  0
DIMENSION
  5
4A5
100
AcDbEntity
  8
寸法
  6
CONTINUOUS
 62
               3
100
AcDbDimension
  2
*D16
 10
-146.84233793014201
 20
-29.504047863826646
 30
0.0
 11
-137.34233781093272
 21
-18.654047846326666
 31
0.0
 70
             134
  1
<>
  3
MXDIMSTYLE
100
AcDbOrdinateDimension
 13
-159.84999974960002
 23
-18.654047846326666
 33
0.0
 14
-145.34233793014201
 24
-18.654047846326666
 34
0.0
1001
ACAD
1000
DSTYLE
1002
{
1070
               6
1000
_OPEN30
1070
               7
1000
_DOTBLANK
1070
              41
1040
2.77
1070
              77
1070
               0
1070
             173
1070
               1
1070
             271
1070
               2
1070
             284
1070
               8
1070
             340
1005
444
1070
             341
1005
3E6
1002
}
  0
LINE
  5
4A6
100
AcDbEntity
  8
寸法
  6
CONTINUOUS
 62
               3
100
AcDbLine
 10
-146.84233793014201
 20
-29.504047863826646
 30
0.0
 11
-146.84233793014201
 21
-18.654047846326666
 31
0.0
  0
LINE
  5
4A7
100
AcDbEntity
  8
寸法
  6
CONTINUOUS
 62
               3
100
AcDbLine
 10
-157.75000032180461
 20
-29.504047863826646
 30
0.0
 11
-145.34233793014201
 21
-29.504047863826646
 31
0.0
  0
INSERT
  5
4A8
100
AcDbEntity
  8
寸法
  6
CONTINUOUS
 62
               3
100
AcDbBlockReference
  2
_OPEN30
 10
-146.84233793014201
 20
-18.654047846326666
 30
0.0
 41
2.77
 42
2.77
 43
2.77
 50
90.0
  0
INSERT
  5
4A9
100
AcDbEntity
  8
寸法
  6
CONTINUOUS
 62
               3
100
AcDbBlockReference
  2
_DOTBLANK
 10
-146.84233793014201
 20
-29.504047863826646
 30
0.0
 41
1.5
 42
1.5
 43
1.5
 50
270.0
  0
DIMENSION
  5
4B6
100
AcDbEntity
  8
寸法
  6
CONTINUOUS
 62
               3
100
AcDbDimension
  2
*D18
 10
74.750000000000043
 20
52.281614909539925
 30
0.0
 11
71.75
 21
52.281614909539925
 31
0.0
 70
             128
  1
<>
  3
MXDIMSTYLE
100
AcDbAlignedDimension
 13
68.75
 23
28.995951304803597
 33
0.0
 14
74.750000000000043
 24
44.05935538805555
 34
0.0
100
AcDbRotatedDimension
1001
ACAD
1000
DSTYLE
1002
{
1070
               6
1000
_OPEN30
1070
               7
1000
_OPEN30
1070
              41
1040
2.77
1070
             173
1070
               1
1070
             271
1070
               2
1070
             284
1070
               8
1070
             341
1005
3E6
1002
}
  0
DIMENSION
  5
4C3
100
AcDbEntity
  8
寸法
  6
CONTINUOUS
 62
               3
100
AcDbDimension
  2
*D19
 10
143.78350002951021
 20
-29.504047863826646
 30
0.0
 11
143.78350002951021
 21
2.7459521361733579
 31
0.0
 70
             128
  1
<>
  3
MXDIMSTYLE
100
AcDbAlignedDimension
 13
118.05000050253267
 23
34.995952136173358
 33
0.0
 14
118.05000050253267
 24
-29.504047863826646
 34
0.0
 50
90.0
100
AcDbRotatedDimension
1001
ACAD
1000
DSTYLE
1002
{
1070
               6
1000
_OPEN30
1070
               7
1000
_OPEN30
1070
              41
1040
2.77
1070
             173
1070
               1
1070
             271
1070
               2
1070
             284
1070
               8
1070
             340
1005
413
1070
             341
1005
3E6
1002
}
  0
DIMENSION
  5
4D0
100
AcDbEntity
  8
寸法
  6
CONTINUOUS
 62
               3
100
AcDbDimension
  2
*D20
 10
68.749999999999943
 20
-51.078649790811383
 30
0.0
 11
94.050000762939504
 21
-51.078649790811383
 31
0.0
 70
             128
  1
<>
  3
MXDIMSTYLE
100
AcDbAlignedDimension
 13
119.35000000000005
 23
-18.004049571084821
 33
0.0
 14
68.749999999999943
 24
-44.280109675454938
 34
0.0
100
AcDbRotatedDimension
1001
ACAD
1000
DSTYLE
1002
{
1070
               6
1000
_OPEN30
1070
               7
1000
_OPEN30
1070
              41
1040
2.77
1070
             173
1070
               1
1070
             271
1070
               2
1070
             284
1070
               8
1070
             340
1005
413
1070
             341
1005
3E6
1002
}
  0
DIMENSION
  5
4DD
100
AcDbEntity
  8
寸法
  6
CONTINUOUS
 62
               3
100
AcDbDimension
  2
*D21
 10
68.749999999999943
 20
-44.280109767741656
 30
0.0
 11
72.25
 21
-44.280109767741656
 31
0.0
 70
             128
  1
<>
  3
MXDIMSTYLE
100
AcDbAlignedDimension
 13
75.75
 23
-27.504047756022906
 33
0.0
 14
68.749999999999943
 24
-28.904048328227496
 34
0.0
100
AcDbRotatedDimension
1001
ACAD
1000
DSTYLE
1002
{
1070
               6
1000
_OPEN30
1070
               7
1000
_OPEN30
1070
              41
1040
2.77
1070
             173
1070
               1
1070
             271
1070
               2
1070
             284
1070
               8
1070
             341
1005
3E6
1002
}
  0
DIMENSION
  5
4E9
100
AcDbEntity
  8
寸法
  6
CONTINUOUS
 62
               3
100
AcDbDimension
  2
*D22
 10
48.185568012806762
 20
-11.504047863826646
 30
0.0
 11
48.185568012806762
 21
-18.004047863826646
 31
0.0
 70
             128
  1
<>
  3
MXDIMSTYLE
100
AcDbAlignedDimension
 13
48.185568012806762
 23
-24.504047863826646
 33
0.0
 14
72.721124806019645
 24
-11.504047863826646
 34
0.0
 50
90.0
100
AcDbRotatedDimension
1001
ACAD
1000
DSTYLE
1002
{
1070
               6
1000
_OPEN30
1070
               7
1000
_OPEN30
1070
              41
1040
2.77
1070
              75
1070
               1
1070
             173
1070
               1
1070
             271
1070
               2
1070
             284
1070
               8
1070
             340
1005
413
1070
             341
1005
3E6
1002
}
  0
DIMENSION
  5
4F6
100
AcDbEntity
  8
寸法
  6
CONTINUOUS
 62
               3
100
AcDbDimension
  2
*D23
 10
48.185568012806762
 20
-24.504047863826646
 30
0.0
 11
48.185568012806762
 21
-27.004047863826646
 31
0.0
 70
             128
  1
<>
  3
MXDIMSTYLE
100
AcDbAlignedDimension
 13
79.750000156971794
 23
-29.504047863826646
 33
0.0
 14
72.721124806019645
 24
-24.504047863826646
 34
0.0
 50
90.0
100
AcDbRotatedDimension
1001
ACAD
1000
DSTYLE
1002
{
1070
               6
1000
_OPEN30
1070
               7
1000
_OPEN30
1070
              41
1040
2.77
1070
             173
1070
               1
1070
             271
1070
               2
1070
             284
1070
               8
1070
             341
1005
3E6
1002
}
  0
DIMENSION
  5
503
100
AcDbEntity
  8
寸法
  6
CONTINUOUS
 62
               3
100
AcDbDimension
  2
*D24
 10
-101.25000000000006
 20
-42.120396640028396
 30
0.0
 11
-97.75
 21
-42.120396640028396
 31
0.0
 70
             128
  1
<>
  3
MXDIMSTYLE
100
AcDbAlignedDimension
 13
-94.25
 23
-27.504047419752517
 33
0.0
 14
-101.25000000000006
 24
-28.904047991957107
 34
0.0
100
AcDbRotatedDimension
1001
ACAD
1000
DSTYLE
1002
{
1070
               6
1000
_OPEN30
1070
               7
1000
_OPEN30
1070
              41
1040
2.77
1070
             173
1070
               1
1070
             271
1070
               2
1070
             284
1070
               8
1070
             341
1005
3E6
1002
}
  0
DIMENSION
  5
510
100
AcDbEntity
  8
寸法
  6
CONTINUOUS
 62
               3
100
AcDbDimension
  2
*D25
 10
-116.87646536691933
 20
-11.504047863826646
 30
0.0
 11
-116.87646536691933
 21
-18.004047863826646
 31
0.0
 70
             128
  1
<>
  3
MXDIMSTYLE
100
AcDbAlignedDimension
 13
-96.778875874121482
 23
-24.504047863826646
 33
0.0
 14
-96.778875874121482
 24
-11.504047863826646
 34
0.0
 50
90.0
100
AcDbRotatedDimension
1001
ACAD
1000
DSTYLE
1002
{
1070
               6
1000
_OPEN30
1070
               7
1000
_OPEN30
1070
              41
1040
2.77
1070
             173
1070
               1
1070
             271
1070
               2
1070
             284
1070
               8
1070
             340
1005
413
1070
             341
1005
3E6
1002
}
  0
DIMENSION
  5
51D
100
AcDbEntity
  8
寸法
  6
CONTINUOUS
 62
               3
100
AcDbDimension
  2
*D26
 10
-116.87646536691933
 20
-24.504047863826646
 30
0.0
 11
-116.87646536691933
 21
-27.004047863826646
 31
0.0
 70
             128
  1
<>
  3
MXDIMSTYLE
100
AcDbAlignedDimension
 13
-90.249998615820701
 23
-29.504047863826646
 33
0.0
 14
-97.250000523169334
 24
-24.504047863826646
 34
0.0
 50
90.0
100
AcDbRotatedDimension
1001
ACAD
1000
DSTYLE
1002
{
1070
               6
1000
_OPEN30
1070
               7
1000
_OPEN30
1070
              41
1040
2.77
1070
             173
1070
               1
1070
             271
1070
               2
1070
             284
1070
               8
1070
             341
1005
3E6
1002
}
  0
DIMENSION
  5
52A
100
AcDbEntity
  8
寸法
  6
CONTINUOUS
 62
               3
100
AcDbDimension
  2
*D27
 10
-95.249999999999957
 20
51.487281462229106
 30
0.0
 11
-98.25
 21
51.487281462229106
 31
0.0
 70
             128
  1
<>
  3
MXDIMSTYLE
100
AcDbAlignedDimension
 13
-101.25
 23
28.995952269113872
 33
0.0
 14
-95.249999999999957
 24
44.05935492185435
 34
0.0
100
AcDbRotatedDimension
1001
ACAD
1000
DSTYLE
1002
{
1070
               6
1000
_OPEN30
1070
               7
1000
_OPEN30
1070
              41
1040
2.77
1070
             173
1070
               1
1070
             271
1070
               2
1070
             284
1070
               8
1070
             341
1005
3E6
1002
}
  0
ENDSEC
  0
SECTION
  2
OBJECTS
  0
DICTIONARY
  5
19
100
AcDbDictionary
  3
ACAD_GROUP
350
1A
  3
ACAD_MLINESTYLE
350
1B
  0
DICTIONARY
  5
1A
102
{ACAD_REACTORS
330
19
102
}
100
AcDbDictionary
  0
DICTIONARY
  5
1B
102
{ACAD_REACTORS
330
19
102
}
100
AcDbDictionary
  3
STANDARD
350
1C
  0
MLINESTYLE
  5
1C
102
{ACAD_REACTORS
330
1B
102
}
100
AcDbMlineStyle
  2
Standard
 70
               0
  3

 62
               0
 51
90.0
 52
90.0
 71
               2
 49
0.5
 62
             256
  6
ByLayer
 49
-0.5
 62
             256
  6
ByLayer
  0
ENDSEC
  0
EOF
