  0
SECTION
  2
HEADER
  9
$ACADVER
  1
AC1012
  9
$DWGCODEPAGE
  3
dos932
  9
$INSBASE
 10
0.0
 20
0.0
 30
0.0
  9
$EXTMIN
 10
-281.25
 20
-195.0
 30
0.0
  9
$EXTMAX
 10
285.6319057062413
 20
195.5
 30
0.0
  9
$LIMMIN
 10
-281.25
 20
-195.0
  9
$LIMMAX
 10
285.6319057062413
 20
195.5
  9
$ORTHOMODE
 70
               0
  9
$REGENMODE
 70
               1
  9
$FILLMODE
 70
               1
  9
$QTEXTMODE
 70
               0
  9
$MIRRTEXT
 70
               1
  9
$DRAGMODE
 70
               2
  9
$LTSCALE
 40
1.0
  9
$OSMODE
 70
               0
  9
$ATTMODE
 70
               1
  9
$TEXTSIZE
 40
3.2000000476837158
  9
$TRACEWID
 40
0.05
  9
$TEXTSTYLE
  7
MX_NOTE_STANDARD
  9
$CLAYER
  8
0
  9
$CELTYPE
  6
CONTINUOUS
  9
$CECOLOR
 62
             256
  9
$CELTSCALE
 40
1.0
  9
$DELOBJ
 70
               1
  9
$DISPSILH
 70
               0
  9
$DIMSCALE
 40
1.0
  9
$DIMASZ
 40
2.5
  9
$DIMEXO
 40
1.5
  9
$DIMDLI
 40
3.75
  9
$DIMRND
 40
0.0
  9
$DIMDLE
 40
0.0
  9
$DIMEXE
 40
1.5
  9
$DIMTP
 40
0.0
  9
$DIMTM
 40
0.0
  9
$DIMTXT
 40
3.2000000476837158
  9
$DIMCEN
 40
2.5
  9
$DIMTSZ
 40
0.0
  9
$DIMTOL
 70
               0
  9
$DIMLIM
 70
               0
  9
$DIMTIH
 70
               0
  9
$DIMTOH
 70
               0
  9
$DIMSE1
 70
               0
  9
$DIMSE2
 70
               0
  9
$DIMTAD
 70
               1
  9
$DIMZIN
 70
               8
  9
$DIMBLK
  1

  9
$DIMASO
 70
               1
  9
$DIMSHO
 70
               1
  9
$DIMPOST
  1

  9
$DIMAPOST
  1

  9
$DIMALT
 70
               0
  9
$DIMALTD
 70
               4
  9
$DIMALTF
 40
0.03937007874016
  9
$DIMLFAC
 40
1.0
  9
$DIMTOFL
 70
               1
  9
$DIMTVP
 40
0.0
  9
$DIMTIX
 70
               0
  9
$DIMSOXD
 70
               0
  9
$DIMSAH
 70
               0
  9
$DIMBLK1
  1

  9
$DIMBLK2
  1

  9
$DIMSTYLE
  2
MXDIMSTYLE
  9
$DIMCLRD
 70
               0
  9
$DIMCLRE
 70
               0
  9
$DIMCLRT
 70
               0
  9
$DIMTFAC
 40
1.0
  9
$DIMGAP
 40
1.0
  9
$DIMJUST
 70
               0
  9
$DIMSD1
 70
               0
  9
$DIMSD2
 70
               0
  9
$DIMTOLJ
 70
               1
  9
$DIMTZIN
 70
               0
  9
$DIMALTZ
 70
               0
  9
$DIMALTTZ
 70
               0
  9
$DIMFIT
 70
               3
  9
$DIMUPT
 70
               1
  9
$DIMUNIT
 70
               2
  9
$DIMDEC
 70
               4
  9
$DIMTDEC
 70
               4
  9
$DIMALTU
 70
               2
  9
$DIMALTTD
 70
               4
  9
$DIMTXSTY
  7
MX_NOTE_STANDARD
  9
$DIMAUNIT
 70
               0
  9
$LUNITS
 70
               2
  9
$LUPREC
 70
               4
  9
$SKETCHINC
 40
0.1
  9
$FILLETRAD
 40
0.0
  9
$AUNITS
 70
               0
  9
$AUPREC
 70
               0
  9
$MENU
  1
acad
  9
$ELEVATION
 40
0.0
  9
$PELEVATION
 40
0.0
  9
$THICKNESS
 40
0.0
  9
$LIMCHECK
 70
               0
  9
$BLIPMODE
 70
               1
  9
$CHAMFERA
 40
0.0
  9
$CHAMFERB
 40
0.0
  9
$CHAMFERC
 40
0.0
  9
$CHAMFERD
 40
0.0
  9
$SKPOLY
 70
               0
  9
$TDCREATE
 40
2453378.356747685
  9
$TDUPDATE
 40
2453378.356747685
  9
$TDINDWG
 40
0.0000000000
  9
$TDUSRTIMER
 40
0.0000000000
  9
$USRTIMER
 70
               1
  9
$ANGBASE
 50
0.0
  9
$ANGDIR
 70
               0
  9
$PDMODE
 70
               0
  9
$PDSIZE
 40
0.0
  9
$PLINEWID
 40
0.0
  9
$COORDS
 70
               1
  9
$SPLFRAME
 70
               0
  9
$SPLINETYPE
 70
               6
  9
$SPLINESEGS
 70
               8
  9
$ATTDIA
 70
               0
  9
$ATTREQ
 70
               1
  9
$HANDLING
 70
               1
  9
$HANDSEED
  5
67D
  9
$SURFTAB1
 70
               6
  9
$SURFTAB2
 70
               6
  9
$SURFTYPE
 70
               6
  9
$SURFU
 70
               6
  9
$SURFV
 70
               6
  9
$UCSNAME
  2

  9
$UCSORG
 10
0.0
 20
0.0
 30
0.0
  9
$UCSXDIR
 10
1.0
 20
0.0
 30
0.0
  9
$UCSYDIR
 10
0.0
 20
1.0
 30
0.0
  9
$PUCSNAME
  2

  9
$PUCSORG
 10
0.0
 20
0.0
 30
0.0
  9
$PUCSXDIR
 10
1.0
 20
0.0
 30
0.0
  9
$PUCSYDIR
 10
0.0
 20
1.0
 30
0.0
  9
$USERI1
 70
               0
  9
$USERI2
 70
               0
  9
$USERI3
 70
               0
  9
$USERI4
 70
               0
  9
$USERI5
 70
               0
  9
$USERR1
 40
0.0
  9
$USERR2
 40
0.0
  9
$USERR3
 40
0.0
  9
$USERR4
 40
0.0
  9
$USERR5
 40
0.0
  9
$WORLDVIEW
 70
               1
  9
$SHADEDGE
 70
               3
  9
$SHADEDIF
 70
              70
  9
$TILEMODE
 70
               1
  9
$MAXACTVP
 70
              16
  9
$PINSBASE
 10
0.0
 20
0.0
 30
0.0
  9
$PLIMCHECK
 70
               0
  9
$PEXTMIN
 10
1.0000000000000000E+20
 20
1.0000000000000000E+20
 30
1.0000000000000000E+20
  9
$PEXTMAX
 10
-1.0000000000000000E+20
 20
-1.0000000000000000E+20
 30
-1.0000000000000000E+20
  9
$PLIMMIN
 10
0.0
 20
0.0
  9
$PLIMMAX
 10
12.0
 20
9.0
  9
$UNITMODE
 70
               0
  9
$VISRETAIN
 70
               0
  9
$PLINEGEN
 70
               1
  9
$PSLTSCALE
 70
               0
  9
$TREEDEPTH
 70
            3020
  9
$PICKSTYLE
 70
               1
  9
$CMLSTYLE
  2
Standard
  9
$CMLJUST
 70
               0
  9
$CMLSCALE
 40
1.0
  9
$SAVEIMAGES
 70
               0
  0
ENDSEC
  0
SECTION
  2
CLASSES
  0
CLASS
  1
LWPOLYLINE
  2
AcDbPolyline
  3
"AutoCAD"
 90
        0
280
               0
281
               1
  0
CLASS
  1
IMAGE
  2
AcDbRasterImage
  3
ISM
 90
      127
280
               0
281
               1
  0
CLASS
  1
OLE2FRAME
  2
AcDbOle2Frame
  3
""
 90
        0
280
               0
281
               1
  0
CLASS
  1
HATCH
  2
AcDbHatch
  3
"ACAD_SEDONA"
 90
        0
280
               0
281
               1
  0
CLASS
  1
DICTIONARYVAR
  2
AcDbDictionaryVar
  3
"AutoCAD"
 90
        0
280
               0
281
               0
  0
CLASS
  1
RASTERVARIABLES
  2
AcDbRasterVariables
  3
ISM
 90
        0
280
               0
281
               0
  0
CLASS
  1
IMAGEDEF
  2
AcDbRasterImageDef
  3
ISM
 90
        0
280
               0
281
               0
  0
CLASS
  1
IMAGEDEF_REACTOR
  2
AcDbRasterImageDefReactor
  3
ISM
 90
        1
280
               0
281
               0
  0
CLASS
  1
IDBUFFER
  2
AcDbIdBuffer
  3
"Acad"
 90
        0
280
               0
281
               0
  0
CLASS
  1
SPATIAL_FILTER
  2
AcDbSpatialFilter
  3
"Acad"
 90
        0
280
               0
281
               0
  0
CLASS
  1
XRECORD
  2
AcDbXrecord
  3
"<Built In>"
 90
        0
280
               0
281
               0
  0
CLASS
  1
SORTENTSTABLE
  2
AcDbSortentsTable
  3
"AutoCAD"
 90
        0
280
               0
281
               0
  0
CLASS
  1
LAYER_INDEX
  2
AcDbLayerIndex
  3
"Acad"
 90
        0
280
               0
281
               0
  0
CLASS
  1
SPATIAL_INDEX
  2
AcDbSpatialIndex
  3
"Acad"
 90
        0
280
               0
281
               0
  0
CLASS
  1
OBJECT_PTR
  2
CAseDLPNTableRecord
  3
"ASE-LPNTableRecord"
 90
        1
280
               0
281
               0
  0
CLASS
  1
LAYOUT
  2
AcDbLayout
  3
"AutoCAD 2000"
 90
        1
280
               0
281
               0
  0
CLASS
  1
PLOTSETTINGS
  2
AcDbPlotSettings
  3
"AutoCAD 2000"
 90
        1
280
               0
281
               0
  0
CLASS
  1
ACDBDICTIONARYWDFLT
  2
AcDbDictionaryWithDefault
  3
"AutoCAD 2000"
 90
        1
280
               0
281
               0
  0
CLASS
  1
ACDBPLACEHOLDER
  2
AcDbPlaceHolder
  3
"AutoCAD 2000"
 90
        1
280
               0
281
               0
  0
ENDSEC
  0
SECTION
  2
TABLES
  0
TABLE
  2
VPORT
  5
7
100
AcDbSymbolTable
 70
               1
  0
VPORT
  5
15
100
AcDbSymbolTableRecord
100
AcDbViewportTableRecord
  2
*ACTIVE
 70
               0
 10
0.0
 20
0.0
 11
1.0
 21
1.0
 12
2.1909528531206206
 22
0.25
 13
0.0
 23
0.0
 14
1.0
 24
1.0
 15
0.0
 25
0.0
 16
0.0
 26
0.0
 36
1.0
 17
0.0
 27
0.0
 37
0.0
 40
394.40500000000003
 41
1.7320508075688772
 42
50.0
 43
0.0
 44
0.0
 50
0.0
 51
0.0
 71
               0
 72
             100
 73
               1
 74
               1
 75
               0
 76
               0
 77
               0
 78
               0
  0
ENDTAB
  0
TABLE
  2
LTYPE
  5
4
100
AcDbSymbolTable
 70
               6
  0
LTYPE
  5
11
100
AcDbSymbolTableRecord
100
AcDbLinetypeTableRecord
  2
BYBLOCK
 70
              64
  3

 72
              65
 73
               0
 40
0.0
  0
LTYPE
  5
12
100
AcDbSymbolTableRecord
100
AcDbLinetypeTableRecord
  2
BYLAYER
 70
              64
  3

 72
              65
 73
               0
 40
0.0
  0
LTYPE
  5
13
100
AcDbSymbolTableRecord
100
AcDbLinetypeTableRecord
  2
CONTINUOUS
 70
              64
  3
Solid line
 72
              65
 73
               0
 40
0.0
  0
LTYPE
  5
36
100
AcDbSymbolTableRecord
100
AcDbLinetypeTableRecord
  2
CENTER
 70
              64
  3
Center ____ _ ____ _ ____ _ ____ _ ____ _ ____
 72
              65
 73
               4
 40
26.0
 49
20.0
 74
               0
 49
-2.0
 74
               0
 49
2.0
 74
               0
 49
-2.0
 74
               0
  0
LTYPE
  5
32A
100
AcDbSymbolTableRecord
100
AcDbLinetypeTableRecord
  2
DASHED
 70
              64
  3
Dashed __ __ __ __ __ __ __ __ __ __ __ __ __ _
 72
              65
 73
               2
 40
4.0
 49
2.0
 74
               0
 49
-2.0
 74
               0
  0
LTYPE
  5
5AA
100
AcDbSymbolTableRecord
100
AcDbLinetypeTableRecord
  2
PHANTOM
 70
              64
  3
Phantom ______  __  __  ______  __  __  ______
 72
              65
 73
               6
 40
30.0
 49
20.0
 74
               0
 49
-2.0
 74
               0
 49
2.0
 74
               0
 49
-2.0
 74
               0
 49
2.0
 74
               0
 49
-2.0
 74
               0
  0
ENDTAB
  0
TABLE
  2
LAYER
  5
2
100
AcDbSymbolTable
 70
               2
  0
LAYER
  5
14
100
AcDbSymbolTableRecord
100
AcDbLayerTableRecord
  2
0
 70
               0
 62
               7
  6
CONTINUOUS
  0
LAYER
  5
1D
100
AcDbSymbolTableRecord
100
AcDbLayerTableRecord
  2
DEFPOINTS
 70
               0
 62
               7
  6
CONTINUOUS
  0
ENDTAB
  0
TABLE
  2
STYLE
  5
3
100
AcDbSymbolTable
 70
               1
  0
STYLE
  5
17
100
AcDbSymbolTableRecord
100
AcDbTextStyleTableRecord
  2
MX_NOTE_STANDARD
 70
               0
 40
0.0
 41
1.0
 50
0.0
 71
               0
 42
3.2000000476837158
  3
txt.shx
  4
extfont.shx
  0
ENDTAB
  0
TABLE
  2
VIEW
  5
5
100
AcDbSymbolTable
 70
               0
  0
ENDTAB
  0
TABLE
  2
UCS
  5
6
100
AcDbSymbolTable
 70
               0
  0
ENDTAB
  0
TABLE
  2
APPID
  5
8
100
AcDbSymbolTable
 70
               1
  0
APPID
  5
16
100
AcDbSymbolTableRecord
100
AcDbRegAppTableRecord
  2
ACAD
 70
               0
  0
ENDTAB
  0
TABLE
  2
DIMSTYLE
  5
9
100
AcDbSymbolTable
 70
               1
  0
DIMSTYLE
105
18
100
AcDbSymbolTableRecord
100
AcDbDimStyleTableRecord
  2
MXDIMSTYLE
 70
               0
  3

  4

  5

  6

  7

 40
1.0
 41
2.5
 42
1.5
 43
3.75
 44
1.5
 45
0.0
 46
0.0
 47
0.0
 48
0.0
 71
               0
 72
               0
 73
               0
 74
               0
 75
               0
 76
               0
 77
               1
 78
               8
140
3.2000000476837158
141
2.5
142
0.0
143
0.03937007874016
144
1.0
145
0.0
146
1.0
147
1.0
170
               0
171
               4
172
               1
173
               0
174
               0
175
               0
176
               0
177
               0
178
               0
270
               2
271
               4
272
               4
273
               2
274
               4
275
               0
280
               0
281
               0
282
               0
283
               1
284
               0
285
               0
286
               0
287
               3
288
               1
340
17
  0
ENDTAB
  0
TABLE
  2
BLOCK_RECORD
  5
1
100
AcDbSymbolTable
 70
              20
  0
BLOCK_RECORD
  5
A
100
AcDbSymbolTableRecord
100
AcDbBlockTableRecord
  2
*MODEL_SPACE
  0
BLOCK_RECORD
  5
B
100
AcDbSymbolTableRecord
100
AcDbBlockTableRecord
  2
*PAPER_SPACE
  0
BLOCK_RECORD
  5
1E
100
AcDbSymbolTableRecord
100
AcDbBlockTableRecord
  2
MV090MAS-1
  0
BLOCK_RECORD
  5
1F
100
AcDbSymbolTableRecord
100
AcDbBlockTableRecord
  2
MV090MAS-2
  0
BLOCK_RECORD
  5
20
100
AcDbSymbolTableRecord
100
AcDbBlockTableRecord
  2
MV090MAS-3
  0
BLOCK_RECORD
  5
21
100
AcDbSymbolTableRecord
100
AcDbBlockTableRecord
  2
MV090MAS-4
  0
BLOCK_RECORD
  5
22
100
AcDbSymbolTableRecord
100
AcDbBlockTableRecord
  2
MV090MAS-5
  0
BLOCK_RECORD
  5
23
100
AcDbSymbolTableRecord
100
AcDbBlockTableRecord
  2
MV090MAS-6
  0
BLOCK_RECORD
  5
24
100
AcDbSymbolTableRecord
100
AcDbBlockTableRecord
  2
MV090MAS-7
  0
BLOCK_RECORD
  5
25
100
AcDbSymbolTableRecord
100
AcDbBlockTableRecord
  2
MV090MAS-8
  0
BLOCK_RECORD
  5
26
100
AcDbSymbolTableRecord
100
AcDbBlockTableRecord
  2
MV090MAS-9
  0
BLOCK_RECORD
  5
27
100
AcDbSymbolTableRecord
100
AcDbBlockTableRecord
  2
MV090MAS-10
  0
BLOCK_RECORD
  5
28
100
AcDbSymbolTableRecord
100
AcDbBlockTableRecord
  2
MV090MAS-11
  0
BLOCK_RECORD
  5
29
100
AcDbSymbolTableRecord
100
AcDbBlockTableRecord
  2
MV090MAS-12
  0
BLOCK_RECORD
  5
2A
100
AcDbSymbolTableRecord
100
AcDbBlockTableRecord
  2
MV090MAS-13
  0
BLOCK_RECORD
  5
2B
100
AcDbSymbolTableRecord
100
AcDbBlockTableRecord
  2
MV090MAS-14
  0
BLOCK_RECORD
  5
2C
100
AcDbSymbolTableRecord
100
AcDbBlockTableRecord
  2
MV090MAS-15
  0
BLOCK_RECORD
  5
617
100
AcDbSymbolTableRecord
100
AcDbBlockTableRecord
  2
*D15
  0
BLOCK_RECORD
  5
61B
100
AcDbSymbolTableRecord
100
AcDbBlockTableRecord
  2
_OPEN30
  0
BLOCK_RECORD
  5
629
100
AcDbSymbolTableRecord
100
AcDbBlockTableRecord
  2
*D17
  0
BLOCK_RECORD
  5
635
100
AcDbSymbolTableRecord
100
AcDbBlockTableRecord
  2
*D18
  0
BLOCK_RECORD
  5
642
100
AcDbSymbolTableRecord
100
AcDbBlockTableRecord
  2
*D19
  0
ENDTAB
  0
ENDSEC
  0
SECTION
  2
BLOCKS
  0
BLOCK
  5
D
100
AcDbEntity
  8
0
100
AcDbBlockBegin
  2
*MODEL_SPACE
 70
               0
 10
0.0
 20
0.0
 30
0.0
  3
*MODEL_SPACE
  1

  0
ENDBLK
  5
E
100
AcDbEntity
  8
0
100
AcDbBlockEnd
  0
BLOCK
  5
F
100
AcDbEntity
 67
               1
  8
0
100
AcDbBlockBegin
  2
*PAPER_SPACE
 70
               0
 10
0.0
 20
0.0
 30
0.0
  3
*PAPER_SPACE
  1

  0
ENDBLK
  5
10
100
AcDbEntity
 67
               1
  8
0
100
AcDbBlockEnd
  0
BLOCK
  5
2D
100
AcDbEntity
  8
0
100
AcDbBlockBegin
  2
MV090MAS-1
 70
               0
 10
0.0
 20
0.0
 30
0.0
  3
MV090MAS-1
  1

  0
INSERT
  5
2E
100
AcDbEntity
  8
0
  6
ByBlock
100
AcDbBlockReference
  2
MV090MAS-11
 10
46.599999999999937
 20
3.5
 30
0.0
  0
INSERT
  5
2F
100
AcDbEntity
  8
0
  6
ByBlock
100
AcDbBlockReference
  2
MV090MAS-11
 10
56.799999999999926
 20
3.5
 30
0.0
  0
INSERT
  5
30
100
AcDbEntity
  8
0
  6
ByBlock
100
AcDbBlockReference
  2
MV090MAS-11
 10
66.999999999999915
 20
3.5
 30
0.0
  0
INSERT
  5
31
100
AcDbEntity
  8
0
  6
ByBlock
100
AcDbBlockReference
  2
MV090MAS-11
 10
77.199999999999903
 20
3.5
 30
0.0
  0
INSERT
  5
32
100
AcDbEntity
  8
0
  6
ByBlock
100
AcDbBlockReference
  2
MV090MAS-11
 10
87.399999999999892
 20
3.5
 30
0.0
  0
INSERT
  5
33
100
AcDbEntity
  8
0
  6
ByBlock
100
AcDbBlockReference
  2
MV090MAS-12
 10
36.399999999999949
 20
3.5
 30
0.0
  0
INSERT
  5
34
100
AcDbEntity
  8
0
  6
ByBlock
100
AcDbBlockReference
  2
MV090MAS-12
 10
26.19999999999996
 20
3.5
 30
0.0
  0
INSERT
  5
35
100
AcDbEntity
  8
0
  6
ByBlock
100
AcDbBlockReference
  2
MV090MAS-13
 10
15.999999999999972
 20
3.5
 30
0.0
  0
LINE
  5
37
100
AcDbEntity
  8
0
  6
CENTER
 62
             200
100
AcDbLine
 10
3.9711245243149733
 20
16.0
 30
0.0
 11
9.0
 21
16.0
 31
0.0
  0
LINE
  5
38
100
AcDbEntity
  8
0
  6
CENTER
 62
             200
100
AcDbLine
 10
6.5
 20
13.557409686751043
 30
0.0
 11
6.5
 21
22.402184212377392
 31
0.0
  0
LINE
  5
39
100
AcDbEntity
  8
0
  6
CENTER
 62
             200
100
AcDbLine
 10
3.0801450412819804
 20
19.0
 30
0.0
 11
9.9581259773718216
 21
19.0
 31
0.0
  0
LINE
  5
3A
100
AcDbEntity
  8
0
  6
CENTER
 62
             200
100
AcDbLine
 10
6.5
 20
2.4880301067220216
 30
0.0
 11
6.5
 21
9.5659523490934362
 31
0.0
  0
LINE
  5
3B
100
AcDbEntity
  8
0
  6
CENTER
 62
             200
100
AcDbLine
 10
3.1201333025383633
 20
6.0
 30
0.0
 11
9.8781494548591127
 21
6.0
 31
0.0
  0
LINE
  5
3C
100
AcDbEntity
  8
0
  6
CENTER
 62
             200
100
AcDbLine
 10
-10.0
 20
-1.6999999999999318
 30
0.0
 11
-10.0
 21
3.3000000000000682
 31
0.0
  0
LINE
  5
3D
100
AcDbEntity
  8
0
  6
CENTER
 62
             200
100
AcDbLine
 10
0.0
 20
-1.6999999999999318
 30
0.0
 11
0.0
 21
3.3000000000000682
 31
0.0
  0
LINE
  5
3E
100
AcDbEntity
  8
0
  6
CENTER
 62
             200
100
AcDbLine
 10
113.39999999999986
 20
-1.6999999999999318
 30
0.0
 11
113.39999999999986
 21
3.3000000000000682
 31
0.0
  0
LINE
  5
3F
100
AcDbEntity
  8
0
  6
CENTER
 62
             200
100
AcDbLine
 10
103.39999999999986
 20
-1.6999999999999318
 30
0.0
 11
103.39999999999986
 21
3.3000000000000682
 31
0.0
  0
LINE
  5
40
100
AcDbEntity
  8
0
  6
CONTINUOUS
 62
               4
100
AcDbLine
 10
5.1000000000000227
 20
16.0
 30
0.0
 11
5.1000000000000227
 21
16.633039924291097
 31
0.0
  0
LINE
  5
41
100
AcDbEntity
  8
0
  6
CONTINUOUS
 62
               4
100
AcDbLine
 10
7.9000000000000909
 20
16.0
 30
0.0
 11
7.9000000000000909
 21
16.633039924291097
 31
0.0
  0
ARC
  5
42
100
AcDbEntity
  8
0
  6
CONTINUOUS
 62
               4
100
AcDbCircle
 10
6.5
 20
16.0
 30
0.0
 40
1.3999999999999999
100
AcDbArc
 50
179.99999999999963
 51
0.0
  0
ARC
  5
43
100
AcDbEntity
  8
0
  6
CONTINUOUS
 62
               4
100
AcDbCircle
 10
-14.0
 20
1.1000000000000227
 30
0.0
 40
0.5
100
AcDbArc
 50
89.999999999999815
 51
179.99999999999963
  0
ARC
  5
44
100
AcDbEntity
  8
0
  6
CONTINUOUS
 62
               4
100
AcDbCircle
 10
-14.0
 20
0.5
 30
0.0
 40
0.5
100
AcDbArc
 50
179.99999999999963
 51
269.99999999999937
  0
ARC
  5
45
100
AcDbEntity
  8
0
  6
CONTINUOUS
 62
               4
100
AcDbCircle
 10
10.0
 20
0.5
 30
0.0
 40
0.5
100
AcDbArc
 50
269.99999999999937
 51
0.0
  0
LINE
  5
46
100
AcDbEntity
  8
0
  6
CONTINUOUS
 62
               4
100
AcDbLine
 10
-14.5
 20
1.1000000000000227
 30
0.0
 11
-14.5
 21
0.5
 31
0.0
  0
LINE
  5
47
100
AcDbEntity
  8
0
  6
CONTINUOUS
 62
               4
100
AcDbLine
 10
10.5
 20
1.6000000000000227
 30
0.0
 11
-14.0
 21
1.6000000000000227
 31
0.0
  0
LINE
  5
48
100
AcDbEntity
  8
0
  6
CONTINUOUS
 62
               4
100
AcDbLine
 10
10.0
 20
0.0
 30
0.0
 11
-14.0
 21
0.0
 31
0.0
  0
LINE
  5
49
100
AcDbEntity
  8
0
  6
CONTINUOUS
 62
               4
100
AcDbLine
 10
2.5
 20
19.0
 30
0.0
 11
2.5
 21
1.6000000000000227
 31
0.0
  0
LINE
  5
4A
100
AcDbEntity
  8
0
  6
CONTINUOUS
 62
               4
100
AcDbLine
 10
10.5
 20
19.0
 30
0.0
 11
10.5
 21
0.5
 31
0.0
  0
ARC
  5
4B
100
AcDbEntity
  8
0
  6
CONTINUOUS
 62
               4
100
AcDbCircle
 10
6.5
 20
19.0
 30
0.0
 40
4.0
100
AcDbArc
 50
0.0
 51
179.99999999999963
  0
LINE
  5
4C
100
AcDbEntity
  8
0
  6
CONTINUOUS
 62
               4
100
AcDbLine
 10
7.7500000197610461
 20
18.278312206268311
 30
0.0
 11
6.4999999005517566
 21
17.556624293327332
 31
0.0
  0
LINE
  5
4D
100
AcDbEntity
  8
0
  6
CONTINUOUS
 62
               4
100
AcDbLine
 10
6.499999930354079
 20
20.443375647068024
 30
0.0
 11
5.25
 21
19.721687850791113
 31
0.0
  0
LINE
  5
4E
100
AcDbEntity
  8
0
  6
CONTINUOUS
 62
               4
100
AcDbLine
 10
6.499999930354079
 20
17.556624352931976
 30
0.0
 11
5.2500000197610461
 21
18.278312146663666
 31
0.0
  0
LINE
  5
4F
100
AcDbEntity
  8
0
  6
CONTINUOUS
 62
               4
100
AcDbLine
 10
7.7499999899587237
 20
19.721687823534012
 30
0.0
 11
6.4999999601564014
 21
20.443375676870346
 31
0.0
  0
LINE
  5
50
100
AcDbEntity
  8
0
  6
CONTINUOUS
 62
               4
100
AcDbLine
 10
7.75
 20
18.278312146663666
 30
0.0
 11
7.75
 21
19.721687825752497
 31
0.0
  0
LINE
  5
51
100
AcDbEntity
  8
0
  6
CONTINUOUS
 62
               4
100
AcDbLine
 10
5.25
 20
18.278312146663666
 30
0.0
 11
5.25
 21
19.721687853336334
 31
0.0
  0
CIRCLE
  5
52
100
AcDbEntity
  8
0
  6
CONTINUOUS
 62
               4
100
AcDbCircle
 10
6.5
 20
19.0
 30
0.0
 40
2.75
  0
CIRCLE
  5
53
100
AcDbEntity
  8
0
  6
CONTINUOUS
 62
               4
100
AcDbCircle
 10
6.5
 20
19.0
 30
0.0
 40
2.450000000000002
  0
CIRCLE
  5
54
100
AcDbEntity
  8
0
  6
CONTINUOUS
 62
               4
100
AcDbCircle
 10
6.5
 20
6.0
 30
0.0
 40
2.450000000000002
  0
CIRCLE
  5
55
100
AcDbEntity
  8
0
  6
CONTINUOUS
 62
               4
100
AcDbCircle
 10
6.5
 20
6.0
 30
0.0
 40
2.75
  0
LINE
  5
56
100
AcDbEntity
  8
0
  6
CONTINUOUS
 62
               4
100
AcDbLine
 10
5.25
 20
5.2783121466636658
 30
0.0
 11
5.25
 21
6.7216878533363342
 31
0.0
  0
LINE
  5
57
100
AcDbEntity
  8
0
  6
CONTINUOUS
 62
               4
100
AcDbLine
 10
7.75
 20
5.2783121466636658
 30
0.0
 11
7.75
 21
6.7216878257524968
 31
0.0
  0
LINE
  5
58
100
AcDbEntity
  8
0
  6
CONTINUOUS
 62
               4
100
AcDbLine
 10
7.7499999899587237
 20
6.7216878235340118
 30
0.0
 11
6.4999999601564014
 21
7.4433756768703461
 31
0.0
  0
LINE
  5
59
100
AcDbEntity
  8
0
  6
CONTINUOUS
 62
               4
100
AcDbLine
 10
6.499999930354079
 20
4.5566243529319763
 30
0.0
 11
5.2500000197610461
 21
5.2783121466636658
 31
0.0
  0
LINE
  5
5A
100
AcDbEntity
  8
0
  6
CONTINUOUS
 62
               4
100
AcDbLine
 10
6.499999930354079
 20
7.4433756470680237
 30
0.0
 11
5.25
 21
6.7216878507911133
 31
0.0
  0
LINE
  5
5B
100
AcDbEntity
  8
0
  6
CONTINUOUS
 62
               4
100
AcDbLine
 10
7.7500000197610461
 20
5.2783122062683105
 30
0.0
 11
6.4999999005517566
 21
4.5566242933273315
 31
0.0
  0
LINE
  5
5C
100
AcDbEntity
  8
0
  6
CONTINUOUS
 62
               4
100
AcDbLine
 10
103.39999999999986
 20
0.0
 30
0.0
 11
103.39999999999986
 21
1.6000000000000227
 31
0.0
  0
ARC
  5
5D
100
AcDbEntity
  8
0
  6
CONTINUOUS
 62
               4
100
AcDbCircle
 10
96.899999999999864
 20
19.0
 30
0.0
 40
4.0
100
AcDbArc
 50
0.0
 51
51.317812546510893
  0
LINE
  5
5E
100
AcDbEntity
  8
0
  6
CONTINUOUS
 62
               4
100
AcDbLine
 10
92.899999999999864
 20
3.5
 30
0.0
 11
92.899999999999864
 21
0.5
 31
0.0
  0
LINE
  5
5F
100
AcDbEntity
  8
0
  6
CONTINUOUS
 62
               4
100
AcDbLine
 10
100.89999999999986
 20
19.0
 30
0.0
 11
100.89999999999986
 21
0.0
 31
0.0
  0
LINE
  5
60
100
AcDbEntity
  8
0
  6
CONTINUOUS
 62
               4
100
AcDbLine
 10
93.399999999999864
 20
0.0
 30
0.0
 11
117.39999999999986
 21
0.0
 31
0.0
  0
LINE
  5
61
100
AcDbEntity
  8
0
  6
CONTINUOUS
 62
               4
100
AcDbLine
 10
100.89999999999986
 20
1.6000000000000227
 30
0.0
 11
117.39999999999986
 21
1.6000000000000227
 31
0.0
  0
LINE
  5
62
100
AcDbEntity
  8
0
  6
CONTINUOUS
 62
               4
100
AcDbLine
 10
117.89999999999986
 20
1.1000000000000227
 30
0.0
 11
117.89999999999986
 21
0.5
 31
0.0
  0
ARC
  5
63
100
AcDbEntity
  8
0
  6
CONTINUOUS
 62
               4
100
AcDbCircle
 10
93.399999999999864
 20
0.5
 30
0.0
 40
0.5
100
AcDbArc
 50
179.99999999999963
 51
269.99999999999937
  0
ARC
  5
64
100
AcDbEntity
  8
0
  6
CONTINUOUS
 62
               4
100
AcDbCircle
 10
117.39999999999986
 20
0.5
 30
0.0
 40
0.5
100
AcDbArc
 50
269.99999999999937
 51
0.0
  0
ARC
  5
65
100
AcDbEntity
  8
0
  6
CONTINUOUS
 62
               4
100
AcDbCircle
 10
117.39999999999986
 20
1.1000000000000227
 30
0.0
 40
0.5
100
AcDbArc
 50
0.0
 51
89.999999999999815
  0
LINE
  5
66
100
AcDbEntity
  8
0
  6
CONTINUOUS
 62
               7
100
AcDbLine
 10
3.9999999999999716
 20
55.000000000000057
 30
0.0
 11
3.9999999999999716
 21
22.122498999199166
 31
0.0
  0
LINE
  5
67
100
AcDbEntity
  8
0
  6
CONTINUOUS
 62
               7
100
AcDbLine
 10
99.39999999999992
 20
3.5
 30
0.0
 11
92.399999999999892
 21
3.5
 31
0.0
  0
LINE
  5
68
100
AcDbEntity
  8
0
  6
CONTINUOUS
 62
               7
100
AcDbLine
 10
4.0000000000000284
 20
55.000000000000057
 30
0.0
 11
11.000000000000028
 21
55.000000000000057
 31
0.0
  0
LINE
  5
69
100
AcDbEntity
  8
0
  6
CONTINUOUS
 62
               7
100
AcDbLine
 10
99.399999999999977
 20
55.000000000000057
 30
0.0
 11
92.399999999999977
 21
55.000000000000057
 31
0.0
  0
LINE
  5
6A
100
AcDbEntity
  8
0
  6
CONTINUOUS
 62
               7
100
AcDbLine
 10
99.39999999999992
 20
55.000000000000057
 30
0.0
 11
99.39999999999992
 21
3.5
 31
0.0
  0
LINE
  5
6B
100
AcDbEntity
  8
0
  6
CONTINUOUS
 62
               7
100
AcDbLine
 10
92.399999999999892
 20
55.000000000000057
 30
0.0
 11
92.399999999999892
 21
3.5
 31
0.0
  0
LINE
  5
6C
100
AcDbEntity
  8
0
  6
CONTINUOUS
 62
               7
100
AcDbLine
 10
10.999999999999972
 20
55.000000000000057
 30
0.0
 11
10.999999999999972
 21
3.5
 31
0.0
  0
LINE
  5
6D
100
AcDbEntity
  8
0
  6
CONTINUOUS
 62
               7
100
AcDbLine
 10
10.999999999999972
 20
3.5
 30
0.0
 11
10.5
 21
3.5
 31
0.0
  0
ENDBLK
  5
6E
100
AcDbEntity
  8
0
100
AcDbBlockEnd
  0
BLOCK
  5
6F
100
AcDbEntity
  8
0
100
AcDbBlockBegin
  2
MV090MAS-2
 70
               0
 10
0.0
 20
0.0
 30
0.0
  3
MV090MAS-2
  1

  0
CIRCLE
  5
70
100
AcDbEntity
  8
0
  6
CONTINUOUS
 62
               7
100
AcDbCircle
 10
-2.597672477460248
 20
-45.281712764111717
 30
0.0
 40
0.6
  0
CIRCLE
  5
71
100
AcDbEntity
  8
0
  6
CONTINUOUS
 62
               7
100
AcDbCircle
 10
-0.7182872358884376
 20
-44.597672477460378
 30
0.0
 40
0.6
  0
CIRCLE
  5
72
100
AcDbEntity
  8
0
  6
CONTINUOUS
 62
               7
100
AcDbCircle
 10
-0.7182872358884376
 20
-44.597672477460378
 30
0.0
 40
1.0
  0
CIRCLE
  5
73
100
AcDbEntity
  8
0
  6
CONTINUOUS
 62
               7
100
AcDbCircle
 10
-2.000000000000012
 20
-44.000000000000227
 30
0.0
 40
2.5
  0
CIRCLE
  5
74
100
AcDbEntity
  8
0
  6
CONTINUOUS
 62
               7
100
AcDbCircle
 10
-2.000000000000012
 20
-44.000000000000227
 30
0.0
 40
3.0
  0
CIRCLE
  5
75
100
AcDbEntity
  8
0
  6
CONTINUOUS
 62
               7
100
AcDbCircle
 10
-2.597672477460248
 20
-45.281712764111717
 30
0.0
 40
1.0
  0
CIRCLE
  5
76
100
AcDbEntity
  8
0
  6
CONTINUOUS
 62
               7
100
AcDbCircle
 10
-3.2817127641115866
 20
-43.402327522539963
 30
0.0
 40
1.0
  0
CIRCLE
  5
77
100
AcDbEntity
  8
0
  6
CONTINUOUS
 62
               7
100
AcDbCircle
 10
-3.2817127641115866
 20
-43.402327522539963
 30
0.0
 40
0.6
  0
CIRCLE
  5
78
100
AcDbEntity
  8
0
  6
CONTINUOUS
 62
               7
100
AcDbCircle
 10
-1.4023275225397762
 20
-42.718287235888624
 30
0.0
 40
1.0
  0
CIRCLE
  5
79
100
AcDbEntity
  8
0
  6
CONTINUOUS
 62
               7
100
AcDbCircle
 10
-1.4023275225397762
 20
-42.718287235888624
 30
0.0
 40
0.6
  0
LINE
  5
7A
100
AcDbEntity
  8
0
  6
CONTINUOUS
 62
               7
100
AcDbLine
 10
-5.0000000000000124
 20
-14.0
 30
0.0
 11
-4.999999999999984
 21
-62.000000000000114
 31
0.0
  0
LINE
  5
7B
100
AcDbEntity
  8
0
  6
CONTINUOUS
 62
               7
100
AcDbLine
 10
-5.0000000000000124
 20
-37.000000000000114
 30
0.0
 11
4.9999999999999876
 21
-37.000000000000114
 31
0.0
  0
LINE
  5
7C
100
AcDbEntity
  8
0
  6
CONTINUOUS
 62
               7
100
AcDbLine
 10
5.000000000000016
 20
-62.000000000000114
 30
0.0
 11
-4.999999999999984
 21
-62.000000000000114
 31
0.0
  0
LINE
  5
7D
100
AcDbEntity
  8
0
  6
CONTINUOUS
 62
               7
100
AcDbLine
 10
4.9999999999999876
 20
-14.0
 30
0.0
 11
5.000000000000016
 21
-62.000000000000114
 31
0.0
  0
CIRCLE
  5
7E
100
AcDbEntity
  8
0
  6
CONTINUOUS
 62
               7
100
AcDbCircle
 10
-0.0000000000000122
 20
-21.000000000000114
 30
0.0
 40
5.0
  0
LINE
  5
7F
100
AcDbEntity
  8
0
  6
CONTINUOUS
 62
               7
100
AcDbLine
 10
-4.9749371855331059
 20
-20.500000000000114
 30
0.0
 11
4.9749371855331095
 21
-20.500000000000114
 31
0.0
  0
LINE
  5
80
100
AcDbEntity
  8
0
  6
CONTINUOUS
 62
               7
100
AcDbLine
 10
-4.9749371855331059
 20
-21.500000000000114
 30
0.0
 11
4.9749371855331095
 21
-21.500000000000114
 31
0.0
  0
LINE
  5
81
100
AcDbEntity
  8
0
  6
CENTER
 62
               2
100
AcDbLine
 10
0.0000000000000162
 20
-62.93473171868925
 30
0.0
 11
-0.0000000000000122
 21
47.381003626861002
 31
0.0
  0
LINE
  5
82
100
AcDbEntity
  8
0
  6
CONTINUOUS
 62
               2
100
AcDbLine
 10
1.3000000000000136
 20
38.879999999999995
 30
0.0
 11
4.5000000000000027
 21
39.739999999999995
 31
0.0
  0
LINE
  5
83
100
AcDbEntity
  8
0
  6
CONTINUOUS
 62
               2
100
AcDbLine
 10
1.3000000000000134
 20
37.849999999999994
 30
0.0
 11
4.5000000000000018
 21
38.70999999999998
 31
0.0
  0
LINE
  5
84
100
AcDbEntity
  8
0
  6
CONTINUOUS
 62
               7
100
AcDbLine
 10
-3.1500000000000039
 20
46.799999999999983
 30
0.0
 11
-2.6500000000000039
 21
46.799999999999983
 31
0.0
  0
LINE
  5
85
100
AcDbEntity
  8
0
  6
CONTINUOUS
 62
               7
100
AcDbLine
 10
-3.5500000000000096
 20
42.799999999999983
 30
0.0
 11
-2.2499999999999982
 21
42.799999999999983
 31
0.0
  0
LINE
  5
86
100
AcDbEntity
  8
0
  6
CONTINUOUS
 62
               7
100
AcDbLine
 10
-3.1500000000000039
 20
42.799999999999983
 30
0.0
 11
-3.1500000000000039
 21
46.799999999999983
 31
0.0
  0
LINE
  5
87
100
AcDbEntity
  8
0
  6
CONTINUOUS
 62
               7
100
AcDbLine
 10
-2.6500000000000039
 20
42.799999999999983
 30
0.0
 11
-2.6500000000000039
 21
46.799999999999983
 31
0.0
  0
LINE
  5
88
100
AcDbEntity
  8
0
  6
CONTINUOUS
 62
               7
100
AcDbLine
 10
2.2500000000000022
 20
39.139999999999986
 30
0.0
 11
2.2500000000000031
 21
42.799999999999983
 31
0.0
  0
LINE
  5
89
100
AcDbEntity
  8
0
  6
CONTINUOUS
 62
               7
100
AcDbLine
 10
3.5500000000000136
 20
39.489999999999995
 30
0.0
 11
3.5500000000000145
 21
42.799999999999983
 31
0.0
  0
LINE
  5
8A
100
AcDbEntity
  8
0
  6
CONTINUOUS
 62
               7
100
AcDbLine
 10
3.5500000000000127
 20
34.599999999999994
 30
0.0
 11
3.5500000000000136
 21
38.449999999999989
 31
0.0
  0
LINE
  5
8B
100
AcDbEntity
  8
0
  6
CONTINUOUS
 62
               7
100
AcDbLine
 10
2.2500000000000013
 20
34.599999999999994
 30
0.0
 11
2.2500000000000022
 21
38.099999999999994
 31
0.0
  0
LINE
  5
8C
100
AcDbEntity
  8
0
  6
CONTINUOUS
 62
               2
100
AcDbLine
 10
-4.4999999999999831
 20
38.879999999999995
 30
0.0
 11
-1.2999999999999805
 21
39.739999999999995
 31
0.0
  0
LINE
  5
8D
100
AcDbEntity
  8
0
  6
CONTINUOUS
 62
               2
100
AcDbLine
 10
-4.499999999999984
 20
37.849999999999994
 30
0.0
 11
-1.2999999999999807
 21
38.70999999999998
 31
0.0
  0
LINE
  5
8E
100
AcDbEntity
  8
0
  6
CONTINUOUS
 62
               7
100
AcDbLine
 10
2.6499999999999932
 20
46.799999999999983
 30
0.0
 11
3.1499999999999937
 21
46.799999999999983
 31
0.0
  0
LINE
  5
8F
100
AcDbEntity
  8
0
  6
CONTINUOUS
 62
               7
100
AcDbLine
 10
2.2499999999999876
 20
42.799999999999983
 30
0.0
 11
3.5499999999999847
 21
42.799999999999983
 31
0.0
  0
LINE
  5
90
100
AcDbEntity
  8
0
  6
CONTINUOUS
 62
               7
100
AcDbLine
 10
2.6499999999999932
 20
42.799999999999983
 30
0.0
 11
2.6499999999999932
 21
46.799999999999983
 31
0.0
  0
LINE
  5
91
100
AcDbEntity
  8
0
  6
CONTINUOUS
 62
               7
100
AcDbLine
 10
3.1499999999999932
 20
42.799999999999983
 30
0.0
 11
3.1499999999999937
 21
46.799999999999983
 31
0.0
  0
LINE
  5
92
100
AcDbEntity
  8
0
  6
CONTINUOUS
 62
               7
100
AcDbLine
 10
-3.5499999999999803
 20
39.139999999999986
 30
0.0
 11
-3.5499999999999798
 21
42.799999999999983
 31
0.0
  0
LINE
  5
93
100
AcDbEntity
  8
0
  6
CONTINUOUS
 62
               7
100
AcDbLine
 10
-2.2499999999999836
 20
39.489999999999995
 30
0.0
 11
-2.2499999999999827
 21
42.799999999999983
 31
0.0
  0
LINE
  5
94
100
AcDbEntity
  8
0
  6
CONTINUOUS
 62
               7
100
AcDbLine
 10
-2.2499999999999845
 20
34.599999999999994
 30
0.0
 11
-2.2499999999999836
 21
38.449999999999989
 31
0.0
  0
LINE
  5
95
100
AcDbEntity
  8
0
  6
CONTINUOUS
 62
               7
100
AcDbLine
 10
-3.5499999999999812
 20
34.599999999999994
 30
0.0
 11
-3.5499999999999803
 21
38.099999999999994
 31
0.0
  0
LINE
  5
96
100
AcDbEntity
  8
0
  6
CONTINUOUS
 62
               7
100
AcDbLine
 10
5.0
 20
14.900000000000006
 30
0.0
 11
-5.0
 21
14.900000000000006
 31
0.0
  0
LINE
  5
97
100
AcDbEntity
  8
0
  6
CONTINUOUS
 62
               7
100
AcDbLine
 10
4.7000000000000037
 20
33.599999999999994
 30
0.0
 11
-4.7000000000000028
 21
33.599999999999994
 31
0.0
  0
LINE
  5
98
100
AcDbEntity
  8
0
  6
CONTINUOUS
 62
               7
100
AcDbLine
 10
5.0
 20
15.199999999999989
 30
0.0
 11
-5.0
 21
15.199999999999989
 31
0.0
  0
LINE
  5
99
100
AcDbEntity
  8
0
  6
CONTINUOUS
 62
               7
100
AcDbLine
 10
4.7000000000000037
 20
34.599999999999994
 30
0.0
 11
-4.7000000000000028
 21
34.59999999999998
 31
0.0
  0
ARC
  5
9A
100
AcDbEntity
  8
0
  6
CONTINUOUS
 62
               7
100
AcDbCircle
 10
-4.700711437663756
 20
34.40071143766373
 30
0.0
 40
0.1992898322082596
100
AcDbArc
 50
89.795461405895423
 51
180.20453859410404
  0
LINE
  5
9B
100
AcDbEntity
  8
0
  6
CONTINUOUS
 62
               7
100
AcDbLine
 10
-4.9000000000000057
 20
34.399999999999991
 30
0.0
 11
-4.9000000000000057
 21
33.523606797749963
 31
0.0
  0
LINE
  5
9C
100
AcDbEntity
  8
0
  6
CONTINUOUS
 62
               7
100
AcDbLine
 10
4.9000000000000066
 20
34.399999999999991
 30
0.0
 11
4.9000000000000066
 21
33.523606797749977
 31
0.0
  0
ARC
  5
9D
100
AcDbEntity
  8
0
  6
CONTINUOUS
 62
               7
100
AcDbCircle
 10
4.7007114376637569
 20
34.40071143766373
 30
0.0
 40
0.1992898322082596
100
AcDbArc
 50
359.79546140589559
 51
90.204538594104179
  0
LINE
  5
9E
100
AcDbEntity
  8
0
  6
CONTINUOUS
 62
               7
100
AcDbLine
 10
1.5000000000000009
 20
30.599999999999994
 30
0.0
 11
0.0000000000000009
 21
30.599999999999994
 31
0.0
  0
LINE
  5
9F
100
AcDbEntity
  8
0
  6
CONTINUOUS
 62
               7
100
AcDbLine
 10
1.5000000000000009
 20
30.599999999999994
 30
0.0
 11
1.5000000000000009
 21
33.599999999999994
 31
0.0
  0
LINE
  5
A0
100
AcDbEntity
  8
0
  6
CONTINUOUS
 62
               7
100
AcDbLine
 10
-1.4999999999999982
 20
30.599999999999994
 30
0.0
 11
0.0000000000000009
 21
30.599999999999994
 31
0.0
  0
LINE
  5
A1
100
AcDbEntity
  8
0
  6
CONTINUOUS
 62
               7
100
AcDbLine
 10
-1.4999999999999982
 20
30.599999999999994
 30
0.0
 11
-1.4999999999999982
 21
33.599999999999994
 31
0.0
  0
ARC
  5
A2
100
AcDbEntity
  8
0
  6
CONTINUOUS
 62
               7
100
AcDbCircle
 10
-4.7000000000000028
 20
33.299999999999997
 30
0.0
 40
0.3
100
AcDbArc
 50
89.999999999999815
 51
179.99999999999963
  0
ARC
  5
A3
100
AcDbEntity
  8
0
  6
CONTINUOUS
 62
               7
100
AcDbCircle
 10
4.7000000000000037
 20
33.299999999999997
 30
0.0
 40
0.3
100
AcDbArc
 50
0.0
 51
89.999999999999815
  0
LINE
  5
A4
100
AcDbEntity
  8
0
  6
CONTINUOUS
 62
               7
100
AcDbLine
 10
-5.0
 20
14.0
 30
0.0
 11
5.0
 21
14.0
 31
0.0
  0
LINE
  5
A5
100
AcDbEntity
  8
0
  6
CENTER
 62
               2
100
AcDbLine
 10
-1.0000000000001137
 20
0.5
 30
0.0
 11
-1.0000000000001137
 21
7.5
 31
0.0
  0
CIRCLE
  5
A6
100
AcDbEntity
  8
0
  6
CONTINUOUS
 62
               7
100
AcDbCircle
 10
-1.0000000000001137
 20
4.0
 30
0.0
 40
2.5
  0
CIRCLE
  5
A7
100
AcDbEntity
  8
0
  6
CONTINUOUS
 62
               7
100
AcDbCircle
 10
-1.0000000000001137
 20
4.0
 30
0.0
 40
3.0
  0
CIRCLE
  5
A8
100
AcDbEntity
  8
0
  6
CONTINUOUS
 62
               7
100
AcDbCircle
 10
-1.0000000000001137
 20
4.0
 30
0.0
 40
3.25
  0
LINE
  5
A9
100
AcDbEntity
  8
0
  6
CONTINUOUS
 62
               7
100
AcDbLine
 10
-4.9999999999999432
 20
0.0
 30
0.0
 11
-4.9999999999999432
 21
33.299999999999997
 31
0.0
  0
LINE
  5
AA
100
AcDbEntity
  8
0
  6
CENTER
 62
               2
100
AcDbLine
 10
-4.5000000000001137
 20
4.0
 30
0.0
 11
2.4999999999998863
 21
4.0
 31
0.0
  0
LINE
  5
AB
100
AcDbEntity
  8
0
  6
CONTINUOUS
 62
               7
100
AcDbLine
 10
-3.4494897427832996
 20
4.5
 30
0.0
 11
1.449489742783058
 21
4.5
 31
0.0
  0
LINE
  5
AC
100
AcDbEntity
  8
0
  6
CONTINUOUS
 62
               7
100
AcDbLine
 10
-3.4494897427832996
 20
3.5
 30
0.0
 11
1.449489742783058
 21
3.5
 31
0.0
  0
LINE
  5
AD
100
AcDbEntity
  8
0
  6
CONTINUOUS
 62
               7
100
AcDbLine
 10
5.0
 20
0.0
 30
0.0
 11
5.0
 21
33.299999999999997
 31
0.0
  0
ENDBLK
  5
AE
100
AcDbEntity
  8
0
100
AcDbBlockEnd
  0
BLOCK
  5
AF
100
AcDbEntity
  8
0
100
AcDbBlockBegin
  2
MV090MAS-3
 70
               0
 10
0.0
 20
0.0
 30
0.0
  3
MV090MAS-3
  1

  0
LINE
  5
B0
100
AcDbEntity
  8
0
  6
CONTINUOUS
 62
               7
100
AcDbLine
 10
5.0
 20
0.0
 30
0.0
 11
5.0
 21
33.299999999999997
 31
0.0
  0
LINE
  5
B1
100
AcDbEntity
  8
0
  6
CONTINUOUS
 62
               7
100
AcDbLine
 10
-3.4494897427832996
 20
3.5
 30
0.0
 11
1.449489742783058
 21
3.5
 31
0.0
  0
LINE
  5
B2
100
AcDbEntity
  8
0
  6
CONTINUOUS
 62
               7
100
AcDbLine
 10
-3.4494897427832996
 20
4.5
 30
0.0
 11
1.449489742783058
 21
4.5
 31
0.0
  0
LINE
  5
B3
100
AcDbEntity
  8
0
  6
CENTER
 62
               2
100
AcDbLine
 10
-4.5000000000001137
 20
4.0
 30
0.0
 11
2.4999999999998863
 21
4.0
 31
0.0
  0
LINE
  5
B4
100
AcDbEntity
  8
0
  6
CONTINUOUS
 62
               7
100
AcDbLine
 10
-4.9999999999999432
 20
0.0
 30
0.0
 11
-4.9999999999999432
 21
33.299999999999997
 31
0.0
  0
CIRCLE
  5
B5
100
AcDbEntity
  8
0
  6
CONTINUOUS
 62
               7
100
AcDbCircle
 10
-1.0000000000001137
 20
4.0
 30
0.0
 40
3.25
  0
CIRCLE
  5
B6
100
AcDbEntity
  8
0
  6
CONTINUOUS
 62
               7
100
AcDbCircle
 10
-1.0000000000001137
 20
4.0
 30
0.0
 40
3.0
  0
CIRCLE
  5
B7
100
AcDbEntity
  8
0
  6
CONTINUOUS
 62
               7
100
AcDbCircle
 10
-1.0000000000001137
 20
4.0
 30
0.0
 40
2.5
  0
LINE
  5
B8
100
AcDbEntity
  8
0
  6
CENTER
 62
               2
100
AcDbLine
 10
-1.0000000000001137
 20
0.5
 30
0.0
 11
-1.0000000000001137
 21
7.5
 31
0.0
  0
LINE
  5
B9
100
AcDbEntity
  8
0
  6
CONTINUOUS
 62
               7
100
AcDbLine
 10
-5.0
 20
14.0
 30
0.0
 11
5.0
 21
14.0
 31
0.0
  0
ARC
  5
BA
100
AcDbEntity
  8
0
  6
CONTINUOUS
 62
               7
100
AcDbCircle
 10
4.7000000000000037
 20
33.299999999999997
 30
0.0
 40
0.3
100
AcDbArc
 50
0.0
 51
89.999999999999815
  0
ARC
  5
BB
100
AcDbEntity
  8
0
  6
CONTINUOUS
 62
               7
100
AcDbCircle
 10
-4.7000000000000028
 20
33.299999999999997
 30
0.0
 40
0.3
100
AcDbArc
 50
89.999999999999815
 51
179.99999999999963
  0
LINE
  5
BC
100
AcDbEntity
  8
0
  6
CONTINUOUS
 62
               7
100
AcDbLine
 10
-1.4999999999999982
 20
30.599999999999994
 30
0.0
 11
-1.4999999999999982
 21
33.599999999999994
 31
0.0
  0
LINE
  5
BD
100
AcDbEntity
  8
0
  6
CONTINUOUS
 62
               7
100
AcDbLine
 10
-1.4999999999999982
 20
30.599999999999994
 30
0.0
 11
0.0000000000000009
 21
30.599999999999994
 31
0.0
  0
LINE
  5
BE
100
AcDbEntity
  8
0
  6
CONTINUOUS
 62
               7
100
AcDbLine
 10
1.5000000000000009
 20
30.599999999999994
 30
0.0
 11
1.5000000000000009
 21
33.599999999999994
 31
0.0
  0
LINE
  5
BF
100
AcDbEntity
  8
0
  6
CONTINUOUS
 62
               7
100
AcDbLine
 10
1.5000000000000009
 20
30.599999999999994
 30
0.0
 11
0.0000000000000009
 21
30.599999999999994
 31
0.0
  0
ARC
  5
C0
100
AcDbEntity
  8
0
  6
CONTINUOUS
 62
               7
100
AcDbCircle
 10
4.7007114376637569
 20
34.40071143766373
 30
0.0
 40
0.1992898322082596
100
AcDbArc
 50
359.79546140589559
 51
90.204538594104179
  0
LINE
  5
C1
100
AcDbEntity
  8
0
  6
CONTINUOUS
 62
               7
100
AcDbLine
 10
4.9000000000000066
 20
34.399999999999991
 30
0.0
 11
4.9000000000000066
 21
33.523606797749977
 31
0.0
  0
LINE
  5
C2
100
AcDbEntity
  8
0
  6
CONTINUOUS
 62
               7
100
AcDbLine
 10
-4.9000000000000057
 20
34.399999999999991
 30
0.0
 11
-4.9000000000000057
 21
33.523606797749963
 31
0.0
  0
ARC
  5
C3
100
AcDbEntity
  8
0
  6
CONTINUOUS
 62
               7
100
AcDbCircle
 10
-4.700711437663756
 20
34.40071143766373
 30
0.0
 40
0.1992898322082596
100
AcDbArc
 50
89.795461405895423
 51
180.20453859410404
  0
LINE
  5
C4
100
AcDbEntity
  8
0
  6
CONTINUOUS
 62
               7
100
AcDbLine
 10
4.7000000000000037
 20
34.599999999999994
 30
0.0
 11
-4.7000000000000028
 21
34.59999999999998
 31
0.0
  0
LINE
  5
C5
100
AcDbEntity
  8
0
  6
CONTINUOUS
 62
               7
100
AcDbLine
 10
5.0
 20
15.199999999999989
 30
0.0
 11
-5.0
 21
15.199999999999989
 31
0.0
  0
LINE
  5
C6
100
AcDbEntity
  8
0
  6
CONTINUOUS
 62
               7
100
AcDbLine
 10
4.7000000000000037
 20
33.599999999999994
 30
0.0
 11
-4.7000000000000028
 21
33.599999999999994
 31
0.0
  0
LINE
  5
C7
100
AcDbEntity
  8
0
  6
CONTINUOUS
 62
               7
100
AcDbLine
 10
5.0
 20
14.900000000000006
 30
0.0
 11
-5.0
 21
14.900000000000006
 31
0.0
  0
LINE
  5
C8
100
AcDbEntity
  8
0
  6
CONTINUOUS
 62
               7
100
AcDbLine
 10
-3.5499999999999812
 20
34.599999999999994
 30
0.0
 11
-3.5499999999999803
 21
38.099999999999994
 31
0.0
  0
LINE
  5
C9
100
AcDbEntity
  8
0
  6
CONTINUOUS
 62
               7
100
AcDbLine
 10
-2.2499999999999845
 20
34.599999999999994
 30
0.0
 11
-2.2499999999999836
 21
38.449999999999989
 31
0.0
  0
LINE
  5
CA
100
AcDbEntity
  8
0
  6
CONTINUOUS
 62
               7
100
AcDbLine
 10
-2.2499999999999836
 20
39.489999999999995
 30
0.0
 11
-2.2499999999999827
 21
42.799999999999983
 31
0.0
  0
LINE
  5
CB
100
AcDbEntity
  8
0
  6
CONTINUOUS
 62
               7
100
AcDbLine
 10
-3.5499999999999803
 20
39.139999999999986
 30
0.0
 11
-3.5499999999999798
 21
42.799999999999983
 31
0.0
  0
LINE
  5
CC
100
AcDbEntity
  8
0
  6
CONTINUOUS
 62
               7
100
AcDbLine
 10
3.1499999999999932
 20
42.799999999999983
 30
0.0
 11
3.1499999999999937
 21
46.799999999999983
 31
0.0
  0
LINE
  5
CD
100
AcDbEntity
  8
0
  6
CONTINUOUS
 62
               7
100
AcDbLine
 10
2.6499999999999932
 20
42.799999999999983
 30
0.0
 11
2.6499999999999932
 21
46.799999999999983
 31
0.0
  0
LINE
  5
CE
100
AcDbEntity
  8
0
  6
CONTINUOUS
 62
               7
100
AcDbLine
 10
2.2499999999999876
 20
42.799999999999983
 30
0.0
 11
3.5499999999999847
 21
42.799999999999983
 31
0.0
  0
LINE
  5
CF
100
AcDbEntity
  8
0
  6
CONTINUOUS
 62
               7
100
AcDbLine
 10
2.6499999999999932
 20
46.799999999999983
 30
0.0
 11
3.1499999999999937
 21
46.799999999999983
 31
0.0
  0
LINE
  5
D0
100
AcDbEntity
  8
0
  6
CONTINUOUS
 62
               2
100
AcDbLine
 10
-4.499999999999984
 20
37.849999999999994
 30
0.0
 11
-1.2999999999999807
 21
38.70999999999998
 31
0.0
  0
LINE
  5
D1
100
AcDbEntity
  8
0
  6
CONTINUOUS
 62
               2
100
AcDbLine
 10
-4.4999999999999831
 20
38.879999999999995
 30
0.0
 11
-1.2999999999999805
 21
39.739999999999995
 31
0.0
  0
LINE
  5
D2
100
AcDbEntity
  8
0
  6
CONTINUOUS
 62
               7
100
AcDbLine
 10
2.2500000000000013
 20
34.599999999999994
 30
0.0
 11
2.2500000000000022
 21
38.099999999999994
 31
0.0
  0
LINE
  5
D3
100
AcDbEntity
  8
0
  6
CONTINUOUS
 62
               7
100
AcDbLine
 10
3.5500000000000127
 20
34.599999999999994
 30
0.0
 11
3.5500000000000136
 21
38.449999999999989
 31
0.0
  0
LINE
  5
D4
100
AcDbEntity
  8
0
  6
CONTINUOUS
 62
               7
100
AcDbLine
 10
3.5500000000000136
 20
39.489999999999995
 30
0.0
 11
3.5500000000000145
 21
42.799999999999983
 31
0.0
  0
LINE
  5
D5
100
AcDbEntity
  8
0
  6
CONTINUOUS
 62
               7
100
AcDbLine
 10
2.2500000000000022
 20
39.139999999999986
 30
0.0
 11
2.2500000000000031
 21
42.799999999999983
 31
0.0
  0
LINE
  5
D6
100
AcDbEntity
  8
0
  6
CONTINUOUS
 62
               7
100
AcDbLine
 10
-2.6500000000000039
 20
42.799999999999983
 30
0.0
 11
-2.6500000000000039
 21
46.799999999999983
 31
0.0
  0
LINE
  5
D7
100
AcDbEntity
  8
0
  6
CONTINUOUS
 62
               7
100
AcDbLine
 10
-3.1500000000000039
 20
42.799999999999983
 30
0.0
 11
-3.1500000000000039
 21
46.799999999999983
 31
0.0
  0
LINE
  5
D8
100
AcDbEntity
  8
0
  6
CONTINUOUS
 62
               7
100
AcDbLine
 10
-3.5500000000000096
 20
42.799999999999983
 30
0.0
 11
-2.2499999999999982
 21
42.799999999999983
 31
0.0
  0
LINE
  5
D9
100
AcDbEntity
  8
0
  6
CONTINUOUS
 62
               7
100
AcDbLine
 10
-3.1500000000000039
 20
46.799999999999983
 30
0.0
 11
-2.6500000000000039
 21
46.799999999999983
 31
0.0
  0
LINE
  5
DA
100
AcDbEntity
  8
0
  6
CONTINUOUS
 62
               2
100
AcDbLine
 10
1.3000000000000134
 20
37.849999999999994
 30
0.0
 11
4.5000000000000018
 21
38.70999999999998
 31
0.0
  0
LINE
  5
DB
100
AcDbEntity
  8
0
  6
CONTINUOUS
 62
               2
100
AcDbLine
 10
1.3000000000000136
 20
38.879999999999995
 30
0.0
 11
4.5000000000000027
 21
39.739999999999995
 31
0.0
  0
LINE
  5
DC
100
AcDbEntity
  8
0
  6
CENTER
 62
               2
100
AcDbLine
 10
0.0000000000000162
 20
-62.93473171868925
 30
0.0
 11
-0.0000000000000122
 21
47.381003626861002
 31
0.0
  0
LINE
  5
DD
100
AcDbEntity
  8
0
  6
CONTINUOUS
 62
               7
100
AcDbLine
 10
-4.9749371855331059
 20
-21.500000000000114
 30
0.0
 11
4.9749371855331095
 21
-21.500000000000114
 31
0.0
  0
LINE
  5
DE
100
AcDbEntity
  8
0
  6
CONTINUOUS
 62
               7
100
AcDbLine
 10
-4.9749371855331059
 20
-20.500000000000114
 30
0.0
 11
4.9749371855331095
 21
-20.500000000000114
 31
0.0
  0
CIRCLE
  5
DF
100
AcDbEntity
  8
0
  6
CONTINUOUS
 62
               7
100
AcDbCircle
 10
-0.0000000000000122
 20
-21.000000000000114
 30
0.0
 40
5.0
  0
LINE
  5
E0
100
AcDbEntity
  8
0
  6
CONTINUOUS
 62
               7
100
AcDbLine
 10
4.9999999999999876
 20
-14.0
 30
0.0
 11
5.000000000000016
 21
-62.000000000000114
 31
0.0
  0
LINE
  5
E1
100
AcDbEntity
  8
0
  6
CONTINUOUS
 62
               7
100
AcDbLine
 10
5.000000000000016
 20
-62.000000000000114
 30
0.0
 11
-4.999999999999984
 21
-62.000000000000114
 31
0.0
  0
LINE
  5
E2
100
AcDbEntity
  8
0
  6
CONTINUOUS
 62
               7
100
AcDbLine
 10
-5.0000000000000124
 20
-37.000000000000114
 30
0.0
 11
4.9999999999999876
 21
-37.000000000000114
 31
0.0
  0
LINE
  5
E3
100
AcDbEntity
  8
0
  6
CONTINUOUS
 62
               7
100
AcDbLine
 10
-5.0000000000000124
 20
-14.0
 30
0.0
 11
-4.999999999999984
 21
-62.000000000000114
 31
0.0
  0
LINE
  5
E4
100
AcDbEntity
  8
0
  6
CONTINUOUS
 62
               7
100
AcDbLine
 10
-4.9999999999999911
 20
-39.500000000000114
 30
0.0
 11
5.0000000000000089
 21
-39.500000000000114
 31
0.0
  0
LINE
  5
E5
100
AcDbEntity
  8
0
  6
CONTINUOUS
 62
               7
100
AcDbLine
 10
-4.9999999999999911
 20
-59.500000000000114
 30
0.0
 11
5.0000000000000089
 21
-59.500000000000114
 31
0.0
  0
ENDBLK
  5
E6
100
AcDbEntity
  8
0
100
AcDbBlockEnd
  0
BLOCK
  5
E7
100
AcDbEntity
  8
0
100
AcDbBlockBegin
  2
MV090MAS-4
 70
               0
 10
0.0
 20
0.0
 30
0.0
  3
MV090MAS-4
  1

  0
LINE
  5
E8
100
AcDbEntity
  8
0
  6
CENTER
 62
               2
100
AcDbLine
 10
0.0000000000000071
 20
69.136052925234992
 30
0.0
 11
0.0
 21
-2.1360529252351057
 31
0.0
  0
LINE
  5
E9
100
AcDbEntity
  8
0
  6
CONTINUOUS
 62
               7
100
AcDbLine
 10
2.3943704061239046
 20
26.040817451771176
 30
0.0
 11
2.6500000000000128
 21
25.599999999999994
 31
0.0
  0
LINE
  5
EA
100
AcDbEntity
  8
0
  6
CONTINUOUS
 62
               7
100
AcDbLine
 10
-2.6499999999999986
 20
25.599999999999994
 30
0.0
 11
-2.3943704061238904
 21
26.040817451771147
 31
0.0
  0
LINE
  5
EB
100
AcDbEntity
  8
0
  6
CONTINUOUS
 62
               7
100
AcDbLine
 10
1.1443704061239046
 20
24.790817451771147
 30
0.0
 11
1.4000000000000128
 21
24.350000000000023
 31
0.0
  0
LINE
  5
EC
100
AcDbEntity
  8
0
  6
CONTINUOUS
 62
               7
100
AcDbLine
 10
2.6500000000000128
 20
25.599999999999994
 30
0.0
 11
1.4000000000000128
 21
24.350000000000023
 31
0.0
  0
LINE
  5
ED
100
AcDbEntity
  8
0
  6
CONTINUOUS
 62
               7
100
AcDbLine
 10
1.1443704061239046
 20
24.790817451771147
 30
0.0
 11
2.3943704061239046
 21
26.040817451771176
 31
0.0
  0
LINE
  5
EE
100
AcDbEntity
  8
0
  6
CONTINUOUS
 62
               7
100
AcDbLine
 10
-1.1443704061238904
 20
24.790817451771147
 30
0.0
 11
-1.3999999999999986
 21
24.350000000000023
 31
0.0
  0
LINE
  5
EF
100
AcDbEntity
  8
0
  6
CONTINUOUS
 62
               7
100
AcDbLine
 10
-4.9999999999999929
 20
18.909182548228841
 30
0.0
 11
5.0000000000000071
 21
18.909182548228841
 31
0.0
  0
LINE
  5
F0
100
AcDbEntity
  8
0
  6
CONTINUOUS
 62
               7
100
AcDbLine
 10
-1.1443704061238904
 20
24.790817451771147
 30
0.0
 11
-2.3943704061238904
 21
26.040817451771147
 31
0.0
  0
LINE
  5
F1
100
AcDbEntity
  8
0
  6
CONTINUOUS
 62
               7
100
AcDbLine
 10
-4.9999999999999929
 20
26.040817451771147
 30
0.0
 11
-2.3943704061238904
 21
26.040817451771147
 31
0.0
  0
LINE
  5
F2
100
AcDbEntity
  8
0
  6
CONTINUOUS
 62
               7
100
AcDbLine
 10
2.3943704061239046
 20
26.040817451771176
 30
0.0
 11
5.0000000000000071
 21
26.040817451771176
 31
0.0
  0
LINE
  5
F3
100
AcDbEntity
  8
0
  6
CONTINUOUS
 62
               7
100
AcDbLine
 10
1.1443704061239046
 20
24.790817451771147
 30
0.0
 11
-1.1443704061238904
 21
24.790817451771147
 31
0.0
  0
LINE
  5
F4
100
AcDbEntity
  8
0
  6
CONTINUOUS
 62
               7
100
AcDbLine
 10
-5.0000000000000213
 20
25.599999999999994
 30
0.0
 11
-2.6499999999999986
 21
25.599999999999994
 31
0.0
  0
LINE
  5
F5
100
AcDbEntity
  8
0
  6
CONTINUOUS
 62
               7
100
AcDbLine
 10
-2.6499999999999986
 20
25.599999999999994
 30
0.0
 11
-1.3999999999999986
 21
24.350000000000023
 31
0.0
  0
LINE
  5
F6
100
AcDbEntity
  8
0
  6
CONTINUOUS
 62
               7
100
AcDbLine
 10
1.4000000000000128
 20
24.350000000000023
 30
0.0
 11
-1.3999999999999986
 21
24.350000000000023
 31
0.0
  0
LINE
  5
F7
100
AcDbEntity
  8
0
  6
CONTINUOUS
 62
               7
100
AcDbLine
 10
2.6500000000000128
 20
25.599999999999994
 30
0.0
 11
5.0000000000000071
 21
25.599999999999994
 31
0.0
  0
CIRCLE
  5
F8
100
AcDbEntity
  8
0
  6
CONTINUOUS
 62
               7
100
AcDbCircle
 10
0.0000000000000071
 20
21.75
 30
0.0
 40
2.0500000000000003
  0
LINE
  5
F9
100
AcDbEntity
  8
0
  6
CONTINUOUS
 62
               7
100
AcDbLine
 10
5.0000000000000071
 20
18.098078436969899
 30
0.0
 11
-4.9999999999999929
 21
18.098078436969899
 31
0.0
  0
LINE
  5
FA
100
AcDbEntity
  8
0
  6
CONTINUOUS
 62
               7
100
AcDbLine
 10
-4.9999999999999929
 20
17.600000000000023
 30
0.0
 11
5.0000000000000071
 21
17.600000000000023
 31
0.0
  0
LINE
  5
FB
100
AcDbEntity
  8
0
  6
CONTINUOUS
 62
               7
100
AcDbLine
 10
-3.4999999999999929
 20
21.899999999999977
 30
0.0
 11
-4.9999999999999929
 21
21.899999999999977
 31
0.0
  0
LINE
  5
FC
100
AcDbEntity
  8
0
  6
CONTINUOUS
 62
               7
100
AcDbLine
 10
-4.9999999999999929
 20
25.100000000000023
 30
0.0
 11
-3.4999999999999929
 21
25.100000000000023
 31
0.0
  0
LINE
  5
FD
100
AcDbEntity
  8
0
  6
CONTINUOUS
 62
               7
100
AcDbLine
 10
3.5000000000000071
 20
25.100000000000023
 30
0.0
 11
5.0000000000000071
 21
25.100000000000023
 31
0.0
  0
LINE
  5
FE
100
AcDbEntity
  8
0
  6
CONTINUOUS
 62
               7
100
AcDbLine
 10
5.0000000000000071
 20
21.899999999999977
 30
0.0
 11
3.5000000000000071
 21
21.899999999999977
 31
0.0
  0
ARC
  5
FF
100
AcDbEntity
  8
0
  6
CONTINUOUS
 62
               7
100
AcDbCircle
 10
3.5000000000000071
 20
23.5
 30
0.0
 40
1.6000000000000001
100
AcDbArc
 50
89.999999999999815
 51
269.99999999999937
  0
ARC
  5
100
100
AcDbEntity
  8
0
  6
CONTINUOUS
 62
               7
100
AcDbCircle
 10
-3.4999999999999929
 20
23.5
 30
0.0
 40
1.6000000000000001
100
AcDbArc
 50
270.00000000000023
 51
89.999999999999801
  0
LINE
  5
101
100
AcDbEntity
  8
0
  6
CONTINUOUS
 62
               7
100
AcDbLine
 10
5.0000000000000071
 20
0.3000000000000114
 30
0.0
 11
5.0000000000000071
 21
17.5
 31
0.0
  0
LINE
  5
102
100
AcDbEntity
  8
0
  6
CENTER
 62
               2
100
AcDbLine
 10
-2.4999999999999929
 20
21.75
 30
0.0
 11
2.5000000000000071
 21
21.75
 31
0.0
  0
LINE
  5
103
100
AcDbEntity
  8
0
  6
CONTINUOUS
 62
               7
100
AcDbLine
 10
-4.9999999999999964
 20
0.3000000000000114
 30
0.0
 11
-4.9999999999999929
 21
17.5
 31
0.0
  0
CIRCLE
  5
104
100
AcDbEntity
  8
0
  6
CONTINUOUS
 62
               7
100
AcDbCircle
 10
0.0000000000000071
 20
21.75
 30
0.0
 40
1.9000000000000001
  0
LINE
  5
105
100
AcDbEntity
  8
0
  6
CONTINUOUS
 62
               7
100
AcDbLine
 10
4.7000000000000242
 20
0.0
 30
0.0
 11
-4.6999999999999851
 21
0.0
 31
0.0
  0
LINE
  5
106
100
AcDbEntity
  8
0
  6
CONTINUOUS
 62
               7
100
AcDbLine
 10
-5.0000000033237981
 20
17.5
 30
0.0
 11
4.9999999966762019
 21
17.5
 31
0.0
  0
ARC
  5
107
100
AcDbEntity
  8
0
  6
CONTINUOUS
 62
               7
100
AcDbCircle
 10
4.7000000000000242
 20
0.3000000000000114
 30
0.0
 40
0.3
100
AcDbArc
 50
269.99999999999937
 51
0.0
  0
ARC
  5
108
100
AcDbEntity
  8
0
  6
CONTINUOUS
 62
               7
100
AcDbCircle
 10
-4.6999999999999851
 20
0.3000000000000114
 30
0.0
 40
0.3
100
AcDbArc
 50
179.99999999999963
 51
269.99999999999937
  0
CIRCLE
  5
109
100
AcDbEntity
  8
0
  6
CONTINUOUS
 62
               7
100
AcDbCircle
 10
2.9000000000000128
 20
13.300000167936048
 30
0.0
 40
0.875
  0
CIRCLE
  5
10A
100
AcDbEntity
  8
0
  6
CONTINUOUS
 62
               7
100
AcDbCircle
 10
-2.8999999999999879
 20
13.300000000000011
 30
0.0
 40
0.875
  0
LINE
  5
10B
100
AcDbEntity
  8
0
  6
CONTINUOUS
 62
               7
100
AcDbLine
 10
-1.4999999999999964
 20
5.0
 30
0.0
 11
-1.4999999999999964
 21
0.0
 31
0.0
  0
LINE
  5
10C
100
AcDbEntity
  8
0
  6
CONTINUOUS
 62
               7
100
AcDbLine
 10
1.5000000000000071
 20
5.0
 30
0.0
 11
1.5
 21
0.0
 31
0.0
  0
LINE
  5
10D
100
AcDbEntity
  8
0
  6
CONTINUOUS
 62
               7
100
AcDbLine
 10
1.5000000000000071
 20
5.0
 30
0.0
 11
-1.4999999999999964
 21
5.0
 31
0.0
  0
ARC
  5
10E
100
AcDbEntity
  8
0
  6
CONTINUOUS
 62
               7
100
AcDbCircle
 10
-2.8999999999999879
 20
13.300000000000011
 30
0.0
 40
2.0000000881710069
100
AcDbArc
 50
89.999999999999815
 51
269.99999999999937
  0
ARC
  5
10F
100
AcDbEntity
  8
0
  6
CONTINUOUS
 62
               7
100
AcDbCircle
 10
2.9000000000000128
 20
13.300000000000011
 30
0.0
 40
2.0000000881710069
100
AcDbArc
 50
270.00000000000023
 51
89.999999999999801
  0
LINE
  5
110
100
AcDbEntity
  8
0
  6
CONTINUOUS
 62
               7
100
AcDbLine
 10
-2.8999999999999879
 20
15.300000000000011
 30
0.0
 11
2.9000000000000128
 21
15.300000000000011
 31
0.0
  0
LINE
  5
111
100
AcDbEntity
  8
0
  6
CONTINUOUS
 62
               7
100
AcDbLine
 10
-2.8999999999999879
 20
11.300000000000011
 30
0.0
 11
2.9000000000000128
 21
11.300000000000011
 31
0.0
  0
LINE
  5
112
100
AcDbEntity
  8
0
  6
CONTINUOUS
 62
               7
100
AcDbLine
 10
-1.8255136263528655
 20
22.050000000000011
 30
0.0
 11
1.8255136263528797
 21
22.050000000000011
 31
0.0
  0
LINE
  5
113
100
AcDbEntity
  8
0
  6
CONTINUOUS
 62
               7
100
AcDbLine
 10
-1.8255136263528584
 20
21.449999999999989
 30
0.0
 11
1.8255136263528797
 21
21.449999999999989
 31
0.0
  0
CIRCLE
  5
114
100
AcDbEntity
  8
0
  6
CONTINUOUS
 62
               7
100
AcDbCircle
 10
0.0000000000000071
 20
21.75
 30
0.0
 40
1.8500000000000001
  0
ARC
  5
115
100
AcDbEntity
  8
0
  6
CONTINUOUS
 62
               7
100
AcDbCircle
 10
0.0000000000000071
 20
21.75
 30
0.0
 40
0.8
100
AcDbArc
 50
202.02431283704175
 51
337.97568716295712
  0
ARC
  5
116
100
AcDbEntity
  8
0
  6
CONTINUOUS
 62
               7
100
AcDbCircle
 10
0.0000000000000071
 20
21.75
 30
0.0
 40
0.8
100
AcDbArc
 50
22.024312837042157
 51
157.97568716295754
  0
CIRCLE
  5
117
100
AcDbEntity
  8
0
  6
CONTINUOUS
 62
               7
100
AcDbCircle
 10
3.5000000000000071
 20
23.5
 30
0.0
 40
1.5
  0
LINE
  5
118
100
AcDbEntity
  8
0
  6
CONTINUOUS
 62
               7
100
AcDbLine
 10
4.2071067811865603
 20
24.207106781186553
 30
0.0
 11
2.7928932188134539
 21
22.792893218813447
 31
0.0
  0
LINE
  5
119
100
AcDbEntity
  8
0
  6
CONTINUOUS
 62
               7
100
AcDbLine
 10
4.2071067811865603
 20
22.792893218813447
 30
0.0
 11
2.7928932188134539
 21
24.207106781186553
 31
0.0
  0
LINE
  5
11A
100
AcDbEntity
  8
0
  6
CONTINUOUS
 62
               7
100
AcDbLine
 10
-4.2071067811865461
 20
22.792893218813447
 30
0.0
 11
-2.7928932188134397
 21
24.207106781186553
 31
0.0
  0
LINE
  5
11B
100
AcDbEntity
  8
0
  6
CONTINUOUS
 62
               7
100
AcDbLine
 10
-4.2071067811865461
 20
24.207106781186553
 30
0.0
 11
-2.7928932188134397
 21
22.792893218813447
 31
0.0
  0
CIRCLE
  5
11C
100
AcDbEntity
  8
0
  6
CONTINUOUS
 62
               7
100
AcDbCircle
 10
-3.4999999999999929
 20
23.5
 30
0.0
 40
1.5
  0
LINE
  5
11D
100
AcDbEntity
  8
0
  6
CONTINUOUS
 62
               7
100
AcDbLine
 10
-4.9999999999999929
 20
32.0
 30
0.0
 11
5.0000000000000071
 21
32.0
 31
0.0
  0
LINE
  5
11E
100
AcDbEntity
  8
0
  6
CONTINUOUS
 62
               7
100
AcDbLine
 10
5.0000000000000071
 20
17.5
 30
0.0
 11
5.0000000000000071
 21
32.0
 31
0.0
  0
LINE
  5
11F
100
AcDbEntity
  8
0
  6
CONTINUOUS
 62
               7
100
AcDbLine
 10
-4.9999999999999929
 20
17.5
 30
0.0
 11
-4.9999999999999929
 21
32.0
 31
0.0
  0
LINE
  5
120
100
AcDbEntity
  8
0
  6
CONTINUOUS
 62
               7
100
AcDbLine
 10
-2.3943704061238904
 20
40.959182548228711
 30
0.0
 11
-2.6499999999999986
 21
41.399999999999892
 31
0.0
  0
LINE
  5
121
100
AcDbEntity
  8
0
  6
CONTINUOUS
 62
               7
100
AcDbLine
 10
2.6500000000000128
 20
41.399999999999892
 30
0.0
 11
2.3943704061239046
 21
40.959182548228739
 31
0.0
  0
LINE
  5
122
100
AcDbEntity
  8
0
  6
CONTINUOUS
 62
               7
100
AcDbLine
 10
-1.1443704061238904
 20
42.209182548228739
 30
0.0
 11
-1.3999999999999986
 21
42.649999999999864
 31
0.0
  0
LINE
  5
123
100
AcDbEntity
  8
0
  6
CONTINUOUS
 62
               7
100
AcDbLine
 10
-2.6499999999999986
 20
41.399999999999892
 30
0.0
 11
-1.3999999999999986
 21
42.649999999999864
 31
0.0
  0
LINE
  5
124
100
AcDbEntity
  8
0
  6
CONTINUOUS
 62
               7
100
AcDbLine
 10
-1.1443704061238904
 20
42.209182548228739
 30
0.0
 11
-2.3943704061238904
 21
40.959182548228711
 31
0.0
  0
LINE
  5
125
100
AcDbEntity
  8
0
  6
CONTINUOUS
 62
               7
100
AcDbLine
 10
1.1443704061239046
 20
42.209182548228739
 30
0.0
 11
1.4000000000000128
 21
42.649999999999864
 31
0.0
  0
LINE
  5
126
100
AcDbEntity
  8
0
  6
CONTINUOUS
 62
               7
100
AcDbLine
 10
5.0000000000000071
 20
48.090817451771045
 30
0.0
 11
-4.9999999999999929
 21
48.090817451771045
 31
0.0
  0
LINE
  5
127
100
AcDbEntity
  8
0
  6
CONTINUOUS
 62
               7
100
AcDbLine
 10
1.1443704061239046
 20
42.209182548228739
 30
0.0
 11
2.3943704061239046
 21
40.959182548228739
 31
0.0
  0
LINE
  5
128
100
AcDbEntity
  8
0
  6
CONTINUOUS
 62
               7
100
AcDbLine
 10
5.0000000000000071
 20
40.959182548228739
 30
0.0
 11
2.3943704061239046
 21
40.959182548228739
 31
0.0
  0
LINE
  5
129
100
AcDbEntity
  8
0
  6
CONTINUOUS
 62
               7
100
AcDbLine
 10
-2.3943704061238904
 20
40.959182548228711
 30
0.0
 11
-4.9999999999999929
 21
40.959182548228711
 31
0.0
  0
LINE
  5
12A
100
AcDbEntity
  8
0
  6
CONTINUOUS
 62
               7
100
AcDbLine
 10
-1.1443704061238904
 20
42.209182548228739
 30
0.0
 11
1.1443704061239046
 21
42.209182548228739
 31
0.0
  0
LINE
  5
12B
100
AcDbEntity
  8
0
  6
CONTINUOUS
 62
               7
100
AcDbLine
 10
5.0000000000000355
 20
41.399999999999892
 30
0.0
 11
2.6500000000000128
 21
41.399999999999892
 31
0.0
  0
LINE
  5
12C
100
AcDbEntity
  8
0
  6
CONTINUOUS
 62
               7
100
AcDbLine
 10
2.6500000000000128
 20
41.399999999999892
 30
0.0
 11
1.4000000000000128
 21
42.649999999999864
 31
0.0
  0
LINE
  5
12D
100
AcDbEntity
  8
0
  6
CONTINUOUS
 62
               7
100
AcDbLine
 10
-1.3999999999999986
 20
42.649999999999864
 30
0.0
 11
1.4000000000000128
 21
42.649999999999864
 31
0.0
  0
LINE
  5
12E
100
AcDbEntity
  8
0
  6
CONTINUOUS
 62
               7
100
AcDbLine
 10
-2.6499999999999986
 20
41.399999999999892
 30
0.0
 11
-4.9999999999999929
 21
41.399999999999892
 31
0.0
  0
CIRCLE
  5
12F
100
AcDbEntity
  8
0
  6
CONTINUOUS
 62
               7
100
AcDbCircle
 10
0.0000000000000071
 20
45.249999999999886
 30
0.0
 40
2.0500000000000003
  0
LINE
  5
130
100
AcDbEntity
  8
0
  6
CONTINUOUS
 62
               7
100
AcDbLine
 10
-4.9999999999999929
 20
48.901921563029987
 30
0.0
 11
5.0000000000000071
 21
48.901921563029987
 31
0.0
  0
LINE
  5
131
100
AcDbEntity
  8
0
  6
CONTINUOUS
 62
               7
100
AcDbLine
 10
5.0000000000000071
 20
49.399999999999864
 30
0.0
 11
-4.9999999999999929
 21
49.399999999999864
 31
0.0
  0
LINE
  5
132
100
AcDbEntity
  8
0
  6
CONTINUOUS
 62
               7
100
AcDbLine
 10
3.5000000000000071
 20
45.099999999999909
 30
0.0
 11
5.0000000000000071
 21
45.099999999999909
 31
0.0
  0
LINE
  5
133
100
AcDbEntity
  8
0
  6
CONTINUOUS
 62
               7
100
AcDbLine
 10
5.0000000000000071
 20
41.899999999999864
 30
0.0
 11
3.5000000000000071
 21
41.899999999999864
 31
0.0
  0
LINE
  5
134
100
AcDbEntity
  8
0
  6
CONTINUOUS
 62
               7
100
AcDbLine
 10
-3.4999999999999929
 20
41.899999999999864
 30
0.0
 11
-4.9999999999999929
 21
41.899999999999864
 31
0.0
  0
LINE
  5
135
100
AcDbEntity
  8
0
  6
CONTINUOUS
 62
               7
100
AcDbLine
 10
-4.9999999999999929
 20
45.099999999999909
 30
0.0
 11
-3.4999999999999929
 21
45.099999999999909
 31
0.0
  0
ARC
  5
136
100
AcDbEntity
  8
0
  6
CONTINUOUS
 62
               7
100
AcDbCircle
 10
-3.4999999999999929
 20
43.499999999999886
 30
0.0
 40
1.6000000000000001
100
AcDbArc
 50
270.00000000000023
 51
89.999999999999844
  0
ARC
  5
137
100
AcDbEntity
  8
0
  6
CONTINUOUS
 62
               7
100
AcDbCircle
 10
3.5000000000000071
 20
43.499999999999886
 30
0.0
 40
1.6000000000000001
100
AcDbArc
 50
89.999999999999815
 51
269.99999999999937
  0
LINE
  5
138
100
AcDbEntity
  8
0
  6
CONTINUOUS
 62
               7
100
AcDbLine
 10
-4.9999999999999929
 20
66.699999999999875
 30
0.0
 11
-4.9999999999999929
 21
49.499999999999886
 31
0.0
  0
LINE
  5
139
100
AcDbEntity
  8
0
  6
CENTER
 62
               2
100
AcDbLine
 10
2.5000000000000071
 20
45.249999999999886
 30
0.0
 11
-2.4999999999999929
 21
45.249999999999886
 31
0.0
  0
LINE
  5
13A
100
AcDbEntity
  8
0
  6
CONTINUOUS
 62
               7
100
AcDbLine
 10
5.0000000000000071
 20
66.699999999999875
 30
0.0
 11
5.0000000000000071
 21
49.499999999999886
 31
0.0
  0
CIRCLE
  5
13B
100
AcDbEntity
  8
0
  6
CONTINUOUS
 62
               7
100
AcDbCircle
 10
0.0000000000000071
 20
45.249999999999886
 30
0.0
 40
1.9000000000000001
  0
LINE
  5
13C
100
AcDbEntity
  8
0
  6
CONTINUOUS
 62
               7
100
AcDbLine
 10
-4.7000000000000099
 20
66.999999999999886
 30
0.0
 11
4.6999999999999957
 21
66.999999999999886
 31
0.0
  0
LINE
  5
13D
100
AcDbEntity
  8
0
  6
CONTINUOUS
 62
               7
100
AcDbLine
 10
5.0000000033238123
 20
49.499999999999886
 30
0.0
 11
-4.9999999966761877
 21
49.499999999999886
 31
0.0
  0
ARC
  5
13E
100
AcDbEntity
  8
0
  6
CONTINUOUS
 62
               7
100
AcDbCircle
 10
-4.7000000000000099
 20
66.699999999999875
 30
0.0
 40
0.3
100
AcDbArc
 50
89.999999999999829
 51
179.99999999999963
  0
ARC
  5
13F
100
AcDbEntity
  8
0
  6
CONTINUOUS
 62
               7
100
AcDbCircle
 10
4.6999999999999957
 20
66.699999999999875
 30
0.0
 40
0.3
100
AcDbArc
 50
0.0000000000000254
 51
89.999999999999829
  0
CIRCLE
  5
140
100
AcDbEntity
  8
0
  6
CONTINUOUS
 62
               7
100
AcDbCircle
 10
-2.8999999999999986
 20
53.699999832063838
 30
0.0
 40
0.875
  0
CIRCLE
  5
141
100
AcDbEntity
  8
0
  6
CONTINUOUS
 62
               7
100
AcDbCircle
 10
2.8999999999999986
 20
53.699999999999875
 30
0.0
 40
0.875
  0
LINE
  5
142
100
AcDbEntity
  8
0
  6
CONTINUOUS
 62
               7
100
AcDbLine
 10
1.5000000000000071
 20
61.999999999999886
 30
0.0
 11
1.5000000000000071
 21
66.999999999999886
 31
0.0
  0
LINE
  5
143
100
AcDbEntity
  8
0
  6
CONTINUOUS
 62
               7
100
AcDbLine
 10
-1.4999999999999929
 20
61.999999999999886
 30
0.0
 11
-1.4999999999999929
 21
66.999999999999886
 31
0.0
  0
LINE
  5
144
100
AcDbEntity
  8
0
  6
CONTINUOUS
 62
               7
100
AcDbLine
 10
-1.4999999999999929
 20
61.999999999999886
 30
0.0
 11
1.5000000000000071
 21
61.999999999999886
 31
0.0
  0
ARC
  5
145
100
AcDbEntity
  8
0
  6
CONTINUOUS
 62
               7
100
AcDbCircle
 10
2.8999999999999986
 20
53.699999999999875
 30
0.0
 40
2.0000000881710069
100
AcDbArc
 50
270.00000000000023
 51
89.999999999999844
  0
ARC
  5
146
100
AcDbEntity
  8
0
  6
CONTINUOUS
 62
               7
100
AcDbCircle
 10
-2.8999999999999986
 20
53.699999999999875
 30
0.0
 40
2.0000000881710069
100
AcDbArc
 50
89.999999999999815
 51
269.99999999999937
  0
LINE
  5
147
100
AcDbEntity
  8
0
  6
CONTINUOUS
 62
               7
100
AcDbLine
 10
2.8999999999999986
 20
51.699999999999875
 30
0.0
 11
-2.8999999999999986
 21
51.699999999999875
 31
0.0
  0
LINE
  5
148
100
AcDbEntity
  8
0
  6
CONTINUOUS
 62
               7
100
AcDbLine
 10
2.8999999999999986
 20
55.699999999999875
 30
0.0
 11
-2.8999999999999986
 21
55.699999999999875
 31
0.0
  0
LINE
  5
149
100
AcDbEntity
  8
0
  6
CONTINUOUS
 62
               7
100
AcDbLine
 10
1.8255136263528797
 20
44.949999999999875
 30
0.0
 11
-1.8255136263528655
 21
44.949999999999875
 31
0.0
  0
LINE
  5
14A
100
AcDbEntity
  8
0
  6
CONTINUOUS
 62
               7
100
AcDbLine
 10
1.8255136263528726
 20
45.549999999999898
 30
0.0
 11
-1.8255136263528655
 21
45.549999999999898
 31
0.0
  0
CIRCLE
  5
14B
100
AcDbEntity
  8
0
  6
CONTINUOUS
 62
               7
100
AcDbCircle
 10
0.0000000000000071
 20
45.249999999999886
 30
0.0
 40
1.8500000000000001
  0
ARC
  5
14C
100
AcDbEntity
  8
0
  6
CONTINUOUS
 62
               7
100
AcDbCircle
 10
0.0000000000000071
 20
45.249999999999886
 30
0.0
 40
0.8
100
AcDbArc
 50
22.024312837042132
 51
157.97568716295751
  0
ARC
  5
14D
100
AcDbEntity
  8
0
  6
CONTINUOUS
 62
               7
100
AcDbCircle
 10
0.0000000000000071
 20
45.249999999999886
 30
0.0
 40
0.8
100
AcDbArc
 50
202.02431283704175
 51
337.97568716295712
  0
CIRCLE
  5
14E
100
AcDbEntity
  8
0
  6
CONTINUOUS
 62
               7
100
AcDbCircle
 10
-3.4999999999999929
 20
43.499999999999886
 30
0.0
 40
1.5
  0
LINE
  5
14F
100
AcDbEntity
  8
0
  6
CONTINUOUS
 62
               7
100
AcDbLine
 10
-4.2071067811865461
 20
42.792893218813333
 30
0.0
 11
-2.7928932188134397
 21
44.20710678118644
 31
0.0
  0
LINE
  5
150
100
AcDbEntity
  8
0
  6
CONTINUOUS
 62
               7
100
AcDbLine
 10
-4.2071067811865461
 20
44.20710678118644
 30
0.0
 11
-2.7928932188134397
 21
42.792893218813333
 31
0.0
  0
LINE
  5
151
100
AcDbEntity
  8
0
  6
CONTINUOUS
 62
               7
100
AcDbLine
 10
4.2071067811865603
 20
44.20710678118644
 30
0.0
 11
2.7928932188134539
 21
42.792893218813333
 31
0.0
  0
LINE
  5
152
100
AcDbEntity
  8
0
  6
CONTINUOUS
 62
               7
100
AcDbLine
 10
4.2071067811865603
 20
42.792893218813333
 30
0.0
 11
2.7928932188134539
 21
44.20710678118644
 31
0.0
  0
CIRCLE
  5
153
100
AcDbEntity
  8
0
  6
CONTINUOUS
 62
               7
100
AcDbCircle
 10
3.5000000000000071
 20
43.499999999999886
 30
0.0
 40
1.5
  0
LINE
  5
154
100
AcDbEntity
  8
0
  6
CONTINUOUS
 62
               7
100
AcDbLine
 10
5.0000000000000071
 20
34.999999999999886
 30
0.0
 11
-4.9999999999999929
 21
34.999999999999886
 31
0.0
  0
LINE
  5
155
100
AcDbEntity
  8
0
  6
CONTINUOUS
 62
               7
100
AcDbLine
 10
-4.9999999999999929
 20
49.499999999999886
 30
0.0
 11
-4.9999999999999929
 21
34.999999999999886
 31
0.0
  0
LINE
  5
156
100
AcDbEntity
  8
0
  6
CONTINUOUS
 62
               7
100
AcDbLine
 10
5.0000000000000071
 20
49.499999999999886
 30
0.0
 11
5.0000000000000071
 21
34.999999999999886
 31
0.0
  0
LINE
  5
157
100
AcDbEntity
  8
0
  6
CONTINUOUS
 62
               7
100
AcDbLine
 10
4.5000000000000071
 20
66.999999999999886
 30
0.0
 11
4.5000000000000071
 21
76.270596614320993
 31
0.0
  0
LINE
  5
158
100
AcDbEntity
  8
0
  6
CONTINUOUS
 62
               7
100
AcDbLine
 10
-0.4999999999999931
 20
66.999999999999886
 30
0.0
 11
-0.4999999999999931
 21
78.162488506212867
 31
0.0
  0
LINE
  5
159
100
AcDbEntity
  8
0
  6
CONTINUOUS
 62
               7
100
AcDbLine
 10
4.5000000000000071
 20
82.934434807571961
 30
0.0
 11
4.5000000000000071
 21
77.270596614320993
 31
0.0
  0
LINE
  5
15A
100
AcDbEntity
  8
0
  6
CONTINUOUS
 62
               7
100
AcDbLine
 10
-0.4999999999999931
 20
82.934434807571961
 30
0.0
 11
-0.4999999999999931
 21
79.162488506212867
 31
0.0
  0
LINE
  5
15B
100
AcDbEntity
  8
0
  6
CONTINUOUS
 62
               2
100
AcDbLine
 10
-1.7519181748148116
 20
79.636187275061729
 30
0.0
 11
5.9686832987654341
 21
76.714878609382708
 31
0.0
  0
LINE
  5
15C
100
AcDbEntity
  8
0
  6
CONTINUOUS
 62
               7
100
AcDbLine
 10
0.1000000000000296
 20
86.5
 30
0.0
 11
0.1000000000000296
 21
91.5
 31
0.0
  0
LINE
  5
15D
100
AcDbEntity
  8
0
  6
CONTINUOUS
 62
               7
100
AcDbLine
 10
0.8999999999999842
 20
86.5
 30
0.0
 11
0.8999999999999842
 21
91.5
 31
0.0
  0
LINE
  5
15E
100
AcDbEntity
  8
0
  6
CONTINUOUS
 62
               7
100
AcDbLine
 10
1.1000000000000296
 20
86.5
 30
0.0
 11
1.1000000000000296
 21
91.5
 31
0.0
  0
LINE
  5
15F
100
AcDbEntity
  8
0
  6
CONTINUOUS
 62
               7
100
AcDbLine
 10
1.8999999999999841
 20
86.5
 30
0.0
 11
1.8999999999999841
 21
91.5
 31
0.0
  0
LINE
  5
160
100
AcDbEntity
  8
0
  6
CONTINUOUS
 62
               7
100
AcDbLine
 10
2.1000000000000298
 20
86.5
 30
0.0
 11
2.1000000000000298
 21
91.5
 31
0.0
  0
LINE
  5
161
100
AcDbEntity
  8
0
  6
CONTINUOUS
 62
               7
100
AcDbLine
 10
2.8999999999999844
 20
86.5
 30
0.0
 11
2.8999999999999844
 21
91.5
 31
0.0
  0
LINE
  5
162
100
AcDbEntity
  8
0
  6
CONTINUOUS
 62
               7
100
AcDbLine
 10
3.1000000000000298
 20
86.5
 30
0.0
 11
3.1000000000000298
 21
91.5
 31
0.0
  0
LINE
  5
163
100
AcDbEntity
  8
0
  6
CONTINUOUS
 62
               7
100
AcDbLine
 10
3.8999999999999844
 20
86.5
 30
0.0
 11
3.8999999999999844
 21
91.5
 31
0.0
  0
LINE
  5
164
100
AcDbEntity
  8
0
  6
CONTINUOUS
 62
               7
100
AcDbLine
 10
-0.4999999999999931
 20
82.934434807571961
 30
0.0
 11
4.5000000000000071
 21
82.934434807571961
 31
0.0
  0
LINE
  5
165
100
AcDbEntity
  8
0
  6
CONTINUOUS
 62
               7
100
AcDbLine
 10
4.2149999999999253
 20
86.5
 30
0.0
 11
-0.215000000000025
 21
86.5
 31
0.0
  0
LINE
  5
166
100
AcDbEntity
  8
0
  6
CONTINUOUS
 62
               7
100
AcDbLine
 10
4.2149999999999253
 20
82.934434807571961
 30
0.0
 11
4.2149999999999253
 21
86.5
 31
0.0
  0
LINE
  5
167
100
AcDbEntity
  8
0
  6
CONTINUOUS
 62
               7
100
AcDbLine
 10
2.7849999999999753
 20
82.934434807571961
 30
0.0
 11
2.7849999999999753
 21
86.5
 31
0.0
  0
LINE
  5
168
100
AcDbEntity
  8
0
  6
CONTINUOUS
 62
               7
100
AcDbLine
 10
1.7849999999999751
 20
82.934434807571961
 30
0.0
 11
1.7849999999999751
 21
86.5
 31
0.0
  0
LINE
  5
169
100
AcDbEntity
  8
0
  6
CONTINUOUS
 62
               7
100
AcDbLine
 10
0.7849999999999751
 20
82.934434807571961
 30
0.0
 11
0.7849999999999751
 21
86.5
 31
0.0
  0
LINE
  5
16A
100
AcDbEntity
  8
0
  6
CONTINUOUS
 62
               7
100
AcDbLine
 10
-0.215000000000025
 20
82.934434807571961
 30
0.0
 11
-0.215000000000025
 21
86.5
 31
0.0
  0
LINE
  5
16B
100
AcDbEntity
  8
0
  6
CONTINUOUS
 62
               7
100
AcDbLine
 10
3.8999999999999844
 20
91.5
 30
0.0
 11
3.1000000000000298
 21
91.5
 31
0.0
  0
LINE
  5
16C
100
AcDbEntity
  8
0
  6
CONTINUOUS
 62
               7
100
AcDbLine
 10
2.8999999999999844
 20
91.5
 30
0.0
 11
2.1000000000000298
 21
91.5
 31
0.0
  0
LINE
  5
16D
100
AcDbEntity
  8
0
  6
CONTINUOUS
 62
               7
100
AcDbLine
 10
1.8999999999999841
 20
91.5
 30
0.0
 11
1.1000000000000296
 21
91.5
 31
0.0
  0
LINE
  5
16E
100
AcDbEntity
  8
0
  6
CONTINUOUS
 62
               7
100
AcDbLine
 10
0.8999999999999842
 20
91.5
 30
0.0
 11
0.1000000000000296
 21
91.5
 31
0.0
  0
LINE
  5
16F
100
AcDbEntity
  8
0
  6
CONTINUOUS
 62
               2
100
AcDbLine
 10
-1.7519181748148116
 20
78.636187275061729
 30
0.0
 11
5.9686832987654341
 21
75.714878609382708
 31
0.0
  0
ENDBLK
  5
170
100
AcDbEntity
  8
0
100
AcDbBlockEnd
  0
BLOCK
  5
171
100
AcDbEntity
  8
0
100
AcDbBlockBegin
  2
MV090MAS-5
 70
               0
 10
0.0
 20
0.0
 30
0.0
  3
MV090MAS-5
  1

  0
LINE
  5
172
100
AcDbEntity
  8
0
  6
CONTINUOUS
 62
               7
100
AcDbLine
 10
5.0000000000000071
 20
49.499999999999886
 30
0.0
 11
5.0000000000000071
 21
34.999999999999886
 31
0.0
  0
LINE
  5
173
100
AcDbEntity
  8
0
  6
CONTINUOUS
 62
               7
100
AcDbLine
 10
-4.9999999999999929
 20
49.499999999999886
 30
0.0
 11
-4.9999999999999929
 21
34.999999999999886
 31
0.0
  0
LINE
  5
174
100
AcDbEntity
  8
0
  6
CONTINUOUS
 62
               7
100
AcDbLine
 10
5.0000000000000071
 20
34.999999999999886
 30
0.0
 11
-4.9999999999999929
 21
34.999999999999886
 31
0.0
  0
CIRCLE
  5
175
100
AcDbEntity
  8
0
  6
CONTINUOUS
 62
               7
100
AcDbCircle
 10
3.5000000000000071
 20
43.499999999999886
 30
0.0
 40
1.5
  0
LINE
  5
176
100
AcDbEntity
  8
0
  6
CONTINUOUS
 62
               7
100
AcDbLine
 10
4.2071067811865603
 20
42.792893218813333
 30
0.0
 11
2.7928932188134539
 21
44.20710678118644
 31
0.0
  0
LINE
  5
177
100
AcDbEntity
  8
0
  6
CONTINUOUS
 62
               7
100
AcDbLine
 10
4.2071067811865603
 20
44.20710678118644
 30
0.0
 11
2.7928932188134539
 21
42.792893218813333
 31
0.0
  0
LINE
  5
178
100
AcDbEntity
  8
0
  6
CONTINUOUS
 62
               7
100
AcDbLine
 10
-4.2071067811865461
 20
44.20710678118644
 30
0.0
 11
-2.7928932188134397
 21
42.792893218813333
 31
0.0
  0
LINE
  5
179
100
AcDbEntity
  8
0
  6
CONTINUOUS
 62
               7
100
AcDbLine
 10
-4.2071067811865461
 20
42.792893218813333
 30
0.0
 11
-2.7928932188134397
 21
44.20710678118644
 31
0.0
  0
CIRCLE
  5
17A
100
AcDbEntity
  8
0
  6
CONTINUOUS
 62
               7
100
AcDbCircle
 10
-3.4999999999999929
 20
43.499999999999886
 30
0.0
 40
1.5
  0
ARC
  5
17B
100
AcDbEntity
  8
0
  6
CONTINUOUS
 62
               7
100
AcDbCircle
 10
0.0000000000000069
 20
45.249999999999886
 30
0.0
 40
0.8
100
AcDbArc
 50
202.02431283704175
 51
337.97568716295712
  0
ARC
  5
17C
100
AcDbEntity
  8
0
  6
CONTINUOUS
 62
               7
100
AcDbCircle
 10
0.0000000000000069
 20
45.249999999999886
 30
0.0
 40
0.8
100
AcDbArc
 50
22.024312837042132
 51
157.97568716295751
  0
CIRCLE
  5
17D
100
AcDbEntity
  8
0
  6
CONTINUOUS
 62
               7
100
AcDbCircle
 10
0.0000000000000069
 20
45.249999999999886
 30
0.0
 40
1.8500000000000001
  0
LINE
  5
17E
100
AcDbEntity
  8
0
  6
CONTINUOUS
 62
               7
100
AcDbLine
 10
1.8255136263528724
 20
45.549999999999898
 30
0.0
 11
-1.8255136263528657
 21
45.549999999999898
 31
0.0
  0
LINE
  5
17F
100
AcDbEntity
  8
0
  6
CONTINUOUS
 62
               7
100
AcDbLine
 10
1.8255136263528795
 20
44.949999999999875
 30
0.0
 11
-1.8255136263528657
 21
44.949999999999875
 31
0.0
  0
LINE
  5
180
100
AcDbEntity
  8
0
  6
CONTINUOUS
 62
               7
100
AcDbLine
 10
2.8999999999999986
 20
55.699999999999875
 30
0.0
 11
-2.8999999999999986
 21
55.699999999999875
 31
0.0
  0
LINE
  5
181
100
AcDbEntity
  8
0
  6
CONTINUOUS
 62
               7
100
AcDbLine
 10
2.8999999999999986
 20
51.699999999999875
 30
0.0
 11
-2.8999999999999986
 21
51.699999999999875
 31
0.0
  0
ARC
  5
182
100
AcDbEntity
  8
0
  6
CONTINUOUS
 62
               7
100
AcDbCircle
 10
-2.8999999999999986
 20
53.699999999999875
 30
0.0
 40
2.0000000881710069
100
AcDbArc
 50
89.999999999999815
 51
269.99999999999937
  0
ARC
  5
183
100
AcDbEntity
  8
0
  6
CONTINUOUS
 62
               7
100
AcDbCircle
 10
2.8999999999999986
 20
53.699999999999875
 30
0.0
 40
2.0000000881710069
100
AcDbArc
 50
270.00000000000023
 51
89.999999999999844
  0
LINE
  5
184
100
AcDbEntity
  8
0
  6
CONTINUOUS
 62
               7
100
AcDbLine
 10
-1.4999999999999931
 20
61.999999999999886
 30
0.0
 11
1.5000000000000069
 21
61.999999999999886
 31
0.0
  0
LINE
  5
185
100
AcDbEntity
  8
0
  6
CONTINUOUS
 62
               7
100
AcDbLine
 10
-1.4999999999999931
 20
61.999999999999886
 30
0.0
 11
-1.4999999999999931
 21
66.999999999999886
 31
0.0
  0
LINE
  5
186
100
AcDbEntity
  8
0
  6
CONTINUOUS
 62
               7
100
AcDbLine
 10
1.5000000000000069
 20
61.999999999999886
 30
0.0
 11
1.5000000000000069
 21
66.999999999999886
 31
0.0
  0
CIRCLE
  5
187
100
AcDbEntity
  8
0
  6
CONTINUOUS
 62
               7
100
AcDbCircle
 10
2.8999999999999986
 20
53.699999999999875
 30
0.0
 40
0.875
  0
CIRCLE
  5
188
100
AcDbEntity
  8
0
  6
CONTINUOUS
 62
               7
100
AcDbCircle
 10
-2.8999999999999986
 20
53.699999832063838
 30
0.0
 40
0.875
  0
ARC
  5
189
100
AcDbEntity
  8
0
  6
CONTINUOUS
 62
               7
100
AcDbCircle
 10
4.6999999999999957
 20
66.699999999999875
 30
0.0
 40
0.3
100
AcDbArc
 50
0.0000000000000254
 51
89.999999999999829
  0
ARC
  5
18A
100
AcDbEntity
  8
0
  6
CONTINUOUS
 62
               7
100
AcDbCircle
 10
-4.7000000000000099
 20
66.699999999999875
 30
0.0
 40
0.3
100
AcDbArc
 50
89.999999999999829
 51
179.99999999999963
  0
LINE
  5
18B
100
AcDbEntity
  8
0
  6
CONTINUOUS
 62
               7
100
AcDbLine
 10
5.0000000033238123
 20
49.499999999999886
 30
0.0
 11
-4.9999999966761877
 21
49.499999999999886
 31
0.0
  0
LINE
  5
18C
100
AcDbEntity
  8
0
  6
CONTINUOUS
 62
               7
100
AcDbLine
 10
-4.7000000000000099
 20
66.999999999999886
 30
0.0
 11
4.6999999999999957
 21
66.999999999999886
 31
0.0
  0
CIRCLE
  5
18D
100
AcDbEntity
  8
0
  6
CONTINUOUS
 62
               7
100
AcDbCircle
 10
0.0000000000000069
 20
45.249999999999886
 30
0.0
 40
1.9000000000000001
  0
LINE
  5
18E
100
AcDbEntity
  8
0
  6
CONTINUOUS
 62
               7
100
AcDbLine
 10
5.0000000000000071
 20
66.699999999999875
 30
0.0
 11
5.0000000000000071
 21
49.499999999999886
 31
0.0
  0
LINE
  5
18F
100
AcDbEntity
  8
0
  6
CENTER
 62
               2
100
AcDbLine
 10
2.5000000000000071
 20
45.249999999999886
 30
0.0
 11
-2.4999999999999929
 21
45.249999999999886
 31
0.0
  0
LINE
  5
190
100
AcDbEntity
  8
0
  6
CONTINUOUS
 62
               7
100
AcDbLine
 10
-4.9999999999999929
 20
66.699999999999875
 30
0.0
 11
-4.9999999999999929
 21
49.499999999999886
 31
0.0
  0
ARC
  5
191
100
AcDbEntity
  8
0
  6
CONTINUOUS
 62
               7
100
AcDbCircle
 10
3.5000000000000071
 20
43.499999999999886
 30
0.0
 40
1.6000000000000001
100
AcDbArc
 50
89.999999999999815
 51
269.99999999999937
  0
ARC
  5
192
100
AcDbEntity
  8
0
  6
CONTINUOUS
 62
               7
100
AcDbCircle
 10
-3.4999999999999929
 20
43.499999999999886
 30
0.0
 40
1.6000000000000001
100
AcDbArc
 50
270.00000000000023
 51
89.999999999999844
  0
LINE
  5
193
100
AcDbEntity
  8
0
  6
CONTINUOUS
 62
               7
100
AcDbLine
 10
-4.9999999999999929
 20
45.099999999999909
 30
0.0
 11
-3.4999999999999929
 21
45.099999999999909
 31
0.0
  0
LINE
  5
194
100
AcDbEntity
  8
0
  6
CONTINUOUS
 62
               7
100
AcDbLine
 10
-3.4999999999999929
 20
41.899999999999864
 30
0.0
 11
-4.9999999999999929
 21
41.899999999999864
 31
0.0
  0
LINE
  5
195
100
AcDbEntity
  8
0
  6
CONTINUOUS
 62
               7
100
AcDbLine
 10
5.0000000000000071
 20
41.899999999999864
 30
0.0
 11
3.5000000000000071
 21
41.899999999999864
 31
0.0
  0
LINE
  5
196
100
AcDbEntity
  8
0
  6
CONTINUOUS
 62
               7
100
AcDbLine
 10
3.5000000000000071
 20
45.099999999999909
 30
0.0
 11
5.0000000000000071
 21
45.099999999999909
 31
0.0
  0
LINE
  5
197
100
AcDbEntity
  8
0
  6
CONTINUOUS
 62
               7
100
AcDbLine
 10
5.0000000000000071
 20
49.399999999999864
 30
0.0
 11
-4.9999999999999929
 21
49.399999999999864
 31
0.0
  0
LINE
  5
198
100
AcDbEntity
  8
0
  6
CONTINUOUS
 62
               7
100
AcDbLine
 10
-4.9999999999999929
 20
48.901921563029987
 30
0.0
 11
5.0000000000000071
 21
48.901921563029987
 31
0.0
  0
CIRCLE
  5
199
100
AcDbEntity
  8
0
  6
CONTINUOUS
 62
               7
100
AcDbCircle
 10
0.0000000000000069
 20
45.249999999999886
 30
0.0
 40
2.0500000000000003
  0
LINE
  5
19A
100
AcDbEntity
  8
0
  6
CONTINUOUS
 62
               7
100
AcDbLine
 10
-2.6499999999999986
 20
41.399999999999892
 30
0.0
 11
-4.9999999999999929
 21
41.399999999999892
 31
0.0
  0
LINE
  5
19B
100
AcDbEntity
  8
0
  6
CONTINUOUS
 62
               7
100
AcDbLine
 10
-1.3999999999999988
 20
42.649999999999864
 30
0.0
 11
1.4000000000000126
 21
42.649999999999864
 31
0.0
  0
LINE
  5
19C
100
AcDbEntity
  8
0
  6
CONTINUOUS
 62
               7
100
AcDbLine
 10
2.6500000000000128
 20
41.399999999999892
 30
0.0
 11
1.4000000000000126
 21
42.649999999999864
 31
0.0
  0
LINE
  5
19D
100
AcDbEntity
  8
0
  6
CONTINUOUS
 62
               7
100
AcDbLine
 10
5.0000000000000355
 20
41.399999999999892
 30
0.0
 11
2.6500000000000128
 21
41.399999999999892
 31
0.0
  0
LINE
  5
19E
100
AcDbEntity
  8
0
  6
CONTINUOUS
 62
               7
100
AcDbLine
 10
-1.1443704061238906
 20
42.209182548228739
 30
0.0
 11
1.1443704061239044
 21
42.209182548228739
 31
0.0
  0
LINE
  5
19F
100
AcDbEntity
  8
0
  6
CONTINUOUS
 62
               7
100
AcDbLine
 10
-2.3943704061238904
 20
40.959182548228711
 30
0.0
 11
-4.9999999999999929
 21
40.959182548228711
 31
0.0
  0
LINE
  5
1A0
100
AcDbEntity
  8
0
  6
CONTINUOUS
 62
               7
100
AcDbLine
 10
5.0000000000000071
 20
40.959182548228739
 30
0.0
 11
2.3943704061239046
 21
40.959182548228739
 31
0.0
  0
LINE
  5
1A1
100
AcDbEntity
  8
0
  6
CONTINUOUS
 62
               7
100
AcDbLine
 10
1.1443704061239044
 20
42.209182548228739
 30
0.0
 11
2.3943704061239046
 21
40.959182548228739
 31
0.0
  0
LINE
  5
1A2
100
AcDbEntity
  8
0
  6
CONTINUOUS
 62
               7
100
AcDbLine
 10
5.0000000000000071
 20
48.090817451771045
 30
0.0
 11
-4.9999999999999929
 21
48.090817451771045
 31
0.0
  0
LINE
  5
1A3
100
AcDbEntity
  8
0
  6
CONTINUOUS
 62
               7
100
AcDbLine
 10
1.1443704061239044
 20
42.209182548228739
 30
0.0
 11
1.4000000000000126
 21
42.649999999999864
 31
0.0
  0
LINE
  5
1A4
100
AcDbEntity
  8
0
  6
CONTINUOUS
 62
               7
100
AcDbLine
 10
-1.1443704061238906
 20
42.209182548228739
 30
0.0
 11
-2.3943704061238904
 21
40.959182548228711
 31
0.0
  0
LINE
  5
1A5
100
AcDbEntity
  8
0
  6
CONTINUOUS
 62
               7
100
AcDbLine
 10
-2.6499999999999986
 20
41.399999999999892
 30
0.0
 11
-1.3999999999999988
 21
42.649999999999864
 31
0.0
  0
LINE
  5
1A6
100
AcDbEntity
  8
0
  6
CONTINUOUS
 62
               7
100
AcDbLine
 10
-1.1443704061238906
 20
42.209182548228739
 30
0.0
 11
-1.3999999999999988
 21
42.649999999999864
 31
0.0
  0
LINE
  5
1A7
100
AcDbEntity
  8
0
  6
CONTINUOUS
 62
               7
100
AcDbLine
 10
2.6500000000000128
 20
41.399999999999892
 30
0.0
 11
2.3943704061239046
 21
40.959182548228739
 31
0.0
  0
LINE
  5
1A8
100
AcDbEntity
  8
0
  6
CONTINUOUS
 62
               7
100
AcDbLine
 10
-2.3943704061238904
 20
40.959182548228711
 30
0.0
 11
-2.6499999999999986
 21
41.399999999999892
 31
0.0
  0
LINE
  5
1A9
100
AcDbEntity
  8
0
  6
CONTINUOUS
 62
               7
100
AcDbLine
 10
-4.9999999999999929
 20
17.5
 30
0.0
 11
-4.9999999999999929
 21
32.0
 31
0.0
  0
LINE
  5
1AA
100
AcDbEntity
  8
0
  6
CONTINUOUS
 62
               7
100
AcDbLine
 10
5.0000000000000071
 20
17.5
 30
0.0
 11
5.0000000000000071
 21
32.0
 31
0.0
  0
LINE
  5
1AB
100
AcDbEntity
  8
0
  6
CONTINUOUS
 62
               7
100
AcDbLine
 10
-4.9999999999999929
 20
32.0
 30
0.0
 11
5.0000000000000071
 21
32.0
 31
0.0
  0
CIRCLE
  5
1AC
100
AcDbEntity
  8
0
  6
CONTINUOUS
 62
               7
100
AcDbCircle
 10
-3.4999999999999929
 20
23.5
 30
0.0
 40
1.5
  0
LINE
  5
1AD
100
AcDbEntity
  8
0
  6
CONTINUOUS
 62
               7
100
AcDbLine
 10
-4.2071067811865461
 20
24.207106781186553
 30
0.0
 11
-2.7928932188134397
 21
22.792893218813447
 31
0.0
  0
LINE
  5
1AE
100
AcDbEntity
  8
0
  6
CONTINUOUS
 62
               7
100
AcDbLine
 10
-4.2071067811865461
 20
22.792893218813447
 30
0.0
 11
-2.7928932188134397
 21
24.207106781186553
 31
0.0
  0
LINE
  5
1AF
100
AcDbEntity
  8
0
  6
CONTINUOUS
 62
               7
100
AcDbLine
 10
4.2071067811865603
 20
22.792893218813447
 30
0.0
 11
2.7928932188134539
 21
24.207106781186553
 31
0.0
  0
LINE
  5
1B0
100
AcDbEntity
  8
0
  6
CONTINUOUS
 62
               7
100
AcDbLine
 10
4.2071067811865603
 20
24.207106781186553
 30
0.0
 11
2.7928932188134539
 21
22.792893218813447
 31
0.0
  0
CIRCLE
  5
1B1
100
AcDbEntity
  8
0
  6
CONTINUOUS
 62
               7
100
AcDbCircle
 10
3.5000000000000071
 20
23.5
 30
0.0
 40
1.5
  0
ARC
  5
1B2
100
AcDbEntity
  8
0
  6
CONTINUOUS
 62
               7
100
AcDbCircle
 10
0.0000000000000069
 20
21.75
 30
0.0
 40
0.8
100
AcDbArc
 50
22.024312837042157
 51
157.97568716295754
  0
ARC
  5
1B3
100
AcDbEntity
  8
0
  6
CONTINUOUS
 62
               7
100
AcDbCircle
 10
0.0000000000000069
 20
21.75
 30
0.0
 40
0.8
100
AcDbArc
 50
202.02431283704175
 51
337.97568716295712
  0
CIRCLE
  5
1B4
100
AcDbEntity
  8
0
  6
CONTINUOUS
 62
               7
100
AcDbCircle
 10
0.0000000000000069
 20
21.75
 30
0.0
 40
1.8500000000000001
  0
LINE
  5
1B5
100
AcDbEntity
  8
0
  6
CONTINUOUS
 62
               7
100
AcDbLine
 10
-1.8255136263528586
 20
21.449999999999989
 30
0.0
 11
1.8255136263528795
 21
21.449999999999989
 31
0.0
  0
LINE
  5
1B6
100
AcDbEntity
  8
0
  6
CONTINUOUS
 62
               7
100
AcDbLine
 10
-1.8255136263528657
 20
22.050000000000011
 30
0.0
 11
1.8255136263528795
 21
22.050000000000011
 31
0.0
  0
LINE
  5
1B7
100
AcDbEntity
  8
0
  6
CONTINUOUS
 62
               7
100
AcDbLine
 10
-2.8999999999999879
 20
11.300000000000011
 30
0.0
 11
2.9000000000000128
 21
11.300000000000011
 31
0.0
  0
LINE
  5
1B8
100
AcDbEntity
  8
0
  6
CONTINUOUS
 62
               7
100
AcDbLine
 10
-2.8999999999999879
 20
15.300000000000011
 30
0.0
 11
2.9000000000000128
 21
15.300000000000011
 31
0.0
  0
ARC
  5
1B9
100
AcDbEntity
  8
0
  6
CONTINUOUS
 62
               7
100
AcDbCircle
 10
2.9000000000000128
 20
13.300000000000011
 30
0.0
 40
2.0000000881710069
100
AcDbArc
 50
270.00000000000023
 51
89.999999999999801
  0
ARC
  5
1BA
100
AcDbEntity
  8
0
  6
CONTINUOUS
 62
               7
100
AcDbCircle
 10
-2.8999999999999879
 20
13.300000000000011
 30
0.0
 40
2.0000000881710069
100
AcDbArc
 50
89.999999999999815
 51
269.99999999999937
  0
LINE
  5
1BB
100
AcDbEntity
  8
0
  6
CONTINUOUS
 62
               7
100
AcDbLine
 10
1.5000000000000069
 20
5.0
 30
0.0
 11
-1.4999999999999967
 21
5.0
 31
0.0
  0
LINE
  5
1BC
100
AcDbEntity
  8
0
  6
CONTINUOUS
 62
               7
100
AcDbLine
 10
1.5000000000000069
 20
5.0
 30
0.0
 11
1.4999999999999998
 21
0.0
 31
0.0
  0
LINE
  5
1BD
100
AcDbEntity
  8
0
  6
CONTINUOUS
 62
               7
100
AcDbLine
 10
-1.4999999999999967
 20
5.0
 30
0.0
 11
-1.4999999999999967
 21
0.0
 31
0.0
  0
CIRCLE
  5
1BE
100
AcDbEntity
  8
0
  6
CONTINUOUS
 62
               7
100
AcDbCircle
 10
-2.8999999999999879
 20
13.300000000000011
 30
0.0
 40
0.875
  0
CIRCLE
  5
1BF
100
AcDbEntity
  8
0
  6
CONTINUOUS
 62
               7
100
AcDbCircle
 10
2.9000000000000128
 20
13.300000167936048
 30
0.0
 40
0.875
  0
ARC
  5
1C0
100
AcDbEntity
  8
0
  6
CONTINUOUS
 62
               7
100
AcDbCircle
 10
-4.6999999999999851
 20
0.3000000000000114
 30
0.0
 40
0.3
100
AcDbArc
 50
179.99999999999963
 51
269.99999999999937
  0
ARC
  5
1C1
100
AcDbEntity
  8
0
  6
CONTINUOUS
 62
               7
100
AcDbCircle
 10
4.7000000000000242
 20
0.3000000000000114
 30
0.0
 40
0.3
100
AcDbArc
 50
269.99999999999937
 51
0.0
  0
LINE
  5
1C2
100
AcDbEntity
  8
0
  6
CONTINUOUS
 62
               7
100
AcDbLine
 10
-5.0000000033237981
 20
17.5
 30
0.0
 11
4.9999999966762019
 21
17.5
 31
0.0
  0
LINE
  5
1C3
100
AcDbEntity
  8
0
  6
CONTINUOUS
 62
               7
100
AcDbLine
 10
4.7000000000000242
 20
0.0
 30
0.0
 11
-4.6999999999999851
 21
0.0
 31
0.0
  0
CIRCLE
  5
1C4
100
AcDbEntity
  8
0
  6
CONTINUOUS
 62
               7
100
AcDbCircle
 10
0.0000000000000069
 20
21.75
 30
0.0
 40
1.9000000000000001
  0
LINE
  5
1C5
100
AcDbEntity
  8
0
  6
CONTINUOUS
 62
               7
100
AcDbLine
 10
-4.9999999999999964
 20
0.3000000000000114
 30
0.0
 11
-4.9999999999999929
 21
17.5
 31
0.0
  0
LINE
  5
1C6
100
AcDbEntity
  8
0
  6
CENTER
 62
               2
100
AcDbLine
 10
-2.4999999999999929
 20
21.75
 30
0.0
 11
2.5000000000000071
 21
21.75
 31
0.0
  0
LINE
  5
1C7
100
AcDbEntity
  8
0
  6
CONTINUOUS
 62
               7
100
AcDbLine
 10
5.0000000000000071
 20
0.3000000000000114
 30
0.0
 11
5.0000000000000071
 21
17.5
 31
0.0
  0
ARC
  5
1C8
100
AcDbEntity
  8
0
  6
CONTINUOUS
 62
               7
100
AcDbCircle
 10
-3.4999999999999929
 20
23.5
 30
0.0
 40
1.6000000000000001
100
AcDbArc
 50
270.00000000000023
 51
89.999999999999801
  0
ARC
  5
1C9
100
AcDbEntity
  8
0
  6
CONTINUOUS
 62
               7
100
AcDbCircle
 10
3.5000000000000071
 20
23.5
 30
0.0
 40
1.6000000000000001
100
AcDbArc
 50
89.999999999999815
 51
269.99999999999937
  0
LINE
  5
1CA
100
AcDbEntity
  8
0
  6
CONTINUOUS
 62
               7
100
AcDbLine
 10
5.0000000000000071
 20
21.899999999999977
 30
0.0
 11
3.5000000000000071
 21
21.899999999999977
 31
0.0
  0
LINE
  5
1CB
100
AcDbEntity
  8
0
  6
CONTINUOUS
 62
               7
100
AcDbLine
 10
3.5000000000000071
 20
25.100000000000023
 30
0.0
 11
5.0000000000000071
 21
25.100000000000023
 31
0.0
  0
LINE
  5
1CC
100
AcDbEntity
  8
0
  6
CONTINUOUS
 62
               7
100
AcDbLine
 10
-4.9999999999999929
 20
25.100000000000023
 30
0.0
 11
-3.4999999999999929
 21
25.100000000000023
 31
0.0
  0
LINE
  5
1CD
100
AcDbEntity
  8
0
  6
CONTINUOUS
 62
               7
100
AcDbLine
 10
-3.4999999999999929
 20
21.899999999999977
 30
0.0
 11
-4.9999999999999929
 21
21.899999999999977
 31
0.0
  0
LINE
  5
1CE
100
AcDbEntity
  8
0
  6
CONTINUOUS
 62
               7
100
AcDbLine
 10
-4.9999999999999929
 20
17.600000000000023
 30
0.0
 11
5.0000000000000071
 21
17.600000000000023
 31
0.0
  0
LINE
  5
1CF
100
AcDbEntity
  8
0
  6
CONTINUOUS
 62
               7
100
AcDbLine
 10
5.0000000000000071
 20
18.098078436969899
 30
0.0
 11
-4.9999999999999929
 21
18.098078436969899
 31
0.0
  0
CIRCLE
  5
1D0
100
AcDbEntity
  8
0
  6
CONTINUOUS
 62
               7
100
AcDbCircle
 10
0.0000000000000069
 20
21.75
 30
0.0
 40
2.0500000000000003
  0
LINE
  5
1D1
100
AcDbEntity
  8
0
  6
CONTINUOUS
 62
               7
100
AcDbLine
 10
2.6500000000000128
 20
25.599999999999994
 30
0.0
 11
5.0000000000000071
 21
25.599999999999994
 31
0.0
  0
LINE
  5
1D2
100
AcDbEntity
  8
0
  6
CONTINUOUS
 62
               7
100
AcDbLine
 10
1.4000000000000126
 20
24.350000000000023
 30
0.0
 11
-1.3999999999999988
 21
24.350000000000023
 31
0.0
  0
LINE
  5
1D3
100
AcDbEntity
  8
0
  6
CONTINUOUS
 62
               7
100
AcDbLine
 10
-2.6499999999999986
 20
25.599999999999994
 30
0.0
 11
-1.3999999999999988
 21
24.350000000000023
 31
0.0
  0
LINE
  5
1D4
100
AcDbEntity
  8
0
  6
CONTINUOUS
 62
               7
100
AcDbLine
 10
-5.0000000000000213
 20
25.599999999999994
 30
0.0
 11
-2.6499999999999986
 21
25.599999999999994
 31
0.0
  0
LINE
  5
1D5
100
AcDbEntity
  8
0
  6
CONTINUOUS
 62
               7
100
AcDbLine
 10
1.1443704061239044
 20
24.790817451771147
 30
0.0
 11
-1.1443704061238906
 21
24.790817451771147
 31
0.0
  0
LINE
  5
1D6
100
AcDbEntity
  8
0
  6
CONTINUOUS
 62
               7
100
AcDbLine
 10
2.3943704061239046
 20
26.040817451771176
 30
0.0
 11
5.0000000000000071
 21
26.040817451771176
 31
0.0
  0
LINE
  5
1D7
100
AcDbEntity
  8
0
  6
CONTINUOUS
 62
               7
100
AcDbLine
 10
-4.9999999999999929
 20
26.040817451771147
 30
0.0
 11
-2.3943704061238904
 21
26.040817451771147
 31
0.0
  0
LINE
  5
1D8
100
AcDbEntity
  8
0
  6
CONTINUOUS
 62
               7
100
AcDbLine
 10
-1.1443704061238906
 20
24.790817451771147
 30
0.0
 11
-2.3943704061238904
 21
26.040817451771147
 31
0.0
  0
LINE
  5
1D9
100
AcDbEntity
  8
0
  6
CONTINUOUS
 62
               7
100
AcDbLine
 10
-4.9999999999999929
 20
18.909182548228841
 30
0.0
 11
5.0000000000000071
 21
18.909182548228841
 31
0.0
  0
LINE
  5
1DA
100
AcDbEntity
  8
0
  6
CONTINUOUS
 62
               7
100
AcDbLine
 10
-1.1443704061238906
 20
24.790817451771147
 30
0.0
 11
-1.3999999999999988
 21
24.350000000000023
 31
0.0
  0
LINE
  5
1DB
100
AcDbEntity
  8
0
  6
CONTINUOUS
 62
               7
100
AcDbLine
 10
1.1443704061239044
 20
24.790817451771147
 30
0.0
 11
2.3943704061239046
 21
26.040817451771176
 31
0.0
  0
LINE
  5
1DC
100
AcDbEntity
  8
0
  6
CONTINUOUS
 62
               7
100
AcDbLine
 10
2.6500000000000128
 20
25.599999999999994
 30
0.0
 11
1.4000000000000126
 21
24.350000000000023
 31
0.0
  0
LINE
  5
1DD
100
AcDbEntity
  8
0
  6
CONTINUOUS
 62
               7
100
AcDbLine
 10
1.1443704061239044
 20
24.790817451771147
 30
0.0
 11
1.4000000000000126
 21
24.350000000000023
 31
0.0
  0
LINE
  5
1DE
100
AcDbEntity
  8
0
  6
CONTINUOUS
 62
               7
100
AcDbLine
 10
-2.6499999999999986
 20
25.599999999999994
 30
0.0
 11
-2.3943704061238904
 21
26.040817451771147
 31
0.0
  0
LINE
  5
1DF
100
AcDbEntity
  8
0
  6
CONTINUOUS
 62
               7
100
AcDbLine
 10
2.3943704061239046
 20
26.040817451771176
 30
0.0
 11
2.6500000000000128
 21
25.599999999999994
 31
0.0
  0
LINE
  5
1E0
100
AcDbEntity
  8
0
  6
CENTER
 62
               2
100
AcDbLine
 10
0.0000000000000069
 20
69.136052925234992
 30
0.0
 11
-0.0000000000000002
 21
-2.1360529252351057
 31
0.0
  0
ENDBLK
  5
1E1
100
AcDbEntity
  8
0
100
AcDbBlockEnd
  0
BLOCK
  5
1E2
100
AcDbEntity
  8
0
100
AcDbBlockBegin
  2
MV090MAS-6
 70
               0
 10
0.0
 20
0.0
 30
0.0
  3
MV090MAS-6
  1

  0
LINE
  5
1E3
100
AcDbEntity
  8
0
  6
CENTER
 62
               2
100
AcDbLine
 10
0.0000000000000071
 20
69.136052925234992
 30
0.0
 11
0.0
 21
-2.1360529252351057
 31
0.0
  0
LINE
  5
1E4
100
AcDbEntity
  8
0
  6
CONTINUOUS
 62
               7
100
AcDbLine
 10
2.3943704061239046
 20
26.040817451771176
 30
0.0
 11
2.6500000000000128
 21
25.599999999999994
 31
0.0
  0
LINE
  5
1E5
100
AcDbEntity
  8
0
  6
CONTINUOUS
 62
               7
100
AcDbLine
 10
-2.6499999999999986
 20
25.599999999999994
 30
0.0
 11
-2.3943704061238904
 21
26.040817451771147
 31
0.0
  0
LINE
  5
1E6
100
AcDbEntity
  8
0
  6
CONTINUOUS
 62
               7
100
AcDbLine
 10
1.1443704061239046
 20
24.790817451771147
 30
0.0
 11
1.4000000000000128
 21
24.350000000000023
 31
0.0
  0
LINE
  5
1E7
100
AcDbEntity
  8
0
  6
CONTINUOUS
 62
               7
100
AcDbLine
 10
2.6500000000000128
 20
25.599999999999994
 30
0.0
 11
1.4000000000000128
 21
24.350000000000023
 31
0.0
  0
LINE
  5
1E8
100
AcDbEntity
  8
0
  6
CONTINUOUS
 62
               7
100
AcDbLine
 10
1.1443704061239046
 20
24.790817451771147
 30
0.0
 11
2.3943704061239046
 21
26.040817451771176
 31
0.0
  0
LINE
  5
1E9
100
AcDbEntity
  8
0
  6
CONTINUOUS
 62
               7
100
AcDbLine
 10
-1.1443704061238904
 20
24.790817451771147
 30
0.0
 11
-1.3999999999999986
 21
24.350000000000023
 31
0.0
  0
LINE
  5
1EA
100
AcDbEntity
  8
0
  6
CONTINUOUS
 62
               7
100
AcDbLine
 10
-4.9999999999999929
 20
18.909182548228841
 30
0.0
 11
5.0000000000000071
 21
18.909182548228841
 31
0.0
  0
LINE
  5
1EB
100
AcDbEntity
  8
0
  6
CONTINUOUS
 62
               7
100
AcDbLine
 10
-1.1443704061238904
 20
24.790817451771147
 30
0.0
 11
-2.3943704061238904
 21
26.040817451771147
 31
0.0
  0
LINE
  5
1EC
100
AcDbEntity
  8
0
  6
CONTINUOUS
 62
               7
100
AcDbLine
 10
-4.9999999999999929
 20
26.040817451771147
 30
0.0
 11
-2.3943704061238904
 21
26.040817451771147
 31
0.0
  0
LINE
  5
1ED
100
AcDbEntity
  8
0
  6
CONTINUOUS
 62
               7
100
AcDbLine
 10
2.3943704061239046
 20
26.040817451771176
 30
0.0
 11
5.0000000000000071
 21
26.040817451771176
 31
0.0
  0
LINE
  5
1EE
100
AcDbEntity
  8
0
  6
CONTINUOUS
 62
               7
100
AcDbLine
 10
1.1443704061239046
 20
24.790817451771147
 30
0.0
 11
-1.1443704061238904
 21
24.790817451771147
 31
0.0
  0
LINE
  5
1EF
100
AcDbEntity
  8
0
  6
CONTINUOUS
 62
               7
100
AcDbLine
 10
-5.0000000000000213
 20
25.599999999999994
 30
0.0
 11
-2.6499999999999986
 21
25.599999999999994
 31
0.0
  0
LINE
  5
1F0
100
AcDbEntity
  8
0
  6
CONTINUOUS
 62
               7
100
AcDbLine
 10
-2.6499999999999986
 20
25.599999999999994
 30
0.0
 11
-1.3999999999999986
 21
24.350000000000023
 31
0.0
  0
LINE
  5
1F1
100
AcDbEntity
  8
0
  6
CONTINUOUS
 62
               7
100
AcDbLine
 10
1.4000000000000128
 20
24.350000000000023
 30
0.0
 11
-1.3999999999999986
 21
24.350000000000023
 31
0.0
  0
LINE
  5
1F2
100
AcDbEntity
  8
0
  6
CONTINUOUS
 62
               7
100
AcDbLine
 10
2.6500000000000128
 20
25.599999999999994
 30
0.0
 11
5.0000000000000071
 21
25.599999999999994
 31
0.0
  0
CIRCLE
  5
1F3
100
AcDbEntity
  8
0
  6
CONTINUOUS
 62
               7
100
AcDbCircle
 10
0.0000000000000071
 20
21.75
 30
0.0
 40
2.0500000000000003
  0
LINE
  5
1F4
100
AcDbEntity
  8
0
  6
CONTINUOUS
 62
               7
100
AcDbLine
 10
5.0000000000000071
 20
18.098078436969899
 30
0.0
 11
-4.9999999999999929
 21
18.098078436969899
 31
0.0
  0
LINE
  5
1F5
100
AcDbEntity
  8
0
  6
CONTINUOUS
 62
               7
100
AcDbLine
 10
-4.9999999999999929
 20
17.600000000000023
 30
0.0
 11
5.0000000000000071
 21
17.600000000000023
 31
0.0
  0
LINE
  5
1F6
100
AcDbEntity
  8
0
  6
CONTINUOUS
 62
               7
100
AcDbLine
 10
-3.4999999999999929
 20
21.899999999999977
 30
0.0
 11
-4.9999999999999929
 21
21.899999999999977
 31
0.0
  0
LINE
  5
1F7
100
AcDbEntity
  8
0
  6
CONTINUOUS
 62
               7
100
AcDbLine
 10
-4.9999999999999929
 20
25.100000000000023
 30
0.0
 11
-3.4999999999999929
 21
25.100000000000023
 31
0.0
  0
LINE
  5
1F8
100
AcDbEntity
  8
0
  6
CONTINUOUS
 62
               7
100
AcDbLine
 10
3.5000000000000071
 20
25.100000000000023
 30
0.0
 11
5.0000000000000071
 21
25.100000000000023
 31
0.0
  0
LINE
  5
1F9
100
AcDbEntity
  8
0
  6
CONTINUOUS
 62
               7
100
AcDbLine
 10
5.0000000000000071
 20
21.899999999999977
 30
0.0
 11
3.5000000000000071
 21
21.899999999999977
 31
0.0
  0
ARC
  5
1FA
100
AcDbEntity
  8
0
  6
CONTINUOUS
 62
               7
100
AcDbCircle
 10
3.5000000000000071
 20
23.5
 30
0.0
 40
1.6000000000000001
100
AcDbArc
 50
89.999999999999815
 51
269.99999999999937
  0
ARC
  5
1FB
100
AcDbEntity
  8
0
  6
CONTINUOUS
 62
               7
100
AcDbCircle
 10
-3.4999999999999929
 20
23.5
 30
0.0
 40
1.6000000000000001
100
AcDbArc
 50
270.00000000000023
 51
89.999999999999801
  0
LINE
  5
1FC
100
AcDbEntity
  8
0
  6
CONTINUOUS
 62
               7
100
AcDbLine
 10
5.0000000000000071
 20
0.3000000000000114
 30
0.0
 11
5.0000000000000071
 21
17.5
 31
0.0
  0
LINE
  5
1FD
100
AcDbEntity
  8
0
  6
CENTER
 62
               2
100
AcDbLine
 10
-2.4999999999999929
 20
21.75
 30
0.0
 11
2.5000000000000071
 21
21.75
 31
0.0
  0
LINE
  5
1FE
100
AcDbEntity
  8
0
  6
CONTINUOUS
 62
               7
100
AcDbLine
 10
-4.9999999999999964
 20
0.3000000000000114
 30
0.0
 11
-4.9999999999999929
 21
17.5
 31
0.0
  0
CIRCLE
  5
1FF
100
AcDbEntity
  8
0
  6
CONTINUOUS
 62
               7
100
AcDbCircle
 10
0.0000000000000071
 20
21.75
 30
0.0
 40
1.9000000000000001
  0
LINE
  5
200
100
AcDbEntity
  8
0
  6
CONTINUOUS
 62
               7
100
AcDbLine
 10
4.7000000000000242
 20
0.0
 30
0.0
 11
-4.6999999999999851
 21
0.0
 31
0.0
  0
LINE
  5
201
100
AcDbEntity
  8
0
  6
CONTINUOUS
 62
               7
100
AcDbLine
 10
-5.0000000033237981
 20
17.5
 30
0.0
 11
4.9999999966762019
 21
17.5
 31
0.0
  0
ARC
  5
202
100
AcDbEntity
  8
0
  6
CONTINUOUS
 62
               7
100
AcDbCircle
 10
4.7000000000000242
 20
0.3000000000000114
 30
0.0
 40
0.3
100
AcDbArc
 50
269.99999999999937
 51
0.0
  0
ARC
  5
203
100
AcDbEntity
  8
0
  6
CONTINUOUS
 62
               7
100
AcDbCircle
 10
-4.6999999999999851
 20
0.3000000000000114
 30
0.0
 40
0.3
100
AcDbArc
 50
179.99999999999963
 51
269.99999999999937
  0
CIRCLE
  5
204
100
AcDbEntity
  8
0
  6
CONTINUOUS
 62
               7
100
AcDbCircle
 10
2.9000000000000128
 20
13.300000167936048
 30
0.0
 40
0.875
  0
CIRCLE
  5
205
100
AcDbEntity
  8
0
  6
CONTINUOUS
 62
               7
100
AcDbCircle
 10
-2.8999999999999879
 20
13.300000000000011
 30
0.0
 40
0.875
  0
LINE
  5
206
100
AcDbEntity
  8
0
  6
CONTINUOUS
 62
               7
100
AcDbLine
 10
-1.4999999999999964
 20
5.0
 30
0.0
 11
-1.4999999999999964
 21
0.0
 31
0.0
  0
LINE
  5
207
100
AcDbEntity
  8
0
  6
CONTINUOUS
 62
               7
100
AcDbLine
 10
1.5000000000000071
 20
5.0
 30
0.0
 11
1.5
 21
0.0
 31
0.0
  0
LINE
  5
208
100
AcDbEntity
  8
0
  6
CONTINUOUS
 62
               7
100
AcDbLine
 10
1.5000000000000071
 20
5.0
 30
0.0
 11
-1.4999999999999964
 21
5.0
 31
0.0
  0
ARC
  5
209
100
AcDbEntity
  8
0
  6
CONTINUOUS
 62
               7
100
AcDbCircle
 10
-2.8999999999999879
 20
13.300000000000011
 30
0.0
 40
2.0000000881710069
100
AcDbArc
 50
89.999999999999815
 51
269.99999999999937
  0
ARC
  5
20A
100
AcDbEntity
  8
0
  6
CONTINUOUS
 62
               7
100
AcDbCircle
 10
2.9000000000000128
 20
13.300000000000011
 30
0.0
 40
2.0000000881710069
100
AcDbArc
 50
270.00000000000023
 51
89.999999999999801
  0
LINE
  5
20B
100
AcDbEntity
  8
0
  6
CONTINUOUS
 62
               7
100
AcDbLine
 10
-2.8999999999999879
 20
15.300000000000011
 30
0.0
 11
2.9000000000000128
 21
15.300000000000011
 31
0.0
  0
LINE
  5
20C
100
AcDbEntity
  8
0
  6
CONTINUOUS
 62
               7
100
AcDbLine
 10
-2.8999999999999879
 20
11.300000000000011
 30
0.0
 11
2.9000000000000128
 21
11.300000000000011
 31
0.0
  0
LINE
  5
20D
100
AcDbEntity
  8
0
  6
CONTINUOUS
 62
               7
100
AcDbLine
 10
-1.8255136263528655
 20
22.050000000000011
 30
0.0
 11
1.8255136263528797
 21
22.050000000000011
 31
0.0
  0
LINE
  5
20E
100
AcDbEntity
  8
0
  6
CONTINUOUS
 62
               7
100
AcDbLine
 10
-1.8255136263528584
 20
21.449999999999989
 30
0.0
 11
1.8255136263528797
 21
21.449999999999989
 31
0.0
  0
CIRCLE
  5
20F
100
AcDbEntity
  8
0
  6
CONTINUOUS
 62
               7
100
AcDbCircle
 10
0.0000000000000071
 20
21.75
 30
0.0
 40
1.8500000000000001
  0
ARC
  5
210
100
AcDbEntity
  8
0
  6
CONTINUOUS
 62
               7
100
AcDbCircle
 10
0.0000000000000071
 20
21.75
 30
0.0
 40
0.8
100
AcDbArc
 50
202.02431283704175
 51
337.97568716295712
  0
ARC
  5
211
100
AcDbEntity
  8
0
  6
CONTINUOUS
 62
               7
100
AcDbCircle
 10
0.0000000000000071
 20
21.75
 30
0.0
 40
0.8
100
AcDbArc
 50
22.024312837042157
 51
157.97568716295754
  0
CIRCLE
  5
212
100
AcDbEntity
  8
0
  6
CONTINUOUS
 62
               7
100
AcDbCircle
 10
3.5000000000000071
 20
23.5
 30
0.0
 40
1.5
  0
LINE
  5
213
100
AcDbEntity
  8
0
  6
CONTINUOUS
 62
               7
100
AcDbLine
 10
4.2071067811865603
 20
24.207106781186553
 30
0.0
 11
2.7928932188134539
 21
22.792893218813447
 31
0.0
  0
LINE
  5
214
100
AcDbEntity
  8
0
  6
CONTINUOUS
 62
               7
100
AcDbLine
 10
4.2071067811865603
 20
22.792893218813447
 30
0.0
 11
2.7928932188134539
 21
24.207106781186553
 31
0.0
  0
LINE
  5
215
100
AcDbEntity
  8
0
  6
CONTINUOUS
 62
               7
100
AcDbLine
 10
-4.2071067811865461
 20
22.792893218813447
 30
0.0
 11
-2.7928932188134397
 21
24.207106781186553
 31
0.0
  0
LINE
  5
216
100
AcDbEntity
  8
0
  6
CONTINUOUS
 62
               7
100
AcDbLine
 10
-4.2071067811865461
 20
24.207106781186553
 30
0.0
 11
-2.7928932188134397
 21
22.792893218813447
 31
0.0
  0
CIRCLE
  5
217
100
AcDbEntity
  8
0
  6
CONTINUOUS
 62
               7
100
AcDbCircle
 10
-3.4999999999999929
 20
23.5
 30
0.0
 40
1.5
  0
LINE
  5
218
100
AcDbEntity
  8
0
  6
CONTINUOUS
 62
               7
100
AcDbLine
 10
-4.9999999999999929
 20
32.0
 30
0.0
 11
5.0000000000000071
 21
32.0
 31
0.0
  0
LINE
  5
219
100
AcDbEntity
  8
0
  6
CONTINUOUS
 62
               7
100
AcDbLine
 10
5.0000000000000071
 20
17.5
 30
0.0
 11
5.0000000000000071
 21
32.0
 31
0.0
  0
LINE
  5
21A
100
AcDbEntity
  8
0
  6
CONTINUOUS
 62
               7
100
AcDbLine
 10
-4.9999999999999929
 20
17.5
 30
0.0
 11
-4.9999999999999929
 21
32.0
 31
0.0
  0
CIRCLE
  5
21B
100
AcDbEntity
  8
0
  6
CONTINUOUS
 62
               7
100
AcDbCircle
 10
-3.4999999999999929
 20
43.499999999999886
 30
0.0
 40
1.5
  0
LINE
  5
21C
100
AcDbEntity
  8
0
  6
CONTINUOUS
 62
               7
100
AcDbLine
 10
-4.2071067811865461
 20
42.792893218813333
 30
0.0
 11
-2.7928932188134397
 21
44.20710678118644
 31
0.0
  0
LINE
  5
21D
100
AcDbEntity
  8
0
  6
CONTINUOUS
 62
               7
100
AcDbLine
 10
-4.2071067811865461
 20
44.20710678118644
 30
0.0
 11
-2.7928932188134397
 21
42.792893218813333
 31
0.0
  0
LINE
  5
21E
100
AcDbEntity
  8
0
  6
CONTINUOUS
 62
               7
100
AcDbLine
 10
4.2071067811865603
 20
44.20710678118644
 30
0.0
 11
2.7928932188134539
 21
42.792893218813333
 31
0.0
  0
LINE
  5
21F
100
AcDbEntity
  8
0
  6
CONTINUOUS
 62
               7
100
AcDbLine
 10
4.2071067811865603
 20
42.792893218813333
 30
0.0
 11
2.7928932188134539
 21
44.20710678118644
 31
0.0
  0
CIRCLE
  5
220
100
AcDbEntity
  8
0
  6
CONTINUOUS
 62
               7
100
AcDbCircle
 10
3.5000000000000071
 20
43.499999999999886
 30
0.0
 40
1.5
  0
LINE
  5
221
100
AcDbEntity
  8
0
  6
CONTINUOUS
 62
               7
100
AcDbLine
 10
5.0000000000000071
 20
34.999999999999886
 30
0.0
 11
-4.9999999999999929
 21
34.999999999999886
 31
0.0
  0
LINE
  5
222
100
AcDbEntity
  8
0
  6
CONTINUOUS
 62
               7
100
AcDbLine
 10
-4.9999999999999929
 20
48.499999999999943
 30
0.0
 11
-4.9999999999999929
 21
34.999999999999886
 31
0.0
  0
LINE
  5
223
100
AcDbEntity
  8
0
  6
CONTINUOUS
 62
               7
100
AcDbLine
 10
-3.4500000000000171
 20
66.000000000000171
 30
0.0
 11
3.4499999999999602
 21
66.000000000000171
 31
0.0
  0
LINE
  5
224
100
AcDbEntity
  8
0
  6
CONTINUOUS
 62
               7
100
AcDbLine
 10
4.9499999999999602
 20
58.300000000000125
 30
0.0
 11
4.9499999999999602
 21
64.500000000000171
 31
0.0
  0
LINE
  5
225
100
AcDbEntity
  8
0
  6
CONTINUOUS
 62
               7
100
AcDbLine
 10
-4.9500000000000171
 20
58.300000000000125
 30
0.0
 11
-4.9500000000000171
 21
64.500000000000171
 31
0.0
  0
LINE
  5
226
100
AcDbEntity
  8
0
  6
CONTINUOUS
 62
               7
100
AcDbLine
 10
4.9499999999999602
 20
58.300000000000125
 30
0.0
 11
4.6500000000000057
 21
58.000000000000171
 31
0.0
  0
LINE
  5
227
100
AcDbEntity
  8
0
  6
CONTINUOUS
 62
               7
100
AcDbLine
 10
-4.9500000000000171
 20
58.300000000000125
 30
0.0
 11
-4.6500000000000057
 21
58.000000000000171
 31
0.0
  0
ARC
  5
228
100
AcDbEntity
  8
0
  6
CONTINUOUS
 62
               7
100
AcDbCircle
 10
3.4499999999999602
 20
64.500000000000171
 30
0.0
 40
1.5
100
AcDbArc
 50
0.0
 51
89.999999999999815
  0
ARC
  5
229
100
AcDbEntity
  8
0
  6
CONTINUOUS
 62
               7
100
AcDbCircle
 10
-3.4500000000000171
 20
64.500000000000171
 30
0.0
 40
1.5
100
AcDbArc
 50
89.999999999999815
 51
179.99999999999963
  0
LINE
  5
22A
100
AcDbEntity
  8
0
  6
CONTINUOUS
 62
               7
100
AcDbLine
 10
-5.0
 20
34.999999999999943
 30
0.0
 11
5.0
 21
34.999999999999943
 31
0.0
  0
LINE
  5
22B
100
AcDbEntity
  8
0
  6
CONTINUOUS
 62
               7
100
AcDbLine
 10
-5.0
 20
48.499999999999943
 30
0.0
 11
5.0000000000000036
 21
48.499999999999943
 31
0.0
  0
LINE
  5
22C
100
AcDbEntity
  8
0
  6
CONTINUOUS
 62
               7
100
AcDbLine
 10
5.0000000000000027
 20
48.499999999999943
 30
0.0
 11
5.0
 21
34.999999999999886
 31
0.0
  0
LINE
  5
22D
100
AcDbEntity
  8
0
  6
CONTINUOUS
 62
               7
100
AcDbLine
 10
-5.0
 20
51.500000000000057
 30
0.0
 11
5.0000000000000036
 21
51.500000000000057
 31
0.0
  0
LINE
  5
22E
100
AcDbEntity
  8
0
  6
CONTINUOUS
 62
               7
100
AcDbLine
 10
-2.25
 20
54.199999999999989
 30
0.0
 11
4.25
 21
54.199999999999989
 31
0.0
  0
LINE
  5
22F
100
AcDbEntity
  8
0
  6
CONTINUOUS
 62
               7
100
AcDbLine
 10
-1.75
 20
54.699999999999989
 30
0.0
 11
3.7500000000000053
 21
54.699999999999989
 31
0.0
  0
LINE
  5
230
100
AcDbEntity
  8
0
  6
CONTINUOUS
 62
               7
100
AcDbLine
 10
4.2500000000000053
 20
54.199999999999989
 30
0.0
 11
4.2500000000000053
 21
51.500000000000057
 31
0.0
  0
LINE
  5
231
100
AcDbEntity
  8
0
  6
CONTINUOUS
 62
               7
100
AcDbLine
 10
-2.2499999999999942
 20
54.199999999999989
 30
0.0
 11
-2.2499999999999947
 21
51.500000000000057
 31
0.0
  0
LINE
  5
232
100
AcDbEntity
  8
0
  6
CONTINUOUS
 62
               7
100
AcDbLine
 10
-2.2499999999999942
 20
54.199999999999989
 30
0.0
 11
-1.7499999999999933
 21
54.699999999999989
 31
0.0
  0
LINE
  5
233
100
AcDbEntity
  8
0
  6
CONTINUOUS
 62
               7
100
AcDbLine
 10
4.2500000000000053
 20
54.199999999999989
 30
0.0
 11
3.7500000000000049
 21
54.699999999999989
 31
0.0
  0
LINE
  5
234
100
AcDbEntity
  8
0
  6
CENTER
 62
               2
100
AcDbLine
 10
1.000000000000006
 20
55.424796801798585
 30
0.0
 11
1.0000000000000053
 21
50.872740512375721
 31
0.0
  0
LINE
  5
235
100
AcDbEntity
  8
0
  6
CONTINUOUS
 62
               7
100
AcDbLine
 10
5.0
 20
58.000000000000171
 30
0.0
 11
-5.0
 21
58.000000000000171
 31
0.0
  0
LINE
  5
236
100
AcDbEntity
  8
0
  6
CONTINUOUS
 62
               7
100
AcDbLine
 10
-5.0
 20
51.500000000000057
 30
0.0
 11
-5.0
 21
58.000000000000171
 31
0.0
  0
LINE
  5
237
100
AcDbEntity
  8
0
  6
CONTINUOUS
 62
               7
100
AcDbLine
 10
5.0000000000000036
 20
51.500000000000057
 30
0.0
 11
5.0000000000000036
 21
58.000000000000171
 31
0.0
  0
ENDBLK
  5
238
100
AcDbEntity
  8
0
100
AcDbBlockEnd
  0
BLOCK
  5
239
100
AcDbEntity
  8
0
100
AcDbBlockBegin
  2
MV090MAS-7
 70
               0
 10
0.0
 20
0.0
 30
0.0
  3
MV090MAS-7
  1

  0
LINE
  5
23A
100
AcDbEntity
  8
0
  6
CONTINUOUS
 62
               2
100
AcDbLine
 10
-1.7519181748148185
 20
79.636187275061729
 30
0.0
 11
5.968683298765427
 21
76.714878609382708
 31
0.0
  0
LINE
  5
23B
100
AcDbEntity
  8
0
  6
CONTINUOUS
 62
               2
100
AcDbLine
 10
-1.7519181748148185
 20
78.636187275061729
 30
0.0
 11
5.968683298765427
 21
75.714878609382708
 31
0.0
  0
LINE
  5
23C
100
AcDbEntity
  8
0
  6
CONTINUOUS
 62
               7
100
AcDbLine
 10
-0.5
 20
82.934434807571961
 30
0.0
 11
4.5
 21
82.934434807571961
 31
0.0
  0
LINE
  5
23D
100
AcDbEntity
  8
0
  6
CONTINUOUS
 62
               7
100
AcDbLine
 10
4.2149999999999181
 20
86.5
 30
0.0
 11
-0.2150000000001455
 21
86.5
 31
0.0
  0
LINE
  5
23E
100
AcDbEntity
  8
0
  6
CONTINUOUS
 62
               7
100
AcDbLine
 10
2.5
 20
54.799999999999955
 30
0.0
 11
4.6999999999999318
 21
54.799999999999955
 31
0.0
  0
LINE
  5
23F
100
AcDbEntity
  8
0
  6
CONTINUOUS
 62
               7
100
AcDbLine
 10
-3.7000000000000455
 20
53.299999999999955
 30
0.0
 11
3.6999999999999318
 21
53.299999999999955
 31
0.0
  0
LINE
  5
240
100
AcDbEntity
  8
0
  6
CONTINUOUS
 62
               7
100
AcDbLine
 10
-4.7000000000000455
 20
48.999999999999886
 30
0.0
 11
-4.7000000000000455
 21
54.299999999999955
 31
0.0
  0
LINE
  5
241
100
AcDbEntity
  8
0
  6
CONTINUOUS
 62
               7
100
AcDbLine
 10
4.6999999999999318
 20
66.999999999999886
 30
0.0
 11
-4.7000000000000455
 21
66.999999999999886
 31
0.0
  0
LINE
  5
242
100
AcDbEntity
  8
0
  6
CONTINUOUS
 62
               7
100
AcDbLine
 10
-5.0
 20
66.699999999999932
 30
0.0
 11
-5.0
 21
34.999999999999886
 31
0.0
  0
LINE
  5
243
100
AcDbEntity
  8
0
  6
CENTER
 62
               2
100
AcDbLine
 10
0.0
 20
56.5
 30
0.0
 11
0.0
 21
-2.5701803136998933
 31
0.0
  0
ARC
  5
244
100
AcDbEntity
  8
0
  6
CONTINUOUS
 62
               7
100
AcDbCircle
 10
-4.7000000000000455
 20
66.699999999999932
 30
0.0
 40
0.3
100
AcDbArc
 50
89.999999999999815
 51
179.99999999999963
  0
ARC
  5
245
100
AcDbEntity
  8
0
  6
CONTINUOUS
 62
               7
100
AcDbCircle
 10
-4.7000000000000455
 20
54.499999999999886
 30
0.0
 40
0.3
100
AcDbArc
 50
89.999999999999815
 51
179.99999999999963
  0
LINE
  5
246
100
AcDbEntity
  8
0
  6
CONTINUOUS
 62
               7
100
AcDbLine
 10
-1.5
 20
61.999999999999886
 30
0.0
 11
-1.5
 21
66.999999999999886
 31
0.0
  0
LINE
  5
247
100
AcDbEntity
  8
0
  6
CONTINUOUS
 62
               7
100
AcDbLine
 10
-1.5
 20
61.999999999999886
 30
0.0
 11
1.5
 21
61.999999999999886
 31
0.0
  0
LINE
  5
248
100
AcDbEntity
  8
0
  6
CONTINUOUS
 62
               7
100
AcDbLine
 10
1.5
 20
61.999999999999886
 30
0.0
 11
1.5
 21
66.999999999999886
 31
0.0
  0
LINE
  5
249
100
AcDbEntity
  8
0
  6
CONTINUOUS
 62
               7
100
AcDbLine
 10
-4.7000000000000455
 20
54.799999999999955
 30
0.0
 11
-2.5
 21
54.799999999999955
 31
0.0
  0
LINE
  5
24A
100
AcDbEntity
  8
0
  6
CONTINUOUS
 62
               7
100
AcDbLine
 10
-2.9000000000000909
 20
53.799999999999955
 30
0.0
 11
-2.5
 21
53.799999999999955
 31
0.0
  0
LINE
  5
24B
100
AcDbEntity
  8
0
  6
CONTINUOUS
 62
               7
100
AcDbLine
 10
-2.9000000000000909
 20
53.799999999999955
 30
0.0
 11
-2.9000000000000909
 21
54.799999999999955
 31
0.0
  0
LINE
  5
24C
100
AcDbEntity
  8
0
  6
CONTINUOUS
 62
               7
100
AcDbLine
 10
2.8999999999998636
 20
53.799999999999955
 30
0.0
 11
2.8999999999998636
 21
54.799999999999955
 31
0.0
  0
LINE
  5
24D
100
AcDbEntity
  8
0
  6
CONTINUOUS
 62
               7
100
AcDbLine
 10
-2.9000000000000909
 20
54.299999999999955
 30
0.0
 11
2.8999999999998636
 21
54.299999999999955
 31
0.0
  0
LINE
  5
24E
100
AcDbEntity
  8
0
  6
CONTINUOUS
 62
               7
100
AcDbLine
 10
2.5
 20
55.799999999999955
 30
0.0
 11
2.5
 21
53.299999999999955
 31
0.0
  0
LINE
  5
24F
100
AcDbEntity
  8
0
  6
CONTINUOUS
 62
               7
100
AcDbLine
 10
-2.5
 20
55.799999999999955
 30
0.0
 11
-2.5
 21
53.299999999999955
 31
0.0
  0
LINE
  5
250
100
AcDbEntity
  8
0
  6
CONTINUOUS
 62
               7
100
AcDbLine
 10
-3.7000000000000455
 20
53.299999999999955
 30
0.0
 11
-3.7000000000000455
 21
54.299999999999955
 31
0.0
  0
LINE
  5
251
100
AcDbEntity
  8
0
  6
CONTINUOUS
 62
               7
100
AcDbLine
 10
-4.7000000000000455
 20
54.299999999999955
 30
0.0
 11
-3.7000000000000455
 21
54.299999999999955
 31
0.0
  0
LINE
  5
252
100
AcDbEntity
  8
0
  6
CONTINUOUS
 62
               7
100
AcDbLine
 10
-1.25
 20
54.299999999999955
 30
0.0
 11
-1.25
 21
53.299999999999955
 31
0.0
  0
LINE
  5
253
100
AcDbEntity
  8
0
  6
CONTINUOUS
 62
               7
100
AcDbLine
 10
1.25
 20
54.299999999999955
 30
0.0
 11
1.25
 21
53.299999999999955
 31
0.0
  0
LINE
  5
254
100
AcDbEntity
  8
0
  6
CONTINUOUS
 62
               7
100
AcDbLine
 10
-2.5000000005766196
 20
55.799999999999955
 30
0.0
 11
2.4999999994232667
 21
55.799999999999955
 31
0.0
  0
LINE
  5
255
100
AcDbEntity
  8
0
  6
CONTINUOUS
 62
               7
100
AcDbLine
 10
-2.5
 20
54.599999999999909
 30
0.0
 11
2.5
 21
54.599999999999909
 31
0.0
  0
LINE
  5
256
100
AcDbEntity
  8
0
  6
CONTINUOUS
 62
               7
100
AcDbLine
 10
2.5
 20
53.799999999999955
 30
0.0
 11
2.8999999999998636
 21
53.799999999999955
 31
0.0
  0
LINE
  5
257
100
AcDbEntity
  8
0
  6
CONTINUOUS
 62
               7
100
AcDbLine
 10
0.8999999999998636
 20
91.5
 30
0.0
 11
0.0999999999999091
 21
91.5
 31
0.0
  0
LINE
  5
258
100
AcDbEntity
  8
0
  6
CONTINUOUS
 62
               7
100
AcDbLine
 10
1.8999999999998636
 20
91.5
 30
0.0
 11
1.0999999999999091
 21
91.5
 31
0.0
  0
LINE
  5
259
100
AcDbEntity
  8
0
  6
CONTINUOUS
 62
               7
100
AcDbLine
 10
2.8999999999998636
 20
91.5
 30
0.0
 11
2.0999999999999091
 21
91.5
 31
0.0
  0
LINE
  5
25A
100
AcDbEntity
  8
0
  6
CONTINUOUS
 62
               7
100
AcDbLine
 10
-0.2150000000001455
 20
82.934434807571961
 30
0.0
 11
-0.2150000000001455
 21
86.5
 31
0.0
  0
LINE
  5
25B
100
AcDbEntity
  8
0
  6
CONTINUOUS
 62
               7
100
AcDbLine
 10
0.7849999999998545
 20
82.934434807571961
 30
0.0
 11
0.7849999999998545
 21
86.5
 31
0.0
  0
LINE
  5
25C
100
AcDbEntity
  8
0
  6
CONTINUOUS
 62
               7
100
AcDbLine
 10
1.7849999999998545
 20
82.934434807571961
 30
0.0
 11
1.7849999999998545
 21
86.5
 31
0.0
  0
LINE
  5
25D
100
AcDbEntity
  8
0
  6
CONTINUOUS
 62
               7
100
AcDbLine
 10
2.7849999999998545
 20
82.934434807571961
 30
0.0
 11
2.7849999999998545
 21
86.5
 31
0.0
  0
LINE
  5
25E
100
AcDbEntity
  8
0
  6
CONTINUOUS
 62
               7
100
AcDbLine
 10
-0.5
 20
82.934434807571961
 30
0.0
 11
-0.5
 21
79.162488506212867
 31
0.0
  0
LINE
  5
25F
100
AcDbEntity
  8
0
  6
CONTINUOUS
 62
               7
100
AcDbLine
 10
2.8999999999998636
 20
86.5
 30
0.0
 11
2.8999999999998636
 21
91.5
 31
0.0
  0
LINE
  5
260
100
AcDbEntity
  8
0
  6
CONTINUOUS
 62
               7
100
AcDbLine
 10
2.0999999999999091
 20
86.5
 30
0.0
 11
2.0999999999999091
 21
91.5
 31
0.0
  0
LINE
  5
261
100
AcDbEntity
  8
0
  6
CONTINUOUS
 62
               7
100
AcDbLine
 10
1.8999999999998636
 20
86.5
 30
0.0
 11
1.8999999999998636
 21
91.5
 31
0.0
  0
LINE
  5
262
100
AcDbEntity
  8
0
  6
CONTINUOUS
 62
               7
100
AcDbLine
 10
1.0999999999999091
 20
86.5
 30
0.0
 11
1.0999999999999091
 21
91.5
 31
0.0
  0
LINE
  5
263
100
AcDbEntity
  8
0
  6
CONTINUOUS
 62
               7
100
AcDbLine
 10
0.8999999999998636
 20
86.5
 30
0.0
 11
0.8999999999998636
 21
91.5
 31
0.0
  0
LINE
  5
264
100
AcDbEntity
  8
0
  6
CONTINUOUS
 62
               7
100
AcDbLine
 10
0.0999999999999091
 20
86.5
 30
0.0
 11
0.0999999999999091
 21
91.5
 31
0.0
  0
LINE
  5
265
100
AcDbEntity
  8
0
  6
CONTINUOUS
 62
               7
100
AcDbLine
 10
-0.5
 20
66.999999999999886
 30
0.0
 11
-0.5
 21
78.162488506212867
 31
0.0
  0
LINE
  5
266
100
AcDbEntity
  8
0
  6
CONTINUOUS
 62
               7
100
AcDbLine
 10
-5.0
 20
34.999999999999886
 30
0.0
 11
5.0
 21
34.999999999999886
 31
0.0
  0
LINE
  5
267
100
AcDbEntity
  8
0
  6
CONTINUOUS
 62
               7
100
AcDbLine
 10
5.0
 20
49.499999999999886
 30
0.0
 11
4.6999999999999318
 21
49.499999999999886
 31
0.0
  0
ARC
  5
268
100
AcDbEntity
  8
0
  6
CONTINUOUS
 62
               7
100
AcDbCircle
 10
4.6999999999999318
 20
54.499999999999886
 30
0.0
 40
0.3
100
AcDbArc
 50
0.0
 51
89.999999999999815
  0
LINE
  5
269
100
AcDbEntity
  8
0
  6
CONTINUOUS
 62
               7
100
AcDbLine
 10
5.0
 20
48.090817451771159
 30
0.0
 11
-5.0
 21
48.090817451771159
 31
0.0
  0
LINE
  5
26A
100
AcDbEntity
  8
0
  6
CONTINUOUS
 62
               7
100
AcDbLine
 10
5.0
 20
40.959182548228796
 30
0.0
 11
2.3943704061238122
 21
40.959182548228796
 31
0.0
  0
LINE
  5
26B
100
AcDbEntity
  8
0
  6
CONTINUOUS
 62
               7
100
AcDbLine
 10
5.0
 20
41.399999999999977
 30
0.0
 11
2.6499999999999773
 21
41.399999999999977
 31
0.0
  0
LINE
  5
26C
100
AcDbEntity
  8
0
  6
CONTINUOUS
 62
               7
100
AcDbLine
 10
-5.0
 20
48.901921563029987
 30
0.0
 11
5.0
 21
48.901921563029987
 31
0.0
  0
LINE
  5
26D
100
AcDbEntity
  8
0
  6
CONTINUOUS
 62
               7
100
AcDbLine
 10
5.0
 20
49.399999999999977
 30
0.0
 11
4.6999999999999318
 21
49.399999999999977
 31
0.0
  0
LINE
  5
26E
100
AcDbEntity
  8
0
  6
CONTINUOUS
 62
               7
100
AcDbLine
 10
3.5
 20
45.099999999999909
 30
0.0
 11
5.0
 21
45.099999999999909
 31
0.0
  0
LINE
  5
26F
100
AcDbEntity
  8
0
  6
CONTINUOUS
 62
               7
100
AcDbLine
 10
5.0
 20
41.899999999999977
 30
0.0
 11
3.5
 21
41.899999999999977
 31
0.0
  0
CIRCLE
  5
270
100
AcDbEntity
  8
0
  6
CONTINUOUS
 62
               7
100
AcDbCircle
 10
3.5
 20
43.499999999999886
 30
0.0
 40
1.5
  0
LINE
  5
271
100
AcDbEntity
  8
0
  6
CONTINUOUS
 62
               7
100
AcDbLine
 10
4.2071067811864395
 20
42.792893218813333
 30
0.0
 11
2.7928932188133331
 21
44.20710678118644
 31
0.0
  0
LINE
  5
272
100
AcDbEntity
  8
0
  6
CONTINUOUS
 62
               7
100
AcDbLine
 10
4.2071067811864395
 20
44.20710678118644
 30
0.0
 11
2.7928932188133331
 21
42.792893218813333
 31
0.0
  0
LINE
  5
273
100
AcDbEntity
  8
0
  6
CONTINUOUS
 62
               7
100
AcDbLine
 10
-4.2071067811866669
 20
44.20710678118644
 30
0.0
 11
-2.7928932188135605
 21
42.792893218813333
 31
0.0
  0
LINE
  5
274
100
AcDbEntity
  8
0
  6
CONTINUOUS
 62
               7
100
AcDbLine
 10
-4.2071067811866669
 20
42.792893218813333
 30
0.0
 11
-2.7928932188135605
 21
44.20710678118644
 31
0.0
  0
CIRCLE
  5
275
100
AcDbEntity
  8
0
  6
CONTINUOUS
 62
               7
100
AcDbCircle
 10
-3.5
 20
43.499999999999886
 30
0.0
 40
1.5
  0
LINE
  5
276
100
AcDbEntity
  8
0
  6
CONTINUOUS
 62
               7
100
AcDbLine
 10
1.8255136263528584
 20
45.549999999999955
 30
0.0
 11
0.0
 21
45.549999999999955
 31
0.0
  0
ARC
  5
277
100
AcDbEntity
  8
0
  6
CONTINUOUS
 62
               7
100
AcDbCircle
 10
0.0
 20
45.249999999999886
 30
0.0
 40
0.8
100
AcDbArc
 50
202.02431283704175
 51
337.97568716295712
  0
ARC
  5
278
100
AcDbEntity
  8
0
  6
CONTINUOUS
 62
               7
100
AcDbCircle
 10
0.0
 20
45.249999999999886
 30
0.0
 40
0.8
100
AcDbArc
 50
22.024312837042132
 51
157.97568716295751
  0
CIRCLE
  5
279
100
AcDbEntity
  8
0
  6
CONTINUOUS
 62
               7
100
AcDbCircle
 10
0.0
 20
45.249999999999886
 30
0.0
 40
1.8500000000000001
  0
LINE
  5
27A
100
AcDbEntity
  8
0
  6
CONTINUOUS
 62
               7
100
AcDbLine
 10
0.0
 20
45.549999999999955
 30
0.0
 11
-1.8255136263528584
 21
45.549999999999955
 31
0.0
  0
LINE
  5
27B
100
AcDbEntity
  8
0
  6
CONTINUOUS
 62
               7
100
AcDbLine
 10
1.8255136263528584
 20
44.949999999999932
 30
0.0
 11
-1.8255136263528584
 21
44.949999999999932
 31
0.0
  0
CIRCLE
  5
27C
100
AcDbEntity
  8
0
  6
CONTINUOUS
 62
               7
100
AcDbCircle
 10
0.0
 20
45.249999999999886
 30
0.0
 40
1.9000000000000001
  0
LINE
  5
27D
100
AcDbEntity
  8
0
  6
CENTER
 62
               2
100
AcDbLine
 10
2.5
 20
45.249999999999886
 30
0.0
 11
-2.5
 21
45.249999999999886
 31
0.0
  0
ARC
  5
27E
100
AcDbEntity
  8
0
  6
CONTINUOUS
 62
               7
100
AcDbCircle
 10
3.5
 20
43.499999999999886
 30
0.0
 40
1.6000000000000001
100
AcDbArc
 50
89.999999999999815
 51
269.99999999999937
  0
ARC
  5
27F
100
AcDbEntity
  8
0
  6
CONTINUOUS
 62
               7
100
AcDbCircle
 10
-3.5
 20
43.499999999999886
 30
0.0
 40
1.6000000000000001
100
AcDbArc
 50
270.00000000000023
 51
89.999999999999844
  0
LINE
  5
280
100
AcDbEntity
  8
0
  6
CONTINUOUS
 62
               7
100
AcDbLine
 10
-5.0
 20
45.099999999999909
 30
0.0
 11
-3.5
 21
45.099999999999909
 31
0.0
  0
LINE
  5
281
100
AcDbEntity
  8
0
  6
CONTINUOUS
 62
               7
100
AcDbLine
 10
-3.5
 20
41.899999999999977
 30
0.0
 11
-5.0
 21
41.899999999999977
 31
0.0
  0
CIRCLE
  5
282
100
AcDbEntity
  8
0
  6
CONTINUOUS
 62
               7
100
AcDbCircle
 10
0.0
 20
45.249999999999886
 30
0.0
 40
2.0500000000000003
  0
LINE
  5
283
100
AcDbEntity
  8
0
  6
CONTINUOUS
 62
               7
100
AcDbLine
 10
-2.6500000000000909
 20
41.399999999999977
 30
0.0
 11
-5.0
 21
41.399999999999977
 31
0.0
  0
LINE
  5
284
100
AcDbEntity
  8
0
  6
CONTINUOUS
 62
               7
100
AcDbLine
 10
-1.4000000000000909
 20
42.649999999999977
 30
0.0
 11
1.3999999999999773
 21
42.649999999999977
 31
0.0
  0
LINE
  5
285
100
AcDbEntity
  8
0
  6
CONTINUOUS
 62
               7
100
AcDbLine
 10
2.6499999999999773
 20
41.399999999999977
 30
0.0
 11
1.3999999999999773
 21
42.649999999999977
 31
0.0
  0
LINE
  5
286
100
AcDbEntity
  8
0
  6
CONTINUOUS
 62
               7
100
AcDbLine
 10
-1.1443704061239259
 20
42.209182548228796
 30
0.0
 11
1.1443704061238122
 21
42.209182548228796
 31
0.0
  0
LINE
  5
287
100
AcDbEntity
  8
0
  6
CONTINUOUS
 62
               7
100
AcDbLine
 10
-2.3943704061239259
 20
40.959182548228796
 30
0.0
 11
-5.0
 21
40.959182548228796
 31
0.0
  0
LINE
  5
288
100
AcDbEntity
  8
0
  6
CONTINUOUS
 62
               7
100
AcDbLine
 10
1.1443704061238122
 20
42.209182548228796
 30
0.0
 11
2.3943704061238122
 21
40.959182548228796
 31
0.0
  0
LINE
  5
289
100
AcDbEntity
  8
0
  6
CONTINUOUS
 62
               7
100
AcDbLine
 10
1.1443704061238122
 20
42.209182548228796
 30
0.0
 11
1.3999999999999773
 21
42.649999999999977
 31
0.0
  0
LINE
  5
28A
100
AcDbEntity
  8
0
  6
CONTINUOUS
 62
               7
100
AcDbLine
 10
-1.1443704061239259
 20
42.209182548228796
 30
0.0
 11
-2.3943704061239259
 21
40.959182548228796
 31
0.0
  0
LINE
  5
28B
100
AcDbEntity
  8
0
  6
CONTINUOUS
 62
               7
100
AcDbLine
 10
-2.6500000000000909
 20
41.399999999999977
 30
0.0
 11
-1.4000000000000909
 21
42.649999999999977
 31
0.0
  0
LINE
  5
28C
100
AcDbEntity
  8
0
  6
CONTINUOUS
 62
               7
100
AcDbLine
 10
-1.1443704061239259
 20
42.209182548228796
 30
0.0
 11
-1.4000000000000909
 21
42.649999999999977
 31
0.0
  0
LINE
  5
28D
100
AcDbEntity
  8
0
  6
CONTINUOUS
 62
               7
100
AcDbLine
 10
2.6499999999999773
 20
41.399999999999977
 30
0.0
 11
2.3943704061238122
 21
40.959182548228796
 31
0.0
  0
LINE
  5
28E
100
AcDbEntity
  8
0
  6
CONTINUOUS
 62
               7
100
AcDbLine
 10
-2.3943704061239259
 20
40.959182548228796
 30
0.0
 11
-2.6500000000000909
 21
41.399999999999977
 31
0.0
  0
LINE
  5
28F
100
AcDbEntity
  8
0
  6
CONTINUOUS
 62
               7
100
AcDbLine
 10
3.4900000000000091
 20
52.799999999999955
 30
0.0
 11
3.6139999999999191
 21
50.911999999999921
 31
0.0
  0
ARC
  5
290
100
AcDbEntity
  8
0
  6
CONTINUOUS
 62
               7
100
AcDbCircle
 10
3.4147148526387809
 20
50.899665233359542
 30
0.0
 40
0.1996665130331531
100
AcDbArc
 50
269.79486732121239
 51
3.5418075753734648
  0
LINE
  5
291
100
AcDbEntity
  8
0
  6
CONTINUOUS
 62
               7
100
AcDbLine
 10
3.0899999999999181
 20
50.699999999999932
 30
0.0
 11
3.0899999999999181
 21
50.199999999999932
 31
0.0
  0
LINE
  5
292
100
AcDbEntity
  8
0
  6
CONTINUOUS
 62
               7
100
AcDbLine
 10
1.9900000000000091
 20
50.199999999999932
 30
0.0
 11
3.0899999999999181
 21
50.199999999999932
 31
0.0
  0
LINE
  5
293
100
AcDbEntity
  8
0
  6
CONTINUOUS
 62
               7
100
AcDbLine
 10
1.9900000000000091
 20
50.699999999999932
 30
0.0
 11
1.9900000000000091
 21
50.199999999999932
 31
0.0
  0
LINE
  5
294
100
AcDbEntity
  8
0
  6
CONTINUOUS
 62
               7
100
AcDbLine
 10
1.6639999999999873
 20
50.699999999999932
 30
0.0
 11
3.4139999999999873
 21
50.699999999999932
 31
0.0
  0
ARC
  5
295
100
AcDbEntity
  8
0
  6
CONTINUOUS
 62
               7
100
AcDbCircle
 10
1.6643441079742161
 20
50.900664252805882
 30
0.0
 40
0.2006645478515588
100
AcDbArc
 50
176.76157835491691
 51
269.90174674849533
  0
LINE
  5
296
100
AcDbEntity
  8
0
  6
CONTINUOUS
 62
               7
100
AcDbLine
 10
1.4639999999999418
 20
50.911999999999921
 30
0.0
 11
1.5899999999999181
 21
52.799999999999955
 31
0.0
  0
LINE
  5
297
100
AcDbEntity
  8
0
  6
CONTINUOUS
 62
               7
100
AcDbLine
 10
1.5899999999999181
 20
52.799999999999955
 30
0.0
 11
3.4900000000000091
 21
52.799999999999955
 31
0.0
  0
LINE
  5
298
100
AcDbEntity
  8
0
  6
CONTINUOUS
 62
               7
100
AcDbLine
 10
0.3999999999999773
 20
51.399999999999977
 30
0.0
 11
-0.400000000000091
 21
51.399999999999977
 31
0.0
  0
LINE
  5
299
100
AcDbEntity
  8
0
  6
CONTINUOUS
 62
               7
100
AcDbLine
 10
0.3999999999999773
 20
52.199999999999932
 30
0.0
 11
0.3999999999999773
 21
51.399999999999977
 31
0.0
  0
LINE
  5
29A
100
AcDbEntity
  8
0
  6
CONTINUOUS
 62
               7
100
AcDbLine
 10
0.3999999999999773
 20
52.199999999999932
 30
0.0
 11
-0.400000000000091
 21
52.199999999999932
 31
0.0
  0
LINE
  5
29B
100
AcDbEntity
  8
0
  6
CONTINUOUS
 62
               7
100
AcDbLine
 10
-0.400000000000091
 20
52.199999999999932
 30
0.0
 11
-0.400000000000091
 21
51.399999999999977
 31
0.0
  0
LINE
  5
29C
100
AcDbEntity
  8
0
  6
CONTINUOUS
 62
               7
100
AcDbLine
 10
0.9499999999999318
 20
52.799999999999955
 30
0.0
 11
1.0739999999999554
 21
50.911999999999921
 31
0.0
  0
ARC
  5
29D
100
AcDbEntity
  8
0
  6
CONTINUOUS
 62
               7
100
AcDbCircle
 10
0.8747148526388173
 20
50.899665233359542
 30
0.0
 40
0.1996665130331531
100
AcDbArc
 50
269.79486732121239
 51
3.5418075753734648
  0
LINE
  5
29E
100
AcDbEntity
  8
0
  6
CONTINUOUS
 62
               7
100
AcDbLine
 10
0.5499999999999545
 20
50.699999999999932
 30
0.0
 11
0.5499999999999545
 21
50.199999999999932
 31
0.0
  0
LINE
  5
29F
100
AcDbEntity
  8
0
  6
CONTINUOUS
 62
               7
100
AcDbLine
 10
-0.5500000000000682
 20
50.199999999999932
 30
0.0
 11
0.5499999999999545
 21
50.199999999999932
 31
0.0
  0
LINE
  5
2A0
100
AcDbEntity
  8
0
  6
CONTINUOUS
 62
               7
100
AcDbLine
 10
-0.5500000000000682
 20
50.699999999999932
 30
0.0
 11
-0.5500000000000682
 21
50.199999999999932
 31
0.0
  0
LINE
  5
2A1
100
AcDbEntity
  8
0
  6
CONTINUOUS
 62
               7
100
AcDbLine
 10
-0.87600000000009
 20
50.699999999999932
 30
0.0
 11
0.87399999999991
 21
50.699999999999932
 31
0.0
  0
ARC
  5
2A2
100
AcDbEntity
  8
0
  6
CONTINUOUS
 62
               7
100
AcDbCircle
 10
-0.8756558920257476
 20
50.900664252805882
 30
0.0
 40
0.2006645478515588
100
AcDbArc
 50
176.76157835491691
 51
269.90174674849533
  0
LINE
  5
2A3
100
AcDbEntity
  8
0
  6
CONTINUOUS
 62
               7
100
AcDbLine
 10
-1.0760000000000218
 20
50.911999999999921
 30
0.0
 11
-0.9500000000000455
 21
52.799999999999955
 31
0.0
  0
LINE
  5
2A4
100
AcDbEntity
  8
0
  6
CONTINUOUS
 62
               7
100
AcDbLine
 10
-0.9500000000000455
 20
52.799999999999955
 30
0.0
 11
0.9499999999999318
 21
52.799999999999955
 31
0.0
  0
LINE
  5
2A5
100
AcDbEntity
  8
0
  6
CONTINUOUS
 62
               7
100
AcDbLine
 10
-3.6159999999999854
 20
50.911999999999921
 30
0.0
 11
-3.4900000000000091
 21
52.799999999999955
 31
0.0
  0
LINE
  5
2A6
100
AcDbEntity
  8
0
  6
CONTINUOUS
 62
               7
100
AcDbLine
 10
-1.5900000000000318
 20
52.799999999999955
 30
0.0
 11
-1.4660000000001219
 21
50.911999999999921
 31
0.0
  0
LINE
  5
2A7
100
AcDbEntity
  8
0
  6
CONTINUOUS
 62
               7
100
AcDbLine
 10
3.6999999999999318
 20
53.299999999999955
 30
0.0
 11
3.6999999999999318
 21
54.299999999999955
 31
0.0
  0
LINE
  5
2A8
100
AcDbEntity
  8
0
  6
CONTINUOUS
 62
               7
100
AcDbLine
 10
4.6999999999999318
 20
54.299999999999955
 30
0.0
 11
3.6999999999999318
 21
54.299999999999955
 31
0.0
  0
LINE
  5
2A9
100
AcDbEntity
  8
0
  6
CONTINUOUS
 62
               7
100
AcDbLine
 10
-3.0900000000000318
 20
50.199999999999932
 30
0.0
 11
-1.9900000000000091
 21
50.199999999999932
 31
0.0
  0
LINE
  5
2AA
100
AcDbEntity
  8
0
  6
CONTINUOUS
 62
               7
100
AcDbLine
 10
-3.4160000000000537
 20
50.699999999999932
 30
0.0
 11
-1.6660000000000537
 21
50.699999999999932
 31
0.0
  0
LINE
  5
2AB
100
AcDbEntity
  8
0
  6
CONTINUOUS
 62
               7
100
AcDbLine
 10
-3.4900000000000091
 20
52.799999999999955
 30
0.0
 11
-1.5900000000000318
 21
52.799999999999955
 31
0.0
  0
ARC
  5
2AC
100
AcDbEntity
  8
0
  6
CONTINUOUS
 62
               7
100
AcDbCircle
 10
-1.6652851473611463
 20
50.899665233359542
 30
0.0
 40
0.1996665130331531
100
AcDbArc
 50
269.79486732121239
 51
3.5418075753734648
  0
LINE
  5
2AD
100
AcDbEntity
  8
0
  6
CONTINUOUS
 62
               7
100
AcDbLine
 10
-1.9900000000000091
 20
50.699999999999932
 30
0.0
 11
-1.9900000000000091
 21
50.199999999999932
 31
0.0
  0
ARC
  5
2AE
100
AcDbEntity
  8
0
  6
CONTINUOUS
 62
               7
100
AcDbCircle
 10
-3.4156558920257112
 20
50.900664252805882
 30
0.0
 40
0.2006645478515588
100
AcDbArc
 50
176.76157835491691
 51
269.90174674849533
  0
LINE
  5
2AF
100
AcDbEntity
  8
0
  6
CONTINUOUS
 62
               7
100
AcDbLine
 10
-3.0900000000000318
 20
50.699999999999932
 30
0.0
 11
-3.0900000000000318
 21
50.199999999999932
 31
0.0
  0
LINE
  5
2B0
100
AcDbEntity
  8
0
  6
CONTINUOUS
 62
               7
100
AcDbLine
 10
-4.7000000000000455
 20
48.999999999999886
 30
0.0
 11
4.6999999999999318
 21
48.999999999999886
 31
0.0
  0
LINE
  5
2B1
100
AcDbEntity
  8
0
  6
CONTINUOUS
 62
               7
100
AcDbLine
 10
4.6999999999999318
 20
48.999999999999886
 30
0.0
 11
4.6999999999999318
 21
54.299999999999955
 31
0.0
  0
CIRCLE
  5
2B2
100
AcDbEntity
  8
0
  6
CONTINUOUS
 62
               7
100
AcDbCircle
 10
-2.5400000000000773
 20
51.799999999999955
 30
0.0
 40
0.75
  0
CIRCLE
  5
2B3
100
AcDbEntity
  8
0
  6
CONTINUOUS
 62
               7
100
AcDbCircle
 10
2.5399999999999636
 20
51.799999999999955
 30
0.0
 40
0.75
  0
LINE
  5
2B4
100
AcDbEntity
  8
0
  6
CONTINUOUS
 62
               7
100
AcDbLine
 10
-4.7000000000000455
 20
49.399999999999977
 30
0.0
 11
-5.0
 21
49.399999999999977
 31
0.0
  0
LINE
  5
2B5
100
AcDbEntity
  8
0
  6
CONTINUOUS
 62
               7
100
AcDbLine
 10
-4.7000000000000455
 20
49.499999999999886
 30
0.0
 11
-5.0
 21
49.499999999999886
 31
0.0
  0
LINE
  5
2B6
100
AcDbEntity
  8
0
  6
CONTINUOUS
 62
               7
100
AcDbLine
 10
4.5
 20
66.999999999999886
 30
0.0
 11
4.5
 21
76.270596614320993
 31
0.0
  0
LINE
  5
2B7
100
AcDbEntity
  8
0
  6
CONTINUOUS
 62
               7
100
AcDbLine
 10
3.8999999999998636
 20
91.5
 30
0.0
 11
3.0999999999999091
 21
91.5
 31
0.0
  0
LINE
  5
2B8
100
AcDbEntity
  8
0
  6
CONTINUOUS
 62
               7
100
AcDbLine
 10
4.2149999999999181
 20
82.934434807571961
 30
0.0
 11
4.2149999999999181
 21
86.5
 31
0.0
  0
LINE
  5
2B9
100
AcDbEntity
  8
0
  6
CONTINUOUS
 62
               7
100
AcDbLine
 10
4.5
 20
82.934434807571961
 30
0.0
 11
4.5
 21
77.270596614320993
 31
0.0
  0
LINE
  5
2BA
100
AcDbEntity
  8
0
  6
CONTINUOUS
 62
               7
100
AcDbLine
 10
3.8999999999998636
 20
86.5
 30
0.0
 11
3.8999999999998636
 21
91.5
 31
0.0
  0
LINE
  5
2BB
100
AcDbEntity
  8
0
  6
CONTINUOUS
 62
               7
100
AcDbLine
 10
3.0999999999999091
 20
86.5
 30
0.0
 11
3.0999999999999091
 21
91.5
 31
0.0
  0
ARC
  5
2BC
100
AcDbEntity
  8
0
  6
CONTINUOUS
 62
               7
100
AcDbCircle
 10
4.6999999999999318
 20
66.699999999999932
 30
0.0
 40
0.3
100
AcDbArc
 50
0.0
 51
89.999999999999815
  0
LINE
  5
2BD
100
AcDbEntity
  8
0
  6
CONTINUOUS
 62
               7
100
AcDbLine
 10
5.0
 20
66.699999999999932
 30
0.0
 11
5.0
 21
34.999999999999886
 31
0.0
  0
LINE
  5
2BE
100
AcDbEntity
  8
0
  6
CONTINUOUS
 62
               7
100
AcDbLine
 10
-5.0
 20
32.0
 30
0.0
 11
5.0
 21
32.0
 31
0.0
  0
LINE
  5
2BF
100
AcDbEntity
  8
0
  6
CONTINUOUS
 62
               7
100
AcDbLine
 10
4.2071067811864395
 20
22.792893218813447
 30
0.0
 11
2.7928932188133331
 21
24.207106781186553
 31
0.0
  0
LINE
  5
2C0
100
AcDbEntity
  8
0
  6
CONTINUOUS
 62
               7
100
AcDbLine
 10
4.2071067811864395
 20
24.207106781186553
 30
0.0
 11
2.7928932188133331
 21
22.792893218813447
 31
0.0
  0
CIRCLE
  5
2C1
100
AcDbEntity
  8
0
  6
CONTINUOUS
 62
               7
100
AcDbCircle
 10
3.5
 20
23.5
 30
0.0
 40
1.5
  0
CIRCLE
  5
2C2
100
AcDbEntity
  8
0
  6
CONTINUOUS
 62
               7
100
AcDbCircle
 10
0.0
 20
21.75
 30
0.0
 40
1.8500000000000001
  0
CIRCLE
  5
2C3
100
AcDbEntity
  8
0
  6
CONTINUOUS
 62
               7
100
AcDbCircle
 10
0.0
 20
21.75
 30
0.0
 40
1.9000000000000001
  0
LINE
  5
2C4
100
AcDbEntity
  8
0
  6
CONTINUOUS
 62
               7
100
AcDbLine
 10
-5.0
 20
0.2999999999999545
 30
0.0
 11
-5.0
 21
32.0
 31
0.0
  0
LINE
  5
2C5
100
AcDbEntity
  8
0
  6
CONTINUOUS
 62
               7
100
AcDbLine
 10
5.0
 20
21.899999999999977
 30
0.0
 11
3.5
 21
21.899999999999977
 31
0.0
  0
LINE
  5
2C6
100
AcDbEntity
  8
0
  6
CONTINUOUS
 62
               7
100
AcDbLine
 10
3.5
 20
25.100000000000023
 30
0.0
 11
5.0
 21
25.100000000000023
 31
0.0
  0
CIRCLE
  5
2C7
100
AcDbEntity
  8
0
  6
CONTINUOUS
 62
               7
100
AcDbCircle
 10
0.0
 20
21.75
 30
0.0
 40
2.0500000000000003
  0
LINE
  5
2C8
100
AcDbEntity
  8
0
  6
CONTINUOUS
 62
               7
100
AcDbLine
 10
2.6499999999999773
 20
25.600000000000023
 30
0.0
 11
5.0
 21
25.600000000000023
 31
0.0
  0
LINE
  5
2C9
100
AcDbEntity
  8
0
  6
CONTINUOUS
 62
               7
100
AcDbLine
 10
2.3943704061238122
 20
26.04081745177109
 30
0.0
 11
5.0
 21
26.04081745177109
 31
0.0
  0
LINE
  5
2CA
100
AcDbEntity
  8
0
  6
CONTINUOUS
 62
               7
100
AcDbLine
 10
2.3943704061238122
 20
26.04081745177109
 30
0.0
 11
2.6499999999999773
 21
25.600000000000023
 31
0.0
  0
LINE
  5
2CB
100
AcDbEntity
  8
0
  6
CONTINUOUS
 62
               7
100
AcDbLine
 10
-2.6500000000000909
 20
25.600000000000023
 30
0.0
 11
-2.3943704061239259
 21
26.04081745177109
 31
0.0
  0
LINE
  5
2CC
100
AcDbEntity
  8
0
  6
CONTINUOUS
 62
               7
100
AcDbLine
 10
1.1443704061238122
 20
24.79081745177109
 30
0.0
 11
1.3999999999999773
 21
24.350000000000023
 31
0.0
  0
LINE
  5
2CD
100
AcDbEntity
  8
0
  6
CONTINUOUS
 62
               7
100
AcDbLine
 10
2.6499999999999773
 20
25.600000000000023
 30
0.0
 11
1.3999999999999773
 21
24.350000000000023
 31
0.0
  0
LINE
  5
2CE
100
AcDbEntity
  8
0
  6
CONTINUOUS
 62
               7
100
AcDbLine
 10
1.1443704061238122
 20
24.79081745177109
 30
0.0
 11
2.3943704061238122
 21
26.04081745177109
 31
0.0
  0
LINE
  5
2CF
100
AcDbEntity
  8
0
  6
CONTINUOUS
 62
               7
100
AcDbLine
 10
-1.1443704061239259
 20
24.79081745177109
 30
0.0
 11
-1.4000000000000909
 21
24.350000000000023
 31
0.0
  0
LINE
  5
2D0
100
AcDbEntity
  8
0
  6
CONTINUOUS
 62
               7
100
AcDbLine
 10
-1.1443704061239259
 20
24.79081745177109
 30
0.0
 11
-2.3943704061239259
 21
26.04081745177109
 31
0.0
  0
LINE
  5
2D1
100
AcDbEntity
  8
0
  6
CONTINUOUS
 62
               7
100
AcDbLine
 10
-5.0
 20
26.04081745177109
 30
0.0
 11
-2.3943704061239259
 21
26.04081745177109
 31
0.0
  0
LINE
  5
2D2
100
AcDbEntity
  8
0
  6
CONTINUOUS
 62
               7
100
AcDbLine
 10
1.1443704061238122
 20
24.79081745177109
 30
0.0
 11
-1.1443704061239259
 21
24.79081745177109
 31
0.0
  0
LINE
  5
2D3
100
AcDbEntity
  8
0
  6
CONTINUOUS
 62
               7
100
AcDbLine
 10
-5.0000000000001137
 20
25.600000000000023
 30
0.0
 11
-2.6500000000000909
 21
25.600000000000023
 31
0.0
  0
LINE
  5
2D4
100
AcDbEntity
  8
0
  6
CONTINUOUS
 62
               7
100
AcDbLine
 10
-2.6500000000000909
 20
25.600000000000023
 30
0.0
 11
-1.4000000000000909
 21
24.350000000000023
 31
0.0
  0
LINE
  5
2D5
100
AcDbEntity
  8
0
  6
CONTINUOUS
 62
               7
100
AcDbLine
 10
1.3999999999999773
 20
24.350000000000023
 30
0.0
 11
-1.4000000000000909
 21
24.350000000000023
 31
0.0
  0
LINE
  5
2D6
100
AcDbEntity
  8
0
  6
CONTINUOUS
 62
               7
100
AcDbLine
 10
-3.5
 20
21.899999999999977
 30
0.0
 11
-5.0
 21
21.899999999999977
 31
0.0
  0
LINE
  5
2D7
100
AcDbEntity
  8
0
  6
CONTINUOUS
 62
               7
100
AcDbLine
 10
-5.0
 20
25.100000000000023
 30
0.0
 11
-3.5
 21
25.100000000000023
 31
0.0
  0
ARC
  5
2D8
100
AcDbEntity
  8
0
  6
CONTINUOUS
 62
               7
100
AcDbCircle
 10
3.5
 20
23.5
 30
0.0
 40
1.6000000000000001
100
AcDbArc
 50
89.999999999999815
 51
269.99999999999937
  0
ARC
  5
2D9
100
AcDbEntity
  8
0
  6
CONTINUOUS
 62
               7
100
AcDbCircle
 10
-3.5
 20
23.5
 30
0.0
 40
1.6000000000000001
100
AcDbArc
 50
270.00000000000023
 51
89.999999999999801
  0
LINE
  5
2DA
100
AcDbEntity
  8
0
  6
CENTER
 62
               2
100
AcDbLine
 10
-2.5
 20
21.75
 30
0.0
 11
2.5
 21
21.75
 31
0.0
  0
LINE
  5
2DB
100
AcDbEntity
  8
0
  6
CONTINUOUS
 62
               7
100
AcDbLine
 10
-1.8255136263528584
 20
22.049999999999955
 30
0.0
 11
1.8255136263528584
 21
22.049999999999955
 31
0.0
  0
LINE
  5
2DC
100
AcDbEntity
  8
0
  6
CONTINUOUS
 62
               7
100
AcDbLine
 10
0.0
 20
21.449999999999932
 30
0.0
 11
1.8255136263528584
 21
21.449999999999932
 31
0.0
  0
ARC
  5
2DD
100
AcDbEntity
  8
0
  6
CONTINUOUS
 62
               7
100
AcDbCircle
 10
0.0
 20
21.75
 30
0.0
 40
0.8
100
AcDbArc
 50
202.02431283704175
 51
337.97568716295712
  0
ARC
  5
2DE
100
AcDbEntity
  8
0
  6
CONTINUOUS
 62
               7
100
AcDbCircle
 10
0.0
 20
21.75
 30
0.0
 40
0.8
100
AcDbArc
 50
22.024312837042157
 51
157.97568716295754
  0
LINE
  5
2DF
100
AcDbEntity
  8
0
  6
CONTINUOUS
 62
               7
100
AcDbLine
 10
-1.8255136263528584
 20
21.449999999999932
 30
0.0
 11
0.0
 21
21.449999999999932
 31
0.0
  0
LINE
  5
2E0
100
AcDbEntity
  8
0
  6
CONTINUOUS
 62
               7
100
AcDbLine
 10
-4.2071067811866669
 20
22.792893218813447
 30
0.0
 11
-2.7928932188135605
 21
24.207106781186553
 31
0.0
  0
LINE
  5
2E1
100
AcDbEntity
  8
0
  6
CONTINUOUS
 62
               7
100
AcDbLine
 10
-4.2071067811866669
 20
24.207106781186553
 30
0.0
 11
-2.7928932188135605
 21
22.792893218813447
 31
0.0
  0
CIRCLE
  5
2E2
100
AcDbEntity
  8
0
  6
CONTINUOUS
 62
               7
100
AcDbCircle
 10
-3.5
 20
23.5
 30
0.0
 40
1.5
  0
LINE
  5
2E3
100
AcDbEntity
  8
0
  6
CONTINUOUS
 62
               7
100
AcDbLine
 10
5.0
 20
18.098078436969899
 30
0.0
 11
-5.0
 21
18.098078436969899
 31
0.0
  0
LINE
  5
2E4
100
AcDbEntity
  8
0
  6
CONTINUOUS
 62
               7
100
AcDbLine
 10
-5.0
 20
18.909182548228841
 30
0.0
 11
5.0
 21
18.909182548228841
 31
0.0
  0
LINE
  5
2E5
100
AcDbEntity
  8
0
  6
CONTINUOUS
 62
               7
100
AcDbLine
 10
4.6999999999999318
 20
17.999999999999886
 30
0.0
 11
-4.7000000000000455
 21
17.999999999999886
 31
0.0
  0
LINE
  5
2E6
100
AcDbEntity
  8
0
  6
CONTINUOUS
 62
               7
100
AcDbLine
 10
-4.7000000000000455
 20
17.999999999999886
 30
0.0
 11
-4.7000000000000455
 21
12.699999999999932
 31
0.0
  0
LINE
  5
2E7
100
AcDbEntity
  8
0
  6
CONTINUOUS
 62
               7
100
AcDbLine
 10
-5.0
 20
17.499999999999886
 30
0.0
 11
-4.7000000000000455
 21
17.499999999999886
 31
0.0
  0
LINE
  5
2E8
100
AcDbEntity
  8
0
  6
CONTINUOUS
 62
               7
100
AcDbLine
 10
-5.0
 20
17.600000000000023
 30
0.0
 11
-4.7000000000000455
 21
17.600000000000023
 31
0.0
  0
ARC
  5
2E9
100
AcDbEntity
  8
0
  6
CONTINUOUS
 62
               7
100
AcDbCircle
 10
4.6999999999999318
 20
12.499999999999886
 30
0.0
 40
0.3
100
AcDbArc
 50
269.99999999999937
 51
0.0
  0
LINE
  5
2EA
100
AcDbEntity
  8
0
  6
CONTINUOUS
 62
               7
100
AcDbLine
 10
-4.7000000000000455
 20
12.699999999999932
 30
0.0
 11
-3.7000000000000455
 21
12.699999999999932
 31
0.0
  0
LINE
  5
2EB
100
AcDbEntity
  8
0
  6
CONTINUOUS
 62
               7
100
AcDbLine
 10
-2.5
 20
12.199999999999932
 30
0.0
 11
-4.7000000000000455
 21
12.199999999999932
 31
0.0
  0
LINE
  5
2EC
100
AcDbEntity
  8
0
  6
CONTINUOUS
 62
               7
100
AcDbLine
 10
4.6999999999999318
 20
17.600000000000023
 30
0.0
 11
5.0
 21
17.600000000000023
 31
0.0
  0
LINE
  5
2ED
100
AcDbEntity
  8
0
  6
CONTINUOUS
 62
               7
100
AcDbLine
 10
4.6999999999999318
 20
17.499999999999886
 30
0.0
 11
5.0
 21
17.499999999999886
 31
0.0
  0
LINE
  5
2EE
100
AcDbEntity
  8
0
  6
CONTINUOUS
 62
               7
100
AcDbLine
 10
-2.5
 20
13.199999999999932
 30
0.0
 11
-2.9000000000000909
 21
13.199999999999932
 31
0.0
  0
CIRCLE
  5
2EF
100
AcDbEntity
  8
0
  6
CONTINUOUS
 62
               7
100
AcDbCircle
 10
-2.5400000000000773
 20
15.199999999999932
 30
0.0
 40
0.75
  0
CIRCLE
  5
2F0
100
AcDbEntity
  8
0
  6
CONTINUOUS
 62
               7
100
AcDbCircle
 10
2.5399999999999636
 20
15.199999999999932
 30
0.0
 40
0.75
  0
LINE
  5
2F1
100
AcDbEntity
  8
0
  6
CONTINUOUS
 62
               7
100
AcDbLine
 10
2.5
 20
12.399999999999977
 30
0.0
 11
-2.5
 21
12.399999999999977
 31
0.0
  0
LINE
  5
2F2
100
AcDbEntity
  8
0
  6
CONTINUOUS
 62
               7
100
AcDbLine
 10
2.5000000005766196
 20
11.199999999999932
 30
0.0
 11
-2.4999999994233804
 21
11.199999999999932
 31
0.0
  0
LINE
  5
2F3
100
AcDbEntity
  8
0
  6
CONTINUOUS
 62
               7
100
AcDbLine
 10
3.6999999999999318
 20
13.699999999999932
 30
0.0
 11
-3.7000000000000455
 21
13.699999999999932
 31
0.0
  0
LINE
  5
2F4
100
AcDbEntity
  8
0
  6
CONTINUOUS
 62
               7
100
AcDbLine
 10
4.6999999999999318
 20
17.999999999999886
 30
0.0
 11
4.6999999999999318
 21
12.699999999999932
 31
0.0
  0
LINE
  5
2F5
100
AcDbEntity
  8
0
  6
CONTINUOUS
 62
               7
100
AcDbLine
 10
3.0899999999999181
 20
16.299999999999955
 30
0.0
 11
3.0899999999999181
 21
16.799999999999955
 31
0.0
  0
ARC
  5
2F6
100
AcDbEntity
  8
0
  6
CONTINUOUS
 62
               7
100
AcDbCircle
 10
3.4156558920255975
 20
16.099335747194004
 30
0.0
 40
0.2006645478515588
100
AcDbArc
 50
356.76157835491654
 51
89.901746748495754
  0
LINE
  5
2F7
100
AcDbEntity
  8
0
  6
CONTINUOUS
 62
               7
100
AcDbLine
 10
1.9900000000000091
 20
16.299999999999955
 30
0.0
 11
1.9900000000000091
 21
16.799999999999955
 31
0.0
  0
ARC
  5
2F8
100
AcDbEntity
  8
0
  6
CONTINUOUS
 62
               7
100
AcDbCircle
 10
1.6652851473610326
 20
16.100334766640458
 30
0.0
 40
0.1996665130331531
100
AcDbArc
 50
89.79486732121282
 51
183.54180757537307
  0
LINE
  5
2F9
100
AcDbEntity
  8
0
  6
CONTINUOUS
 62
               7
100
AcDbLine
 10
3.4900000000000091
 20
14.199999999999932
 30
0.0
 11
1.5899999999999181
 21
14.199999999999932
 31
0.0
  0
LINE
  5
2FA
100
AcDbEntity
  8
0
  6
CONTINUOUS
 62
               7
100
AcDbLine
 10
3.41599999999994
 20
16.299999999999955
 30
0.0
 11
1.66599999999994
 21
16.299999999999955
 31
0.0
  0
LINE
  5
2FB
100
AcDbEntity
  8
0
  6
CONTINUOUS
 62
               7
100
AcDbLine
 10
3.0899999999999181
 20
16.799999999999955
 30
0.0
 11
1.9900000000000091
 21
16.799999999999955
 31
0.0
  0
LINE
  5
2FC
100
AcDbEntity
  8
0
  6
CONTINUOUS
 62
               7
100
AcDbLine
 10
-1.25
 20
12.699999999999932
 30
0.0
 11
-1.25
 21
13.699999999999932
 31
0.0
  0
LINE
  5
2FD
100
AcDbEntity
  8
0
  6
CONTINUOUS
 62
               7
100
AcDbLine
 10
1.25
 20
12.699999999999932
 30
0.0
 11
1.25
 21
13.699999999999932
 31
0.0
  0
LINE
  5
2FE
100
AcDbEntity
  8
0
  6
CONTINUOUS
 62
               7
100
AcDbLine
 10
4.6999999999999318
 20
12.699999999999932
 30
0.0
 11
3.6999999999999318
 21
12.699999999999932
 31
0.0
  0
LINE
  5
2FF
100
AcDbEntity
  8
0
  6
CONTINUOUS
 62
               7
100
AcDbLine
 10
3.6999999999999318
 20
13.699999999999932
 30
0.0
 11
3.6999999999999318
 21
12.699999999999932
 31
0.0
  0
LINE
  5
300
100
AcDbEntity
  8
0
  6
CONTINUOUS
 62
               7
100
AcDbLine
 10
-3.7000000000000455
 20
13.699999999999932
 30
0.0
 11
-3.7000000000000455
 21
12.699999999999932
 31
0.0
  0
LINE
  5
301
100
AcDbEntity
  8
0
  6
CONTINUOUS
 62
               7
100
AcDbLine
 10
1.5899999999999181
 20
14.199999999999932
 30
0.0
 11
1.4659999999998945
 21
16.087999999999965
 31
0.0
  0
LINE
  5
302
100
AcDbEntity
  8
0
  6
CONTINUOUS
 62
               7
100
AcDbLine
 10
3.6159999999999854
 20
16.087999999999965
 30
0.0
 11
3.4900000000000091
 21
14.199999999999932
 31
0.0
  0
LINE
  5
303
100
AcDbEntity
  8
0
  6
CONTINUOUS
 62
               7
100
AcDbLine
 10
0.9499999999999318
 20
14.199999999999932
 30
0.0
 11
-0.9500000000000455
 21
14.199999999999932
 31
0.0
  0
LINE
  5
304
100
AcDbEntity
  8
0
  6
CONTINUOUS
 62
               7
100
AcDbLine
 10
1.0759999999999081
 20
16.087999999999965
 30
0.0
 11
0.9499999999999318
 21
14.199999999999932
 31
0.0
  0
ARC
  5
305
100
AcDbEntity
  8
0
  6
CONTINUOUS
 62
               7
100
AcDbCircle
 10
0.8756558920256339
 20
16.099335747194004
 30
0.0
 40
0.2006645478515588
100
AcDbArc
 50
356.76157835491654
 51
89.901746748495754
  0
LINE
  5
306
100
AcDbEntity
  8
0
  6
CONTINUOUS
 62
               7
100
AcDbLine
 10
0.8759999999999764
 20
16.299999999999955
 30
0.0
 11
-0.8740000000000237
 21
16.299999999999955
 31
0.0
  0
LINE
  5
307
100
AcDbEntity
  8
0
  6
CONTINUOUS
 62
               7
100
AcDbLine
 10
0.5499999999999545
 20
16.299999999999955
 30
0.0
 11
0.5499999999999545
 21
16.799999999999955
 31
0.0
  0
LINE
  5
308
100
AcDbEntity
  8
0
  6
CONTINUOUS
 62
               7
100
AcDbLine
 10
0.5499999999999545
 20
16.799999999999955
 30
0.0
 11
-0.5500000000000682
 21
16.799999999999955
 31
0.0
  0
LINE
  5
309
100
AcDbEntity
  8
0
  6
CONTINUOUS
 62
               7
100
AcDbLine
 10
-0.5500000000000682
 20
16.299999999999955
 30
0.0
 11
-0.5500000000000682
 21
16.799999999999955
 31
0.0
  0
ARC
  5
30A
100
AcDbEntity
  8
0
  6
CONTINUOUS
 62
               7
100
AcDbCircle
 10
-0.874714852638931
 20
16.100334766640458
 30
0.0
 40
0.1996665130331531
100
AcDbArc
 50
89.79486732121282
 51
183.54180757537307
  0
LINE
  5
30B
100
AcDbEntity
  8
0
  6
CONTINUOUS
 62
               7
100
AcDbLine
 10
-0.9500000000000455
 20
14.199999999999932
 30
0.0
 11
-1.0740000000000691
 21
16.087999999999965
 31
0.0
  0
LINE
  5
30C
100
AcDbEntity
  8
0
  6
CONTINUOUS
 62
               7
100
AcDbLine
 10
0.3999999999999773
 20
14.799999999999955
 30
0.0
 11
0.3999999999999773
 21
15.599999999999909
 31
0.0
  0
LINE
  5
30D
100
AcDbEntity
  8
0
  6
CONTINUOUS
 62
               7
100
AcDbLine
 10
-0.400000000000091
 20
14.799999999999955
 30
0.0
 11
0.3999999999999773
 21
14.799999999999955
 31
0.0
  0
LINE
  5
30E
100
AcDbEntity
  8
0
  6
CONTINUOUS
 62
               7
100
AcDbLine
 10
-0.400000000000091
 20
14.799999999999955
 30
0.0
 11
-0.400000000000091
 21
15.599999999999909
 31
0.0
  0
LINE
  5
30F
100
AcDbEntity
  8
0
  6
CONTINUOUS
 62
               7
100
AcDbLine
 10
-0.400000000000091
 20
15.599999999999909
 30
0.0
 11
0.3999999999999773
 21
15.599999999999909
 31
0.0
  0
LINE
  5
310
100
AcDbEntity
  8
0
  6
CONTINUOUS
 62
               7
100
AcDbLine
 10
-1.5900000000000318
 20
14.199999999999932
 30
0.0
 11
-3.4900000000000091
 21
14.199999999999932
 31
0.0
  0
LINE
  5
311
100
AcDbEntity
  8
0
  6
CONTINUOUS
 62
               7
100
AcDbLine
 10
-1.4640000000000555
 20
16.087999999999965
 30
0.0
 11
-1.5900000000000318
 21
14.199999999999932
 31
0.0
  0
ARC
  5
312
100
AcDbEntity
  8
0
  6
CONTINUOUS
 62
               7
100
AcDbCircle
 10
-1.6643441079743297
 20
16.099335747194004
 30
0.0
 40
0.2006645478515588
100
AcDbArc
 50
356.76157835491654
 51
89.901746748495754
  0
LINE
  5
313
100
AcDbEntity
  8
0
  6
CONTINUOUS
 62
               7
100
AcDbLine
 10
-1.664000000000101
 20
16.299999999999955
 30
0.0
 11
-3.414000000000101
 21
16.299999999999955
 31
0.0
  0
LINE
  5
314
100
AcDbEntity
  8
0
  6
CONTINUOUS
 62
               7
100
AcDbLine
 10
-1.9900000000000091
 20
16.299999999999955
 30
0.0
 11
-1.9900000000000091
 21
16.799999999999955
 31
0.0
  0
LINE
  5
315
100
AcDbEntity
  8
0
  6
CONTINUOUS
 62
               7
100
AcDbLine
 10
-1.9900000000000091
 20
16.799999999999955
 30
0.0
 11
-3.0900000000000318
 21
16.799999999999955
 31
0.0
  0
LINE
  5
316
100
AcDbEntity
  8
0
  6
CONTINUOUS
 62
               7
100
AcDbLine
 10
-3.0900000000000318
 20
16.299999999999955
 30
0.0
 11
-3.0900000000000318
 21
16.799999999999955
 31
0.0
  0
ARC
  5
317
100
AcDbEntity
  8
0
  6
CONTINUOUS
 62
               7
100
AcDbCircle
 10
-3.4147148526390083
 20
16.100334766640458
 30
0.0
 40
0.1996665130331531
100
AcDbArc
 50
89.79486732121282
 51
183.54180757537307
  0
LINE
  5
318
100
AcDbEntity
  8
0
  6
CONTINUOUS
 62
               7
100
AcDbLine
 10
-3.4900000000000091
 20
14.199999999999932
 30
0.0
 11
-3.6140000000000327
 21
16.087999999999965
 31
0.0
  0
LINE
  5
319
100
AcDbEntity
  8
0
  6
CONTINUOUS
 62
               7
100
AcDbLine
 10
2.5
 20
11.199999999999932
 30
0.0
 11
2.5
 21
13.699999999999932
 31
0.0
  0
LINE
  5
31A
100
AcDbEntity
  8
0
  6
CONTINUOUS
 62
               7
100
AcDbLine
 10
-2.5
 20
11.199999999999932
 30
0.0
 11
-2.5
 21
13.699999999999932
 31
0.0
  0
LINE
  5
31B
100
AcDbEntity
  8
0
  6
CONTINUOUS
 62
               7
100
AcDbLine
 10
2.8999999999999773
 20
12.699999999999932
 30
0.0
 11
-2.9000000000000909
 21
12.699999999999932
 31
0.0
  0
LINE
  5
31C
100
AcDbEntity
  8
0
  6
CONTINUOUS
 62
               7
100
AcDbLine
 10
-2.9000000000000909
 20
13.199999999999932
 30
0.0
 11
-2.9000000000000909
 21
12.199999999999932
 31
0.0
  0
LINE
  5
31D
100
AcDbEntity
  8
0
  6
CONTINUOUS
 62
               7
100
AcDbLine
 10
2.8999999999999773
 20
13.199999999999932
 30
0.0
 11
2.8999999999999773
 21
12.199999999999932
 31
0.0
  0
LINE
  5
31E
100
AcDbEntity
  8
0
  6
CONTINUOUS
 62
               7
100
AcDbLine
 10
2.8999999999999773
 20
13.199999999999932
 30
0.0
 11
2.5
 21
13.199999999999932
 31
0.0
  0
LINE
  5
31F
100
AcDbEntity
  8
0
  6
CONTINUOUS
 62
               7
100
AcDbLine
 10
4.6999999999999318
 20
12.199999999999932
 30
0.0
 11
2.5
 21
12.199999999999932
 31
0.0
  0
LINE
  5
320
100
AcDbEntity
  8
0
  6
CONTINUOUS
 62
               7
100
AcDbLine
 10
1.5
 20
5.0
 30
0.0
 11
1.5
 21
0.0
 31
0.0
  0
LINE
  5
321
100
AcDbEntity
  8
0
  6
CONTINUOUS
 62
               7
100
AcDbLine
 10
-1.5
 20
5.0
 30
0.0
 11
-1.5
 21
0.0
 31
0.0
  0
LINE
  5
322
100
AcDbEntity
  8
0
  6
CONTINUOUS
 62
               7
100
AcDbLine
 10
1.5
 20
5.0
 30
0.0
 11
-1.5
 21
5.0
 31
0.0
  0
ARC
  5
323
100
AcDbEntity
  8
0
  6
CONTINUOUS
 62
               7
100
AcDbCircle
 10
-4.7000000000000455
 20
0.2999999999999545
 30
0.0
 40
0.3
100
AcDbArc
 50
179.99999999999963
 51
269.99999999999937
  0
LINE
  5
324
100
AcDbEntity
  8
0
  6
CONTINUOUS
 62
               7
100
AcDbLine
 10
5.0
 20
0.2999999999999545
 30
0.0
 11
5.0
 21
32.0
 31
0.0
  0
ARC
  5
325
100
AcDbEntity
  8
0
  6
CONTINUOUS
 62
               7
100
AcDbCircle
 10
4.6999999999999318
 20
0.2999999999999545
 30
0.0
 40
0.3
100
AcDbArc
 50
270.00000000000023
 51
0.0
  0
LINE
  5
326
100
AcDbEntity
  8
0
  6
CONTINUOUS
 62
               7
100
AcDbLine
 10
-4.7000000000000455
 20
0.0
 30
0.0
 11
4.6999999999999318
 21
0.0
 31
0.0
  0
ENDBLK
  5
327
100
AcDbEntity
  8
0
100
AcDbBlockEnd
  0
BLOCK
  5
328
100
AcDbEntity
  8
0
100
AcDbBlockBegin
  2
MV090MAS-8
 70
               0
 10
0.0
 20
0.0
 30
0.0
  3
MV090MAS-8
  1

  0
LINE
  5
329
100
AcDbEntity
  8
0
  6
CONTINUOUS
 62
               7
100
AcDbLine
 10
-5.959591794226526
 20
3.5
 30
0.0
 11
-34.85959179422656
 21
3.5
 31
0.0
  0
ARC
  5
32B
100
AcDbEntity
  8
0
  6
DASHED
 62
             200
100
AcDbCircle
 10
-3.959591794226526
 20
2.0
 30
0.0
 40
2.0
100
AcDbArc
 50
179.99999999999963
 51
269.99999999999937
  0
LINE
  5
32C
100
AcDbEntity
  8
0
  6
CENTER
 62
             200
100
AcDbLine
 10
-6.7559933522892379
 20
19.399999999999977
 30
0.0
 11
-0.9479263509211364
 21
19.399999999999977
 31
0.0
  0
LINE
  5
32D
100
AcDbEntity
  8
0
  6
CENTER
 62
             200
100
AcDbLine
 10
-6.7559933522892379
 20
6.3999999999999773
 30
0.0
 11
-0.9479263509211364
 21
6.3999999999999773
 31
0.0
  0
LINE
  5
32E
100
AcDbEntity
  8
0
  6
CENTER
 62
             200
100
AcDbLine
 10
0.0
 20
-1.2999999999999545
 30
0.0
 11
0.0
 21
3.7000000000000455
 31
0.0
  0
LINE
  5
32F
100
AcDbEntity
  8
0
  6
CENTER
 62
             200
100
AcDbLine
 10
-25.919183588453052
 20
-1.2999999999999545
 30
0.0
 11
-25.919183588453052
 21
3.7000000000000455
 31
0.0
  0
ARC
  5
330
100
AcDbEntity
  8
0
  6
CONTINUOUS
 62
               4
100
AcDbCircle
 10
-21.959591794226526
 20
2.0
 30
0.0
 40
2.0
100
AcDbArc
 50
269.99999999999937
 51
0.0
  0
ARC
  5
331
100
AcDbEntity
  8
0
  6
CONTINUOUS
 62
               4
100
AcDbCircle
 10
-5.459591794226526
 20
0.5
 30
0.0
 40
0.5
100
AcDbArc
 50
179.99999999999963
 51
269.99999999999937
  0
ARC
  5
332
100
AcDbEntity
  8
0
  6
CONTINUOUS
 62
               4
100
AcDbCircle
 10
-3.959591794226526
 20
2.0
 30
0.0
 40
0.4
100
AcDbArc
 50
179.99999999999963
 51
269.99999999999937
  0
ARC
  5
333
100
AcDbEntity
  8
0
  6
CONTINUOUS
 62
               4
100
AcDbCircle
 10
3.540408205773474
 20
0.5
 30
0.0
 40
0.5
100
AcDbArc
 50
269.99999999999937
 51
0.0
  0
ARC
  5
334
100
AcDbEntity
  8
0
  6
CONTINUOUS
 62
               4
100
AcDbCircle
 10
3.540408205773474
 20
1.1000000000000227
 30
0.0
 40
0.5
100
AcDbArc
 50
0.0
 51
89.999999999999815
  0
ARC
  5
335
100
AcDbEntity
  8
0
  6
CONTINUOUS
 62
               4
100
AcDbCircle
 10
-4.8595917942266169
 20
22.5
 30
0.0
 40
0.5
100
AcDbArc
 50
0.0
 51
89.999999999999815
  0
ARC
  5
336
100
AcDbEntity
  8
0
  6
CONTINUOUS
 62
               4
100
AcDbCircle
 10
-5.459591794226526
 20
22.5
 30
0.0
 40
0.5
100
AcDbArc
 50
89.999999999999815
 51
179.99999999999963
  0
LINE
  5
337
100
AcDbEntity
  8
0
  6
CONTINUOUS
 62
               4
100
AcDbLine
 10
-5.459591794226526
 20
23.0
 30
0.0
 11
-4.8595917942266169
 21
23.0
 31
0.0
  0
LINE
  5
338
100
AcDbEntity
  8
0
  6
CONTINUOUS
 62
               4
100
AcDbLine
 10
3.540408205773474
 20
1.6000000000000227
 30
0.0
 11
-5.9191835884531656
 21
1.6000000000000227
 31
0.0
  0
LINE
  5
339
100
AcDbEntity
  8
0
  6
CONTINUOUS
 62
               4
100
AcDbLine
 10
3.540408205773474
 20
0.0
 30
0.0
 11
-5.459591794226526
 21
0.0
 31
0.0
  0
LINE
  5
33A
100
AcDbEntity
  8
0
  6
CONTINUOUS
 62
               4
100
AcDbLine
 10
-4.3595917942266169
 20
22.5
 30
0.0
 11
-4.3595917942266169
 21
2.0
 31
0.0
  0
LINE
  5
33B
100
AcDbEntity
  8
0
  6
CONTINUOUS
 62
               4
100
AcDbLine
 10
-5.959591794226526
 20
3.5
 30
0.0
 11
-5.959591794226526
 21
0.5
 31
0.0
  0
LINE
  5
33C
100
AcDbEntity
  8
0
  6
CONTINUOUS
 62
               4
100
AcDbLine
 10
4.040408205773474
 20
1.1000000000000227
 30
0.0
 11
4.040408205773474
 21
0.5
 31
0.0
  0
LINE
  5
33D
100
AcDbEntity
  8
0
  6
CONTINUOUS
 62
               4
100
AcDbLine
 10
-2.0500000000000114
 20
21.649999999999977
 30
0.0
 11
-1.8000000000000114
 21
21.399999999999977
 31
0.0
  0
LINE
  5
33E
100
AcDbEntity
  8
0
  6
CONTINUOUS
 62
               4
100
AcDbLine
 10
-2.0500000000000114
 20
17.149999999999977
 30
0.0
 11
-1.8000000000000114
 21
17.399999999999977
 31
0.0
  0
LINE
  5
33F
100
AcDbEntity
  8
0
  6
CONTINUOUS
 62
               4
100
AcDbLine
 10
-2.0500000000000114
 20
21.649999999999977
 30
0.0
 11
-2.0500000000000114
 21
17.149999999999977
 31
0.0
  0
LINE
  5
340
100
AcDbEntity
  8
0
  6
CONTINUOUS
 62
               4
100
AcDbLine
 10
-1.8000000000000114
 20
21.399999999999977
 30
0.0
 11
-1.8000000000000114
 21
17.399999999999977
 31
0.0
  0
LINE
  5
341
100
AcDbEntity
  8
0
  6
CONTINUOUS
 62
               4
100
AcDbLine
 10
-2.0500000000000114
 20
21.649999999999977
 30
0.0
 11
-4.3999999999999773
 21
21.649999999999977
 31
0.0
  0
LINE
  5
342
100
AcDbEntity
  8
0
  6
CONTINUOUS
 62
               4
100
AcDbLine
 10
-2.0500000000000114
 20
17.149999999999977
 30
0.0
 11
-4.3999999999999773
 21
17.149999999999977
 31
0.0
  0
LINE
  5
343
100
AcDbEntity
  8
0
  6
CONTINUOUS
 62
               4
100
AcDbLine
 10
-2.0500000000000114
 20
8.6499999999999773
 30
0.0
 11
-4.3999999999999773
 21
8.6499999999999773
 31
0.0
  0
LINE
  5
344
100
AcDbEntity
  8
0
  6
CONTINUOUS
 62
               4
100
AcDbLine
 10
-2.0500000000000114
 20
4.1499999999999773
 30
0.0
 11
-4.3999999999999773
 21
4.1499999999999773
 31
0.0
  0
LINE
  5
345
100
AcDbEntity
  8
0
  6
CONTINUOUS
 62
               4
100
AcDbLine
 10
-1.8000000000000114
 20
8.3999999999999773
 30
0.0
 11
-1.8000000000000114
 21
4.3999999999999773
 31
0.0
  0
LINE
  5
346
100
AcDbEntity
  8
0
  6
CONTINUOUS
 62
               4
100
AcDbLine
 10
-2.0500000000000114
 20
8.6499999999999773
 30
0.0
 11
-2.0500000000000114
 21
4.1499999999999773
 31
0.0
  0
LINE
  5
347
100
AcDbEntity
  8
0
  6
CONTINUOUS
 62
               4
100
AcDbLine
 10
-2.0500000000000114
 20
4.1499999999999773
 30
0.0
 11
-1.8000000000000114
 21
4.3999999999999773
 31
0.0
  0
LINE
  5
348
100
AcDbEntity
  8
0
  6
CONTINUOUS
 62
               4
100
AcDbLine
 10
-2.0500000000000114
 20
8.6499999999999773
 30
0.0
 11
-1.8000000000000114
 21
8.3999999999999773
 31
0.0
  0
LINE
  5
349
100
AcDbEntity
  8
0
  6
CONTINUOUS
 62
               4
100
AcDbLine
 10
-21.559591794226435
 20
3.5
 30
0.0
 11
-21.559591794226435
 21
2.0
 31
0.0
  0
LINE
  5
34A
100
AcDbEntity
  8
0
  6
CONTINUOUS
 62
               4
100
AcDbLine
 10
-19.959591794226526
 20
3.5
 30
0.0
 11
-19.959591794226526
 21
0.5
 31
0.0
  0
LINE
  5
34B
100
AcDbEntity
  8
0
  6
CONTINUOUS
 62
               4
100
AcDbLine
 10
-29.959591794226526
 20
1.1000000000000227
 30
0.0
 11
-29.959591794226526
 21
0.5
 31
0.0
  0
LINE
  5
34C
100
AcDbEntity
  8
0
  6
CONTINUOUS
 62
               4
100
AcDbLine
 10
-29.459591794226526
 20
0.0
 30
0.0
 11
-20.459591794226526
 21
0.0
 31
0.0
  0
LINE
  5
34D
100
AcDbEntity
  8
0
  6
CONTINUOUS
 62
               4
100
AcDbLine
 10
-29.459591794226526
 20
1.6000000000000227
 30
0.0
 11
-21.959591794226526
 21
1.6000000000000227
 31
0.0
  0
ARC
  5
34E
100
AcDbEntity
  8
0
  6
CONTINUOUS
 62
               4
100
AcDbCircle
 10
-29.459591794226526
 20
1.1000000000000227
 30
0.0
 40
0.5
100
AcDbArc
 50
89.999999999999815
 51
179.99999999999963
  0
ARC
  5
34F
100
AcDbEntity
  8
0
  6
CONTINUOUS
 62
               4
100
AcDbCircle
 10
-29.459591794226526
 20
0.5
 30
0.0
 40
0.5
100
AcDbArc
 50
179.99999999999963
 51
269.99999999999937
  0
ARC
  5
350
100
AcDbEntity
  8
0
  6
CONTINUOUS
 62
               4
100
AcDbCircle
 10
-21.959591794226526
 20
2.0
 30
0.0
 40
0.4
100
AcDbArc
 50
269.99999999999937
 51
0.0
  0
ARC
  5
351
100
AcDbEntity
  8
0
  6
CONTINUOUS
 62
               4
100
AcDbCircle
 10
-20.459591794226526
 20
0.5
 30
0.0
 40
0.5
100
AcDbArc
 50
269.99999999999937
 51
0.0
  0
LINE
  5
352
100
AcDbEntity
  8
0
  6
CONTINUOUS
 62
               7
100
AcDbLine
 10
42.040408205773645
 20
69.500000000000057
 30
0.0
 11
42.040408205773645
 21
3.5
 31
0.0
  0
ARC
  5
353
100
AcDbEntity
  8
0
  6
CONTINUOUS
 62
               7
100
AcDbCircle
 10
-2.4095917942264009
 20
68.000000000000057
 30
0.0
 40
1.5
100
AcDbArc
 50
89.999999999999815
 51
179.99999999999963
  0
ARC
  5
354
100
AcDbEntity
  8
0
  6
CONTINUOUS
 62
               7
100
AcDbCircle
 10
4.4904082057735764
 20
68.000000000000057
 30
0.0
 40
1.5
100
AcDbArc
 50
0.0
 51
89.999999999999815
  0
LINE
  5
355
100
AcDbEntity
  8
0
  6
CONTINUOUS
 62
               7
100
AcDbLine
 10
-3.9095917942264009
 20
61.800000000000011
 30
0.0
 11
-3.6095917942263895
 21
61.500000000000057
 31
0.0
  0
LINE
  5
356
100
AcDbEntity
  8
0
  6
CONTINUOUS
 62
               7
100
AcDbLine
 10
5.9904082057735764
 20
61.800000000000011
 30
0.0
 11
5.6904082057736218
 21
61.500000000000057
 31
0.0
  0
LINE
  5
357
100
AcDbEntity
  8
0
  6
CONTINUOUS
 62
               7
100
AcDbLine
 10
-3.9095917942264009
 20
61.800000000000011
 30
0.0
 11
-3.9095917942264009
 21
68.000000000000057
 31
0.0
  0
LINE
  5
358
100
AcDbEntity
  8
0
  6
CONTINUOUS
 62
               7
100
AcDbLine
 10
5.9904082057735764
 20
61.800000000000011
 30
0.0
 11
5.9904082057735764
 21
68.000000000000057
 31
0.0
  0
LINE
  5
359
100
AcDbEntity
  8
0
  6
CONTINUOUS
 62
               7
100
AcDbLine
 10
-0.4595917942264123
 20
61.500000000000057
 30
0.0
 11
-5.9595917942264123
 21
61.500000000000057
 31
0.0
  0
LINE
  5
35A
100
AcDbEntity
  8
0
  6
CONTINUOUS
 62
               7
100
AcDbLine
 10
-0.4595917942264123
 20
61.500000000000057
 30
0.0
 11
2.5404082057735877
 21
61.500000000000057
 31
0.0
  0
LINE
  5
35B
100
AcDbEntity
  8
0
  6
CONTINUOUS
 62
               7
100
AcDbLine
 10
17.040408205773645
 20
61.500000000000057
 30
0.0
 11
2.5404082057735877
 21
61.500000000000057
 31
0.0
  0
LINE
  5
35C
100
AcDbEntity
  8
0
  6
CONTINUOUS
 62
               7
100
AcDbLine
 10
27.040408205773645
 20
69.500000000000057
 30
0.0
 11
27.040408205773645
 21
70.000000000000057
 31
0.0
  0
LINE
  5
35D
100
AcDbEntity
  8
0
  6
CONTINUOUS
 62
               7
100
AcDbLine
 10
17.040408205773645
 20
24.5
 30
0.0
 11
19.540408205773645
 21
24.5
 31
0.0
  0
LINE
  5
35E
100
AcDbEntity
  8
0
  6
CONTINUOUS
 62
               7
100
AcDbLine
 10
21.040408205773645
 20
69.500000000000057
 30
0.0
 11
21.040408205773645
 21
70.000000000000057
 31
0.0
  0
LINE
  5
35F
100
AcDbEntity
  8
0
  6
CONTINUOUS
 62
               7
100
AcDbLine
 10
27.040408205773645
 20
70.000000000000057
 30
0.0
 11
21.040408205773645
 21
70.000000000000057
 31
0.0
  0
LINE
  5
360
100
AcDbEntity
  8
0
  6
CONTINUOUS
 62
               7
100
AcDbLine
 10
42.040408205773645
 20
69.500000000000057
 30
0.0
 11
17.040408205773645
 21
69.500000000000057
 31
0.0
  0
LINE
  5
361
100
AcDbEntity
  8
0
  6
CONTINUOUS
 62
               7
100
AcDbLine
 10
17.040408205773645
 20
69.500000000000057
 30
0.0
 11
17.040408205773645
 21
17.5
 31
0.0
  0
LINE
  5
362
100
AcDbEntity
  8
0
  6
CONTINUOUS
 62
               7
100
AcDbLine
 10
-1.8000000000000114
 20
17.5
 30
0.0
 11
42.040408205773645
 21
17.5
 31
0.0
  0
LINE
  5
363
100
AcDbEntity
  8
0
  6
CENTER
 62
               2
100
AcDbLine
 10
-11.959591794226526
 20
6.5
 30
0.0
 11
-11.959591794226526
 21
18.5
 31
0.0
  0
CIRCLE
  5
364
100
AcDbEntity
  8
0
  6
CONTINUOUS
 62
               7
100
AcDbCircle
 10
-15.959591794226526
 20
43.500000000000057
 30
0.0
 40
2.1000000000000001
  0
CIRCLE
  5
365
100
AcDbEntity
  8
0
  6
CONTINUOUS
 62
               2
100
AcDbCircle
 10
-15.959591794226526
 20
43.500000000000057
 30
0.0
 40
2.5
  0
LINE
  5
366
100
AcDbEntity
  8
0
  6
CENTER
 62
               2
100
AcDbLine
 10
-15.959591794226526
 20
39.560434143137911
 30
0.0
 11
-15.959591794226526
 21
47.250915646971691
 31
0.0
  0
CIRCLE
  5
367
100
AcDbEntity
  8
0
  6
CONTINUOUS
 62
               7
100
AcDbCircle
 10
-9.959591794226526
 20
31.000000000000057
 30
0.0
 40
2.1000000000000001
  0
CIRCLE
  5
368
100
AcDbEntity
  8
0
  6
CONTINUOUS
 62
               2
100
AcDbCircle
 10
-9.959591794226526
 20
31.000000000000057
 30
0.0
 40
2.5
  0
LINE
  5
369
100
AcDbEntity
  8
0
  6
CENTER
 62
               2
100
AcDbLine
 10
-9.959591794226526
 20
27.137348636944466
 30
0.0
 11
-9.959591794226526
 21
34.679936265704839
 31
0.0
  0
LINE
  5
36A
100
AcDbEntity
  8
0
  6
CENTER
 62
               2
100
AcDbLine
 10
-13.664788846938791
 20
31.000000000000057
 30
0.0
 11
-6.8616705935472169
 21
31.000000000000057
 31
0.0
  0
LINE
  5
36B
100
AcDbEntity
  8
0
  6
CENTER
 62
               2
100
AcDbLine
 10
-18.478956969839942
 20
12.5
 30
0.0
 11
-5.6464811290578609
 21
12.5
 31
0.0
  0
CIRCLE
  5
36C
100
AcDbEntity
  8
0
  6
CONTINUOUS
 62
               2
100
AcDbCircle
 10
-11.959591794226526
 20
12.5
 30
0.0
 40
5.0
  0
CIRCLE
  5
36D
100
AcDbEntity
  8
0
  6
CONTINUOUS
 62
               7
100
AcDbCircle
 10
-11.959591794226526
 20
12.5
 30
0.0
 40
4.25
  0
LINE
  5
36E
100
AcDbEntity
  8
0
  6
CENTER
 62
               2
100
AcDbLine
 10
-19.284756099740491
 20
43.500000000000057
 30
0.0
 11
-12.481637846348917
 21
43.500000000000057
 31
0.0
  0
LINE
  5
36F
100
AcDbEntity
  8
0
  6
CONTINUOUS
 62
               7
100
AcDbLine
 10
-19.959591794226526
 20
55.000000000000057
 30
0.0
 11
-5.959591794226526
 21
55.000000000000057
 31
0.0
  0
LINE
  5
370
100
AcDbEntity
  8
0
  6
CONTINUOUS
 62
               7
100
AcDbLine
 10
-5.959591794226526
 20
61.500000000000057
 30
0.0
 11
-5.959591794226526
 21
3.5
 31
0.0
  0
LINE
  5
371
100
AcDbEntity
  8
0
  6
CONTINUOUS
 62
               7
100
AcDbLine
 10
-19.959591794226526
 20
54.999999999999829
 30
0.0
 11
-19.959591794226526
 21
3.5
 31
0.0
  0
LINE
  5
372
100
AcDbEntity
  8
0
  6
CONTINUOUS
 62
               7
100
AcDbLine
 10
-33.959591794226526
 20
54.999999999999829
 30
0.0
 11
-19.959591794226526
 21
54.999999999999829
 31
0.0
  0
LINE
  5
373
100
AcDbEntity
  8
0
  6
CONTINUOUS
 62
               7
100
AcDbLine
 10
-33.959591794226526
 20
10.999999999999886
 30
0.0
 11
-19.959591794226526
 21
10.999999999999886
 31
0.0
  0
LINE
  5
374
100
AcDbEntity
  8
0
  6
CONTINUOUS
 62
               7
100
AcDbLine
 10
-44.759591794226537
 20
39.199999999999875
 30
0.0
 11
-37.959591794226526
 21
39.199999999999875
 31
0.0
  0
LINE
  5
375
100
AcDbEntity
  8
0
  6
CONTINUOUS
 62
               7
100
AcDbLine
 10
-44.759591794226537
 20
39.999999999999829
 30
0.0
 11
-37.959591794226526
 21
39.999999999999829
 31
0.0
  0
LINE
  5
376
100
AcDbEntity
  8
0
  6
CONTINUOUS
 62
               7
100
AcDbLine
 10
-44.759591794226537
 20
39.999999999999829
 30
0.0
 11
-44.759591794226537
 21
39.199999999999875
 31
0.0
  0
LINE
  5
377
100
AcDbEntity
  8
0
  6
CONTINUOUS
 62
               7
100
AcDbLine
 10
-33.959591794226526
 20
38.499999999999829
 30
0.0
 11
-45.459591794226526
 21
38.499999999999829
 31
0.0
  0
LINE
  5
378
100
AcDbEntity
  8
0
  6
CONTINUOUS
 62
               7
100
AcDbLine
 10
-33.959591794226526
 20
70.499999999999829
 30
0.0
 11
-34.85959179422656
 21
70.499999999999829
 31
0.0
  0
LINE
  5
379
100
AcDbEntity
  8
0
  6
CONTINUOUS
 62
               7
100
AcDbLine
 10
-45.459591794226526
 20
38.499999999999829
 30
0.0
 11
-45.459591794226526
 21
44.282855567520357
 31
0.0
  0
LINE
  5
37A
100
AcDbEntity
  8
0
  6
CONTINUOUS
 62
               7
100
AcDbLine
 10
-79.589591794226465
 20
54.89999999999992
 30
0.0
 11
-79.589591794226465
 21
55.699999999999875
 31
0.0
  0
LINE
  5
37B
100
AcDbEntity
  8
0
  6
CONTINUOUS
 62
               7
100
AcDbLine
 10
-74.589591794226465
 20
54.584999999999866
 30
0.0
 11
-74.589591794226465
 21
56.01499999999993
 31
0.0
  0
LINE
  5
37C
100
AcDbEntity
  8
0
  6
CONTINUOUS
 62
               7
100
AcDbLine
 10
-74.589591794226465
 20
55.699999999999875
 30
0.0
 11
-79.589591794226465
 21
55.699999999999875
 31
0.0
  0
LINE
  5
37D
100
AcDbEntity
  8
0
  6
CONTINUOUS
 62
               7
100
AcDbLine
 10
-74.589591794226465
 20
54.89999999999992
 30
0.0
 11
-79.589591794226465
 21
54.89999999999992
 31
0.0
  0
LINE
  5
37E
100
AcDbEntity
  8
0
  6
CONTINUOUS
 62
               7
100
AcDbLine
 10
-70.410925127559835
 20
54.584999999999866
 30
0.0
 11
-74.589591794226465
 21
54.584999999999866
 31
0.0
  0
LINE
  5
37F
100
AcDbEntity
  8
0
  6
CONTINUOUS
 62
               7
100
AcDbLine
 10
-70.029591794226519
 20
56.01499999999993
 30
0.0
 11
-74.589591794226465
 21
56.01499999999993
 31
0.0
  0
LINE
  5
380
100
AcDbEntity
  8
0
  6
CONTINUOUS
 62
               2
100
AcDbLine
 10
-69.409591794226515
 20
58.339999999999975
 30
0.0
 11
-71.009591794226537
 21
52.339999999999975
 31
0.0
  0
LINE
  5
381
100
AcDbEntity
  8
0
  6
CONTINUOUS
 62
               2
100
AcDbLine
 10
-68.169591794226505
 20
58.339999999999975
 30
0.0
 11
-69.769591794226528
 21
52.339999999999975
 31
0.0
  0
LINE
  5
382
100
AcDbEntity
  8
0
  6
CONTINUOUS
 62
               7
100
AcDbLine
 10
-64.159591794226515
 20
56.01499999999993
 30
0.0
 11
-68.78959179422651
 21
56.01499999999993
 31
0.0
  0
LINE
  5
383
100
AcDbEntity
  8
0
  6
CONTINUOUS
 62
               7
100
AcDbLine
 10
-64.159591794226515
 20
54.584999999999866
 30
0.0
 11
-69.170925127559826
 21
54.584999999999866
 31
0.0
  0
LINE
  5
384
100
AcDbEntity
  8
0
  6
CONTINUOUS
 62
               7
100
AcDbLine
 10
-45.459591794226526
 20
44.282855567520357
 30
0.0
 11
-48.959591794226526
 21
44.89999999999992
 31
0.0
  0
LINE
  5
385
100
AcDbEntity
  8
0
  6
CONTINUOUS
 62
               7
100
AcDbLine
 10
-47.659591794226515
 20
68.999999999999829
 30
0.0
 11
-35.159591794226515
 21
68.999999999999829
 31
0.0
  0
LINE
  5
386
100
AcDbEntity
  8
0
  6
CONTINUOUS
 62
               7
100
AcDbLine
 10
-34.85959179422656
 20
70.499999999999829
 30
0.0
 11
-35.159591794226515
 21
70.199999999999875
 31
0.0
  0
LINE
  5
387
100
AcDbEntity
  8
0
  6
CONTINUOUS
 62
               7
100
AcDbLine
 10
-53.559591794226492
 20
52.40192156302993
 30
0.0
 11
-53.559591794226492
 21
52.89999999999992
 31
0.0
  0
LINE
  5
388
100
AcDbEntity
  8
0
  6
CONTINUOUS
 62
               7
100
AcDbLine
 10
-48.959591794226526
 20
51.590817451771102
 30
0.0
 11
-53.559591794226492
 21
52.40192156302993
 31
0.0
  0
LINE
  5
389
100
AcDbEntity
  8
0
  6
CONTINUOUS
 62
               7
100
AcDbLine
 10
-47.659591794226515
 20
52.89999999999992
 30
0.0
 11
-53.559591794226492
 21
52.89999999999992
 31
0.0
  0
LINE
  5
38A
100
AcDbEntity
  8
0
  6
CONTINUOUS
 62
               7
100
AcDbLine
 10
-48.959591794226526
 20
44.89999999999992
 30
0.0
 11
-48.959591794226526
 21
51.590817451771102
 31
0.0
  0
LINE
  5
38B
100
AcDbEntity
  8
0
  6
CONTINUOUS
 62
               7
100
AcDbLine
 10
-35.159591794226515
 20
70.499999999999829
 30
0.0
 11
-35.159591794226515
 21
68.999999999999829
 31
0.0
  0
LINE
  5
38C
100
AcDbEntity
  8
0
  6
CONTINUOUS
 62
               7
100
AcDbLine
 10
-47.659591794226515
 20
68.999999999999829
 30
0.0
 11
-47.659591794226515
 21
52.89999999999992
 31
0.0
  0
LINE
  5
38D
100
AcDbEntity
  8
0
  6
CONTINUOUS
 62
               7
100
AcDbLine
 10
-35.159591794226515
 20
70.499999999999829
 30
0.0
 11
-53.259591794226537
 21
70.499999999999829
 31
0.0
  0
ARC
  5
38E
100
AcDbEntity
  8
0
  6
CONTINUOUS
 62
               7
100
AcDbCircle
 10
-53.259591794226537
 20
70.199999999999875
 30
0.0
 40
0.3
100
AcDbArc
 50
89.999999999999773
 51
179.99999999999957
  0
LINE
  5
38F
100
AcDbEntity
  8
0
  6
CONTINUOUS
 62
               7
100
AcDbLine
 10
-47.959591794226526
 20
45.39999999999992
 30
0.0
 11
-47.959591794226526
 21
48.599999999999966
 31
0.0
  0
LINE
  5
390
100
AcDbEntity
  8
0
  6
CONTINUOUS
 62
               7
100
AcDbLine
 10
-48.959591794226526
 20
48.599999999999966
 30
0.0
 11
-47.959591794226526
 21
48.599999999999966
 31
0.0
  0
LINE
  5
391
100
AcDbEntity
  8
0
  6
CONTINUOUS
 62
               7
100
AcDbLine
 10
-48.959591794226526
 20
45.39999999999992
 30
0.0
 11
-47.959591794226526
 21
45.39999999999992
 31
0.0
  0
LINE
  5
392
100
AcDbEntity
  8
0
  6
CONTINUOUS
 62
               7
100
AcDbLine
 10
-48.059591794226492
 20
45.499999999999829
 30
0.0
 11
-47.959591794226526
 21
45.499999999999829
 31
0.0
  0
LINE
  5
393
100
AcDbEntity
  8
0
  6
CONTINUOUS
 62
               7
100
AcDbLine
 10
-48.059591794226492
 20
48.499999999999829
 30
0.0
 11
-47.959591794226526
 21
48.499999999999829
 31
0.0
  0
LINE
  5
394
100
AcDbEntity
  8
0
  6
CONTINUOUS
 62
               7
100
AcDbLine
 10
-48.559591794226492
 20
45.999999999999829
 30
0.0
 11
-48.559591794226492
 21
47.999999999999829
 31
0.0
  0
ARC
  5
395
100
AcDbEntity
  8
0
  6
CONTINUOUS
 62
               7
100
AcDbCircle
 10
-48.059591794226492
 20
47.999999999999829
 30
0.0
 40
0.5
100
AcDbArc
 50
89.999999999999815
 51
179.99999999999963
  0
ARC
  5
396
100
AcDbEntity
  8
0
  6
CONTINUOUS
 62
               7
100
AcDbCircle
 10
-48.059591794226492
 20
45.999999999999829
 30
0.0
 40
0.5
100
AcDbArc
 50
179.99999999999963
 51
269.99999999999937
  0
LINE
  5
397
100
AcDbEntity
  8
0
  6
CONTINUOUS
 62
               7
100
AcDbLine
 10
-59.059591794060168
 20
52.999999999999829
 30
0.0
 11
-47.659591794226515
 21
52.999999999999829
 31
0.0
  0
LINE
  5
398
100
AcDbEntity
  8
0
  6
CONTINUOUS
 62
               7
100
AcDbLine
 10
-59.059591794060168
 20
58.300000000000011
 30
0.0
 11
-54.55959179422652
 21
58.300000000000011
 31
0.0
  0
LINE
  5
399
100
AcDbEntity
  8
0
  6
CONTINUOUS
 62
               7
100
AcDbLine
 10
-55.625617198010957
 20
58.800000000000011
 30
0.0
 11
-62.159591794226515
 21
58.800000000000011
 31
0.0
  0
LINE
  5
39A
100
AcDbEntity
  8
0
  6
CONTINUOUS
 62
               7
100
AcDbLine
 10
-63.159591794226515
 20
52.999999999999829
 30
0.0
 11
-63.448266928821283
 21
52.499999999999829
 31
0.0
  0
LINE
  5
39B
100
AcDbEntity
  8
0
  6
CONTINUOUS
 62
               7
100
AcDbLine
 10
-63.448266928821283
 20
52.499999999999829
 30
0.0
 11
-64.159591794226515
 21
52.499999999999829
 31
0.0
  0
LINE
  5
39C
100
AcDbEntity
  8
0
  6
CONTINUOUS
 62
               7
100
AcDbLine
 10
-62.159591794226515
 20
58.800000000000011
 30
0.0
 11
-62.448266928821283
 21
59.300000000000011
 31
0.0
  0
LINE
  5
39D
100
AcDbEntity
  8
0
  6
CONTINUOUS
 62
               7
100
AcDbLine
 10
-62.448266928821283
 20
59.300000000000011
 30
0.0
 11
-63.159591794226515
 21
59.300000000000011
 31
0.0
  0
LINE
  5
39E
100
AcDbEntity
  8
0
  6
CONTINUOUS
 62
               7
100
AcDbLine
 10
-59.059591794226492
 20
53.699999999999875
 30
0.0
 11
-59.159591794226515
 21
53.699999999999875
 31
0.0
  0
LINE
  5
39F
100
AcDbEntity
  8
0
  6
CONTINUOUS
 62
               7
100
AcDbLine
 10
-64.159591794226515
 20
52.499999999999829
 30
0.0
 11
-64.159591794226515
 21
56.949999999999832
 31
0.0
  0
LINE
  5
3A0
100
AcDbEntity
  8
0
  6
CONTINUOUS
 62
               7
100
AcDbLine
 10
-63.159591794226515
 20
58.099755867204351
 30
0.0
 11
-61.743155885206427
 21
57.849999999999838
 31
0.0
  0
LINE
  5
3A1
100
AcDbEntity
  8
0
  6
CONTINUOUS
 62
               7
100
AcDbLine
 10
-59.059591794226492
 20
57.800000000000011
 30
0.0
 11
-59.430841794226573
 21
57.800000000000011
 31
0.0
  0
LINE
  5
3A2
100
AcDbEntity
  8
0
  6
CONTINUOUS
 62
               7
100
AcDbLine
 10
-59.159591794226515
 20
57.800000000000011
 30
0.0
 11
-59.159591794226515
 21
56.790697674418396
 31
0.0
  0
LINE
  5
3A3
100
AcDbEntity
  8
0
  6
CONTINUOUS
 62
               7
100
AcDbLine
 10
-63.159591794226515
 20
58.099755867204351
 30
0.0
 11
-63.159591794226515
 21
59.300000000000011
 31
0.0
  0
LINE
  5
3A4
100
AcDbEntity
  8
0
  6
CONTINUOUS
 62
               7
100
AcDbLine
 10
-59.159591794226515
 20
52.999999999999829
 30
0.0
 11
-63.159591794226515
 21
52.999999999999829
 31
0.0
  0
LINE
  5
3A5
100
AcDbEntity
  8
0
  6
CONTINUOUS
 62
               7
100
AcDbLine
 10
-59.059591794226492
 20
52.999999999999829
 30
0.0
 11
-59.059591794226492
 21
58.300000000000011
 31
0.0
  0
LINE
  5
3A6
100
AcDbEntity
  8
0
  6
CONTINUOUS
 62
               7
100
AcDbLine
 10
-53.559591794226492
 20
52.999999999999829
 30
0.0
 11
-53.559591794226492
 21
70.199999999999875
 31
0.0
  0
LINE
  5
3A7
100
AcDbEntity
  8
0
  6
CONTINUOUS
 62
               7
100
AcDbLine
 10
-54.75959179422648
 20
58.300000000000011
 30
0.0
 11
-55.625617198010957
 21
58.800000000000011
 31
0.0
  0
LINE
  5
3A8
100
AcDbEntity
  8
0
  6
CONTINUOUS
 62
               7
100
AcDbLine
 10
-44.759591794226537
 20
34.800000000000011
 30
0.0
 11
-37.159591794226515
 21
34.800000000000011
 31
0.0
  0
LINE
  5
3A9
100
AcDbEntity
  8
0
  6
CONTINUOUS
 62
               7
100
AcDbLine
 10
-44.759591794226537
 20
34.000000000000057
 30
0.0
 11
-37.159591794226515
 21
34.000000000000057
 31
0.0
  0
LINE
  5
3AA
100
AcDbEntity
  8
0
  6
CONTINUOUS
 62
               7
100
AcDbLine
 10
-44.759591794226537
 20
34.000000000000057
 30
0.0
 11
-44.759591794226537
 21
34.800000000000011
 31
0.0
  0
LINE
  5
3AB
100
AcDbEntity
  8
0
  6
CONTINUOUS
 62
               7
100
AcDbLine
 10
-37.159591794226515
 20
34.800000000000011
 30
0.0
 11
-37.159591794226515
 21
34.000000000000057
 31
0.0
  0
LINE
  5
3AC
100
AcDbEntity
  8
0
  6
CONTINUOUS
 62
               7
100
AcDbLine
 10
-33.959591794226526
 20
35.500000000000057
 30
0.0
 11
-45.459591794226526
 21
35.500000000000057
 31
0.0
  0
LINE
  5
3AD
100
AcDbEntity
  8
0
  6
CONTINUOUS
 62
               7
100
AcDbLine
 10
42.040408205773645
 20
3.5
 30
0.0
 11
-4.3595917942266169
 21
3.5
 31
0.0
  0
LINE
  5
3AE
100
AcDbEntity
  8
0
  6
CONTINUOUS
 62
               7
100
AcDbLine
 10
-45.459591794226526
 20
35.500000000000057
 30
0.0
 11
-45.459591794226526
 21
29.717144432479529
 31
0.0
  0
LINE
  5
3AF
100
AcDbEntity
  8
0
  6
CONTINUOUS
 62
               7
100
AcDbLine
 10
-79.589591794226465
 20
18.299999999999955
 30
0.0
 11
-79.589591794226465
 21
19.099999999999909
 31
0.0
  0
LINE
  5
3B0
100
AcDbEntity
  8
0
  6
CONTINUOUS
 62
               7
100
AcDbLine
 10
-74.589591794226465
 20
17.9849999999999
 30
0.0
 11
-74.589591794226465
 21
19.414999999999964
 31
0.0
  0
LINE
  5
3B1
100
AcDbEntity
  8
0
  6
CONTINUOUS
 62
               7
100
AcDbLine
 10
-74.589591794226465
 20
19.099999999999909
 30
0.0
 11
-79.589591794226465
 21
19.099999999999909
 31
0.0
  0
LINE
  5
3B2
100
AcDbEntity
  8
0
  6
CONTINUOUS
 62
               7
100
AcDbLine
 10
-74.589591794226465
 20
18.299999999999955
 30
0.0
 11
-79.589591794226465
 21
18.299999999999955
 31
0.0
  0
LINE
  5
3B3
100
AcDbEntity
  8
0
  6
CONTINUOUS
 62
               7
100
AcDbLine
 10
-70.410925127559835
 20
17.9849999999999
 30
0.0
 11
-74.589591794226465
 21
17.9849999999999
 31
0.0
  0
LINE
  5
3B4
100
AcDbEntity
  8
0
  6
CONTINUOUS
 62
               7
100
AcDbLine
 10
-70.029591794226519
 20
19.414999999999964
 30
0.0
 11
-74.589591794226465
 21
19.414999999999964
 31
0.0
  0
LINE
  5
3B5
100
AcDbEntity
  8
0
  6
CONTINUOUS
 62
               2
100
AcDbLine
 10
-69.409591794226515
 20
21.739999999999895
 30
0.0
 11
-71.009591794226537
 21
15.739999999999895
 31
0.0
  0
LINE
  5
3B6
100
AcDbEntity
  8
0
  6
CONTINUOUS
 62
               2
100
AcDbLine
 10
-68.169591794226505
 20
21.739999999999895
 30
0.0
 11
-69.769591794226528
 21
15.739999999999895
 31
0.0
  0
LINE
  5
3B7
100
AcDbEntity
  8
0
  6
CONTINUOUS
 62
               7
100
AcDbLine
 10
-64.159591794226515
 20
19.414999999999964
 30
0.0
 11
-68.78959179422651
 21
19.414999999999964
 31
0.0
  0
LINE
  5
3B8
100
AcDbEntity
  8
0
  6
CONTINUOUS
 62
               7
100
AcDbLine
 10
-64.159591794226515
 20
17.9849999999999
 30
0.0
 11
-69.170925127559826
 21
17.9849999999999
 31
0.0
  0
LINE
  5
3B9
100
AcDbEntity
  8
0
  6
CONTINUOUS
 62
               7
100
AcDbLine
 10
-45.459591794226526
 20
29.717144432479529
 30
0.0
 11
-48.959591794226526
 21
29.099999999999966
 31
0.0
  0
LINE
  5
3BA
100
AcDbEntity
  8
0
  6
CONTINUOUS
 62
               7
100
AcDbLine
 10
-47.659591794226515
 20
5.0
 30
0.0
 11
-35.159591794226515
 21
5.0
 31
0.0
  0
LINE
  5
3BB
100
AcDbEntity
  8
0
  6
CONTINUOUS
 62
               7
100
AcDbLine
 10
-34.85959179422656
 20
3.5
 30
0.0
 11
-35.159591794226515
 21
3.7999999999999545
 31
0.0
  0
LINE
  5
3BC
100
AcDbEntity
  8
0
  6
CONTINUOUS
 62
               7
100
AcDbLine
 10
-52.959591794226526
 20
21.0
 30
0.0
 11
-52.959591794226526
 21
21.100000000000023
 31
0.0
  0
LINE
  5
3BD
100
AcDbEntity
  8
0
  6
CONTINUOUS
 62
               7
100
AcDbLine
 10
-53.559591794226492
 20
21.598078436969899
 30
0.0
 11
-53.559591794226492
 21
21.100000000000023
 31
0.0
  0
LINE
  5
3BE
100
AcDbEntity
  8
0
  6
CONTINUOUS
 62
               7
100
AcDbLine
 10
-48.959591794226526
 20
22.409182548228841
 30
0.0
 11
-53.559591794226492
 21
21.598078436969899
 31
0.0
  0
LINE
  5
3BF
100
AcDbEntity
  8
0
  6
CONTINUOUS
 62
               7
100
AcDbLine
 10
-47.659591794226515
 20
21.100000000000023
 30
0.0
 11
-53.559591794226492
 21
21.100000000000023
 31
0.0
  0
LINE
  5
3C0
100
AcDbEntity
  8
0
  6
CONTINUOUS
 62
               7
100
AcDbLine
 10
-48.959591794226526
 20
29.099999999999966
 30
0.0
 11
-48.959591794226526
 21
22.409182548228841
 31
0.0
  0
LINE
  5
3C1
100
AcDbEntity
  8
0
  6
CONTINUOUS
 62
               7
100
AcDbLine
 10
-35.159591794226515
 20
3.5
 30
0.0
 11
-35.159591794226515
 21
5.0
 31
0.0
  0
LINE
  5
3C2
100
AcDbEntity
  8
0
  6
CONTINUOUS
 62
               7
100
AcDbLine
 10
-47.659591794226515
 20
5.0
 30
0.0
 11
-47.659591794226515
 21
21.100000000000023
 31
0.0
  0
LINE
  5
3C3
100
AcDbEntity
  8
0
  6
CONTINUOUS
 62
               7
100
AcDbLine
 10
-35.159591794226515
 20
3.5
 30
0.0
 11
-53.259591794226537
 21
3.5
 31
0.0
  0
ARC
  5
3C4
100
AcDbEntity
  8
0
  6
CONTINUOUS
 62
               7
100
AcDbCircle
 10
-53.259591794226537
 20
3.7999999999999545
 30
0.0
 40
0.3
100
AcDbArc
 50
179.99999999999963
 51
269.99999999999937
  0
LINE
  5
3C5
100
AcDbEntity
  8
0
  6
CONTINUOUS
 62
               7
100
AcDbLine
 10
-47.959591794226526
 20
28.599999999999966
 30
0.0
 11
-47.959591794226526
 21
25.399999999999977
 31
0.0
  0
LINE
  5
3C6
100
AcDbEntity
  8
0
  6
CONTINUOUS
 62
               7
100
AcDbLine
 10
-48.959591794226526
 20
25.399999999999977
 30
0.0
 11
-47.959591794226526
 21
25.399999999999977
 31
0.0
  0
LINE
  5
3C7
100
AcDbEntity
  8
0
  6
CONTINUOUS
 62
               7
100
AcDbLine
 10
-48.959591794226526
 20
28.599999999999966
 30
0.0
 11
-47.959591794226526
 21
28.599999999999966
 31
0.0
  0
LINE
  5
3C8
100
AcDbEntity
  8
0
  6
CONTINUOUS
 62
               7
100
AcDbLine
 10
-48.059591794226492
 20
28.500000000000057
 30
0.0
 11
-47.959591794226526
 21
28.500000000000057
 31
0.0
  0
LINE
  5
3C9
100
AcDbEntity
  8
0
  6
CONTINUOUS
 62
               7
100
AcDbLine
 10
-48.059591794226492
 20
25.5
 30
0.0
 11
-47.959591794226526
 21
25.5
 31
0.0
  0
LINE
  5
3CA
100
AcDbEntity
  8
0
  6
CONTINUOUS
 62
               7
100
AcDbLine
 10
-48.559591794226492
 20
28.000000000000057
 30
0.0
 11
-48.559591794226492
 21
26.0
 31
0.0
  0
ARC
  5
3CB
100
AcDbEntity
  8
0
  6
CONTINUOUS
 62
               7
100
AcDbCircle
 10
-48.059591794226492
 20
26.0
 30
0.0
 40
0.5
100
AcDbArc
 50
179.99999999999963
 51
269.99999999999937
  0
ARC
  5
3CC
100
AcDbEntity
  8
0
  6
CONTINUOUS
 62
               7
100
AcDbCircle
 10
-48.059591794226492
 20
28.000000000000057
 30
0.0
 40
0.5
100
AcDbArc
 50
89.999999999999815
 51
179.99999999999963
  0
LINE
  5
3CD
100
AcDbEntity
  8
0
  6
CONTINUOUS
 62
               7
100
AcDbLine
 10
-59.059591794060168
 20
21.0
 30
0.0
 11
-47.659591794226515
 21
21.0
 31
0.0
  0
LINE
  5
3CE
100
AcDbEntity
  8
0
  6
CONTINUOUS
 62
               7
100
AcDbLine
 10
-59.059591794060168
 20
15.699999999999932
 30
0.0
 11
-54.559591794226534
 21
15.699999999999932
 31
0.0
  0
LINE
  5
3CF
100
AcDbEntity
  8
0
  6
CONTINUOUS
 62
               7
100
AcDbLine
 10
-55.625617198010957
 20
15.199999999999932
 30
0.0
 11
-62.159591794226515
 21
15.199999999999932
 31
0.0
  0
LINE
  5
3D0
100
AcDbEntity
  8
0
  6
CONTINUOUS
 62
               7
100
AcDbLine
 10
-63.159591794226515
 20
21.0
 30
0.0
 11
-63.448266928821283
 21
21.5
 31
0.0
  0
LINE
  5
3D1
100
AcDbEntity
  8
0
  6
CONTINUOUS
 62
               7
100
AcDbLine
 10
-63.448266928821283
 20
21.5
 30
0.0
 11
-64.159591794226515
 21
21.5
 31
0.0
  0
LINE
  5
3D2
100
AcDbEntity
  8
0
  6
CONTINUOUS
 62
               7
100
AcDbLine
 10
-62.159591794226515
 20
15.199999999999932
 30
0.0
 11
-62.448266928821283
 21
14.699999999999932
 31
0.0
  0
LINE
  5
3D3
100
AcDbEntity
  8
0
  6
CONTINUOUS
 62
               7
100
AcDbLine
 10
-62.448266928821283
 20
14.699999999999932
 30
0.0
 11
-63.159591794226515
 21
14.699999999999932
 31
0.0
  0
LINE
  5
3D4
100
AcDbEntity
  8
0
  6
CONTINUOUS
 62
               7
100
AcDbLine
 10
-59.059591794226492
 20
20.299999999999955
 30
0.0
 11
-59.159591794226515
 21
20.299999999999955
 31
0.0
  0
LINE
  5
3D5
100
AcDbEntity
  8
0
  6
CONTINUOUS
 62
               7
100
AcDbLine
 10
-64.159591794226515
 20
21.5
 30
0.0
 11
-64.159591794226515
 21
17.049999999999983
 31
0.0
  0
LINE
  5
3D6
100
AcDbEntity
  8
0
  6
CONTINUOUS
 62
               7
100
AcDbLine
 10
-63.159591794226515
 20
15.900244132795592
 30
0.0
 11
-61.743155885207067
 21
16.149999999999991
 31
0.0
  0
LINE
  5
3D7
100
AcDbEntity
  8
0
  6
CONTINUOUS
 62
               7
100
AcDbLine
 10
-59.059591794226492
 20
16.199999999999932
 30
0.0
 11
-59.108341794226519
 21
16.199999999999932
 31
0.0
  0
LINE
  5
3D8
100
AcDbEntity
  8
0
  6
CONTINUOUS
 62
               7
100
AcDbLine
 10
-59.159591794226515
 20
16.390697674418522
 30
0.0
 11
-59.159591794226515
 21
21.0
 31
0.0
  0
LINE
  5
3D9
100
AcDbEntity
  8
0
  6
CONTINUOUS
 62
               7
100
AcDbLine
 10
-63.159591794226515
 20
15.900244132795592
 30
0.0
 11
-63.159591794226515
 21
14.699999999999932
 31
0.0
  0
LINE
  5
3DA
100
AcDbEntity
  8
0
  6
CONTINUOUS
 62
               7
100
AcDbLine
 10
-59.159591794226515
 20
21.0
 30
0.0
 11
-63.159591794226515
 21
21.0
 31
0.0
  0
LINE
  5
3DB
100
AcDbEntity
  8
0
  6
CONTINUOUS
 62
               7
100
AcDbLine
 10
-59.059591794226492
 20
21.0
 30
0.0
 11
-59.059591794226492
 21
15.699999999999932
 31
0.0
  0
LINE
  5
3DC
100
AcDbEntity
  8
0
  6
CONTINUOUS
 62
               7
100
AcDbLine
 10
-53.559591794226492
 20
21.0
 30
0.0
 11
-53.559591794226492
 21
3.7999999999999545
 31
0.0
  0
LINE
  5
3DD
100
AcDbEntity
  8
0
  6
CONTINUOUS
 62
               7
100
AcDbLine
 10
-54.75959179422648
 20
15.699999999999932
 30
0.0
 11
-55.625617198010957
 21
15.199999999999932
 31
0.0
  0
LINE
  5
3DE
100
AcDbEntity
  8
0
  6
CONTINUOUS
 62
               7
100
AcDbLine
 10
21.540408205773645
 20
70.000000000000057
 30
0.0
 11
21.540408205773645
 21
79.77059661432105
 31
0.0
  0
LINE
  5
3DF
100
AcDbEntity
  8
0
  6
CONTINUOUS
 62
               7
100
AcDbLine
 10
26.540408205773645
 20
70.000000000000057
 30
0.0
 11
26.540408205773645
 21
81.662488506212924
 31
0.0
  0
LINE
  5
3E0
100
AcDbEntity
  8
0
  6
CONTINUOUS
 62
               2
100
AcDbLine
 10
27.792326380588463
 20
83.136187275061786
 30
0.0
 11
20.071724907008218
 21
80.214878609382652
 31
0.0
  0
LINE
  5
3E1
100
AcDbEntity
  8
0
  6
CONTINUOUS
 62
               2
100
AcDbLine
 10
27.792326380588463
 20
82.136187275061786
 30
0.0
 11
20.071724907008218
 21
79.214878609382652
 31
0.0
  0
LINE
  5
3E2
100
AcDbEntity
  8
0
  6
CONTINUOUS
 62
               7
100
AcDbLine
 10
25.940408205773622
 20
90.000000000000057
 30
0.0
 11
25.940408205773622
 21
95.000000000000057
 31
0.0
  0
LINE
  5
3E3
100
AcDbEntity
  8
0
  6
CONTINUOUS
 62
               7
100
AcDbLine
 10
25.140408205773667
 20
90.000000000000057
 30
0.0
 11
25.140408205773667
 21
95.000000000000057
 31
0.0
  0
LINE
  5
3E4
100
AcDbEntity
  8
0
  6
CONTINUOUS
 62
               7
100
AcDbLine
 10
24.940408205773622
 20
90.000000000000057
 30
0.0
 11
24.940408205773622
 21
95.000000000000057
 31
0.0
  0
LINE
  5
3E5
100
AcDbEntity
  8
0
  6
CONTINUOUS
 62
               7
100
AcDbLine
 10
24.140408205773667
 20
90.000000000000057
 30
0.0
 11
24.140408205773667
 21
95.000000000000057
 31
0.0
  0
LINE
  5
3E6
100
AcDbEntity
  8
0
  6
CONTINUOUS
 62
               7
100
AcDbLine
 10
23.940408205773622
 20
90.000000000000057
 30
0.0
 11
23.940408205773622
 21
95.000000000000057
 31
0.0
  0
LINE
  5
3E7
100
AcDbEntity
  8
0
  6
CONTINUOUS
 62
               7
100
AcDbLine
 10
23.140408205773667
 20
90.000000000000057
 30
0.0
 11
23.140408205773667
 21
95.000000000000057
 31
0.0
  0
LINE
  5
3E8
100
AcDbEntity
  8
0
  6
CONTINUOUS
 62
               7
100
AcDbLine
 10
22.940408205773622
 20
90.000000000000057
 30
0.0
 11
22.940408205773622
 21
95.000000000000057
 31
0.0
  0
LINE
  5
3E9
100
AcDbEntity
  8
0
  6
CONTINUOUS
 62
               7
100
AcDbLine
 10
22.140408205773667
 20
90.000000000000057
 30
0.0
 11
22.140408205773667
 21
95.000000000000057
 31
0.0
  0
LINE
  5
3EA
100
AcDbEntity
  8
0
  6
CONTINUOUS
 62
               7
100
AcDbLine
 10
26.540408205773645
 20
86.434434807572018
 30
0.0
 11
26.540408205773645
 21
82.662488506212924
 31
0.0
  0
LINE
  5
3EB
100
AcDbEntity
  8
0
  6
CONTINUOUS
 62
               7
100
AcDbLine
 10
21.540408205773645
 20
86.434434807572018
 30
0.0
 11
21.540408205773645
 21
80.77059661432105
 31
0.0
  0
LINE
  5
3EC
100
AcDbEntity
  8
0
  6
CONTINUOUS
 62
               7
100
AcDbLine
 10
26.540408205773645
 20
86.434434807572018
 30
0.0
 11
21.540408205773645
 21
86.434434807572018
 31
0.0
  0
LINE
  5
3ED
100
AcDbEntity
  8
0
  6
CONTINUOUS
 62
               7
100
AcDbLine
 10
21.825408205773726
 20
90.000000000000057
 30
0.0
 11
26.255408205773676
 21
90.000000000000057
 31
0.0
  0
LINE
  5
3EE
100
AcDbEntity
  8
0
  6
CONTINUOUS
 62
               7
100
AcDbLine
 10
21.825408205773726
 20
86.434434807572018
 30
0.0
 11
21.825408205773726
 21
90.000000000000057
 31
0.0
  0
LINE
  5
3EF
100
AcDbEntity
  8
0
  6
CONTINUOUS
 62
               7
100
AcDbLine
 10
23.255408205773676
 20
86.434434807572018
 30
0.0
 11
23.255408205773676
 21
90.000000000000057
 31
0.0
  0
LINE
  5
3F0
100
AcDbEntity
  8
0
  6
CONTINUOUS
 62
               7
100
AcDbLine
 10
24.255408205773676
 20
86.434434807572018
 30
0.0
 11
24.255408205773676
 21
90.000000000000057
 31
0.0
  0
LINE
  5
3F1
100
AcDbEntity
  8
0
  6
CONTINUOUS
 62
               7
100
AcDbLine
 10
25.255408205773676
 20
86.434434807572018
 30
0.0
 11
25.255408205773676
 21
90.000000000000057
 31
0.0
  0
LINE
  5
3F2
100
AcDbEntity
  8
0
  6
CONTINUOUS
 62
               7
100
AcDbLine
 10
26.255408205773676
 20
86.434434807572018
 30
0.0
 11
26.255408205773676
 21
90.000000000000057
 31
0.0
  0
LINE
  5
3F3
100
AcDbEntity
  8
0
  6
CONTINUOUS
 62
               7
100
AcDbLine
 10
22.140408205773667
 20
95.000000000000057
 30
0.0
 11
22.940408205773622
 21
95.000000000000057
 31
0.0
  0
LINE
  5
3F4
100
AcDbEntity
  8
0
  6
CONTINUOUS
 62
               7
100
AcDbLine
 10
23.140408205773667
 20
95.000000000000057
 30
0.0
 11
23.940408205773622
 21
95.000000000000057
 31
0.0
  0
LINE
  5
3F5
100
AcDbEntity
  8
0
  6
CONTINUOUS
 62
               7
100
AcDbLine
 10
24.140408205773667
 20
95.000000000000057
 30
0.0
 11
24.940408205773622
 21
95.000000000000057
 31
0.0
  0
LINE
  5
3F6
100
AcDbEntity
  8
0
  6
CONTINUOUS
 62
               7
100
AcDbLine
 10
25.140408205773667
 20
95.000000000000057
 30
0.0
 11
25.940408205773622
 21
95.000000000000057
 31
0.0
  0
LINE
  5
3F7
100
AcDbEntity
  8
0
  6
CONTINUOUS
 62
               7
100
AcDbLine
 10
4.4904082057735764
 20
69.500000000000057
 30
0.0
 11
1.5404082057735877
 21
69.500000000000057
 31
0.0
  0
LINE
  5
3F8
100
AcDbEntity
  8
0
  6
CONTINUOUS
 62
               7
100
AcDbLine
 10
0.5404082057735877
 20
69.500000000000057
 30
0.0
 11
0.5404082057735877
 21
68.500000000000057
 31
0.0
  0
LINE
  5
3F9
100
AcDbEntity
  8
0
  6
CONTINUOUS
 62
               7
100
AcDbLine
 10
1.5404082057735877
 20
69.500000000000057
 30
0.0
 11
1.5404082057735877
 21
68.500000000000057
 31
0.0
  0
LINE
  5
3FA
100
AcDbEntity
  8
0
  6
CONTINUOUS
 62
               7
100
AcDbLine
 10
0.5404082057735877
 20
68.500000000000057
 30
0.0
 11
1.5404082057735877
 21
68.500000000000057
 31
0.0
  0
LINE
  5
3FB
100
AcDbEntity
  8
0
  6
CONTINUOUS
 62
               7
100
AcDbLine
 10
-25.209591794226526
 20
58.839181962474697
 30
0.0
 11
-25.209591794226526
 21
58.199999999999875
 31
0.0
  0
LINE
  5
3FC
100
AcDbEntity
  8
0
  6
CONTINUOUS
 62
               2
100
AcDbLine
 10
-25.034591794226515
 20
58.839181962474697
 30
0.0
 11
-25.034591794226515
 21
58.199999999999875
 31
0.0
  0
LINE
  5
3FD
100
AcDbEntity
  8
0
  6
CONTINUOUS
 62
               7
100
AcDbLine
 10
-27.209591794226526
 20
57.699999999999875
 30
0.0
 11
-26.709591794226526
 21
58.199999999999875
 31
0.0
  0
LINE
  5
3FE
100
AcDbEntity
  8
0
  6
CONTINUOUS
 62
               7
100
AcDbLine
 10
-21.209591794226526
 20
58.199999999999875
 30
0.0
 11
-26.709591794226526
 21
58.199999999999875
 31
0.0
  0
LINE
  5
3FF
100
AcDbEntity
  8
0
  6
CONTINUOUS
 62
               7
100
AcDbLine
 10
-20.709591794226526
 20
57.699999999999875
 30
0.0
 11
-21.209591794226526
 21
58.199999999999875
 31
0.0
  0
LINE
  5
400
100
AcDbEntity
  8
0
  6
CONTINUOUS
 62
               7
100
AcDbLine
 10
-21.459591794226526
 20
68.544181962474624
 30
0.0
 11
-21.459591794226526
 21
63.544181962474624
 31
0.0
  0
LINE
  5
401
100
AcDbEntity
  8
0
  6
CONTINUOUS
 62
               7
100
AcDbLine
 10
-26.459591794226526
 20
68.544181962474624
 30
0.0
 11
-26.459591794226526
 21
63.544181962474624
 31
0.0
  0
LINE
  5
402
100
AcDbEntity
  8
0
  6
CONTINUOUS
 62
               7
100
AcDbLine
 10
-26.959591794226526
 20
59.339181962474697
 30
0.0
 11
-26.959591794226526
 21
61.339181962474697
 31
0.0
  0
LINE
  5
403
100
AcDbEntity
  8
0
  6
CONTINUOUS
 62
               7
100
AcDbLine
 10
-25.959591794226526
 20
63.044181962474624
 30
0.0
 11
-21.959591794226526
 21
63.044181962474624
 31
0.0
  0
LINE
  5
404
100
AcDbEntity
  8
0
  6
CONTINUOUS
 62
               7
100
AcDbLine
 10
-21.459591794226526
 20
63.544181962474624
 30
0.0
 11
-21.959591794226526
 21
63.044181962474624
 31
0.0
  0
LINE
  5
405
100
AcDbEntity
  8
0
  6
CONTINUOUS
 62
               7
100
AcDbLine
 10
-25.959591794226526
 20
63.044181962474624
 30
0.0
 11
-26.459591794226526
 21
63.544181962474624
 31
0.0
  0
LINE
  5
406
100
AcDbEntity
  8
0
  6
CONTINUOUS
 62
               7
100
AcDbLine
 10
-21.459591794226526
 20
61.839181962474697
 30
0.0
 11
-26.459591794226526
 21
61.839181962474697
 31
0.0
  0
LINE
  5
407
100
AcDbEntity
  8
0
  6
CONTINUOUS
 62
               7
100
AcDbLine
 10
-26.959591794226526
 20
61.339181962474697
 30
0.0
 11
-26.459591794226526
 21
61.839181962474697
 31
0.0
  0
LINE
  5
408
100
AcDbEntity
  8
0
  6
CONTINUOUS
 62
               7
100
AcDbLine
 10
-26.959591794226526
 20
59.339181962474697
 30
0.0
 11
-26.459591794226526
 21
58.839181962474697
 31
0.0
  0
LINE
  5
409
100
AcDbEntity
  8
0
  6
CONTINUOUS
 62
               7
100
AcDbLine
 10
-20.959591794226526
 20
61.339181962474697
 30
0.0
 11
-21.459591794226526
 21
61.839181962474697
 31
0.0
  0
LINE
  5
40A
100
AcDbEntity
  8
0
  6
CONTINUOUS
 62
               7
100
AcDbLine
 10
-20.959591794226526
 20
59.339181962474697
 30
0.0
 11
-21.459591794226526
 21
58.839181962474697
 31
0.0
  0
LINE
  5
40B
100
AcDbEntity
  8
0
  6
CONTINUOUS
 62
               7
100
AcDbLine
 10
-20.959591794226526
 20
59.339181962474697
 30
0.0
 11
-20.959591794226526
 21
61.339181962474697
 31
0.0
  0
LINE
  5
40C
100
AcDbEntity
  8
0
  6
CONTINUOUS
 62
               7
100
AcDbLine
 10
-21.459591794226526
 20
58.839181962474697
 30
0.0
 11
-26.459591794226526
 21
58.839181962474697
 31
0.0
  0
LINE
  5
40D
100
AcDbEntity
  8
0
  6
CONTINUOUS
 62
               2
100
AcDbLine
 10
-25.034591794226515
 20
63.044181962474624
 30
0.0
 11
-25.034591794226515
 21
61.839181962474697
 31
0.0
  0
LINE
  5
40E
100
AcDbEntity
  8
0
  6
CONTINUOUS
 62
               7
100
AcDbLine
 10
-25.209591794226526
 20
63.044181962474624
 30
0.0
 11
-25.209591794226526
 21
61.839181962474697
 31
0.0
  0
LINE
  5
40F
100
AcDbEntity
  8
0
  6
CONTINUOUS
 62
               2
100
AcDbLine
 10
-22.884591794226537
 20
63.044181962474624
 30
0.0
 11
-22.884591794226537
 21
61.839181962474697
 31
0.0
  0
LINE
  5
410
100
AcDbEntity
  8
0
  6
CONTINUOUS
 62
               7
100
AcDbLine
 10
-22.709591794226526
 20
63.044181962474624
 30
0.0
 11
-22.709591794226526
 21
61.839181962474697
 31
0.0
  0
LINE
  5
411
100
AcDbEntity
  8
0
  6
CONTINUOUS
 62
               7
100
AcDbLine
 10
-24.459591794226526
 20
69.044181962474624
 30
0.0
 11
-25.959591794226526
 21
69.044181962474624
 31
0.0
  0
LINE
  5
412
100
AcDbEntity
  8
0
  6
CONTINUOUS
 62
               7
100
AcDbLine
 10
-21.459591794226526
 20
68.544181962474624
 30
0.0
 11
-21.959591794226526
 21
69.044181962474624
 31
0.0
  0
LINE
  5
413
100
AcDbEntity
  8
0
  6
CONTINUOUS
 62
               7
100
AcDbLine
 10
-26.459591794226526
 20
68.544181962474624
 30
0.0
 11
-25.959591794226526
 21
69.044181962474624
 31
0.0
  0
LINE
  5
414
100
AcDbEntity
  8
0
  6
CONTINUOUS
 62
               7
100
AcDbLine
 10
-22.709591794226526
 20
58.839181962474697
 30
0.0
 11
-22.709591794226526
 21
58.199999999999875
 31
0.0
  0
LINE
  5
415
100
AcDbEntity
  8
0
  6
CONTINUOUS
 62
               2
100
AcDbLine
 10
-22.884591794226537
 20
58.839181962474697
 30
0.0
 11
-22.884591794226537
 21
58.199999999999875
 31
0.0
  0
LINE
  5
416
100
AcDbEntity
  8
0
  6
CONTINUOUS
 62
               7
100
AcDbLine
 10
-26.459591794226526
 20
68.544181962474624
 30
0.0
 11
-24.459591794226526
 21
68.544181962474624
 31
0.0
  0
LINE
  5
417
100
AcDbEntity
  8
0
  6
CONTINUOUS
 62
               7
100
AcDbLine
 10
-26.459591794226526
 20
63.544181962474624
 30
0.0
 11
-21.459591794226526
 21
63.544181962474624
 31
0.0
  0
LINE
  5
418
100
AcDbEntity
  8
0
  6
CONTINUOUS
 62
               7
100
AcDbLine
 10
-26.959591794226526
 20
61.339181962474697
 30
0.0
 11
-20.959591794226526
 21
61.339181962474697
 31
0.0
  0
LINE
  5
419
100
AcDbEntity
  8
0
  6
CONTINUOUS
 62
               7
100
AcDbLine
 10
-26.959591794226526
 20
59.339181962474697
 30
0.0
 11
-20.959591794226526
 21
59.339181962474697
 31
0.0
  0
LINE
  5
41A
100
AcDbEntity
  8
0
  6
CONTINUOUS
 62
               7
100
AcDbLine
 10
-27.209591794226526
 20
57.699999999999875
 30
0.0
 11
-20.709591794226526
 21
57.699999999999875
 31
0.0
  0
LINE
  5
41B
100
AcDbEntity
  8
0
  6
CONTINUOUS
 62
               7
100
AcDbLine
 10
-20.709591794226526
 20
54.999999999999829
 30
0.0
 11
-20.709591794226526
 21
57.699999999999875
 31
0.0
  0
LINE
  5
41C
100
AcDbEntity
  8
0
  6
CONTINUOUS
 62
               7
100
AcDbLine
 10
-27.209591794226526
 20
54.999999999999829
 30
0.0
 11
-27.209591794226526
 21
57.699999999999875
 31
0.0
  0
LINE
  5
41D
100
AcDbEntity
  8
0
  6
CONTINUOUS
 62
               7
100
AcDbLine
 10
-24.459591794226526
 20
69.044181962474624
 30
0.0
 11
-24.459591794226526
 21
68.044181962474624
 31
0.0
  0
LINE
  5
41E
100
AcDbEntity
  8
0
  6
CONTINUOUS
 62
               7
100
AcDbLine
 10
-23.459591794226526
 20
69.044181962474624
 30
0.0
 11
-23.459591794226526
 21
68.044181962474624
 31
0.0
  0
LINE
  5
41F
100
AcDbEntity
  8
0
  6
CONTINUOUS
 62
               7
100
AcDbLine
 10
-24.459591794226526
 20
68.044181962474624
 30
0.0
 11
-23.459591794226526
 21
68.044181962474624
 31
0.0
  0
LINE
  5
420
100
AcDbEntity
  8
0
  6
CONTINUOUS
 62
               7
100
AcDbLine
 10
-23.459591794226526
 20
69.044181962474624
 30
0.0
 11
-21.959591794226526
 21
69.044181962474624
 31
0.0
  0
LINE
  5
421
100
AcDbEntity
  8
0
  6
CONTINUOUS
 62
               7
100
AcDbLine
 10
-21.459591794226526
 20
68.544181962474624
 30
0.0
 11
-23.459591794226526
 21
68.544181962474624
 31
0.0
  0
LINE
  5
422
100
AcDbEntity
  8
0
  6
CENTER
 62
               2
100
AcDbLine
 10
-23.959591794226526
 20
54.106536674243728
 30
0.0
 11
-23.959591794226526
 21
69.747389519581986
 31
0.0
  0
LINE
  5
423
100
AcDbEntity
  8
0
  6
CONTINUOUS
 62
               7
100
AcDbLine
 10
0.5404082057735877
 20
69.500000000000057
 30
0.0
 11
-2.4095917942264009
 21
69.500000000000057
 31
0.0
  0
LINE
  5
424
100
AcDbEntity
  8
0
  6
CONTINUOUS
 62
               7
100
AcDbLine
 10
-33.959591794226526
 20
70.499999999999829
 30
0.0
 11
-33.959591794226526
 21
3.5
 31
0.0
  0
LINE
  5
425
100
AcDbEntity
  8
0
  6
CONTINUOUS
 62
               7
100
AcDbLine
 10
-33.959591794226526
 20
51.999999999999829
 30
0.0
 11
-37.959591794226526
 21
51.999999999999829
 31
0.0
  0
LINE
  5
426
100
AcDbEntity
  8
0
  6
CONTINUOUS
 62
               7
100
AcDbLine
 10
-37.959591794226526
 20
38.499999999999829
 30
0.0
 11
-37.959591794226526
 21
51.999999999999829
 31
0.0
  0
LINE
  5
427
100
AcDbEntity
  8
0
  6
CONTINUOUS
 62
               7
100
AcDbLine
 10
-37.959591794226526
 20
48.599999999999852
 30
0.0
 11
-35.959591794226526
 21
48.599999999999852
 31
0.0
  0
LINE
  5
428
100
AcDbEntity
  8
0
  6
CONTINUOUS
 62
               7
100
AcDbLine
 10
-37.959591794226526
 20
45.39999999999992
 30
0.0
 11
-35.959591794226526
 21
45.39999999999992
 31
0.0
  0
LINE
  5
429
100
AcDbEntity
  8
0
  6
CONTINUOUS
 62
               7
100
AcDbLine
 10
-35.959591794226526
 20
48.599999999999852
 30
0.0
 11
-35.959591794226526
 21
45.39999999999992
 31
0.0
  0
LINE
  5
42A
100
AcDbEntity
  8
0
  6
CONTINUOUS
 62
               7
100
AcDbLine
 10
-36.059591794226492
 20
45.499999999999829
 30
0.0
 11
-35.959591794226526
 21
45.499999999999829
 31
0.0
  0
LINE
  5
42B
100
AcDbEntity
  8
0
  6
CONTINUOUS
 62
               7
100
AcDbLine
 10
-36.059591794226492
 20
48.499999999999829
 30
0.0
 11
-35.959591794226526
 21
48.499999999999829
 31
0.0
  0
LINE
  5
42C
100
AcDbEntity
  8
0
  6
CONTINUOUS
 62
               7
100
AcDbLine
 10
-36.559591794226492
 20
45.999999999999829
 30
0.0
 11
-36.559591794226492
 21
47.999999999999829
 31
0.0
  0
ARC
  5
42D
100
AcDbEntity
  8
0
  6
CONTINUOUS
 62
               7
100
AcDbCircle
 10
-36.059591794226492
 20
47.999999999999829
 30
0.0
 40
0.5
100
AcDbArc
 50
89.999999999999815
 51
179.99999999999963
  0
ARC
  5
42E
100
AcDbEntity
  8
0
  6
CONTINUOUS
 62
               7
100
AcDbCircle
 10
-36.059591794226492
 20
45.999999999999829
 30
0.0
 40
0.5
100
AcDbArc
 50
179.99999999999963
 51
269.99999999999937
  0
LINE
  5
42F
100
AcDbEntity
  8
0
  6
CONTINUOUS
 62
               7
100
AcDbLine
 10
-59.449591794226535
 20
57.849999999999838
 30
0.0
 11
-62.759591794226523
 21
57.849999999999838
 31
0.0
  0
LINE
  5
430
100
AcDbEntity
  8
0
  6
CONTINUOUS
 62
               7
100
AcDbLine
 10
-59.099591794226527
 20
56.549999999999841
 30
0.0
 11
-62.759591794226523
 21
56.549999999999841
 31
0.0
  0
LINE
  5
431
100
AcDbEntity
  8
0
  6
CONTINUOUS
 62
               7
100
AcDbLine
 10
-62.759591794226523
 20
56.949999999999832
 30
0.0
 11
-66.759591794226523
 21
56.949999999999832
 31
0.0
  0
LINE
  5
432
100
AcDbEntity
  8
0
  6
CONTINUOUS
 62
               7
100
AcDbLine
 10
-62.759591794226523
 20
57.449999999999832
 30
0.0
 11
-66.759591794226523
 21
57.449999999999832
 31
0.0
  0
LINE
  5
433
100
AcDbEntity
  8
0
  6
CONTINUOUS
 62
               7
100
AcDbLine
 10
-62.759591794226523
 20
57.849999999999838
 30
0.0
 11
-62.759591794226523
 21
56.549999999999841
 31
0.0
  0
LINE
  5
434
100
AcDbEntity
  8
0
  6
CONTINUOUS
 62
               7
100
AcDbLine
 10
-66.759591794226523
 20
57.449999999999832
 30
0.0
 11
-66.759591794226523
 21
56.949999999999832
 31
0.0
  0
LINE
  5
435
100
AcDbEntity
  8
0
  6
CONTINUOUS
 62
               2
100
AcDbLine
 10
-57.80959179422652
 20
55.599999999999838
 30
0.0
 11
-58.66959179422652
 21
58.799999999999841
 31
0.0
  0
LINE
  5
436
100
AcDbEntity
  8
0
  6
CONTINUOUS
 62
               2
100
AcDbLine
 10
-58.839591794226521
 20
55.599999999999838
 30
0.0
 11
-59.699591794226535
 21
58.799999999999841
 31
0.0
  0
LINE
  5
437
100
AcDbEntity
  8
0
  6
CONTINUOUS
 62
               7
100
AcDbLine
 10
-54.55959179422652
 20
57.849999999999838
 30
0.0
 11
-58.409591794226529
 21
57.849999999999838
 31
0.0
  0
LINE
  5
438
100
AcDbEntity
  8
0
  6
CONTINUOUS
 62
               7
100
AcDbLine
 10
-54.55959179422652
 20
56.549999999999841
 30
0.0
 11
-58.05959179422652
 21
56.549999999999841
 31
0.0
  0
LINE
  5
439
100
AcDbEntity
  8
0
  6
CONTINUOUS
 62
               7
100
AcDbLine
 10
-54.359591794226532
 20
59.199999999999832
 30
0.0
 11
-53.55959179422652
 21
59.199999999999832
 31
0.0
  0
ARC
  5
43A
100
AcDbEntity
  8
0
  6
CONTINUOUS
 62
               7
100
AcDbCircle
 10
-54.360303231890271
 20
59.000711437663597
 30
0.0
 40
0.1992898322082596
100
AcDbArc
 50
89.795461405895324
 51
180.20453859410418
  0
LINE
  5
43B
100
AcDbEntity
  8
0
  6
CONTINUOUS
 62
               7
100
AcDbLine
 10
-54.55959179422652
 20
55.399999999999835
 30
0.0
 11
-54.55959179422652
 21
58.999999999999829
 31
0.0
  0
ARC
  5
43C
100
AcDbEntity
  8
0
  6
CONTINUOUS
 62
               7
100
AcDbCircle
 10
-54.360303231890271
 20
55.399288562336068
 30
0.0
 40
0.1992898322082596
100
AcDbArc
 50
179.79546140589517
 51
270.20453859410378
  0
LINE
  5
43D
100
AcDbEntity
  8
0
  6
CONTINUOUS
 62
               7
100
AcDbLine
 10
-54.359591794226532
 20
55.199999999999832
 30
0.0
 11
-53.55959179422652
 21
55.199999999999832
 31
0.0
  0
LINE
  5
43E
100
AcDbEntity
  8
0
  6
CONTINUOUS
 62
               7
100
AcDbLine
 10
-52.959591794226526
 20
52.999999999999844
 30
0.0
 11
-52.959591794226526
 21
52.899999999999835
 31
0.0
  0
LINE
  5
43F
100
AcDbEntity
  8
0
  6
CONTINUOUS
 62
               7
100
AcDbLine
 10
-64.159591794226515
 20
57.449999999999832
 30
0.0
 11
-64.159591794226515
 21
57.800000000000011
 31
0.0
  0
LINE
  5
440
100
AcDbEntity
  8
0
  6
CONTINUOUS
 62
               7
100
AcDbLine
 10
-62.759591794226523
 20
57.800000000000011
 30
0.0
 11
-64.159591794226515
 21
57.800000000000011
 31
0.0
  0
LINE
  5
441
100
AcDbEntity
  8
0
  6
CONTINUOUS
 62
               7
100
AcDbLine
 10
-59.159591794226515
 20
56.549999999999841
 30
0.0
 11
-59.159591794226515
 21
52.999999999999829
 31
0.0
  0
LINE
  5
442
100
AcDbEntity
  8
0
  6
CONTINUOUS
 62
               7
100
AcDbLine
 10
-52.959591794226533
 20
20.999999999999979
 30
0.0
 11
-52.959591794226533
 21
21.099999999999994
 31
0.0
  0
LINE
  5
443
100
AcDbEntity
  8
0
  6
CONTINUOUS
 62
               7
100
AcDbLine
 10
-54.359591794226532
 20
18.79999999999999
 30
0.0
 11
-53.559591794226534
 21
18.79999999999999
 31
0.0
  0
ARC
  5
444
100
AcDbEntity
  8
0
  6
CONTINUOUS
 62
               7
100
AcDbCircle
 10
-54.360303231890285
 20
18.600711437663747
 30
0.0
 40
0.1992898322082596
100
AcDbArc
 50
89.795461405895423
 51
180.20453859410404
  0
LINE
  5
445
100
AcDbEntity
  8
0
  6
CONTINUOUS
 62
               7
100
AcDbLine
 10
-54.559591794226534
 20
18.599999999999987
 30
0.0
 11
-54.559591794226534
 21
14.999999999999989
 31
0.0
  0
ARC
  5
446
100
AcDbEntity
  8
0
  6
CONTINUOUS
 62
               7
100
AcDbCircle
 10
-54.360303231890271
 20
14.999288562336234
 30
0.0
 40
0.1992898322082596
100
AcDbArc
 50
179.79546140589503
 51
270.20453859410389
  0
LINE
  5
447
100
AcDbEntity
  8
0
  6
CONTINUOUS
 62
               7
100
AcDbLine
 10
-54.359591794226532
 20
14.799999999999992
 30
0.0
 11
-53.559591794226534
 21
14.799999999999992
 31
0.0
  0
LINE
  5
448
100
AcDbEntity
  8
0
  6
CONTINUOUS
 62
               7
100
AcDbLine
 10
-54.559591794226534
 20
16.149999999999999
 30
0.0
 11
-58.059591794226534
 21
16.149999999999999
 31
0.0
  0
LINE
  5
449
100
AcDbEntity
  8
0
  6
CONTINUOUS
 62
               7
100
AcDbLine
 10
-54.559591794226534
 20
17.449999999999996
 30
0.0
 11
-58.409591794226529
 21
17.449999999999992
 31
0.0
  0
LINE
  5
44A
100
AcDbEntity
  8
0
  6
CONTINUOUS
 62
               2
100
AcDbLine
 10
-58.839591794226536
 20
15.199999999999996
 30
0.0
 11
-59.699591794226535
 21
18.399999999999995
 31
0.0
  0
LINE
  5
44B
100
AcDbEntity
  8
0
  6
CONTINUOUS
 62
               2
100
AcDbLine
 10
-57.809591794226534
 20
15.199999999999999
 30
0.0
 11
-58.66959179422652
 21
18.399999999999995
 31
0.0
  0
LINE
  5
44C
100
AcDbEntity
  8
0
  6
CONTINUOUS
 62
               7
100
AcDbLine
 10
-66.759591794226523
 20
16.549999999999983
 30
0.0
 11
-66.759591794226523
 21
17.049999999999983
 31
0.0
  0
LINE
  5
44D
100
AcDbEntity
  8
0
  6
CONTINUOUS
 62
               7
100
AcDbLine
 10
-62.759591794226523
 20
16.149999999999984
 30
0.0
 11
-62.759591794226523
 21
17.449999999999982
 31
0.0
  0
LINE
  5
44E
100
AcDbEntity
  8
0
  6
CONTINUOUS
 62
               7
100
AcDbLine
 10
-62.759591794226523
 20
16.549999999999983
 30
0.0
 11
-66.759591794226523
 21
16.549999999999983
 31
0.0
  0
LINE
  5
44F
100
AcDbEntity
  8
0
  6
CONTINUOUS
 62
               7
100
AcDbLine
 10
-62.759591794226523
 20
17.049999999999983
 30
0.0
 11
-66.759591794226523
 21
17.049999999999983
 31
0.0
  0
LINE
  5
450
100
AcDbEntity
  8
0
  6
CONTINUOUS
 62
               7
100
AcDbLine
 10
-59.099591794226527
 20
16.149999999999995
 30
0.0
 11
-62.759591794226523
 21
16.149999999999991
 31
0.0
  0
LINE
  5
451
100
AcDbEntity
  8
0
  6
CONTINUOUS
 62
               7
100
AcDbLine
 10
-59.449591794226535
 20
17.449999999999992
 30
0.0
 11
-62.759591794226523
 21
17.449999999999989
 31
0.0
  0
LINE
  5
452
100
AcDbEntity
  8
0
  6
CONTINUOUS
 62
               7
100
AcDbLine
 10
-64.159591794226515
 20
16.549999999999983
 30
0.0
 11
-64.159591794226515
 21
16.199999999999932
 31
0.0
  0
LINE
  5
453
100
AcDbEntity
  8
0
  6
CONTINUOUS
 62
               7
100
AcDbLine
 10
-62.759591794226523
 20
16.199999999999932
 30
0.0
 11
-64.159591794226515
 21
16.199999999999932
 31
0.0
  0
LINE
  5
454
100
AcDbEntity
  8
0
  6
CONTINUOUS
 62
               7
100
AcDbLine
 10
19.540408205773645
 20
26.0
 30
0.0
 11
39.540408205773645
 21
26.0
 31
0.0
  0
LINE
  5
455
100
AcDbEntity
  8
0
  6
CONTINUOUS
 62
               7
100
AcDbLine
 10
19.540408205773645
 20
26.0
 30
0.0
 11
19.540408205773645
 21
17.5
 31
0.0
  0
LINE
  5
456
100
AcDbEntity
  8
0
  6
CONTINUOUS
 62
               7
100
AcDbLine
 10
39.540408205773645
 20
26.0
 30
0.0
 11
39.540408205773645
 21
17.5
 31
0.0
  0
LINE
  5
457
100
AcDbEntity
  8
0
  6
CONTINUOUS
 62
               7
100
AcDbLine
 10
39.540408205773645
 20
24.5
 30
0.0
 11
42.040408205773645
 21
24.5
 31
0.0
  0
ENDBLK
  5
458
100
AcDbEntity
  8
0
100
AcDbBlockEnd
  0
BLOCK
  5
459
100
AcDbEntity
  8
0
100
AcDbBlockBegin
  2
MV090MAS-9
 70
               0
 10
0.0
 20
0.0
 30
0.0
  3
MV090MAS-9
  1

  0
INSERT
  5
45A
100
AcDbEntity
  8
0
  6
ByBlock
100
AcDbBlockReference
  2
MV090MAS-14
 10
56.800000000000011
 20
20.0
 30
0.0
  0
INSERT
  5
45B
100
AcDbEntity
  8
0
  6
ByBlock
100
AcDbBlockReference
  2
MV090MAS-14
 10
67.000000000000028
 20
20.0
 30
0.0
  0
INSERT
  5
45C
100
AcDbEntity
  8
0
  6
ByBlock
100
AcDbBlockReference
  2
MV090MAS-14
 10
77.200000000000017
 20
20.0
 30
0.0
  0
INSERT
  5
45D
100
AcDbEntity
  8
0
  6
ByBlock
100
AcDbBlockReference
  2
MV090MAS-14
 10
87.400000000000006
 20
20.0
 30
0.0
  0
INSERT
  5
45E
100
AcDbEntity
  8
0
  6
ByBlock
100
AcDbBlockReference
  2
MV090MAS-2
 10
46.599999999999994
 20
20.0
 30
0.0
  0
INSERT
  5
45F
100
AcDbEntity
  8
0
  6
ByBlock
100
AcDbBlockReference
  2
MV090MAS-3
 10
36.400000000000006
 20
20.0
 30
0.0
  0
INSERT
  5
460
100
AcDbEntity
  8
0
  6
ByBlock
100
AcDbBlockReference
  2
MV090MAS-3
 10
26.200000000000017
 20
20.0
 30
0.0
  0
INSERT
  5
461
100
AcDbEntity
  8
0
  6
ByBlock
100
AcDbBlockReference
  2
MV090MAS-15
 10
16.000000000000011
 20
20.0
 30
0.0
  0
LINE
  5
462
100
AcDbEntity
  8
0
  6
CENTER
 62
             200
100
AcDbLine
 10
0.0
 20
2.5
 30
0.0
 11
0.0
 21
-2.5
 31
0.0
  0
LINE
  5
463
100
AcDbEntity
  8
0
  6
CENTER
 62
             200
100
AcDbLine
 10
-2.5
 20
0.0
 30
0.0
 11
2.5
 21
0.0
 31
0.0
  0
LINE
  5
464
100
AcDbEntity
  8
0
  6
CENTER
 62
             200
100
AcDbLine
 10
-10.0
 20
2.5
 30
0.0
 11
-10.0
 21
-2.5
 31
0.0
  0
LINE
  5
465
100
AcDbEntity
  8
0
  6
CENTER
 62
             200
100
AcDbLine
 10
-12.5
 20
0.0
 30
0.0
 11
-7.5
 21
0.0
 31
0.0
  0
LINE
  5
466
100
AcDbEntity
  8
0
  6
CENTER
 62
             200
100
AcDbLine
 10
6.5
 20
6.7559933522892379
 30
0.0
 11
6.5
 21
0.9479263509210796
 31
0.0
  0
LINE
  5
467
100
AcDbEntity
  8
0
  6
CENTER
 62
             200
100
AcDbLine
 10
96.899999999999977
 20
19.244006647710762
 30
0.0
 11
96.899999999999977
 21
25.05207364907892
 31
0.0
  0
LINE
  5
468
100
AcDbEntity
  8
0
  6
CENTER
 62
             200
100
AcDbLine
 10
103.39999999999998
 20
23.5
 30
0.0
 11
103.39999999999998
 21
28.5
 31
0.0
  0
ARC
  5
469
100
AcDbEntity
  8
0
  6
CONTINUOUS
 62
               4
100
AcDbCircle
 10
10.0
 20
4.8999999999999773
 30
0.0
 40
0.5
100
AcDbArc
 50
269.99999999999937
 51
0.0
  0
LINE
  5
46A
100
AcDbEntity
  8
0
  6
CONTINUOUS
 62
               4
100
AcDbLine
 10
10.0
 20
4.3999999999999773
 30
0.0
 11
2.5
 21
4.3999999999999773
 31
0.0
  0
LINE
  5
46B
100
AcDbEntity
  8
0
  6
CONTINUOUS
 62
               4
100
AcDbLine
 10
10.5
 20
0.0
 30
0.0
 11
10.5
 21
5.5
 31
0.0
  0
LINE
  5
46C
100
AcDbEntity
  8
0
  6
CONTINUOUS
 62
               4
100
AcDbLine
 10
6.5
 20
-4.0
 30
0.0
 11
-10.5
 21
-4.0
 31
0.0
  0
LINE
  5
46D
100
AcDbEntity
  8
0
  6
CONTINUOUS
 62
               4
100
AcDbLine
 10
4.0
 20
6.0
 30
0.0
 11
2.5
 21
6.0
 31
0.0
  0
LINE
  5
46E
100
AcDbEntity
  8
0
  6
CONTINUOUS
 62
               4
100
AcDbLine
 10
-14.5
 20
0.0
 30
0.0
 11
-14.5
 21
5.5
 31
0.0
  0
CIRCLE
  5
46F
100
AcDbEntity
  8
0
  6
CONTINUOUS
 62
               4
100
AcDbCircle
 10
0.0
 20
0.0
 30
0.0
 40
1.8
  0
CIRCLE
  5
470
100
AcDbEntity
  8
0
  6
CONTINUOUS
 62
               4
100
AcDbCircle
 10
-10.0
 20
0.0
 30
0.0
 40
1.8
  0
ARC
  5
471
100
AcDbEntity
  8
0
  6
CONTINUOUS
 62
               4
100
AcDbCircle
 10
6.5
 20
0.0
 30
0.0
 40
4.0
100
AcDbArc
 50
269.99999999999937
 51
0.0
  0
ARC
  5
472
100
AcDbEntity
  8
0
  6
CONTINUOUS
 62
               4
100
AcDbCircle
 10
-10.5
 20
0.0
 30
0.0
 40
4.0
100
AcDbArc
 50
179.99999999999963
 51
269.99999999999937
  0
ARC
  5
473
100
AcDbEntity
  8
0
  6
CONTINUOUS
 62
               4
100
AcDbCircle
 10
-14.0
 20
5.5
 30
0.0
 40
0.5
100
AcDbArc
 50
89.999999999999815
 51
179.99999999999963
  0
ARC
  5
474
100
AcDbEntity
  8
0
  6
CONTINUOUS
 62
               4
100
AcDbCircle
 10
10.0
 20
5.5
 30
0.0
 40
0.5
100
AcDbArc
 50
0.0
 51
89.999999999999815
  0
LINE
  5
475
100
AcDbEntity
  8
0
  6
CONTINUOUS
 62
               4
100
AcDbLine
 10
2.5
 20
4.3999999999999773
 30
0.0
 11
2.5
 21
6.0
 31
0.0
  0
LINE
  5
476
100
AcDbEntity
  8
0
  6
CONTINUOUS
 62
               4
100
AcDbLine
 10
0.0
 20
4.7000000000000455
 30
0.0
 11
0.0
 21
6.0
 31
0.0
  0
LINE
  5
477
100
AcDbEntity
  8
0
  6
CONTINUOUS
 62
               4
100
AcDbLine
 10
2.3000000000000682
 20
4.2000000000000455
 30
0.0
 11
0.5
 21
4.2000000000000455
 31
0.0
  0
ARC
  5
478
100
AcDbEntity
  8
0
  6
CONTINUOUS
 62
               4
100
AcDbCircle
 10
2.3000000000000682
 20
4.3999999999999773
 30
0.0
 40
0.2
100
AcDbArc
 50
269.99999999999937
 51
0.0
  0
ARC
  5
479
100
AcDbEntity
  8
0
  6
CONTINUOUS
 62
               4
100
AcDbCircle
 10
0.5
 20
4.7000000000000455
 30
0.0
 40
0.5
100
AcDbArc
 50
179.99999999999963
 51
269.99999999999937
  0
LINE
  5
47A
100
AcDbEntity
  8
0
  6
CONTINUOUS
 62
               4
100
AcDbLine
 10
0.0
 20
6.0
 30
0.0
 11
-14.0
 21
6.0
 31
0.0
  0
LINE
  5
47B
100
AcDbEntity
  8
0
  6
CONTINUOUS
 62
               4
100
AcDbLine
 10
8.75
 20
2.0499999999999545
 30
0.0
 11
8.75
 21
4.3999999999999773
 31
0.0
  0
LINE
  5
47C
100
AcDbEntity
  8
0
  6
CONTINUOUS
 62
               4
100
AcDbLine
 10
4.25
 20
2.0499999999999545
 30
0.0
 11
4.25
 21
4.3999999999999773
 31
0.0
  0
LINE
  5
47D
100
AcDbEntity
  8
0
  6
CONTINUOUS
 62
               4
100
AcDbLine
 10
8.5
 20
1.7999999999999545
 30
0.0
 11
4.5
 21
1.7999999999999545
 31
0.0
  0
LINE
  5
47E
100
AcDbEntity
  8
0
  6
CONTINUOUS
 62
               4
100
AcDbLine
 10
8.75
 20
2.0499999999999545
 30
0.0
 11
4.25
 21
2.0499999999999545
 31
0.0
  0
LINE
  5
47F
100
AcDbEntity
  8
0
  6
CONTINUOUS
 62
               4
100
AcDbLine
 10
4.25
 20
2.0499999999999545
 30
0.0
 11
4.5
 21
1.7999999999999545
 31
0.0
  0
LINE
  5
480
100
AcDbEntity
  8
0
  6
CONTINUOUS
 62
               4
100
AcDbLine
 10
8.75
 20
2.0499999999999545
 30
0.0
 11
8.5
 21
1.7999999999999545
 31
0.0
  0
ARC
  5
481
100
AcDbEntity
  8
0
  6
CONTINUOUS
 62
               4
100
AcDbCircle
 10
117.39999999999998
 20
20.5
 30
0.0
 40
0.5
100
AcDbArc
 50
269.99999999999937
 51
0.0
  0
ARC
  5
482
100
AcDbEntity
  8
0
  6
CONTINUOUS
 62
               4
100
AcDbCircle
 10
93.399999999999977
 20
20.5
 30
0.0
 40
0.5
100
AcDbArc
 50
179.99999999999963
 51
269.99999999999937
  0
LINE
  5
483
100
AcDbEntity
  8
0
  6
CONTINUOUS
 62
               4
100
AcDbLine
 10
100.89999999999998
 20
21.600000000000023
 30
0.0
 11
100.89999999999998
 21
20.0
 31
0.0
  0
LINE
  5
484
100
AcDbEntity
  8
0
  6
CONTINUOUS
 62
               4
100
AcDbLine
 10
103.39999999999998
 20
21.299999999999955
 30
0.0
 11
103.39999999999998
 21
20.0
 31
0.0
  0
LINE
  5
485
100
AcDbEntity
  8
0
  6
CONTINUOUS
 62
               4
100
AcDbLine
 10
94.649999999999977
 20
23.950000000000045
 30
0.0
 11
94.899999999999977
 21
24.200000000000045
 31
0.0
  0
LINE
  5
486
100
AcDbEntity
  8
0
  6
CONTINUOUS
 62
               4
100
AcDbLine
 10
99.149999999999977
 20
23.950000000000045
 30
0.0
 11
98.899999999999977
 21
24.200000000000045
 31
0.0
  0
LINE
  5
487
100
AcDbEntity
  8
0
  6
CONTINUOUS
 62
               4
100
AcDbLine
 10
94.649999999999977
 20
23.950000000000045
 30
0.0
 11
99.149999999999977
 21
23.950000000000045
 31
0.0
  0
LINE
  5
488
100
AcDbEntity
  8
0
  6
CONTINUOUS
 62
               4
100
AcDbLine
 10
94.899999999999977
 20
24.200000000000045
 30
0.0
 11
98.899999999999977
 21
24.200000000000045
 31
0.0
  0
LINE
  5
489
100
AcDbEntity
  8
0
  6
CONTINUOUS
 62
               4
100
AcDbLine
 10
99.149999999999977
 20
23.950000000000045
 30
0.0
 11
99.149999999999977
 21
21.600000000000023
 31
0.0
  0
LINE
  5
48A
100
AcDbEntity
  8
0
  6
CONTINUOUS
 62
               4
100
AcDbLine
 10
94.649999999999977
 20
23.950000000000045
 30
0.0
 11
94.649999999999977
 21
21.600000000000023
 31
0.0
  0
ARC
  5
48B
100
AcDbEntity
  8
0
  6
CONTINUOUS
 62
               4
100
AcDbCircle
 10
102.89999999999998
 20
21.299999999999955
 30
0.0
 40
0.5
100
AcDbArc
 50
0.0
 51
89.999999999999815
  0
ARC
  5
48C
100
AcDbEntity
  8
0
  6
CONTINUOUS
 62
               4
100
AcDbCircle
 10
101.09999999999991
 20
21.600000000000023
 30
0.0
 40
0.2
100
AcDbArc
 50
89.999999999999815
 51
179.99999999999963
  0
LINE
  5
48D
100
AcDbEntity
  8
0
  6
CONTINUOUS
 62
               4
100
AcDbLine
 10
101.09999999999991
 20
21.799999999999955
 30
0.0
 11
102.89999999999998
 21
21.799999999999955
 31
0.0
  0
ARC
  5
48E
100
AcDbEntity
  8
0
  6
CONTINUOUS
 62
               4
100
AcDbCircle
 10
96.899999999999977
 20
26.0
 30
0.0
 40
4.0
100
AcDbArc
 50
89.999999999999815
 51
179.99999999999963
  0
CIRCLE
  5
48F
100
AcDbEntity
  8
0
  6
CONTINUOUS
 62
               4
100
AcDbCircle
 10
103.39999999999998
 20
26.0
 30
0.0
 40
1.8
  0
LINE
  5
490
100
AcDbEntity
  8
0
  6
CONTINUOUS
 62
               4
100
AcDbLine
 10
92.899999999999977
 20
26.0
 30
0.0
 11
92.899999999999977
 21
20.5
 31
0.0
  0
LINE
  5
491
100
AcDbEntity
  8
0
  6
CONTINUOUS
 62
               4
100
AcDbLine
 10
93.399999999999977
 20
21.600000000000023
 30
0.0
 11
100.89999999999998
 21
21.600000000000023
 31
0.0
  0
ARC
  5
492
100
AcDbEntity
  8
0
  6
CONTINUOUS
 62
               4
100
AcDbCircle
 10
93.399999999999977
 20
21.100000000000023
 30
0.0
 40
0.5
100
AcDbArc
 50
89.999999999999815
 51
179.99999999999963
  0
LINE
  5
493
100
AcDbEntity
  8
0
  6
CONTINUOUS
 62
               4
100
AcDbLine
 10
103.39999999999998
 20
20.0
 30
0.0
 11
117.39999999999998
 21
20.0
 31
0.0
  0
LINE
  5
494
100
AcDbEntity
  8
0
  6
CONTINUOUS
 62
               4
100
AcDbLine
 10
99.399999999999977
 20
20.0
 30
0.0
 11
100.89999999999998
 21
20.0
 31
0.0
  0
ARC
  5
495
100
AcDbEntity
  8
0
  6
CONTINUOUS
 62
               4
100
AcDbCircle
 10
113.89999999999998
 20
26.0
 30
0.0
 40
4.0
100
AcDbArc
 50
0.0
 51
89.999999999999815
  0
LINE
  5
496
100
AcDbEntity
  8
0
  6
CENTER
 62
             200
100
AcDbLine
 10
115.89999999999998
 20
26.0
 30
0.0
 11
110.89999999999998
 21
26.0
 31
0.0
  0
CIRCLE
  5
497
100
AcDbEntity
  8
0
  6
CONTINUOUS
 62
               4
100
AcDbCircle
 10
113.39999999999998
 20
26.0
 30
0.0
 40
1.8
  0
LINE
  5
498
100
AcDbEntity
  8
0
  6
CONTINUOUS
 62
               4
100
AcDbLine
 10
96.899999999999977
 20
30.0
 30
0.0
 11
113.89999999999998
 21
30.0
 31
0.0
  0
LINE
  5
499
100
AcDbEntity
  8
0
  6
CONTINUOUS
 62
               4
100
AcDbLine
 10
117.89999999999998
 20
26.0
 30
0.0
 11
117.89999999999998
 21
20.5
 31
0.0
  0
LINE
  5
49A
100
AcDbEntity
  8
0
  6
CENTER
 62
             200
100
AcDbLine
 10
105.89999999999998
 20
26.0
 30
0.0
 11
100.89999999999998
 21
26.0
 31
0.0
  0
LINE
  5
49B
100
AcDbEntity
  8
0
  6
CENTER
 62
             200
100
AcDbLine
 10
113.39999999999998
 20
23.5
 30
0.0
 11
113.39999999999998
 21
28.5
 31
0.0
  0
LINE
  5
49C
100
AcDbEntity
  8
0
  6
CONTINUOUS
 62
               7
100
AcDbLine
 10
4.0
 20
20.0
 30
0.0
 11
99.399999999999977
 21
20.0
 31
0.0
  0
LINE
  5
49D
100
AcDbEntity
  8
0
  6
CONTINUOUS
 62
               7
100
AcDbLine
 10
4.0
 20
6.0
 30
0.0
 11
99.399999999999977
 21
6.0
 31
0.0
  0
LINE
  5
49E
100
AcDbEntity
  8
0
  6
CONTINUOUS
 62
               7
100
AcDbLine
 10
99.399999999999977
 20
20.0
 30
0.0
 11
99.399999999999977
 21
6.0
 31
0.0
  0
LINE
  5
49F
100
AcDbEntity
  8
0
  6
CONTINUOUS
 62
               7
100
AcDbLine
 10
4.0
 20
20.0
 30
0.0
 11
4.0
 21
6.0
 31
0.0
  0
ENDBLK
  5
4A0
100
AcDbEntity
  8
0
100
AcDbBlockEnd
  0
BLOCK
  5
4A1
100
AcDbEntity
  8
0
100
AcDbBlockBegin
  2
MV090MAS-10
 70
               0
 10
0.0
 20
0.0
 30
0.0
  3
MV090MAS-10
  1

  0
INSERT
  5
4A2
100
AcDbEntity
  8
0
  6
ByBlock
100
AcDbBlockReference
  2
MV090MAS-7
 10
16.000000000000057
 20
3.5
 30
0.0
  0
INSERT
  5
4A3
100
AcDbEntity
  8
0
  6
ByBlock
100
AcDbBlockReference
  2
MV090MAS-7
 10
26.199999999999989
 20
3.5
 30
0.0
  0
INSERT
  5
4A4
100
AcDbEntity
  8
0
  6
ByBlock
100
AcDbBlockReference
  2
MV090MAS-7
 10
36.39999999999992
 20
3.5
 30
0.0
  0
INSERT
  5
4A5
100
AcDbEntity
  8
0
  6
ByBlock
100
AcDbBlockReference
  2
MV090MAS-7
 10
46.599999999999966
 20
3.5
 30
0.0
  0
INSERT
  5
4A6
100
AcDbEntity
  8
0
  6
ByBlock
100
AcDbBlockReference
  2
MV090MAS-4
 10
56.799999999999898
 20
3.5
 30
0.0
  0
INSERT
  5
4A7
100
AcDbEntity
  8
0
  6
ByBlock
100
AcDbBlockReference
  2
MV090MAS-5
 10
66.999999999999915
 20
3.5
 30
0.0
  0
INSERT
  5
4A8
100
AcDbEntity
  8
0
  6
ByBlock
100
AcDbBlockReference
  2
MV090MAS-5
 10
77.199999999999903
 20
3.5
 30
0.0
  0
INSERT
  5
4A9
100
AcDbEntity
  8
0
  6
ByBlock
100
AcDbBlockReference
  2
MV090MAS-6
 10
87.399999999999892
 20
3.5
 30
0.0
 50
359.99999999999903
  0
LINE
  5
4AA
100
AcDbEntity
  8
0
  6
CONTINUOUS
 62
               4
100
AcDbLine
 10
100.89999999999998
 20
1.6000000000000227
 30
0.0
 11
117.39999999999998
 21
1.6000000000000227
 31
0.0
  0
LINE
  5
4AB
100
AcDbEntity
  8
0
  6
CONTINUOUS
 62
               4
100
AcDbLine
 10
93.399999999999977
 20
0.0
 30
0.0
 11
117.39999999999998
 21
0.0
 31
0.0
  0
LINE
  5
4AC
100
AcDbEntity
  8
0
  6
CENTER
 62
             200
100
AcDbLine
 10
0.0
 20
-1.6999999999999318
 30
0.0
 11
0.0
 21
3.3000000000000682
 31
0.0
  0
LINE
  5
4AD
100
AcDbEntity
  8
0
  6
CENTER
 62
             200
100
AcDbLine
 10
-10.0
 20
-1.6999999999999318
 30
0.0
 11
-10.0
 21
3.3000000000000682
 31
0.0
  0
LINE
  5
4AE
100
AcDbEntity
  8
0
  6
CENTER
 62
             200
100
AcDbLine
 10
3.1201333025383633
 20
6.0
 30
0.0
 11
9.8781494548591127
 21
6.0
 31
0.0
  0
LINE
  5
4AF
100
AcDbEntity
  8
0
  6
CENTER
 62
             200
100
AcDbLine
 10
6.5
 20
2.4880301067220216
 30
0.0
 11
6.5
 21
9.5659523490934362
 31
0.0
  0
LINE
  5
4B0
100
AcDbEntity
  8
0
  6
CENTER
 62
             200
100
AcDbLine
 10
3.0801450412819804
 20
19.0
 30
0.0
 11
9.9581259773718216
 21
19.0
 31
0.0
  0
LINE
  5
4B1
100
AcDbEntity
  8
0
  6
CENTER
 62
             200
100
AcDbLine
 10
6.5
 20
13.557409686751043
 30
0.0
 11
6.5
 21
22.402184212377392
 31
0.0
  0
LINE
  5
4B2
100
AcDbEntity
  8
0
  6
CENTER
 62
             200
100
AcDbLine
 10
3.9711245243149733
 20
16.0
 30
0.0
 11
9.0
 21
16.0
 31
0.0
  0
LINE
  5
4B3
100
AcDbEntity
  8
0
  6
CENTER
 62
             200
100
AcDbLine
 10
103.39999999999998
 20
-1.6999999999999318
 30
0.0
 11
103.39999999999998
 21
3.3000000000000682
 31
0.0
  0
LINE
  5
4B4
100
AcDbEntity
  8
0
  6
CENTER
 62
             200
100
AcDbLine
 10
113.39999999999998
 20
-1.6999999999999318
 30
0.0
 11
113.39999999999998
 21
3.3000000000000682
 31
0.0
  0
LINE
  5
4B5
100
AcDbEntity
  8
0
  6
CONTINUOUS
 62
               4
100
AcDbLine
 10
7.7500000197610461
 20
5.2783122062683105
 30
0.0
 11
6.4999999005517566
 21
4.5566242933273315
 31
0.0
  0
LINE
  5
4B6
100
AcDbEntity
  8
0
  6
CONTINUOUS
 62
               4
100
AcDbLine
 10
6.499999930354079
 20
7.4433756470680237
 30
0.0
 11
5.25
 21
6.7216878507911133
 31
0.0
  0
LINE
  5
4B7
100
AcDbEntity
  8
0
  6
CONTINUOUS
 62
               4
100
AcDbLine
 10
6.499999930354079
 20
4.5566243529319763
 30
0.0
 11
5.2500000197610461
 21
5.2783121466636658
 31
0.0
  0
LINE
  5
4B8
100
AcDbEntity
  8
0
  6
CONTINUOUS
 62
               4
100
AcDbLine
 10
7.7499999899587237
 20
6.7216878235340118
 30
0.0
 11
6.4999999601564014
 21
7.4433756768703461
 31
0.0
  0
LINE
  5
4B9
100
AcDbEntity
  8
0
  6
CONTINUOUS
 62
               4
100
AcDbLine
 10
7.75
 20
5.2783121466636658
 30
0.0
 11
7.75
 21
6.7216878257524968
 31
0.0
  0
LINE
  5
4BA
100
AcDbEntity
  8
0
  6
CONTINUOUS
 62
               4
100
AcDbLine
 10
5.25
 20
5.2783121466636658
 30
0.0
 11
5.25
 21
6.7216878533363342
 31
0.0
  0
CIRCLE
  5
4BB
100
AcDbEntity
  8
0
  6
CONTINUOUS
 62
               4
100
AcDbCircle
 10
6.5
 20
6.0
 30
0.0
 40
2.75
  0
CIRCLE
  5
4BC
100
AcDbEntity
  8
0
  6
CONTINUOUS
 62
               4
100
AcDbCircle
 10
6.5
 20
6.0
 30
0.0
 40
2.450000000000002
  0
CIRCLE
  5
4BD
100
AcDbEntity
  8
0
  6
CONTINUOUS
 62
               4
100
AcDbCircle
 10
6.5
 20
19.0
 30
0.0
 40
2.450000000000002
  0
CIRCLE
  5
4BE
100
AcDbEntity
  8
0
  6
CONTINUOUS
 62
               4
100
AcDbCircle
 10
6.5
 20
19.0
 30
0.0
 40
2.75
  0
LINE
  5
4BF
100
AcDbEntity
  8
0
  6
CONTINUOUS
 62
               4
100
AcDbLine
 10
5.25
 20
18.278312146663666
 30
0.0
 11
5.25
 21
19.721687853336334
 31
0.0
  0
LINE
  5
4C0
100
AcDbEntity
  8
0
  6
CONTINUOUS
 62
               4
100
AcDbLine
 10
7.75
 20
18.278312146663666
 30
0.0
 11
7.75
 21
19.721687825752497
 31
0.0
  0
LINE
  5
4C1
100
AcDbEntity
  8
0
  6
CONTINUOUS
 62
               4
100
AcDbLine
 10
7.7499999899587237
 20
19.721687823534012
 30
0.0
 11
6.4999999601564014
 21
20.443375676870346
 31
0.0
  0
LINE
  5
4C2
100
AcDbEntity
  8
0
  6
CONTINUOUS
 62
               4
100
AcDbLine
 10
6.499999930354079
 20
17.556624352931976
 30
0.0
 11
5.2500000197610461
 21
18.278312146663666
 31
0.0
  0
LINE
  5
4C3
100
AcDbEntity
  8
0
  6
CONTINUOUS
 62
               4
100
AcDbLine
 10
6.499999930354079
 20
20.443375647068024
 30
0.0
 11
5.25
 21
19.721687850791113
 31
0.0
  0
LINE
  5
4C4
100
AcDbEntity
  8
0
  6
CONTINUOUS
 62
               4
100
AcDbLine
 10
7.7500000197610461
 20
18.278312206268311
 30
0.0
 11
6.4999999005517566
 21
17.556624293327332
 31
0.0
  0
ARC
  5
4C5
100
AcDbEntity
  8
0
  6
CONTINUOUS
 62
               4
100
AcDbCircle
 10
6.5
 20
19.0
 30
0.0
 40
4.0
100
AcDbArc
 50
0.0
 51
179.99999999999963
  0
LINE
  5
4C6
100
AcDbEntity
  8
0
  6
CONTINUOUS
 62
               4
100
AcDbLine
 10
10.5
 20
19.0
 30
0.0
 11
10.5
 21
0.5
 31
0.0
  0
LINE
  5
4C7
100
AcDbEntity
  8
0
  6
CONTINUOUS
 62
               4
100
AcDbLine
 10
2.5
 20
19.0
 30
0.0
 11
2.5
 21
1.6000000000000227
 31
0.0
  0
LINE
  5
4C8
100
AcDbEntity
  8
0
  6
CONTINUOUS
 62
               4
100
AcDbLine
 10
10.0
 20
0.0
 30
0.0
 11
-14.0
 21
0.0
 31
0.0
  0
LINE
  5
4C9
100
AcDbEntity
  8
0
  6
CONTINUOUS
 62
               4
100
AcDbLine
 10
10.5
 20
1.6000000000000227
 30
0.0
 11
-14.0
 21
1.6000000000000227
 31
0.0
  0
LINE
  5
4CA
100
AcDbEntity
  8
0
  6
CONTINUOUS
 62
               4
100
AcDbLine
 10
-14.5
 20
1.1000000000000227
 30
0.0
 11
-14.5
 21
0.5
 31
0.0
  0
ARC
  5
4CB
100
AcDbEntity
  8
0
  6
CONTINUOUS
 62
               4
100
AcDbCircle
 10
10.0
 20
0.5
 30
0.0
 40
0.5
100
AcDbArc
 50
270.00000000000023
 51
0.0
  0
ARC
  5
4CC
100
AcDbEntity
  8
0
  6
CONTINUOUS
 62
               4
100
AcDbCircle
 10
-14.0
 20
0.5
 30
0.0
 40
0.5
100
AcDbArc
 50
179.99999999999963
 51
269.99999999999937
  0
ARC
  5
4CD
100
AcDbEntity
  8
0
  6
CONTINUOUS
 62
               4
100
AcDbCircle
 10
-14.0
 20
1.1000000000000227
 30
0.0
 40
0.5
100
AcDbArc
 50
89.999999999999815
 51
179.99999999999963
  0
ARC
  5
4CE
100
AcDbEntity
  8
0
  6
CONTINUOUS
 62
               4
100
AcDbCircle
 10
6.5
 20
16.0
 30
0.0
 40
1.3999999999999999
100
AcDbArc
 50
179.99999999999963
 51
0.0
  0
LINE
  5
4CF
100
AcDbEntity
  8
0
  6
CONTINUOUS
 62
               4
100
AcDbLine
 10
7.9000000000000909
 20
16.0
 30
0.0
 11
7.9000000000000909
 21
16.633039924291097
 31
0.0
  0
LINE
  5
4D0
100
AcDbEntity
  8
0
  6
CONTINUOUS
 62
               4
100
AcDbLine
 10
5.1000000000000227
 20
16.0
 30
0.0
 11
5.1000000000000227
 21
16.633039924291097
 31
0.0
  0
ARC
  5
4D1
100
AcDbEntity
  8
0
  6
CONTINUOUS
 62
               4
100
AcDbCircle
 10
96.899999999999977
 20
19.0
 30
0.0
 40
4.0
100
AcDbArc
 50
0.0
 51
51.317812546510893
  0
LINE
  5
4D2
100
AcDbEntity
  8
0
  6
CONTINUOUS
 62
               4
100
AcDbLine
 10
100.89999999999998
 20
19.0
 30
0.0
 11
100.89999999999998
 21
0.0
 31
0.0
  0
LINE
  5
4D3
100
AcDbEntity
  8
0
  6
CONTINUOUS
 62
               4
100
AcDbLine
 10
103.39999999999998
 20
0.0
 30
0.0
 11
103.39999999999998
 21
1.6000000000000227
 31
0.0
  0
LINE
  5
4D4
100
AcDbEntity
  8
0
  6
CONTINUOUS
 62
               4
100
AcDbLine
 10
92.899999999999977
 20
3.5
 30
0.0
 11
92.899999999999977
 21
0.5
 31
0.0
  0
ARC
  5
4D5
100
AcDbEntity
  8
0
  6
CONTINUOUS
 62
               4
100
AcDbCircle
 10
93.399999999999977
 20
0.5
 30
0.0
 40
0.5
100
AcDbArc
 50
179.99999999999963
 51
269.99999999999937
  0
LINE
  5
4D6
100
AcDbEntity
  8
0
  6
CONTINUOUS
 62
               7
100
AcDbLine
 10
4.0000000000000568
 20
55.0
 30
0.0
 11
4.0000000000000568
 21
22.122498999199252
 31
0.0
  0
LINE
  5
4D7
100
AcDbEntity
  8
0
  6
CONTINUOUS
 62
               7
100
AcDbLine
 10
4.0000000000000568
 20
55.0
 30
0.0
 11
11.000000000000057
 21
55.0
 31
0.0
  0
LINE
  5
4D8
100
AcDbEntity
  8
0
  6
CONTINUOUS
 62
               7
100
AcDbLine
 10
10.5
 20
3.5
 30
0.0
 11
16.000000000000057
 21
3.5
 31
0.0
  0
LINE
  5
4D9
100
AcDbEntity
  8
0
  6
CONTINUOUS
 62
               7
100
AcDbLine
 10
99.399999999999949
 20
55.0
 30
0.0
 11
99.399999999999949
 21
3.5
 31
0.0
  0
LINE
  5
4DA
100
AcDbEntity
  8
0
  6
CONTINUOUS
 62
               7
100
AcDbLine
 10
21.000000000000057
 20
55.0
 30
0.0
 11
21.199999999999989
 21
55.0
 31
0.0
  0
LINE
  5
4DB
100
AcDbEntity
  8
0
  6
CONTINUOUS
 62
               7
100
AcDbLine
 10
31.199999999999989
 20
55.0
 30
0.0
 11
31.39999999999992
 21
55.0
 31
0.0
  0
LINE
  5
4DC
100
AcDbEntity
  8
0
  6
CONTINUOUS
 62
               7
100
AcDbLine
 10
41.39999999999992
 20
55.0
 30
0.0
 11
41.599999999999966
 21
55.0
 31
0.0
  0
LINE
  5
4DD
100
AcDbEntity
  8
0
  6
CONTINUOUS
 62
               7
100
AcDbLine
 10
51.599999999999966
 20
55.0
 30
0.0
 11
51.800000000000011
 21
55.0
 31
0.0
  0
LINE
  5
4DE
100
AcDbEntity
  8
0
  6
CONTINUOUS
 62
               7
100
AcDbLine
 10
61.799999999999898
 20
55.0
 30
0.0
 11
61.999999999999943
 21
55.0
 31
0.0
  0
LINE
  5
4DF
100
AcDbEntity
  8
0
  6
CONTINUOUS
 62
               7
100
AcDbLine
 10
71.999999999999915
 20
55.0
 30
0.0
 11
72.199999999999903
 21
55.0
 31
0.0
  0
LINE
  5
4E0
100
AcDbEntity
  8
0
  6
CONTINUOUS
 62
               7
100
AcDbLine
 10
82.199999999999903
 20
55.0
 30
0.0
 11
82.399999999999892
 21
55.0
 31
0.0
  0
LINE
  5
4E1
100
AcDbEntity
  8
0
  6
CONTINUOUS
 62
               7
100
AcDbLine
 10
92.399999999999892
 20
55.0
 30
0.0
 11
99.399999999999949
 21
55.0
 31
0.0
  0
ARC
  5
4E2
100
AcDbEntity
  8
0
  6
CONTINUOUS
 62
               4
100
AcDbCircle
 10
117.39999999999998
 20
0.5
 30
0.0
 40
0.5
100
AcDbArc
 50
270.00000000000023
 51
0.0
  0
ARC
  5
4E3
100
AcDbEntity
  8
0
  6
CONTINUOUS
 62
               4
100
AcDbCircle
 10
117.39999999999998
 20
1.1000000000000227
 30
0.0
 40
0.5
100
AcDbArc
 50
0.0
 51
89.999999999999815
  0
LINE
  5
4E4
100
AcDbEntity
  8
0
  6
CONTINUOUS
 62
               4
100
AcDbLine
 10
117.89999999999998
 20
1.1000000000000227
 30
0.0
 11
117.89999999999998
 21
0.5
 31
0.0
  0
LINE
  5
4E5
100
AcDbEntity
  8
0
  6
CONTINUOUS
 62
               7
100
AcDbLine
 10
92.099999999999937
 20
3.5
 30
0.0
 11
99.399999999999949
 21
3.5
 31
0.0
  0
LINE
  5
4E6
100
AcDbEntity
  8
0
  6
CONTINUOUS
 62
               7
100
AcDbLine
 10
16.000000000000057
 20
3.5
 30
0.0
 11
26.199999999999989
 21
3.5
 31
0.0
  0
LINE
  5
4E7
100
AcDbEntity
  8
0
  6
CONTINUOUS
 62
               7
100
AcDbLine
 10
26.199999999999989
 20
3.5
 30
0.0
 11
36.39999999999992
 21
3.5
 31
0.0
  0
LINE
  5
4E8
100
AcDbEntity
  8
0
  6
CONTINUOUS
 62
               7
100
AcDbLine
 10
36.39999999999992
 20
3.5
 30
0.0
 11
46.599999999999966
 21
3.5
 31
0.0
  0
LINE
  5
4E9
100
AcDbEntity
  8
0
  6
CONTINUOUS
 62
               7
100
AcDbLine
 10
46.599999999999966
 20
3.5
 30
0.0
 11
48.099999999999966
 21
3.5
 31
0.0
  0
LINE
  5
4EA
100
AcDbEntity
  8
0
  6
CONTINUOUS
 62
               7
100
AcDbLine
 10
56.799999999999898
 20
3.5
 30
0.0
 11
66.999999999999915
 21
3.5
 31
0.0
  0
LINE
  5
4EB
100
AcDbEntity
  8
0
  6
CONTINUOUS
 62
               7
100
AcDbLine
 10
66.999999999999915
 20
3.5
 30
0.0
 11
77.199999999999903
 21
3.5
 31
0.0
  0
LINE
  5
4EC
100
AcDbEntity
  8
0
  6
CONTINUOUS
 62
               7
100
AcDbLine
 10
77.199999999999903
 20
3.5
 30
0.0
 11
87.399999999999892
 21
3.5
 31
0.0
  0
LINE
  5
4ED
100
AcDbEntity
  8
0
  6
CONTINUOUS
 62
               7
100
AcDbLine
 10
87.399999999999892
 20
3.5
 30
0.0
 11
92.099999999999937
 21
3.5
 31
0.0
  0
LINE
  5
4EE
100
AcDbEntity
  8
0
  6
CONTINUOUS
 62
               7
100
AcDbLine
 10
51.299999999999898
 20
3.5
 30
0.0
 11
51.799999999999898
 21
3.5
 31
0.0
  0
LINE
  5
4EF
100
AcDbEntity
  8
0
  6
CONTINUOUS
 62
               7
100
AcDbLine
 10
51.799999999999898
 20
3.5
 30
0.0
 11
52.099999999999852
 21
3.5
 31
0.0
  0
ENDBLK
  5
4F0
100
AcDbEntity
  8
0
100
AcDbBlockEnd
  0
BLOCK
  5
4F1
100
AcDbEntity
  8
0
100
AcDbBlockBegin
  2
MV090MAS-11
 70
               0
 10
0.0
 20
0.0
 30
0.0
  3
MV090MAS-11
  1

  0
LINE
  5
4F2
100
AcDbEntity
  8
0
  6
CENTER
 62
               2
100
AcDbLine
 10
0.0
 20
76.444869257950529
 30
0.0
 11
0.0
 21
-3.5
 31
0.0
  0
LINE
  5
4F3
100
AcDbEntity
  8
0
  6
CONTINUOUS
 62
               7
100
AcDbLine
 10
-4.5
 20
64.0
 30
0.0
 11
4.5
 21
64.0
 31
0.0
  0
LINE
  5
4F4
100
AcDbEntity
  8
0
  6
CONTINUOUS
 62
               7
100
AcDbLine
 10
-5.0
 20
66.0
 30
0.0
 11
5.0
 21
66.0
 31
0.0
  0
LINE
  5
4F5
100
AcDbEntity
  8
0
  6
CONTINUOUS
 62
               7
100
AcDbLine
 10
-5.0
 20
67.0
 30
0.0
 11
-5.0
 21
0.0
 31
0.0
  0
LINE
  5
4F6
100
AcDbEntity
  8
0
  6
CONTINUOUS
 62
               7
100
AcDbLine
 10
-4.5
 20
64.0
 30
0.0
 11
-4.5
 21
23.0
 31
0.0
  0
CIRCLE
  5
4F7
100
AcDbEntity
  8
0
  6
CONTINUOUS
 62
               7
100
AcDbCircle
 10
0.0
 20
58.75
 30
0.0
 40
1.5
  0
LINE
  5
4F8
100
AcDbEntity
  8
0
  6
CONTINUOUS
 62
               7
100
AcDbLine
 10
-0.916508518122896
 20
59.937439318958354
 30
0.0
 11
0.5700983566090372
 21
57.3625606810416
 31
0.0
  0
LINE
  5
4F9
100
AcDbEntity
  8
0
  6
CONTINUOUS
 62
               7
100
AcDbLine
 10
-0.5700983566090372
 20
60.137439318958286
 30
0.0
 11
0.9165085181227823
 21
57.562560681041646
 31
0.0
  0
LINE
  5
4FA
100
AcDbEntity
  8
0
  6
CONTINUOUS
 62
               7
100
AcDbLine
 10
1.0
 20
66.0
 30
0.0
 11
1.0
 21
66.5
 31
0.0
  0
LINE
  5
4FB
100
AcDbEntity
  8
0
  6
CONTINUOUS
 62
               7
100
AcDbLine
 10
-5.0
 20
66.5
 30
0.0
 11
1.0
 21
66.5
 31
0.0
  0
LINE
  5
4FC
100
AcDbEntity
  8
0
  6
CONTINUOUS
 62
               7
100
AcDbLine
 10
-0.8999999999999773
 20
91.5
 30
0.0
 11
-0.1000000000000227
 21
91.5
 31
0.0
  0
LINE
  5
4FD
100
AcDbEntity
  8
0
  6
CONTINUOUS
 62
               7
100
AcDbLine
 10
-1.8999999999999773
 20
91.5
 30
0.0
 11
-1.1000000000000227
 21
91.5
 31
0.0
  0
LINE
  5
4FE
100
AcDbEntity
  8
0
  6
CONTINUOUS
 62
               7
100
AcDbLine
 10
-2.8999999999999773
 20
91.5
 30
0.0
 11
-2.1000000000000227
 21
91.5
 31
0.0
  0
LINE
  5
4FF
100
AcDbEntity
  8
0
  6
CONTINUOUS
 62
               7
100
AcDbLine
 10
-3.8999999999999773
 20
91.5
 30
0.0
 11
-3.1000000000000227
 21
91.5
 31
0.0
  0
LINE
  5
500
100
AcDbEntity
  8
0
  6
CONTINUOUS
 62
               7
100
AcDbLine
 10
0.2150000000000318
 20
82.934434807571961
 30
0.0
 11
0.2150000000000318
 21
86.5
 31
0.0
  0
LINE
  5
501
100
AcDbEntity
  8
0
  6
CONTINUOUS
 62
               7
100
AcDbLine
 10
-0.7849999999999682
 20
82.934434807571961
 30
0.0
 11
-0.7849999999999682
 21
86.5
 31
0.0
  0
LINE
  5
502
100
AcDbEntity
  8
0
  6
CONTINUOUS
 62
               7
100
AcDbLine
 10
-1.7849999999999682
 20
82.934434807571961
 30
0.0
 11
-1.7849999999999682
 21
86.5
 31
0.0
  0
LINE
  5
503
100
AcDbEntity
  8
0
  6
CONTINUOUS
 62
               7
100
AcDbLine
 10
-2.7849999999999682
 20
82.934434807571961
 30
0.0
 11
-2.7849999999999682
 21
86.5
 31
0.0
  0
LINE
  5
504
100
AcDbEntity
  8
0
  6
CONTINUOUS
 62
               7
100
AcDbLine
 10
-4.2149999999999181
 20
82.934434807571961
 30
0.0
 11
-4.2149999999999181
 21
86.5
 31
0.0
  0
LINE
  5
505
100
AcDbEntity
  8
0
  6
CONTINUOUS
 62
               7
100
AcDbLine
 10
-4.2149999999999181
 20
86.5
 30
0.0
 11
0.2150000000000318
 21
86.5
 31
0.0
  0
LINE
  5
506
100
AcDbEntity
  8
0
  6
CONTINUOUS
 62
               7
100
AcDbLine
 10
0.5
 20
82.934434807571961
 30
0.0
 11
-4.5
 21
82.934434807571961
 31
0.0
  0
LINE
  5
507
100
AcDbEntity
  8
0
  6
CONTINUOUS
 62
               7
100
AcDbLine
 10
-4.5
 20
82.934434807571961
 30
0.0
 11
-4.5
 21
77.270596614320993
 31
0.0
  0
LINE
  5
508
100
AcDbEntity
  8
0
  6
CONTINUOUS
 62
               7
100
AcDbLine
 10
0.5
 20
82.934434807571961
 30
0.0
 11
0.5
 21
79.162488506212867
 31
0.0
  0
LINE
  5
509
100
AcDbEntity
  8
0
  6
CONTINUOUS
 62
               7
100
AcDbLine
 10
-3.8999999999999773
 20
86.5
 30
0.0
 11
-3.8999999999999773
 21
91.5
 31
0.0
  0
LINE
  5
50A
100
AcDbEntity
  8
0
  6
CONTINUOUS
 62
               7
100
AcDbLine
 10
-3.1000000000000227
 20
86.5
 30
0.0
 11
-3.1000000000000227
 21
91.5
 31
0.0
  0
LINE
  5
50B
100
AcDbEntity
  8
0
  6
CONTINUOUS
 62
               7
100
AcDbLine
 10
-2.8999999999999773
 20
86.5
 30
0.0
 11
-2.8999999999999773
 21
91.5
 31
0.0
  0
LINE
  5
50C
100
AcDbEntity
  8
0
  6
CONTINUOUS
 62
               7
100
AcDbLine
 10
-2.1000000000000227
 20
86.5
 30
0.0
 11
-2.1000000000000227
 21
91.5
 31
0.0
  0
LINE
  5
50D
100
AcDbEntity
  8
0
  6
CONTINUOUS
 62
               7
100
AcDbLine
 10
-1.8999999999999773
 20
86.5
 30
0.0
 11
-1.8999999999999773
 21
91.5
 31
0.0
  0
LINE
  5
50E
100
AcDbEntity
  8
0
  6
CONTINUOUS
 62
               7
100
AcDbLine
 10
-1.1000000000000227
 20
86.5
 30
0.0
 11
-1.1000000000000227
 21
91.5
 31
0.0
  0
LINE
  5
50F
100
AcDbEntity
  8
0
  6
CONTINUOUS
 62
               7
100
AcDbLine
 10
-0.8999999999999773
 20
86.5
 30
0.0
 11
-0.8999999999999773
 21
91.5
 31
0.0
  0
LINE
  5
510
100
AcDbEntity
  8
0
  6
CONTINUOUS
 62
               7
100
AcDbLine
 10
-0.1000000000000227
 20
86.5
 30
0.0
 11
-0.1000000000000227
 21
91.5
 31
0.0
  0
LINE
  5
511
100
AcDbEntity
  8
0
  6
CONTINUOUS
 62
               2
100
AcDbLine
 10
1.7519181748148185
 20
78.636187275061729
 30
0.0
 11
-5.968683298765427
 21
75.714878609382708
 31
0.0
  0
LINE
  5
512
100
AcDbEntity
  8
0
  6
CONTINUOUS
 62
               2
100
AcDbLine
 10
1.7519181748148185
 20
79.636187275061729
 30
0.0
 11
-5.968683298765427
 21
76.714878609382708
 31
0.0
  0
LINE
  5
513
100
AcDbEntity
  8
0
  6
CONTINUOUS
 62
               7
100
AcDbLine
 10
0.5
 20
66.5
 30
0.0
 11
0.5
 21
78.162488506212867
 31
0.0
  0
LINE
  5
514
100
AcDbEntity
  8
0
  6
CONTINUOUS
 62
               7
100
AcDbLine
 10
-4.5
 20
66.5
 30
0.0
 11
-4.5
 21
76.270596614320993
 31
0.0
  0
LINE
  5
515
100
AcDbEntity
  8
0
  6
CONTINUOUS
 62
               7
100
AcDbLine
 10
-5.0
 20
14.0
 30
0.0
 11
5.0
 21
14.0
 31
0.0
  0
LINE
  5
516
100
AcDbEntity
  8
0
  6
CONTINUOUS
 62
               7
100
AcDbLine
 10
5.0
 20
21.0
 30
0.0
 11
-5.0
 21
21.0
 31
0.0
  0
LINE
  5
517
100
AcDbEntity
  8
0
  6
CONTINUOUS
 62
               7
100
AcDbLine
 10
-4.5
 20
23.0
 30
0.0
 11
4.5
 21
23.0
 31
0.0
  0
LINE
  5
518
100
AcDbEntity
  8
0
  6
CONTINUOUS
 62
               7
100
AcDbLine
 10
-4.5
 20
26.0
 30
0.0
 11
4.5
 21
26.0
 31
0.0
  0
LINE
  5
519
100
AcDbEntity
  8
0
  6
CONTINUOUS
 62
               7
100
AcDbLine
 10
-4.5
 20
43.0
 30
0.0
 11
4.5
 21
43.0
 31
0.0
  0
LINE
  5
51A
100
AcDbEntity
  8
0
  6
CONTINUOUS
 62
               7
100
AcDbLine
 10
5.1999999999999886
 20
0.0
 30
0.0
 11
-5.0
 21
0.0
 31
0.0
  0
LINE
  5
51B
100
AcDbEntity
  8
0
  6
CONTINUOUS
 62
               7
100
AcDbLine
 10
-0.5700983566090372
 20
49.637439318958286
 30
0.0
 11
0.9165085181227823
 21
47.062560681041646
 31
0.0
  0
LINE
  5
51C
100
AcDbEntity
  8
0
  6
CONTINUOUS
 62
               7
100
AcDbLine
 10
-0.916508518122896
 20
49.437439318958354
 30
0.0
 11
0.5700983566090372
 21
46.8625606810416
 31
0.0
  0
CIRCLE
  5
51D
100
AcDbEntity
  8
0
  6
CONTINUOUS
 62
               7
100
AcDbCircle
 10
0.0
 20
48.25
 30
0.0
 40
1.5
  0
CIRCLE
  5
51E
100
AcDbEntity
  8
0
  6
CONTINUOUS
 62
               7
100
AcDbCircle
 10
0.0
 20
53.5
 30
0.0
 40
1.5
  0
LINE
  5
51F
100
AcDbEntity
  8
0
  6
CONTINUOUS
 62
               7
100
AcDbLine
 10
-0.916508518122896
 20
54.687439318958354
 30
0.0
 11
0.5700983566090372
 21
52.1125606810416
 31
0.0
  0
LINE
  5
520
100
AcDbEntity
  8
0
  6
CONTINUOUS
 62
               7
100
AcDbLine
 10
-0.5700983566090372
 20
54.887439318958286
 30
0.0
 11
0.9165085181227823
 21
52.312560681041646
 31
0.0
  0
LINE
  5
521
100
AcDbEntity
  8
0
  6
CENTER
 62
               2
100
AcDbLine
 10
-3.0
 20
5.5
 30
0.0
 11
3.0
 21
5.5
 31
0.0
  0
CIRCLE
  5
522
100
AcDbEntity
  8
0
  6
CONTINUOUS
 62
               7
100
AcDbCircle
 10
0.0
 20
5.5
 30
0.0
 40
2.1000000000000001
  0
CIRCLE
  5
523
100
AcDbEntity
  8
0
  6
CONTINUOUS
 62
               2
100
AcDbCircle
 10
0.0
 20
5.5
 30
0.0
 40
2.5
  0
LINE
  5
524
100
AcDbEntity
  8
0
  6
CONTINUOUS
 62
               7
100
AcDbLine
 10
-2.1816441337190895
 20
41.097522463488531
 30
0.0
 11
-0.1477777835515326
 21
40.738896729589555
 31
0.0
  0
LINE
  5
525
100
AcDbEntity
  8
0
  6
CONTINUOUS
 62
               7
100
AcDbLine
 10
-2.5461441498785007
 20
41.531916086746492
 30
0.0
 11
0.5408298149766324
 21
40.9875994646153
 31
0.0
  0
LINE
  5
526
100
AcDbEntity
  8
0
  6
CONTINUOUS
 62
               7
100
AcDbLine
 10
-2.5806156454067377
 20
36.435524245807642
 30
0.0
 11
0.5063583194483954
 21
35.891207623676451
 31
0.0
  0
LINE
  5
527
100
AcDbEntity
  8
0
  6
CONTINUOUS
 62
               7
100
AcDbLine
 10
-2.5806156454067377
 20
33.474540409051883
 30
0.0
 11
0.0
 21
33.019508097365133
 31
0.0
  0
LINE
  5
528
100
AcDbEntity
  8
0
  6
CONTINUOUS
 62
               7
100
AcDbLine
 10
-2.2161156292472697
 20
36.00112989354966
 30
0.0
 11
-0.1822500080797909
 21
35.642504888650706
 31
0.0
  0
LINE
  5
529
100
AcDbEntity
  8
0
  6
CONTINUOUS
 62
               7
100
AcDbLine
 10
-2.2161156292472697
 20
33.780391675097576
 30
0.0
 11
-0.1822500080797909
 21
33.421766670198508
 31
0.0
  0
LINE
  5
52A
100
AcDbEntity
  8
0
  6
CONTINUOUS
 62
               7
100
AcDbLine
 10
-2.1816441337190895
 20
38.876784245036333
 30
0.0
 11
-0.1477777835515326
 21
38.518158511137358
 31
0.0
  0
LINE
  5
52B
100
AcDbEntity
  8
0
  6
CONTINUOUS
 62
               7
100
AcDbLine
 10
-2.5461441498785007
 20
38.570932251943532
 30
0.0
 11
0.0344722245282014
 21
38.115899938303983
 31
0.0
  0
LINE
  5
52C
100
AcDbEntity
  8
0
  6
CONTINUOUS
 62
               7
100
AcDbLine
 10
0.1927133455435524
 20
30.121864188903601
 30
0.0
 11
0.0104633374638752
 21
30.524122761736976
 31
0.0
  0
LINE
  5
52D
100
AcDbEntity
  8
0
  6
CONTINUOUS
 62
               7
100
AcDbLine
 10
-0.1717866706159157
 20
30.186135018752907
 30
0.0
 11
0.0104633374638752
 21
30.524122761736976
 31
0.0
  0
LINE
  5
52E
100
AcDbEntity
  8
0
  6
CONTINUOUS
 62
               7
100
AcDbLine
 10
0.0104633374638752
 20
27.563138227467448
 30
0.0
 11
-0.1717866706159157
 21
27.965396800300823
 31
0.0
  0
LINE
  5
52F
100
AcDbEntity
  8
0
  6
CONTINUOUS
 62
               7
100
AcDbLine
 10
0.0104633374638752
 20
27.563138227467448
 30
0.0
 11
0.1927133455435524
 21
27.901125970451517
 31
0.0
  0
LINE
  5
530
100
AcDbEntity
  8
0
  6
CONTINUOUS
 62
               7
100
AcDbLine
 10
-0.1717866706159157
 20
27.965396800300823
 30
0.0
 11
-0.1717866706159157
 21
30.186135018752907
 31
0.0
  0
LINE
  5
531
100
AcDbEntity
  8
0
  6
CONTINUOUS
 62
               7
100
AcDbLine
 10
0.1927133455435524
 20
27.901125970451517
 30
0.0
 11
0.1927133455435524
 21
30.121864188903601
 31
0.0
  0
LINE
  5
532
100
AcDbEntity
  8
0
  6
CONTINUOUS
 62
               7
100
AcDbLine
 10
2.6548978326997599
 20
37.648089682564432
 30
0.0
 11
2.6548978326997599
 21
40.614832588089371
 31
0.0
  0
LINE
  5
533
100
AcDbEntity
  8
0
  6
CONTINUOUS
 62
               7
100
AcDbLine
 10
0.2167222326079354
 20
38.453887681288052
 30
0.0
 11
0.2167222326079354
 21
40.674625899740249
 31
0.0
  0
LINE
  5
534
100
AcDbEntity
  8
0
  6
CONTINUOUS
 62
               7
100
AcDbLine
 10
-0.1477777835515326
 20
38.518158511137358
 30
0.0
 11
-0.1477777835515326
 21
40.738896729589555
 31
0.0
  0
LINE
  5
535
100
AcDbEntity
  8
0
  6
CONTINUOUS
 62
               7
100
AcDbLine
 10
2.2903978165404055
 20
38.088242406077825
 30
0.0
 11
2.2903978165404055
 21
40.308980624530022
 31
0.0
  0
LINE
  5
536
100
AcDbEntity
  8
0
  6
CONTINUOUS
 62
               7
100
AcDbLine
 10
0.0344722245282014
 20
38.115899938303983
 30
0.0
 11
2.6548978326997599
 21
37.653848053819729
 31
0.0
  0
LINE
  5
537
100
AcDbEntity
  8
0
  6
CONTINUOUS
 62
               7
100
AcDbLine
 10
0.2167222326079354
 20
38.453887681288052
 30
0.0
 11
2.2903978165404055
 21
38.088242406077825
 31
0.0
  0
LINE
  5
538
100
AcDbEntity
  8
0
  6
CONTINUOUS
 62
               7
100
AcDbLine
 10
0.0
 20
33.019508097365133
 30
0.0
 11
2.6204256081715585
 21
32.557456212880993
 31
0.0
  0
LINE
  5
539
100
AcDbEntity
  8
0
  6
CONTINUOUS
 62
               7
100
AcDbLine
 10
0.5063583194483954
 20
35.891207623676451
 30
0.0
 11
2.6204256081715585
 21
35.5184400181505
 31
0.0
  0
LINE
  5
53A
100
AcDbEntity
  8
0
  6
CONTINUOUS
 62
               7
100
AcDbLine
 10
0.443063620642306
 20
35.532245091762547
 30
0.0
 11
2.2559255920121473
 21
35.212588783591173
 31
0.0
  0
LINE
  5
53B
100
AcDbEntity
  8
0
  6
CONTINUOUS
 62
               7
100
AcDbLine
 10
0.1822500080796772
 20
33.357495111349181
 30
0.0
 11
2.2559255920121473
 21
32.991850565138975
 31
0.0
  0
LINE
  5
53C
100
AcDbEntity
  8
0
  6
CONTINUOUS
 62
               7
100
AcDbLine
 10
2.2903978165404055
 20
38.088242406077825
 30
0.0
 11
2.6548978326997599
 21
37.648089682564432
 31
0.0
  0
LINE
  5
53D
100
AcDbEntity
  8
0
  6
CONTINUOUS
 62
               7
100
AcDbLine
 10
2.6204256081715585
 20
32.551697841625696
 30
0.0
 11
2.6204256081715585
 21
35.5184400181505
 31
0.0
  0
LINE
  5
53E
100
AcDbEntity
  8
0
  6
CONTINUOUS
 62
               7
100
AcDbLine
 10
2.2559255920121473
 20
32.991850565138975
 30
0.0
 11
2.6204256081715585
 21
32.551697841625696
 31
0.0
  0
LINE
  5
53F
100
AcDbEntity
  8
0
  6
CONTINUOUS
 62
               7
100
AcDbLine
 10
2.2559255920121473
 20
35.212588783591173
 30
0.0
 11
2.6204256081715585
 21
35.5184400181505
 31
0.0
  0
LINE
  5
540
100
AcDbEntity
  8
0
  6
CONTINUOUS
 62
               7
100
AcDbLine
 10
2.2559255920121473
 20
32.991850565138975
 30
0.0
 11
2.2559255920121473
 21
35.212588783591173
 31
0.0
  0
LINE
  5
541
100
AcDbEntity
  8
0
  6
CONTINUOUS
 62
               7
100
AcDbLine
 10
0.0344722245282014
 20
38.115899938303983
 30
0.0
 11
0.2167222326079354
 21
38.453887681288052
 31
0.0
  0
LINE
  5
542
100
AcDbEntity
  8
0
  6
CONTINUOUS
 62
               7
100
AcDbLine
 10
0.0344722245282014
 20
38.115899938303983
 30
0.0
 11
-0.1477777835515326
 21
38.518158511137358
 31
0.0
  0
LINE
  5
543
100
AcDbEntity
  8
0
  6
CONTINUOUS
 62
               7
100
AcDbLine
 10
0.0
 20
33.019508097365133
 30
0.0
 11
-0.1822500080797909
 21
33.421766670198508
 31
0.0
  0
LINE
  5
544
100
AcDbEntity
  8
0
  6
CONTINUOUS
 62
               7
100
AcDbLine
 10
0.0
 20
33.019508097365133
 30
0.0
 11
0.1822500080796772
 21
33.357495111349181
 31
0.0
  0
LINE
  5
545
100
AcDbEntity
  8
0
  6
CONTINUOUS
 62
               7
100
AcDbLine
 10
-0.1822500080797909
 20
35.642504888650706
 30
0.0
 11
0.0
 21
35.980491902634753
 31
0.0
  0
LINE
  5
546
100
AcDbEntity
  8
0
  6
CONTINUOUS
 62
               7
100
AcDbLine
 10
0.1822500080796772
 20
35.578233329801378
 30
0.0
 11
0.0
 21
35.980491902634753
 31
0.0
  0
LINE
  5
547
100
AcDbEntity
  8
0
  6
CONTINUOUS
 62
               7
100
AcDbLine
 10
-0.1822500080797909
 20
33.421766670198508
 30
0.0
 11
-0.1822500080797909
 21
35.642504888650706
 31
0.0
  0
LINE
  5
548
100
AcDbEntity
  8
0
  6
CONTINUOUS
 62
               7
100
AcDbLine
 10
0.1822500080796772
 20
33.357495111349181
 30
0.0
 11
0.1822500080796772
 21
35.578233329801378
 31
0.0
  0
LINE
  5
549
100
AcDbEntity
  8
0
  6
CONTINUOUS
 62
               7
100
AcDbLine
 10
0.1822500080796772
 20
35.578233329801378
 30
0.0
 11
0.443063620642306
 21
35.532245091762547
 31
0.0
  0
LINE
  5
54A
100
AcDbEntity
  8
0
  6
CONTINUOUS
 62
               7
100
AcDbLine
 10
0.477535116170543
 20
40.628636932701397
 30
0.0
 11
2.2903978165404055
 21
40.308980624530022
 31
0.0
  0
LINE
  5
54B
100
AcDbEntity
  8
0
  6
CONTINUOUS
 62
               7
100
AcDbLine
 10
0.5408298149766324
 20
40.9875994646153
 30
0.0
 11
2.6548978326997599
 21
40.614832588089371
 31
0.0
  0
LINE
  5
54C
100
AcDbEntity
  8
0
  6
CONTINUOUS
 62
               7
100
AcDbLine
 10
2.2903978165404055
 20
40.308980624530022
 30
0.0
 11
2.6548978326997599
 21
40.614832588089371
 31
0.0
  0
LINE
  5
54D
100
AcDbEntity
  8
0
  6
CONTINUOUS
 62
               7
100
AcDbLine
 10
0.2167222326079354
 20
40.674625899740249
 30
0.0
 11
0.477535116170543
 21
40.628636932701397
 31
0.0
  0
LINE
  5
54E
100
AcDbEntity
  8
0
  6
CONTINUOUS
 62
               7
100
AcDbLine
 10
0.2167222326079354
 20
40.674625899740249
 30
0.0
 11
0.0344722245282014
 21
41.076884472573511
 31
0.0
  0
LINE
  5
54F
100
AcDbEntity
  8
0
  6
CONTINUOUS
 62
               7
100
AcDbLine
 10
-0.1477777835515326
 20
40.738896729589555
 30
0.0
 11
0.0344722245282014
 21
41.076884472573511
 31
0.0
  0
LINE
  5
550
100
AcDbEntity
  8
0
  6
CONTINUOUS
 62
               7
100
AcDbLine
 10
-2.1816441337190895
 20
41.097522463488531
 30
0.0
 11
-2.1816441337190895
 21
38.876784245036333
 31
0.0
  0
LINE
  5
551
100
AcDbEntity
  8
0
  6
CONTINUOUS
 62
               7
100
AcDbLine
 10
-2.2161156292472697
 20
36.00112989354966
 30
0.0
 11
-2.2161156292472697
 21
33.780391675097576
 31
0.0
  0
LINE
  5
552
100
AcDbEntity
  8
0
  6
CONTINUOUS
 62
               7
100
AcDbLine
 10
-2.5806156454067377
 20
33.474540409051883
 30
0.0
 11
-2.5806156454067377
 21
36.435524245807642
 31
0.0
  0
LINE
  5
553
100
AcDbEntity
  8
0
  6
CONTINUOUS
 62
               7
100
AcDbLine
 10
-2.5461441498785007
 20
38.570932251943532
 30
0.0
 11
-2.5461441498785007
 21
41.531916086746492
 31
0.0
  0
LINE
  5
554
100
AcDbEntity
  8
0
  6
CONTINUOUS
 62
               7
100
AcDbLine
 10
-2.5461441498785007
 20
41.531916086746492
 30
0.0
 11
-2.1816441337190895
 21
41.097522463488531
 31
0.0
  0
LINE
  5
555
100
AcDbEntity
  8
0
  6
CONTINUOUS
 62
               7
100
AcDbLine
 10
-2.5461441498785007
 20
38.570932251943532
 30
0.0
 11
-2.1816441337190895
 21
38.876784245036333
 31
0.0
  0
LINE
  5
556
100
AcDbEntity
  8
0
  6
CONTINUOUS
 62
               7
100
AcDbLine
 10
-2.5806156454067377
 20
36.435524245807642
 30
0.0
 11
-2.2161156292472697
 21
36.00112989354966
 31
0.0
  0
LINE
  5
557
100
AcDbEntity
  8
0
  6
CONTINUOUS
 62
               7
100
AcDbLine
 10
-2.5806156454067377
 20
33.474540409051883
 30
0.0
 11
-2.2161156292472697
 21
33.780391675097576
 31
0.0
  0
LINE
  5
558
100
AcDbEntity
  8
0
  6
CONTINUOUS
 62
               7
100
AcDbLine
 10
4.5
 20
64.0
 30
0.0
 11
4.5
 21
23.0
 31
0.0
  0
LINE
  5
559
100
AcDbEntity
  8
0
  6
CONTINUOUS
 62
               7
100
AcDbLine
 10
5.0000000000000568
 20
51.500000000000057
 30
0.0
 11
5.2000000000000455
 21
51.500000000000057
 31
0.0
  0
LINE
  5
55A
100
AcDbEntity
  8
0
  6
CONTINUOUS
 62
               7
100
AcDbLine
 10
5.0
 20
67.0
 30
0.0
 11
5.0
 21
0.0
 31
0.0
  0
LINE
  5
55B
100
AcDbEntity
  8
0
  6
CONTINUOUS
 62
               7
100
AcDbLine
 10
-5.0
 20
67.0
 30
0.0
 11
-4.5
 21
67.0
 31
0.0
  0
LINE
  5
55C
100
AcDbEntity
  8
0
  6
CONTINUOUS
 62
               7
100
AcDbLine
 10
0.5
 20
67.0
 30
0.0
 11
5.0
 21
67.0
 31
0.0
  0
ENDBLK
  5
55D
100
AcDbEntity
  8
0
100
AcDbBlockEnd
  0
BLOCK
  5
55E
100
AcDbEntity
  8
0
100
AcDbBlockBegin
  2
MV090MAS-12
 70
               0
 10
0.0
 20
0.0
 30
0.0
  3
MV090MAS-12
  1

  0
LINE
  5
55F
100
AcDbEntity
  8
0
  6
CONTINUOUS
 62
               7
100
AcDbLine
 10
5.0
 20
67.0
 30
0.0
 11
5.0
 21
0.0
 31
0.0
  0
LINE
  5
560
100
AcDbEntity
  8
0
  6
CONTINUOUS
 62
               7
100
AcDbLine
 10
5.0000000000000568
 20
51.500000000000057
 30
0.0
 11
5.2000000000000455
 21
51.500000000000057
 31
0.0
  0
CIRCLE
  5
561
100
AcDbEntity
  8
0
  6
CONTINUOUS
 62
               2
100
AcDbCircle
 10
0.0
 20
5.5
 30
0.0
 40
2.5
  0
CIRCLE
  5
562
100
AcDbEntity
  8
0
  6
CONTINUOUS
 62
               7
100
AcDbCircle
 10
0.0
 20
5.5
 30
0.0
 40
2.1000000000000001
  0
LINE
  5
563
100
AcDbEntity
  8
0
  6
CENTER
 62
               2
100
AcDbLine
 10
-3.0
 20
5.5
 30
0.0
 11
3.0
 21
5.5
 31
0.0
  0
LINE
  5
564
100
AcDbEntity
  8
0
  6
CONTINUOUS
 62
               7
100
AcDbLine
 10
5.1999999999999886
 20
0.0
 30
0.0
 11
-5.0
 21
0.0
 31
0.0
  0
LINE
  5
565
100
AcDbEntity
  8
0
  6
CONTINUOUS
 62
               7
100
AcDbLine
 10
-5.0
 20
14.0
 30
0.0
 11
5.0
 21
14.0
 31
0.0
  0
LINE
  5
566
100
AcDbEntity
  8
0
  6
CONTINUOUS
 62
               7
100
AcDbLine
 10
-5.0
 20
67.0
 30
0.0
 11
-5.0
 21
0.0
 31
0.0
  0
LINE
  5
567
100
AcDbEntity
  8
0
  6
CENTER
 62
               2
100
AcDbLine
 10
0.0
 20
70.5
 30
0.0
 11
0.0
 21
-3.5
 31
0.0
  0
ARC
  5
568
100
AcDbEntity
  8
0
  6
CONTINUOUS
 62
               7
100
AcDbCircle
 10
-3.4499999999999886
 20
64.500000000000057
 30
0.0
 40
1.5
100
AcDbArc
 50
89.999999999999815
 51
179.99999999999963
  0
ARC
  5
569
100
AcDbEntity
  8
0
  6
CONTINUOUS
 62
               7
100
AcDbCircle
 10
3.4499999999999886
 20
64.500000000000057
 30
0.0
 40
1.5
100
AcDbArc
 50
0.0
 51
89.999999999999815
  0
LINE
  5
56A
100
AcDbEntity
  8
0
  6
CONTINUOUS
 62
               7
100
AcDbLine
 10
-3.4499999999999886
 20
66.000000000000057
 30
0.0
 11
3.4499999999999886
 21
66.000000000000057
 31
0.0
  0
LINE
  5
56B
100
AcDbEntity
  8
0
  6
CONTINUOUS
 62
               7
100
AcDbLine
 10
4.9499999999999886
 20
58.300000000000011
 30
0.0
 11
4.9499999999999886
 21
64.500000000000057
 31
0.0
  0
LINE
  5
56C
100
AcDbEntity
  8
0
  6
CONTINUOUS
 62
               7
100
AcDbLine
 10
-4.9499999999999886
 20
58.300000000000011
 30
0.0
 11
-4.9499999999999886
 21
64.500000000000057
 31
0.0
  0
LINE
  5
56D
100
AcDbEntity
  8
0
  6
CONTINUOUS
 62
               7
100
AcDbLine
 10
-5.0
 20
22.5
 30
0.0
 11
5.0
 21
22.5
 31
0.0
  0
LINE
  5
56E
100
AcDbEntity
  8
0
  6
CONTINUOUS
 62
               7
100
AcDbLine
 10
-5.0
 20
58.000000000000014
 30
0.0
 11
5.0
 21
58.000000000000014
 31
0.0
  0
LINE
  5
56F
100
AcDbEntity
  8
0
  6
CONTINUOUS
 62
               7
100
AcDbLine
 10
4.9499999999999886
 20
58.300000000000011
 30
0.0
 11
4.6499999999999906
 21
58.000000000000014
 31
0.0
  0
LINE
  5
570
100
AcDbEntity
  8
0
  6
CONTINUOUS
 62
               7
100
AcDbLine
 10
-4.9499999999999886
 20
58.300000000000011
 30
0.0
 11
-4.6499999999999906
 21
58.000000000000014
 31
0.0
  0
LINE
  5
571
100
AcDbEntity
  8
0
  6
CONTINUOUS
 62
               7
100
AcDbLine
 10
-5.0
 20
67.0
 30
0.0
 11
5.0
 21
67.0
 31
0.0
  0
ENDBLK
  5
572
100
AcDbEntity
  8
0
100
AcDbBlockEnd
  0
BLOCK
  5
573
100
AcDbEntity
  8
0
100
AcDbBlockBegin
  2
MV090MAS-13
 70
               0
 10
0.0
 20
0.0
 30
0.0
  3
MV090MAS-13
  1

  0
LINE
  5
574
100
AcDbEntity
  8
0
  6
CENTER
 62
               2
100
AcDbLine
 10
0.0
 20
69.500000000000057
 30
0.0
 11
0.0
 21
-3.5
 31
0.0
  0
LINE
  5
575
100
AcDbEntity
  8
0
  6
CONTINUOUS
 62
               7
100
AcDbLine
 10
-5.0
 20
22.5
 30
0.0
 11
5.0
 21
22.5
 31
0.0
  0
LINE
  5
576
100
AcDbEntity
  8
0
  6
CONTINUOUS
 62
               7
100
AcDbLine
 10
-4.9499999999999886
 20
58.300000000000011
 30
0.0
 11
-4.9499999999999886
 21
64.500000000000057
 31
0.0
  0
LINE
  5
577
100
AcDbEntity
  8
0
  6
CONTINUOUS
 62
               7
100
AcDbLine
 10
4.9499999999999886
 20
58.300000000000011
 30
0.0
 11
4.9499999999999886
 21
64.500000000000057
 31
0.0
  0
LINE
  5
578
100
AcDbEntity
  8
0
  6
CONTINUOUS
 62
               7
100
AcDbLine
 10
-3.4499999999999886
 20
66.000000000000057
 30
0.0
 11
3.4499999999999886
 21
66.000000000000057
 31
0.0
  0
ARC
  5
579
100
AcDbEntity
  8
0
  6
CONTINUOUS
 62
               7
100
AcDbCircle
 10
3.4499999999999886
 20
64.500000000000057
 30
0.0
 40
1.5
100
AcDbArc
 50
0.0
 51
89.999999999999815
  0
ARC
  5
57A
100
AcDbEntity
  8
0
  6
CONTINUOUS
 62
               7
100
AcDbCircle
 10
-3.4499999999999886
 20
64.500000000000057
 30
0.0
 40
1.5
100
AcDbArc
 50
89.999999999999815
 51
179.99999999999963
  0
LINE
  5
57B
100
AcDbEntity
  8
0
  6
CONTINUOUS
 62
               7
100
AcDbLine
 10
-5.0
 20
58.000000000000014
 30
0.0
 11
-5.0
 21
0.0
 31
0.0
  0
LINE
  5
57C
100
AcDbEntity
  8
0
  6
CONTINUOUS
 62
               7
100
AcDbLine
 10
-5.0
 20
14.0
 30
0.0
 11
5.0
 21
14.0
 31
0.0
  0
LINE
  5
57D
100
AcDbEntity
  8
0
  6
CONTINUOUS
 62
               7
100
AcDbLine
 10
5.1999999999999886
 20
0.0
 30
0.0
 11
-5.0
 21
0.0
 31
0.0
  0
LINE
  5
57E
100
AcDbEntity
  8
0
  6
CENTER
 62
               2
100
AcDbLine
 10
-3.0
 20
5.5
 30
0.0
 11
3.0
 21
5.5
 31
0.0
  0
CIRCLE
  5
57F
100
AcDbEntity
  8
0
  6
CONTINUOUS
 62
               7
100
AcDbCircle
 10
0.0
 20
5.5
 30
0.0
 40
2.1000000000000001
  0
CIRCLE
  5
580
100
AcDbEntity
  8
0
  6
CONTINUOUS
 62
               2
100
AcDbCircle
 10
0.0
 20
5.5
 30
0.0
 40
2.5
  0
LINE
  5
581
100
AcDbEntity
  8
0
  6
CONTINUOUS
 62
               7
100
AcDbLine
 10
5.0000000000000568
 20
51.500000000000057
 30
0.0
 11
5.2000000000000455
 21
51.500000000000057
 31
0.0
  0
LINE
  5
582
100
AcDbEntity
  8
0
  6
CONTINUOUS
 62
               7
100
AcDbLine
 10
5.0
 20
58.000000000000014
 30
0.0
 11
5.0
 21
0.0
 31
0.0
  0
LINE
  5
583
100
AcDbEntity
  8
0
  6
CONTINUOUS
 62
               7
100
AcDbLine
 10
-5.0
 20
58.000000000000014
 30
0.0
 11
5.0
 21
58.000000000000014
 31
0.0
  0
LINE
  5
584
100
AcDbEntity
  8
0
  6
CONTINUOUS
 62
               7
100
AcDbLine
 10
-4.9499999999999886
 20
58.300000000000011
 30
0.0
 11
-4.6499999999999906
 21
58.000000000000014
 31
0.0
  0
LINE
  5
585
100
AcDbEntity
  8
0
  6
CONTINUOUS
 62
               7
100
AcDbLine
 10
4.9499999999999886
 20
58.300000000000011
 30
0.0
 11
4.6499999999999906
 21
58.000000000000014
 31
0.0
  0
ENDBLK
  5
586
100
AcDbEntity
  8
0
100
AcDbBlockEnd
  0
BLOCK
  5
587
100
AcDbEntity
  8
0
100
AcDbBlockBegin
  2
MV090MAS-14
 70
               0
 10
0.0
 20
0.0
 30
0.0
  3
MV090MAS-14
  1

  0
LINE
  5
588
100
AcDbEntity
  8
0
  6
CONTINUOUS
 62
               2
100
AcDbLine
 10
-5.5800000000000267
 20
48.210000000000036
 30
0.0
 11
5.5183137557572053
 21
51.169550334868518
 31
0.0
  0
LINE
  5
589
100
AcDbEntity
  8
0
  6
CONTINUOUS
 62
               2
100
AcDbLine
 10
-5.5800000000000267
 20
49.450000000000045
 30
0.0
 11
5.5183137557572053
 21
52.409550334868527
 31
0.0
  0
LINE
  5
58A
100
AcDbEntity
  8
0
  6
CENTER
 62
               2
100
AcDbLine
 10
0.0000000000000142
 20
-62.93473171868925
 30
0.0
 11
-0.0000000000000142
 21
47.381003626861002
 31
0.0
  0
LINE
  5
58B
100
AcDbEntity
  8
0
  6
CONTINUOUS
 62
               7
100
AcDbLine
 10
4.7000000000000028
 20
44.099999999999909
 30
0.0
 11
-4.7000000000000028
 21
44.099999999999909
 31
0.0
  0
LINE
  5
58C
100
AcDbEntity
  8
0
  6
CONTINUOUS
 62
               7
100
AcDbLine
 10
4.9999999999999858
 20
39.099999999999909
 30
0.0
 11
2.4999999999999858
 21
39.099999999999909
 31
0.0
  0
LINE
  5
58D
100
AcDbEntity
  8
0
  6
CONTINUOUS
 62
               7
100
AcDbLine
 10
-4.7000000000000028
 20
33.599999999999909
 30
0.0
 11
4.7000000000000028
 21
33.599999999999909
 31
0.0
  0
LINE
  5
58E
100
AcDbEntity
  8
0
  6
CONTINUOUS
 62
               7
100
AcDbLine
 10
-5.0000000000000142
 20
0.0
 30
0.0
 11
-5.0000000000000142
 21
39.099999999999909
 31
0.0
  0
LINE
  5
58F
100
AcDbEntity
  8
0
  6
CONTINUOUS
 62
               7
100
AcDbLine
 10
-2.140000000000029
 20
59.629999999999882
 30
0.0
 11
-2.9400000000000404
 21
59.629999999999882
 31
0.0
  0
LINE
  5
590
100
AcDbEntity
  8
0
  6
CONTINUOUS
 62
               7
100
AcDbLine
 10
-1.8250000000000313
 20
54.629999999999882
 30
0.0
 11
-3.2550000000000381
 21
54.629999999999882
 31
0.0
  0
LINE
  5
591
100
AcDbEntity
  8
0
  6
CONTINUOUS
 62
               7
100
AcDbLine
 10
-2.9400000000000404
 20
54.629999999999882
 30
0.0
 11
-2.9400000000000404
 21
59.629999999999882
 31
0.0
  0
LINE
  5
592
100
AcDbEntity
  8
0
  6
CONTINUOUS
 62
               7
100
AcDbLine
 10
-2.140000000000029
 20
54.629999999999882
 30
0.0
 11
-2.140000000000029
 21
59.629999999999882
 31
0.0
  0
LINE
  5
593
100
AcDbEntity
  8
0
  6
CONTINUOUS
 62
               7
100
AcDbLine
 10
-1.8250000000000313
 20
50.451333333333309
 30
0.0
 11
-1.8250000000000313
 21
54.629999999999882
 31
0.0
  0
LINE
  5
594
100
AcDbEntity
  8
0
  6
CONTINUOUS
 62
               7
100
AcDbLine
 10
-3.2550000000000381
 20
50.069999999999936
 30
0.0
 11
-3.2550000000000381
 21
54.629999999999882
 31
0.0
  0
LINE
  5
595
100
AcDbEntity
  8
0
  6
CONTINUOUS
 62
               7
100
AcDbLine
 10
-3.2550000000000381
 20
44.099999999999909
 30
0.0
 11
-3.2550000000000381
 21
48.829999999999927
 31
0.0
  0
LINE
  5
596
100
AcDbEntity
  8
0
  6
CONTINUOUS
 62
               7
100
AcDbLine
 10
-1.8250000000000313
 20
44.099999999999909
 30
0.0
 11
-1.8250000000000313
 21
49.2113333333333
 31
0.0
  0
LINE
  5
597
100
AcDbEntity
  8
0
  6
CONTINUOUS
 62
               7
100
AcDbLine
 10
3.2549999999999812
 20
54.629999999999882
 30
0.0
 11
1.8249999999999744
 21
54.629999999999882
 31
0.0
  0
LINE
  5
598
100
AcDbEntity
  8
0
  6
CONTINUOUS
 62
               7
100
AcDbLine
 10
1.8249999999999744
 20
51.424666666666553
 30
0.0
 11
1.8249999999999744
 21
54.629999999999882
 31
0.0
  0
LINE
  5
599
100
AcDbEntity
  8
0
  6
CONTINUOUS
 62
               7
100
AcDbLine
 10
3.2549999999999812
 20
51.80600000000004
 30
0.0
 11
3.2549999999999812
 21
54.629999999999882
 31
0.0
  0
LINE
  5
59A
100
AcDbEntity
  8
0
  6
CONTINUOUS
 62
               7
100
AcDbLine
 10
2.1399999999999721
 20
54.629999999999882
 30
0.0
 11
2.1399999999999721
 21
59.629999999999882
 31
0.0
  0
LINE
  5
59B
100
AcDbEntity
  8
0
  6
CONTINUOUS
 62
               7
100
AcDbLine
 10
2.9399999999999551
 20
54.629999999999882
 30
0.0
 11
2.9399999999999551
 21
59.629999999999882
 31
0.0
  0
LINE
  5
59C
100
AcDbEntity
  8
0
  6
CONTINUOUS
 62
               7
100
AcDbLine
 10
2.1399999999999721
 20
59.629999999999882
 30
0.0
 11
2.9399999999999551
 21
59.629999999999882
 31
0.0
  0
LINE
  5
59D
100
AcDbEntity
  8
0
  6
CONTINUOUS
 62
               7
100
AcDbLine
 10
1.8249999999999744
 20
44.099999999999909
 30
0.0
 11
1.8249999999999744
 21
50.184666666666658
 31
0.0
  0
LINE
  5
59E
100
AcDbEntity
  8
0
  6
CONTINUOUS
 62
               7
100
AcDbLine
 10
3.2549999999999812
 20
44.099999999999909
 30
0.0
 11
3.2549999999999812
 21
50.566000000000031
 31
0.0
  0
LINE
  5
59F
100
AcDbEntity
  8
0
  6
CONTINUOUS
 62
               7
100
AcDbLine
 10
2.8999999999999915
 20
33.599999999999909
 30
0.0
 11
2.8999999999999915
 21
39.099999999999909
 31
0.0
  0
LINE
  5
5A0
100
AcDbEntity
  8
0
  6
CONTINUOUS
 62
               7
100
AcDbLine
 10
-2.9000000000000199
 20
33.599999999999909
 30
0.0
 11
-2.9000000000000199
 21
39.099999999999909
 31
0.0
  0
LINE
  5
5A1
100
AcDbEntity
  8
0
  6
CONTINUOUS
 62
               7
100
AcDbLine
 10
-1.5000000000000142
 20
30.599999999999909
 30
0.0
 11
1.4999999999999858
 21
30.599999999999909
 31
0.0
  0
LINE
  5
5A2
100
AcDbEntity
  8
0
  6
CONTINUOUS
 62
               7
100
AcDbLine
 10
1.4999999999999858
 20
30.599999999999909
 30
0.0
 11
1.4999999999999858
 21
33.599999999999909
 31
0.0
  0
LINE
  5
5A3
100
AcDbEntity
  8
0
  6
CONTINUOUS
 62
               7
100
AcDbLine
 10
-1.5000000000000142
 20
30.599999999999909
 30
0.0
 11
-1.5000000000000142
 21
33.599999999999909
 31
0.0
  0
ARC
  5
5A4
100
AcDbEntity
  8
0
  6
CONTINUOUS
 62
               7
100
AcDbCircle
 10
-4.7000000000000028
 20
33.299999999999955
 30
0.0
 40
0.3
100
AcDbArc
 50
89.999999999999815
 51
179.99999999999963
  0
LINE
  5
5A5
100
AcDbEntity
  8
0
  6
CONTINUOUS
 62
               7
100
AcDbLine
 10
2.4999999999999858
 20
34.599999999999909
 30
0.0
 11
-2.5000000000000142
 21
34.599999999999909
 31
0.0
  0
LINE
  5
5A6
100
AcDbEntity
  8
0
  6
CONTINUOUS
 62
               7
100
AcDbLine
 10
2.4999999999999858
 20
43.099999999999909
 30
0.0
 11
-2.5000000000000142
 21
43.099999999999909
 31
0.0
  0
LINE
  5
5A7
100
AcDbEntity
  8
0
  6
CONTINUOUS
 62
               7
100
AcDbLine
 10
2.4999999999999858
 20
34.599999999999909
 30
0.0
 11
2.4999999999999858
 21
43.099999999999909
 31
0.0
  0
LINE
  5
5A8
100
AcDbEntity
  8
0
  6
CONTINUOUS
 62
               7
100
AcDbLine
 10
-2.5000000000000142
 20
42.388675134594791
 30
0.0
 11
2.4999999999999858
 21
42.388675134594791
 31
0.0
  0
LINE
  5
5A9
100
AcDbEntity
  8
0
  6
CONTINUOUS
 62
               7
100
AcDbLine
 10
-2.5000000000000142
 20
42.099999999999909
 30
0.0
 11
2.4999999999999858
 21
42.099999999999909
 31
0.0
  0
LINE
  5
5AB
100
AcDbEntity
  8
0
  6
PHANTOM
 62
               7
100
AcDbLine
 10
-0.0000000000000142
 20
35.466025403784442
 30
0.0
 11
1.2499999999999858
 21
35.466025403784442
 31
0.0
  0
LINE
  5
5AC
100
AcDbEntity
  8
0
  6
CONTINUOUS
 62
               7
100
AcDbLine
 10
3.5999999999999801
 20
39.099999999999909
 30
0.0
 11
3.5999999999999801
 21
44.099999999999909
 31
0.0
  0
LINE
  5
5AD
100
AcDbEntity
  8
0
  6
PHANTOM
 62
               7
100
AcDbLine
 10
-0.0000000000000142
 20
35.466025403784442
 30
0.0
 11
-1.2500000000000142
 21
35.466025403784442
 31
0.0
  0
LINE
  5
5AE
100
AcDbEntity
  8
0
  6
CONTINUOUS
 62
               7
100
AcDbLine
 10
-3.6000000000000085
 20
39.099999999999909
 30
0.0
 11
-3.6000000000000085
 21
44.099999999999909
 31
0.0
  0
LINE
  5
5AF
100
AcDbEntity
  8
0
  6
CONTINUOUS
 62
               7
100
AcDbLine
 10
-2.5000000000000142
 20
34.599999999999909
 30
0.0
 11
-2.5000000000000142
 21
43.099999999999909
 31
0.0
  0
LINE
  5
5B0
100
AcDbEntity
  8
0
  6
CONTINUOUS
 62
               7
100
AcDbLine
 10
-4.7000000000000028
 20
39.099999999999909
 30
0.0
 11
-4.7000000000000028
 21
44.099999999999909
 31
0.0
  0
LINE
  5
5B1
100
AcDbEntity
  8
0
  6
CONTINUOUS
 62
               7
100
AcDbLine
 10
-2.5000000000000142
 20
35.466025403784442
 30
0.0
 11
2.4999999999999858
 21
35.466025403784442
 31
0.0
  0
LINE
  5
5B2
100
AcDbEntity
  8
0
  6
CONTINUOUS
 62
               7
100
AcDbLine
 10
-2.5000000000000142
 20
39.099999999999909
 30
0.0
 11
-5.0000000000000142
 21
39.099999999999909
 31
0.0
  0
CIRCLE
  5
5B3
100
AcDbEntity
  8
0
  6
CONTINUOUS
 62
               7
100
AcDbCircle
 10
-1.0000000000001279
 20
4.0
 30
0.0
 40
3.25
  0
LINE
  5
5B4
100
AcDbEntity
  8
0
  6
CENTER
 62
               2
100
AcDbLine
 10
-1.0000000000001279
 20
-0.0324166785749185
 30
0.0
 11
-1.0000000000001279
 21
8.0289521778429389
 31
0.0
  0
LINE
  5
5B5
100
AcDbEntity
  8
0
  6
CONTINUOUS
 62
               7
100
AcDbLine
 10
-5.0000000000000142
 20
15.200000000000045
 30
0.0
 11
4.9999999999999858
 21
15.200000000000045
 31
0.0
  0
LINE
  5
5B6
100
AcDbEntity
  8
0
  6
CONTINUOUS
 62
               7
100
AcDbLine
 10
4.9999999999999858
 20
14.899999999999977
 30
0.0
 11
-5.0000000000000142
 21
14.899999999999977
 31
0.0
  0
LINE
  5
5B7
100
AcDbEntity
  8
0
  6
CONTINUOUS
 62
               7
100
AcDbLine
 10
-5.0000000000000142
 20
14.0
 30
0.0
 11
4.9999999999999858
 21
14.0
 31
0.0
  0
CIRCLE
  5
5B8
100
AcDbEntity
  8
0
  6
CONTINUOUS
 62
               7
100
AcDbCircle
 10
-1.0000000000001279
 20
4.0
 30
0.0
 40
2.5
  0
CIRCLE
  5
5B9
100
AcDbEntity
  8
0
  6
CONTINUOUS
 62
               7
100
AcDbCircle
 10
-1.0000000000001279
 20
4.0
 30
0.0
 40
3.0
  0
LINE
  5
5BA
100
AcDbEntity
  8
0
  6
CENTER
 62
               2
100
AcDbLine
 10
3.2186348042364585
 20
4.0
 30
0.0
 11
-5.4251938152926442
 21
4.0
 31
0.0
  0
LINE
  5
5BB
100
AcDbEntity
  8
0
  6
CONTINUOUS
 62
               7
100
AcDbLine
 10
-3.4494897427833053
 20
3.5
 30
0.0
 11
1.44948974278305
 21
3.5
 31
0.0
  0
LINE
  5
5BC
100
AcDbEntity
  8
0
  6
CONTINUOUS
 62
               7
100
AcDbLine
 10
-3.4494897427833053
 20
4.5
 30
0.0
 11
1.44948974278305
 21
4.5
 31
0.0
  0
LINE
  5
5BD
100
AcDbEntity
  8
0
  6
CONTINUOUS
 62
               7
100
AcDbLine
 10
4.7000000000000028
 20
39.099999999999909
 30
0.0
 11
4.7000000000000028
 21
44.099999999999909
 31
0.0
  0
ARC
  5
5BE
100
AcDbEntity
  8
0
  6
CONTINUOUS
 62
               7
100
AcDbCircle
 10
4.7000000000000028
 20
33.299999999999955
 30
0.0
 40
0.3
100
AcDbArc
 50
359.99999999999972
 51
89.999999999999801
  0
LINE
  5
5BF
100
AcDbEntity
  8
0
  6
CONTINUOUS
 62
               7
100
AcDbLine
 10
4.9999999999999858
 20
0.0
 30
0.0
 11
4.9999999999999858
 21
39.099999999999909
 31
0.0
  0
LINE
  5
5C0
100
AcDbEntity
  8
0
  6
CONTINUOUS
 62
               7
100
AcDbLine
 10
-4.9749371855331077
 20
-21.500000000000114
 30
0.0
 11
4.9749371855331077
 21
-21.500000000000114
 31
0.0
  0
LINE
  5
5C1
100
AcDbEntity
  8
0
  6
CONTINUOUS
 62
               7
100
AcDbLine
 10
-4.9749371855331077
 20
-20.500000000000114
 30
0.0
 11
4.9749371855331077
 21
-20.500000000000114
 31
0.0
  0
CIRCLE
  5
5C2
100
AcDbEntity
  8
0
  6
CONTINUOUS
 62
               7
100
AcDbCircle
 10
-0.0000000000000142
 20
-21.000000000000114
 30
0.0
 40
5.0
  0
LINE
  5
5C3
100
AcDbEntity
  8
0
  6
CONTINUOUS
 62
               7
100
AcDbLine
 10
4.9999999999999858
 20
-14.0
 30
0.0
 11
5.0000000000000142
 21
-62.000000000000114
 31
0.0
  0
LINE
  5
5C4
100
AcDbEntity
  8
0
  6
CONTINUOUS
 62
               7
100
AcDbLine
 10
5.0000000000000142
 20
-62.000000000000114
 30
0.0
 11
-4.9999999999999858
 21
-62.000000000000114
 31
0.0
  0
LINE
  5
5C5
100
AcDbEntity
  8
0
  6
CONTINUOUS
 62
               7
100
AcDbLine
 10
-5.0000000000000142
 20
-37.000000000000114
 30
0.0
 11
4.9999999999999858
 21
-37.000000000000114
 31
0.0
  0
LINE
  5
5C6
100
AcDbEntity
  8
0
  6
CONTINUOUS
 62
               7
100
AcDbLine
 10
-5.0000000000000142
 20
-14.0
 30
0.0
 11
-4.9999999999999858
 21
-62.000000000000114
 31
0.0
  0
CIRCLE
  5
5C7
100
AcDbEntity
  8
0
  6
CONTINUOUS
 62
               7
100
AcDbCircle
 10
-1.4023275225397782
 20
-42.718287235888624
 30
0.0
 40
0.6
  0
CIRCLE
  5
5C8
100
AcDbEntity
  8
0
  6
CONTINUOUS
 62
               7
100
AcDbCircle
 10
-1.4023275225397782
 20
-42.718287235888624
 30
0.0
 40
1.0
  0
CIRCLE
  5
5C9
100
AcDbEntity
  8
0
  6
CONTINUOUS
 62
               7
100
AcDbCircle
 10
-3.2817127641115889
 20
-43.402327522539963
 30
0.0
 40
0.6
  0
CIRCLE
  5
5CA
100
AcDbEntity
  8
0
  6
CONTINUOUS
 62
               7
100
AcDbCircle
 10
-3.2817127641115889
 20
-43.402327522539963
 30
0.0
 40
1.0
  0
CIRCLE
  5
5CB
100
AcDbEntity
  8
0
  6
CONTINUOUS
 62
               7
100
AcDbCircle
 10
-2.5976724774602502
 20
-45.281712764111717
 30
0.0
 40
1.0
  0
CIRCLE
  5
5CC
100
AcDbEntity
  8
0
  6
CONTINUOUS
 62
               7
100
AcDbCircle
 10
-2.0000000000000142
 20
-44.000000000000227
 30
0.0
 40
3.0
  0
CIRCLE
  5
5CD
100
AcDbEntity
  8
0
  6
CONTINUOUS
 62
               7
100
AcDbCircle
 10
-2.0000000000000142
 20
-44.000000000000227
 30
0.0
 40
2.5
  0
CIRCLE
  5
5CE
100
AcDbEntity
  8
0
  6
CONTINUOUS
 62
               7
100
AcDbCircle
 10
-0.7182872358884396
 20
-44.597672477460378
 30
0.0
 40
1.0
  0
CIRCLE
  5
5CF
100
AcDbEntity
  8
0
  6
CONTINUOUS
 62
               7
100
AcDbCircle
 10
-0.7182872358884396
 20
-44.597672477460378
 30
0.0
 40
0.6
  0
CIRCLE
  5
5D0
100
AcDbEntity
  8
0
  6
CONTINUOUS
 62
               7
100
AcDbCircle
 10
-2.5976724774602502
 20
-45.281712764111717
 30
0.0
 40
0.6
  0
ENDBLK
  5
5D1
100
AcDbEntity
  8
0
100
AcDbBlockEnd
  0
BLOCK
  5
5D2
100
AcDbEntity
  8
0
100
AcDbBlockBegin
  2
MV090MAS-15
 70
               0
 10
0.0
 20
0.0
 30
0.0
  3
MV090MAS-15
  1

  0
LINE
  5
5D3
100
AcDbEntity
  8
0
  6
CONTINUOUS
 62
               7
100
AcDbLine
 10
-4.9999999999999911
 20
-59.500000000000114
 30
0.0
 11
5.0000000000000089
 21
-59.500000000000114
 31
0.0
  0
LINE
  5
5D4
100
AcDbEntity
  8
0
  6
CONTINUOUS
 62
               7
100
AcDbLine
 10
-4.9999999999999911
 20
-39.500000000000114
 30
0.0
 11
5.0000000000000089
 21
-39.500000000000114
 31
0.0
  0
LINE
  5
5D5
100
AcDbEntity
  8
0
  6
CONTINUOUS
 62
               7
100
AcDbLine
 10
-5.0000000000000124
 20
-14.0
 30
0.0
 11
-4.999999999999984
 21
-62.000000000000114
 31
0.0
  0
LINE
  5
5D6
100
AcDbEntity
  8
0
  6
CONTINUOUS
 62
               7
100
AcDbLine
 10
-5.0000000000000124
 20
-37.000000000000114
 30
0.0
 11
4.9999999999999876
 21
-37.000000000000114
 31
0.0
  0
LINE
  5
5D7
100
AcDbEntity
  8
0
  6
CONTINUOUS
 62
               7
100
AcDbLine
 10
5.000000000000016
 20
-62.000000000000114
 30
0.0
 11
-4.999999999999984
 21
-62.000000000000114
 31
0.0
  0
LINE
  5
5D8
100
AcDbEntity
  8
0
  6
CONTINUOUS
 62
               7
100
AcDbLine
 10
4.9999999999999876
 20
-14.0
 30
0.0
 11
5.000000000000016
 21
-62.000000000000114
 31
0.0
  0
CIRCLE
  5
5D9
100
AcDbEntity
  8
0
  6
CONTINUOUS
 62
               7
100
AcDbCircle
 10
-0.0000000000000122
 20
-21.000000000000114
 30
0.0
 40
5.0
  0
LINE
  5
5DA
100
AcDbEntity
  8
0
  6
CONTINUOUS
 62
               7
100
AcDbLine
 10
-4.9749371855331059
 20
-20.500000000000114
 30
0.0
 11
4.9749371855331095
 21
-20.500000000000114
 31
0.0
  0
LINE
  5
5DB
100
AcDbEntity
  8
0
  6
CONTINUOUS
 62
               7
100
AcDbLine
 10
-4.9749371855331059
 20
-21.500000000000114
 30
0.0
 11
4.9749371855331095
 21
-21.500000000000114
 31
0.0
  0
LINE
  5
5DC
100
AcDbEntity
  8
0
  6
CENTER
 62
               2
100
AcDbLine
 10
0.0000000000000162
 20
-62.93473171868925
 30
0.0
 11
-0.0000000000000122
 21
47.381003626861002
 31
0.0
  0
LINE
  5
5DD
100
AcDbEntity
  8
0
  6
CONTINUOUS
 62
               7
100
AcDbLine
 10
-5.0
 20
14.0
 30
0.0
 11
5.0
 21
14.0
 31
0.0
  0
LINE
  5
5DE
100
AcDbEntity
  8
0
  6
CENTER
 62
               2
100
AcDbLine
 10
-1.0000000000001137
 20
0.5
 30
0.0
 11
-1.0000000000001137
 21
7.5
 31
0.0
  0
CIRCLE
  5
5DF
100
AcDbEntity
  8
0
  6
CONTINUOUS
 62
               7
100
AcDbCircle
 10
-1.0000000000001137
 20
4.0
 30
0.0
 40
3.0
  0
CIRCLE
  5
5E0
100
AcDbEntity
  8
0
  6
CONTINUOUS
 62
               7
100
AcDbCircle
 10
-1.0000000000001137
 20
4.0
 30
0.0
 40
3.25
  0
LINE
  5
5E1
100
AcDbEntity
  8
0
  6
CENTER
 62
               2
100
AcDbLine
 10
-4.5000000000001137
 20
4.0
 30
0.0
 11
2.4999999999998863
 21
4.0
 31
0.0
  0
LINE
  5
5E2
100
AcDbEntity
  8
0
  6
CONTINUOUS
 62
               7
100
AcDbLine
 10
-5.0000000000000036
 20
29.0
 30
0.0
 11
4.9999999999999964
 21
29.0
 31
0.0
  0
LINE
  5
5E3
100
AcDbEntity
  8
0
  6
CONTINUOUS
 62
               7
100
AcDbLine
 10
-5.0000000000000036
 20
25.5
 30
0.0
 11
4.9999999999999964
 21
25.5
 31
0.0
  0
LINE
  5
5E4
100
AcDbEntity
  8
0
  6
CONTINUOUS
 62
               7
100
AcDbLine
 10
-2.2500000000000036
 20
39.490000000000009
 30
0.0
 11
-2.2500000000000036
 21
42.799999999999997
 31
0.0
  0
LINE
  5
5E5
100
AcDbEntity
  8
0
  6
CONTINUOUS
 62
               7
100
AcDbLine
 10
-3.5500000000000149
 20
39.140000000000001
 30
0.0
 11
-3.5500000000000149
 21
42.799999999999997
 31
0.0
  0
LINE
  5
5E6
100
AcDbEntity
  8
0
  6
CONTINUOUS
 62
               7
100
AcDbLine
 10
-2.2500000000000036
 20
42.799999999999997
 30
0.0
 11
-3.5500000000000149
 21
42.799999999999997
 31
0.0
  0
LINE
  5
5E7
100
AcDbEntity
  8
0
  6
CONTINUOUS
 62
               7
100
AcDbLine
 10
-2.6500000000000092
 20
46.799999999999997
 30
0.0
 11
-3.1500000000000092
 21
46.799999999999997
 31
0.0
  0
LINE
  5
5E8
100
AcDbEntity
  8
0
  6
CONTINUOUS
 62
               7
100
AcDbLine
 10
-2.6500000000000092
 20
42.799999999999997
 30
0.0
 11
-2.6500000000000092
 21
46.799999999999997
 31
0.0
  0
LINE
  5
5E9
100
AcDbEntity
  8
0
  6
CONTINUOUS
 62
               7
100
AcDbLine
 10
-3.1500000000000092
 20
42.799999999999997
 30
0.0
 11
-3.1500000000000092
 21
46.799999999999997
 31
0.0
  0
LINE
  5
5EA
100
AcDbEntity
  8
0
  6
CONTINUOUS
 62
               7
100
AcDbLine
 10
-3.5500000000000149
 20
34.599999999999994
 30
0.0
 11
-3.5500000000000149
 21
38.099999999999994
 31
0.0
  0
LINE
  5
5EB
100
AcDbEntity
  8
0
  6
CONTINUOUS
 62
               7
100
AcDbLine
 10
-2.2500000000000036
 20
34.599999999999994
 30
0.0
 11
-2.2500000000000036
 21
38.450000000000003
 31
0.0
  0
LINE
  5
5EC
100
AcDbEntity
  8
0
  6
CONTINUOUS
 62
               2
100
AcDbLine
 10
-4.5000000000000036
 20
37.849999999999994
 30
0.0
 11
-1.3000000000000149
 21
38.709999999999994
 31
0.0
  0
LINE
  5
5ED
100
AcDbEntity
  8
0
  6
CONTINUOUS
 62
               2
100
AcDbLine
 10
-4.5000000000000036
 20
38.879999999999995
 30
0.0
 11
-1.3000000000000149
 21
39.740000000000009
 31
0.0
  0
LINE
  5
5EE
100
AcDbEntity
  8
0
  6
CONTINUOUS
 62
               7
100
AcDbLine
 10
2.2499999999999964
 20
34.599999999999994
 30
0.0
 11
2.2499999999999964
 21
38.099999999999994
 31
0.0
  0
LINE
  5
5EF
100
AcDbEntity
  8
0
  6
CONTINUOUS
 62
               7
100
AcDbLine
 10
3.5500000000000078
 20
34.599999999999994
 30
0.0
 11
3.5500000000000078
 21
38.450000000000003
 31
0.0
  0
LINE
  5
5F0
100
AcDbEntity
  8
0
  6
CONTINUOUS
 62
               2
100
AcDbLine
 10
1.3000000000000078
 20
37.849999999999994
 30
0.0
 11
4.4999999999999964
 21
38.709999999999994
 31
0.0
  0
LINE
  5
5F1
100
AcDbEntity
  8
0
  6
CONTINUOUS
 62
               2
100
AcDbLine
 10
1.3000000000000078
 20
38.879999999999995
 30
0.0
 11
4.4999999999999964
 21
39.740000000000009
 31
0.0
  0
LINE
  5
5F2
100
AcDbEntity
  8
0
  6
CONTINUOUS
 62
               7
100
AcDbLine
 10
2.6500000000000021
 20
42.799999999999997
 30
0.0
 11
2.6500000000000021
 21
46.799999999999997
 31
0.0
  0
LINE
  5
5F3
100
AcDbEntity
  8
0
  6
CONTINUOUS
 62
               7
100
AcDbLine
 10
3.1500000000000021
 20
42.799999999999997
 30
0.0
 11
3.1500000000000021
 21
46.799999999999997
 31
0.0
  0
LINE
  5
5F4
100
AcDbEntity
  8
0
  6
CONTINUOUS
 62
               7
100
AcDbLine
 10
3.1500000000000021
 20
46.799999999999997
 30
0.0
 11
2.6500000000000021
 21
46.799999999999997
 31
0.0
  0
LINE
  5
5F5
100
AcDbEntity
  8
0
  6
CONTINUOUS
 62
               7
100
AcDbLine
 10
3.5500000000000078
 20
42.799999999999997
 30
0.0
 11
2.2499999999999964
 21
42.799999999999997
 31
0.0
  0
LINE
  5
5F6
100
AcDbEntity
  8
0
  6
CONTINUOUS
 62
               7
100
AcDbLine
 10
2.2499999999999964
 20
39.140000000000001
 30
0.0
 11
2.2499999999999964
 21
42.799999999999997
 31
0.0
  0
LINE
  5
5F7
100
AcDbEntity
  8
0
  6
CONTINUOUS
 62
               7
100
AcDbLine
 10
3.5500000000000078
 20
39.490000000000009
 30
0.0
 11
3.5500000000000078
 21
42.799999999999997
 31
0.0
  0
LINE
  5
5F8
100
AcDbEntity
  8
0
  6
CONTINUOUS
 62
               7
100
AcDbLine
 10
-5.0000000000000036
 20
34.599999999999994
 30
0.0
 11
4.9999999999999964
 21
34.599999999999994
 31
0.0
  0
LINE
  5
5F9
100
AcDbEntity
  8
0
  6
CONTINUOUS
 62
               7
100
AcDbLine
 10
-5.0000000000000036
 20
33.599999999999994
 30
0.0
 11
4.9999999999999964
 21
33.599999999999994
 31
0.0
  0
LINE
  5
5FA
100
AcDbEntity
  8
0
  6
CENTER
 62
               2
100
AcDbLine
 10
-5.8548750255477024
 20
21.0
 30
0.0
 11
5.8933983654744644
 21
21.0
 31
0.0
  0
CIRCLE
  5
5FB
100
AcDbEntity
  8
0
  6
CONTINUOUS
 62
               7
100
AcDbCircle
 10
-0.0000000000000036
 20
20.999999995936363
 30
0.0
 40
2.6500000000000004
  0
ARC
  5
5FC
100
AcDbEntity
  8
0
  6
CONTINUOUS
 62
               7
100
AcDbCircle
 10
-0.0000000000000036
 20
20.999999995936363
 30
0.0
 40
3.1500000000000004
100
AcDbArc
 50
287.75279040435811
 51
252.24720959564061
  0
ARC
  5
5FD
100
AcDbEntity
  8
0
  6
CONTINUOUS
 62
               7
100
AcDbCircle
 10
-0.0000000000000036
 20
21.0
 30
0.0
 40
3.4500000000000002
100
AcDbArc
 50
299.59184579395003
 51
240.40815420604878
  0
CIRCLE
  5
5FE
100
AcDbEntity
  8
0
  6
CONTINUOUS
 62
               7
100
AcDbCircle
 10
-0.0000000000000036
 20
20.999999995936363
 30
0.0
 40
0.3
  0
CIRCLE
  5
5FF
100
AcDbEntity
  8
0
  6
CONTINUOUS
 62
               7
100
AcDbCircle
 10
-0.0000000017638549
 20
21.0
 30
0.0
 40
0.576795
  0
CIRCLE
  5
600
100
AcDbEntity
  8
0
  6
CONTINUOUS
 62
               7
100
AcDbCircle
 10
-0.0000000000000036
 20
20.999999995936363
 30
0.0
 40
0.75
  0
LINE
  5
601
100
AcDbEntity
  8
0
  6
CONTINUOUS
 62
               7
100
AcDbLine
 10
-5.0000000000000036
 20
18.0
 30
0.0
 11
4.9999999999999964
 21
18.0
 31
0.0
  0
LINE
  5
602
100
AcDbEntity
  8
0
  6
CONTINUOUS
 62
               7
100
AcDbLine
 10
-4.9999999999999432
 20
0.0
 30
0.0
 11
-5.0000000000000036
 21
34.599999999999994
 31
0.0
  0
LINE
  5
603
100
AcDbEntity
  8
0
  6
CONTINUOUS
 62
               7
100
AcDbLine
 10
5.0
 20
0.0
 30
0.0
 11
4.9999999999999964
 21
34.599999999999994
 31
0.0
  0
ENDBLK
  5
604
100
AcDbEntity
  8
0
100
AcDbBlockEnd
  0
BLOCK
  5
618
100
AcDbEntity
  8
0
  6
ByBlock
 62
               0
100
AcDbBlockBegin
  2
*D15
 70
               1
 10
0.0
 20
0.0
 30
0.0
  3
*D15
  1

  0
LINE
  5
619
100
AcDbEntity
  8
0
  6
CONTINUOUS
 62
               2
100
AcDbLine
 10
123.5926749169887
 20
-40.654683293920925
 30
0.0
 11
116.5926749169887
 21
-40.654683293920925
 31
0.0
  0
LINE
  5
61A
100
AcDbEntity
  8
0
  6
CONTINUOUS
 62
               2
100
AcDbLine
 10
116.5926749169887
 20
-40.654683293920925
 30
0.0
 11
101.84602565169939
 21
-40.654683293920925
 31
0.0
  0
INSERT
  5
621
100
AcDbEntity
  8
0
  6
CONTINUOUS
 62
               2
100
AcDbBlockReference
  2
_OPEN30
 10
123.5926749169887
 20
-40.654683293920925
 30
0.0
 41
2.77
 42
2.77
 43
2.77
  0
INSERT
  5
622
100
AcDbEntity
  8
0
  6
CONTINUOUS
 62
               2
100
AcDbBlockReference
  2
_OPEN30
 10
116.5926749169887
 20
-40.654683293920925
 30
0.0
 41
2.77
 42
2.77
 43
2.77
 50
180.0
  0
MTEXT
  5
623
100
AcDbEntity
  8
0
  6
CONTINUOUS
 62
               2
100
AcDbMText
 10
104.99602574706682
 20
-36.504683198553494
 30
0.0
 40
6.3000001907348633
 41
0.0
 71
               5
 72
               1
  1
\A1;7
 11
1.0
 21
-0.0000000000000001
 31
0.0
  0
POINT
  5
624
100
AcDbEntity
  8
DEFPOINTS
  6
CONTINUOUS
 62
               0
100
AcDbPoint
 10
123.5926749169887
 20
-40.654683293920925
 30
0.0
  0
POINT
  5
625
100
AcDbEntity
  8
DEFPOINTS
  6
CONTINUOUS
 62
               0
100
AcDbPoint
 10
116.5926749169887
 20
-25.303828420263699
 30
0.0
  0
POINT
  5
626
100
AcDbEntity
  8
DEFPOINTS
  6
CONTINUOUS
 62
               0
100
AcDbPoint
 10
116.5926749169887
 20
-40.654683293920925
 30
0.0
  0
ENDBLK
  5
627
100
AcDbEntity
  8
0
  6
ByBlock
 62
               0
100
AcDbBlockEnd
  0
BLOCK
  5
61C
100
AcDbEntity
  8
0
  6
ByBlock
 62
               0
100
AcDbBlockBegin
  2
_OPEN30
 70
               2
 10
0.0
 20
0.0
 30
0.0
  3
_OPEN30
  1

  0
LINE
  5
61D
100
AcDbEntity
  8
0
  6
ByBlock
 62
               0
100
AcDbLine
 10
-1.0
 20
0.267949
 30
0.0
 11
0.0
 21
0.0
 31
0.0
  0
LINE
  5
61E
100
AcDbEntity
  8
0
  6
ByBlock
 62
               0
100
AcDbLine
 10
0.0
 20
0.0
 30
0.0
 11
-1.0
 21
-0.267949
 31
0.0
  0
LINE
  5
61F
100
AcDbEntity
  8
0
  6
ByBlock
 62
               0
100
AcDbLine
 10
0.0
 20
0.0
 30
0.0
 11
-1.0
 21
0.0
 31
0.0
  0
ENDBLK
  5
620
100
AcDbEntity
  8
0
  6
ByBlock
 62
               0
100
AcDbBlockEnd
  0
BLOCK
  5
62A
100
AcDbEntity
  8
0
  6
ByBlock
 62
               0
100
AcDbBlockBegin
  2
*D17
 70
               1
 10
0.0
 20
0.0
 30
0.0
  3
*D17
  1

  0
LINE
  5
62B
100
AcDbEntity
  8
0
  6
CONTINUOUS
 62
               2
100
AcDbLine
 10
204.99267491698856
 20
-40.654683293920925
 30
0.0
 11
211.99267491698856
 21
-40.654683293920925
 31
0.0
  0
LINE
  5
62C
100
AcDbEntity
  8
0
  6
CONTINUOUS
 62
               2
100
AcDbLine
 10
211.99267491698856
 20
-40.654683293920925
 30
0.0
 11
232.44232639670963
 21
-40.654683293920925
 31
0.0
  0
INSERT
  5
62D
100
AcDbEntity
  8
0
  6
CONTINUOUS
 62
               2
100
AcDbBlockReference
  2
_OPEN30
 10
204.99267491698856
 20
-40.654683293920925
 30
0.0
 41
2.77
 42
2.77
 43
2.77
 50
180.0
  0
INSERT
  5
62E
100
AcDbEntity
  8
0
  6
CONTINUOUS
 62
               2
100
AcDbBlockReference
  2
_OPEN30
 10
211.99267491698856
 20
-40.654683293920925
 30
0.0
 41
2.77
 42
2.77
 43
2.77
  0
MTEXT
  5
62F
100
AcDbEntity
  8
0
  6
CONTINUOUS
 62
               2
100
AcDbMText
 10
225.09232625365848
 20
-36.504683198553494
 30
0.0
 40
6.3000001907348633
 41
0.0
 71
               5
 72
               1
  1
\A1;(7)
  0
POINT
  5
630
100
AcDbEntity
  8
DEFPOINTS
  6
CONTINUOUS
 62
               0
100
AcDbPoint
 10
204.99267491698856
 20
-79.654683293920925
 30
0.0
  0
POINT
  5
631
100
AcDbEntity
  8
DEFPOINTS
  6
CONTINUOUS
 62
               0
100
AcDbPoint
 10
211.99267491698856
 20
-94.154683293920925
 30
0.0
  0
POINT
  5
632
100
AcDbEntity
  8
DEFPOINTS
  6
CONTINUOUS
 62
               0
100
AcDbPoint
 10
211.99267491698856
 20
-40.654683293920925
 30
0.0
  0
ENDBLK
  5
633
100
AcDbEntity
  8
0
  6
ByBlock
 62
               0
100
AcDbBlockEnd
  0
BLOCK
  5
636
100
AcDbEntity
  8
0
  6
ByBlock
 62
               0
100
AcDbBlockBegin
  2
*D18
 70
               1
 10
0.0
 20
0.0
 30
0.0
  3
*D18
  1

  0
LINE
  5
637
100
AcDbEntity
  8
0
  6
CONTINUOUS
 62
               2
100
AcDbLine
 10
123.5926749169887
 20
-40.654683293920925
 30
0.0
 11
204.99267491698856
 21
-40.654683293920925
 31
0.0
  0
LINE
  5
638
100
AcDbEntity
  8
0
  6
CONTINUOUS
 62
               2
100
AcDbLine
 10
123.5926749169887
 20
-79.654683293920925
 30
0.0
 11
123.5926749169887
 21
-39.154683293920925
 31
0.0
  0
LINE
  5
639
100
AcDbEntity
  8
0
  6
CONTINUOUS
 62
               2
100
AcDbLine
 10
204.99267491698856
 20
-79.654683293920925
 30
0.0
 11
204.99267491698856
 21
-39.154683293920925
 31
0.0
  0
INSERT
  5
63A
100
AcDbEntity
  8
0
  6
CONTINUOUS
 62
               2
100
AcDbBlockReference
  2
_OPEN30
 10
123.5926749169887
 20
-40.654683293920925
 30
0.0
 41
2.77
 42
2.77
 43
2.77
 50
180.0
  0
INSERT
  5
63B
100
AcDbEntity
  8
0
  6
CONTINUOUS
 62
               2
100
AcDbBlockReference
  2
_OPEN30
 10
204.99267491698856
 20
-40.654683293920925
 30
0.0
 41
2.77
 42
2.77
 43
2.77
  0
MTEXT
  5
63C
100
AcDbEntity
  8
0
  6
CONTINUOUS
 62
               2
100
AcDbMText
 10
164.29267567992815
 20
-36.504683198553494
 30
0.0
 40
6.3000001907348633
 41
0.0
 71
               5
 72
               1
  1
\A1;L
  0
POINT
  5
63D
100
AcDbEntity
  8
DEFPOINTS
  6
CONTINUOUS
 62
               0
100
AcDbPoint
 10
123.5926749169887
 20
-81.154683293920925
 30
0.0
  0
POINT
  5
63E
100
AcDbEntity
  8
DEFPOINTS
  6
CONTINUOUS
 62
               0
100
AcDbPoint
 10
204.99267491698856
 20
-81.154683293920925
 30
0.0
  0
POINT
  5
63F
100
AcDbEntity
  8
DEFPOINTS
  6
CONTINUOUS
 62
               0
100
AcDbPoint
 10
204.99267491698856
 20
-40.654683293920925
 30
0.0
  0
ENDBLK
  5
640
100
AcDbEntity
  8
0
  6
ByBlock
 62
               0
100
AcDbBlockEnd
  0
BLOCK
  5
643
100
AcDbEntity
  8
0
  6
ByBlock
 62
               0
100
AcDbBlockBegin
  2
*D19
 70
               1
 10
0.0
 20
0.0
 30
0.0
  3
*D19
  1

  0
LINE
  5
644
100
AcDbEntity
  8
0
  6
CONTINUOUS
 62
               2
100
AcDbLine
 10
116.5926749169887
 20
-25.303828512337532
 30
0.0
 11
211.99267491698856
 21
-25.303828512337532
 31
0.0
  0
LINE
  5
645
100
AcDbEntity
  8
0
  6
CONTINUOUS
 62
               2
100
AcDbLine
 10
116.5926749169887
 20
-94.154681478646125
 30
0.0
 11
116.5926749169887
 21
-23.803828512337532
 31
0.0
  0
LINE
  5
646
100
AcDbEntity
  8
0
  6
CONTINUOUS
 62
               2
100
AcDbLine
 10
211.99267491698856
 20
-94.154681478646125
 30
0.0
 11
211.99267491698856
 21
-23.803828512337532
 31
0.0
  0
INSERT
  5
647
100
AcDbEntity
  8
0
  6
CONTINUOUS
 62
               2
100
AcDbBlockReference
  2
_OPEN30
 10
116.5926749169887
 20
-25.303828512337532
 30
0.0
 41
2.77
 42
2.77
 43
2.77
 50
180.0
  0
INSERT
  5
648
100
AcDbEntity
  8
0
  6
CONTINUOUS
 62
               2
100
AcDbBlockReference
  2
_OPEN30
 10
211.99267491698856
 20
-25.303828512337532
 30
0.0
 41
2.77
 42
2.77
 43
2.77
  0
MTEXT
  5
649
100
AcDbEntity
  8
0
  6
CONTINUOUS
 62
               2
100
AcDbMText
 10
164.29267567992815
 20
-21.1538284169701
 30
0.0
 40
6.3000001907348633
 41
0.0
 71
               5
 72
               1
  1
\A1;P
  0
POINT
  5
64A
100
AcDbEntity
  8
DEFPOINTS
  6
CONTINUOUS
 62
               0
100
AcDbPoint
 10
116.5926749169887
 20
-95.654681478646125
 30
0.0
  0
POINT
  5
64B
100
AcDbEntity
  8
DEFPOINTS
  6
CONTINUOUS
 62
               0
100
AcDbPoint
 10
211.99267491698856
 20
-95.654681478646125
 30
0.0
  0
POINT
  5
64C
100
AcDbEntity
  8
DEFPOINTS
  6
CONTINUOUS
 62
               0
100
AcDbPoint
 10
211.99267491698856
 20
-25.303828512337532
 30
0.0
  0
ENDBLK
  5
64D
100
AcDbEntity
  8
0
  6
ByBlock
 62
               0
100
AcDbBlockEnd
  0
ENDSEC
  0
SECTION
  2
ENTITIES
  0
INSERT
  5
605
100
AcDbEntity
  8
0
  6
ByBlock
100
AcDbBlockReference
  2
MV090MAS-1
 10
112.5926749169887
 20
-150.65468329392093
 30
0.0
  0
INSERT
  5
606
100
AcDbEntity
  8
0
  6
ByBlock
100
AcDbBlockReference
  2
MV090MAS-8
 10
11.234158216633375
 20
-150.65468329392093
 30
0.0
  0
INSERT
  5
607
100
AcDbEntity
  8
0
  6
ByBlock
100
AcDbBlockReference
  2
MV090MAS-9
 10
112.5926749169887
 20
77.551419431070258
 30
0.0
  0
INSERT
  5
608
100
AcDbEntity
  8
0
  6
ByBlock
100
AcDbBlockReference
  2
MV090MAS-10
 10
-226.12543357759313
 20
-150.65468329392093
 30
0.0
  0
MTEXT
  5
609
100
AcDbEntity
  8
0
  6
CONTINUOUS
 62
               7
100
AcDbMText
 10
-268.30116287637634
 20
160.5
 30
0.0
 40
6.3000001907348633
 41
0.0
 71
               4
 72
               1
  1
\W1.047;\A1;MODEL:MV090M8AS
  0
LINE
  5
60A
100
AcDbEntity
  8
0
  6
CONTINUOUS
 62
               7
100
AcDbLine
 10
-281.25
 20
-195.0
 30
0.0
 11
282.099853515625
 21
-195.0
 31
0.0
  0
LINE
  5
60B
100
AcDbEntity
  8
0
  6
CONTINUOUS
 62
               7
100
AcDbLine
 10
-281.25
 20
195.5
 30
0.0
 11
-281.25
 21
-195.0
 31
0.0
  0
LINE
  5
60C
100
AcDbEntity
  8
0
  6
CONTINUOUS
 62
               7
100
AcDbLine
 10
-281.25
 20
195.5
 30
0.0
 11
282.099853515625
 21
195.5
 31
0.0
  0
LINE
  5
60D
100
AcDbEntity
  8
0
  6
CONTINUOUS
 62
               7
100
AcDbLine
 10
282.099853515625
 20
195.5
 30
0.0
 11
282.099853515625
 21
-195.0
 31
0.0
  0
LINE
  5
60E
100
AcDbEntity
  8
0
  6
CONTINUOUS
 62
               7
100
AcDbLine
 10
162.0999755859375
 20
195.5
 30
0.0
 11
162.0999755859375
 21
175.5
 31
0.0
  0
LINE
  5
60F
100
AcDbEntity
  8
0
  6
CONTINUOUS
 62
               7
100
AcDbLine
 10
162.0999755859375
 20
175.5
 30
0.0
 11
282.099853515625
 21
175.5
 31
0.0
  0
MTEXT
  5
610
100
AcDbEntity
  8
0
  6
CONTINUOUS
 62
               7
100
AcDbMText
 10
198.31570519064027
 20
185.5
 30
0.0
 40
6.3000001907348633
 41
0.0
 71
               4
 72
               1
  1
\W1.348;\A1;Ver. 1.1
  0
MTEXT
  5
611
100
AcDbEntity
  8
0
  6
CONTINUOUS
 62
               7
100
AcDbMText
 10
170.28099805280428
 20
-185.0
 30
0.0
 40
9.0
 41
0.0
 71
               4
 72
               1
  1
\W1.121;\A1;KOGANEI CORP.
  0
LINE
  5
612
100
AcDbEntity
  8
0
  6
CONTINUOUS
 62
               7
100
AcDbLine
 10
162.0999755859375
 20
-175.0
 30
0.0
 11
282.099853515625
 21
-175.0
 31
0.0
  0
LINE
  5
613
100
AcDbEntity
  8
0
  6
CONTINUOUS
 62
               7
100
AcDbLine
 10
162.0999755859375
 20
-175.0
 30
0.0
 11
162.0999755859375
 21
-195.0
 31
0.0
  0
LINE
  5
614
100
AcDbEntity
  8
0
  6
CONTINUOUS
 62
               7
100
AcDbLine
 10
-161.25
 20
195.5
 30
0.0
 11
-161.25
 21
175.5
 31
0.0
  0
LINE
  5
615
100
AcDbEntity
  8
0
  6
CONTINUOUS
 62
               7
100
AcDbLine
 10
-281.25
 20
175.5
 30
0.0
 11
-161.25
 21
175.5
 31
0.0
  0
MTEXT
  5
616
100
AcDbEntity
  8
0
  6
CONTINUOUS
 62
               7
100
AcDbMText
 10
-270.56845645328212
 20
185.5
 30
0.0
 40
6.3000001907348633
 41
0.0
 71
               4
 72
               1
  1
\W1.030;\A1;VACUUM VALE UNIT
  0
DIMENSION
  5
628
100
AcDbEntity
  8
0
  6
CONTINUOUS
 62
               2
100
AcDbDimension
  2
*D15
 10
116.5926749169887
 20
-40.654683293920925
 30
0.0
 11
104.99602574706682
 21
-40.654683293920925
 31
0.0
 70
             128
  1
<>
  3
MXDIMSTYLE
100
AcDbAlignedDimension
 13
123.5926749169887
 23
-40.654683293920925
 33
0.0
 14
116.5926749169887
 24
-25.303828420263699
 34
0.0
100
AcDbRotatedDimension
1001
ACAD
1000
DSTYLE
1002
{
1070
               6
1000
_OPEN30
1070
               7
1000
_OPEN30
1070
              41
1040
2.77
1070
              75
1070
               1
1070
              76
1070
               1
1070
             140
1040
6.3000001907348633
1070
             173
1070
               1
1070
             271
1070
               2
1070
             284
1070
               8
1070
             341
1005
61B
1002
}
  0
DIMENSION
  5
634
100
AcDbEntity
  8
0
  6
CONTINUOUS
 62
               2
100
AcDbDimension
  2
*D17
 10
211.99267491698856
 20
-40.654683293920925
 30
0.0
 11
225.09232625365848
 21
-40.654683293920925
 31
0.0
 70
             128
  1
(<>)
  3
MXDIMSTYLE
100
AcDbAlignedDimension
 13
204.99267491698856
 23
-79.654683293920925
 33
0.0
 14
211.99267491698856
 24
-94.154683293920925
 34
0.0
100
AcDbRotatedDimension
1001
ACAD
1000
DSTYLE
1002
{
1070
               6
1000
_OPEN30
1070
               7
1000
_OPEN30
1070
              41
1040
2.77
1070
              75
1070
               1
1070
              76
1070
               1
1070
             140
1040
6.3000001907348633
1070
             173
1070
               1
1070
             271
1070
               2
1070
             284
1070
               8
1070
             341
1005
61B
1002
}
  0
DIMENSION
  5
641
100
AcDbEntity
  8
0
  6
CONTINUOUS
 62
               2
100
AcDbDimension
  2
*D18
 10
204.99267491698856
 20
-40.654683293920925
 30
0.0
 11
164.29267567992815
 21
-40.654683293920925
 31
0.0
 70
             128
  1
L
  3
MXDIMSTYLE
100
AcDbAlignedDimension
 13
123.5926749169887
 23
-81.154683293920925
 33
0.0
 14
204.99267491698856
 24
-81.154683293920925
 34
0.0
100
AcDbRotatedDimension
1001
ACAD
1000
DSTYLE
1002
{
1070
               6
1000
_OPEN30
1070
               7
1000
_OPEN30
1070
              41
1040
2.77
1070
             140
1040
6.3000001907348633
1070
             173
1070
               1
1070
             271
1070
               2
1070
             341
1005
61B
1002
}
  0
DIMENSION
  5
64E
100
AcDbEntity
  8
0
  6
CONTINUOUS
 62
               2
100
AcDbDimension
  2
*D19
 10
211.99267491698856
 20
-25.303828512337532
 30
0.0
 11
164.29267567992815
 21
-25.303828512337532
 31
0.0
 70
             128
  1
P
  3
MXDIMSTYLE
100
AcDbAlignedDimension
 13
116.5926749169887
 23
-95.654681478646125
 33
0.0
 14
211.99267491698856
 24
-95.654681478646125
 34
0.0
100
AcDbRotatedDimension
1001
ACAD
1000
DSTYLE
1002
{
1070
               6
1000
_OPEN30
1070
               7
1000
_OPEN30
1070
              41
1040
2.77
1070
             140
1040
6.3000001907348633
1070
             173
1070
               1
1070
             271
1070
               2
1070
             341
1005
61B
1002
}
  0
MTEXT
  5
64F
100
AcDbEntity
  8
0
  6
CONTINUOUS
 62
               7
100
AcDbMText
 10
-241.18333467237892
 20
80.5
 30
0.0
 40
6.3000001907348633
 41
0.0
 71
               4
 72
               1
  1
\W1.111;\A1;DIMENSION LIST
  0
MTEXT
  5
650
100
AcDbEntity
  8
0
  6
CONTINUOUS
 62
               7
100
AcDbMText
 10
-162.34000040090083
 20
0.5
 30
0.0
 40
6.3000001907348633
 41
0.0
 71
               4
 72
               1
  1
\W1.200;\A1;95.4
  0
MTEXT
  5
651
100
AcDbEntity
  8
0
  6
CONTINUOUS
 62
               7
100
AcDbMText
 10
-162.34000040090083
 20
10.5
 30
0.0
 40
6.3000001907348633
 41
0.0
 71
               4
 72
               1
  1
\W1.200;\A1;85.2
  0
MTEXT
  5
652
100
AcDbEntity
  8
0
  6
CONTINUOUS
 62
               7
100
AcDbMText
 10
-162.27368450461543
 20
20.5
 30
0.0
 40
6.3000001907348633
 41
0.0
 71
               4
 72
               1
  1
\W1.263;\A1;75.0
  0
MTEXT
  5
653
100
AcDbEntity
  8
0
  6
CONTINUOUS
 62
               7
100
AcDbMText
 10
-162.34000040090083
 20
30.5
 30
0.0
 40
6.3000001907348633
 41
0.0
 71
               4
 72
               1
  1
\W1.200;\A1;64.8
  0
MTEXT
  5
654
100
AcDbEntity
  8
0
  6
CONTINUOUS
 62
               7
100
AcDbMText
 10
-162.34000040090083
 20
40.5
 30
0.0
 40
6.3000001907348633
 41
0.0
 71
               4
 72
               1
  1
\W1.200;\A1;54.6
  0
MTEXT
  5
655
100
AcDbEntity
  8
0
  6
CONTINUOUS
 62
               7
100
AcDbMText
 10
-162.34000040090083
 20
50.5
 30
0.0
 40
6.3000001907348633
 41
0.0
 71
               4
 72
               1
  1
\W1.200;\A1;44.4
  0
MTEXT
  5
656
100
AcDbEntity
  8
0
  6
CONTINUOUS
 62
               7
100
AcDbMText
 10
-162.34000040090083
 20
60.5
 30
0.0
 40
6.3000001907348633
 41
0.0
 71
               4
 72
               1
  1
\W1.200;\A1;34.2
  0
MTEXT
  5
657
100
AcDbEntity
  8
0
  6
CONTINUOUS
 62
               7
100
AcDbMText
 10
-153.10000006357828
 20
70.5
 30
0.0
 40
6.3000001907348633
 41
0.0
 71
               4
 72
               1
  1
\A1;P
  0
MTEXT
  5
658
100
AcDbEntity
  8
0
  6
CONTINUOUS
 62
               7
100
AcDbMText
 10
-193.70000030728099
 20
0.5
 30
0.0
 40
6.3000001907348633
 41
0.0
 71
               4
 72
               1
  1
\W1.333;\A1;81.4
  0
MTEXT
  5
659
100
AcDbEntity
  8
0
  6
CONTINUOUS
 62
               7
100
AcDbMText
 10
-193.70000030728099
 20
10.5
 30
0.0
 40
6.3000001907348633
 41
0.0
 71
               4
 72
               1
  1
\W1.333;\A1;71.2
  0
MTEXT
  5
65A
100
AcDbEntity
  8
0
  6
CONTINUOUS
 62
               7
100
AcDbMText
 10
-193.61764734481042
 20
20.5
 30
0.0
 40
6.3000001907348633
 41
0.0
 71
               4
 72
               1
  1
\W1.412;\A1;61.0
  0
MTEXT
  5
65B
100
AcDbEntity
  8
0
  6
CONTINUOUS
 62
               7
100
AcDbMText
 10
-193.77368450461543
 20
30.5
 30
0.0
 40
6.3000001907348633
 41
0.0
 71
               4
 72
               1
  1
\W1.263;\A1;50.8
  0
MTEXT
  5
65C
100
AcDbEntity
  8
0
  6
CONTINUOUS
 62
               7
100
AcDbMText
 10
-193.77368450461543
 20
40.5
 30
0.0
 40
6.3000001907348633
 41
0.0
 71
               4
 72
               1
  1
\W1.263;\A1;40.6
  0
MTEXT
  5
65D
100
AcDbEntity
  8
0
  6
CONTINUOUS
 62
               7
100
AcDbMText
 10
-193.77368450461543
 20
50.5
 30
0.0
 40
6.3000001907348633
 41
0.0
 71
               4
 72
               1
  1
\W1.263;\A1;30.4
  0
MTEXT
  5
65E
100
AcDbEntity
  8
0
  6
CONTINUOUS
 62
               7
100
AcDbMText
 10
-193.77368450461543
 20
60.5
 30
0.0
 40
6.3000001907348633
 41
0.0
 71
               4
 72
               1
  1
\W1.263;\A1;20.2
  0
MTEXT
  5
65F
100
AcDbEntity
  8
0
  6
CONTINUOUS
 62
               7
100
AcDbMText
 10
-184.60000006357828
 20
70.5
 30
0.0
 40
6.3000001907348633
 41
0.0
 71
               4
 72
               1
  1
\A1;L
  0
MTEXT
  5
660
100
AcDbEntity
  8
0
  6
CONTINUOUS
 62
               7
100
AcDbMText
 10
-257.05000083608678
 20
0.5
 30
0.0
 40
6.3000001907348633
 41
0.0
 71
               4
 72
               1
  1
\A1;MV090M8AS
  0
MTEXT
  5
661
100
AcDbEntity
  8
0
  6
CONTINUOUS
 62
               7
100
AcDbMText
 10
-257.05000083608678
 20
10.5
 30
0.0
 40
6.3000001907348633
 41
0.0
 71
               4
 72
               1
  1
\A1;MV090M7AS
  0
MTEXT
  5
662
100
AcDbEntity
  8
0
  6
CONTINUOUS
 62
               7
100
AcDbMText
 10
-257.05000083608678
 20
20.5
 30
0.0
 40
6.3000001907348633
 41
0.0
 71
               4
 72
               1
  1
\A1;MV090M6AS
  0
MTEXT
  5
663
100
AcDbEntity
  8
0
  6
CONTINUOUS
 62
               7
100
AcDbMText
 10
-257.05000083608678
 20
30.5
 30
0.0
 40
6.3000001907348633
 41
0.0
 71
               4
 72
               1
  1
\A1;MV090M5AS
  0
MTEXT
  5
664
100
AcDbEntity
  8
0
  6
CONTINUOUS
 62
               7
100
AcDbMText
 10
-257.05000083608678
 20
40.5
 30
0.0
 40
6.3000001907348633
 41
0.0
 71
               4
 72
               1
  1
\A1;MV090M4AS
  0
MTEXT
  5
665
100
AcDbEntity
  8
0
  6
CONTINUOUS
 62
               7
100
AcDbMText
 10
-257.05000083608678
 20
50.5
 30
0.0
 40
6.3000001907348633
 41
0.0
 71
               4
 72
               1
  1
\A1;MV090M3AS
  0
MTEXT
  5
666
100
AcDbEntity
  8
0
  6
CONTINUOUS
 62
               7
100
AcDbMText
 10
-257.05000083608678
 20
60.5
 30
0.0
 40
6.3000001907348633
 41
0.0
 71
               4
 72
               1
  1
\A1;MV090M2AS
  0
MTEXT
  5
667
100
AcDbEntity
  8
0
  6
CONTINUOUS
 62
               7
100
AcDbMText
 10
-241.30000035924959
 20
70.5
 30
0.0
 40
6.3000001907348633
 41
0.0
 71
               4
 72
               1
  1
\A1;TYPE
  0
LINE
  5
668
100
AcDbEntity
  8
0
  6
CONTINUOUS
 62
               7
100
AcDbLine
 10
-261.25000001913793
 20
-4.5
 30
0.0
 11
-135.25000001913793
 21
-4.5
 31
0.0
  0
LINE
  5
669
100
AcDbEntity
  8
0
  6
CONTINUOUS
 62
               7
100
AcDbLine
 10
-261.25000001913793
 20
5.5
 30
0.0
 11
-135.25000001913793
 21
5.5
 31
0.0
  0
LINE
  5
66A
100
AcDbEntity
  8
0
  6
CONTINUOUS
 62
               7
100
AcDbLine
 10
-261.25000001913793
 20
15.5
 30
0.0
 11
-135.25000001913793
 21
15.5
 31
0.0
  0
LINE
  5
66B
100
AcDbEntity
  8
0
  6
CONTINUOUS
 62
               7
100
AcDbLine
 10
-261.25000001913793
 20
25.5
 30
0.0
 11
-135.25000001913793
 21
25.5
 31
0.0
  0
LINE
  5
66C
100
AcDbEntity
  8
0
  6
CONTINUOUS
 62
               7
100
AcDbLine
 10
-261.25000001913793
 20
35.5
 30
0.0
 11
-135.25000001913793
 21
35.5
 31
0.0
  0
LINE
  5
66D
100
AcDbEntity
  8
0
  6
CONTINUOUS
 62
               7
100
AcDbLine
 10
-261.25000001913793
 20
45.5
 30
0.0
 11
-135.25000001913793
 21
45.5
 31
0.0
  0
LINE
  5
66E
100
AcDbEntity
  8
0
  6
CONTINUOUS
 62
               7
100
AcDbLine
 10
-261.25000001913793
 20
55.5
 30
0.0
 11
-135.25000001913793
 21
55.5
 31
0.0
  0
LINE
  5
66F
100
AcDbEntity
  8
0
  6
CONTINUOUS
 62
               7
100
AcDbLine
 10
-261.25000001913793
 20
65.5
 30
0.0
 11
-135.25000001913793
 21
65.5
 31
0.0
  0
LINE
  5
670
100
AcDbEntity
  8
0
  6
CONTINUOUS
 62
               7
100
AcDbLine
 10
-135.25
 20
-4.4999999936851225
 30
0.0
 11
-135.25
 21
75.5
 31
0.0
  0
LINE
  5
671
100
AcDbEntity
  8
0
  6
CONTINUOUS
 62
               7
100
AcDbLine
 10
-166.75
 20
-4.4999999936851225
 30
0.0
 11
-166.75
 21
75.5
 31
0.0
  0
LINE
  5
672
100
AcDbEntity
  8
0
  6
CONTINUOUS
 62
               7
100
AcDbLine
 10
-198.25
 20
-4.4999999936851225
 30
0.0
 11
-198.25
 21
75.5
 31
0.0
  0
LINE
  5
673
100
AcDbEntity
  8
0
  6
CONTINUOUS
 62
               7
100
AcDbLine
 10
-261.25
 20
-4.4999999936851225
 30
0.0
 11
-261.25
 21
75.5
 31
0.0
  0
LINE
  5
674
100
AcDbEntity
  8
0
  6
CONTINUOUS
 62
               7
100
AcDbLine
 10
-261.25000001913793
 20
75.5
 30
0.0
 11
-135.25000001913793
 21
75.5
 31
0.0
  0
MTEXT
  5
675
100
AcDbEntity
  8
0
  6
CONTINUOUS
 62
               7
100
AcDbMText
 10
-230.45869453687737
 20
103.65000012914339
 30
0.0
 40
6.3000001907348633
 41
0.0
 71
               1
 72
               1
  1
\W1.087;\A1;STN.7,8:AMV090-03-DA-F-PL
  0
MTEXT
  5
676
100
AcDbEntity
  8
0
  6
CONTINUOUS
 62
               7
100
AcDbMText
 10
-230.44191227618245
 20
113.65000012914339
 30
0.0
 40
6.3000001907348633
 41
0.0
 71
               1
 72
               1
  1
\W1.103;\A1;STN.5,6:AMV090-01-DA-F-PL
  0
MTEXT
  5
677
100
AcDbEntity
  8
0
  6
CONTINUOUS
 62
               7
100
AcDbMText
 10
-230.42085454964402
 20
123.65000012914339
 30
0.0
 40
6.3000001907348633
 41
0.0
 71
               1
 72
               1
  1
\W1.123;\A1;STN.4  :AMV090-03-D-F
  0
MTEXT
  5
678
100
AcDbEntity
  8
0
  6
CONTINUOUS
 62
               7
100
AcDbMText
 10
-230.40538812203246
 20
133.65000012914339
 30
0.0
 40
6.3000001907348633
 41
0.0
 71
               1
 72
               1
  1
\W1.138;\A1;STN.3  :AMV090-03-F
  0
MTEXT
  5
679
100
AcDbEntity
  8
0
  6
CONTINUOUS
 62
               7
100
AcDbMText
 10
-230.38105800630203
 20
143.65000012914339
 30
0.0
 40
6.3000001907348633
 41
0.0
 71
               1
 72
               1
  1
\W1.161;\A1;STN.2  :AMV090-01-F
  0
MTEXT
  5
67A
100
AcDbEntity
  8
0
  6
CONTINUOUS
 62
               7
100
AcDbMText
 10
-230.38105800630203
 20
153.65000012914339
 30
0.0
 40
6.3000001907348633
 41
0.0
 71
               1
 72
               1
  1
\W1.161;\A1;STN.1  :AMV090-05-F
  0
ENDSEC
  0
SECTION
  2
OBJECTS
  0
DICTIONARY
  5
19
100
AcDbDictionary
  3
ACAD_GROUP
350
1A
  3
ACAD_MLINESTYLE
350
1B
  0
DICTIONARY
  5
1A
102
{ACAD_REACTORS
330
19
102
}
100
AcDbDictionary
  0
DICTIONARY
  5
1B
102
{ACAD_REACTORS
330
19
102
}
100
AcDbDictionary
  3
STANDARD
350
1C
  0
MLINESTYLE
  5
1C
102
{ACAD_REACTORS
330
1B
102
}
100
AcDbMlineStyle
  2
Standard
 70
               0
  3

 62
               0
 51
90.0
 52
90.0
 71
               2
 49
0.5
 62
             256
  6
ByLayer
 49
-0.5
 62
             256
  6
ByLayer
  0
ENDSEC
  0
EOF
