  0
SECTION
  2
HEADER
  9
$ACADVER
  1
AC1012
  9
$DWGCODEPAGE
  3
dos932
  9
$INSBASE
 10
0.0
 20
0.0
 30
0.0
  9
$EXTMIN
 10
-194.25
 20
-133.5
 30
0.0
  9
$EXTMAX
 10
196.2723600854633
 20
132.60000610351562
 30
0.0
  9
$LIMMIN
 10
-194.25
 20
-133.5
  9
$LIMMAX
 10
196.2723600854633
 20
132.60000610351562
  9
$ORTHOMODE
 70
               0
  9
$REGENMODE
 70
               1
  9
$FILLMODE
 70
               1
  9
$QTEXTMODE
 70
               0
  9
$MIRRTEXT
 70
               1
  9
$DRAGMODE
 70
               2
  9
$LTSCALE
 40
1.0
  9
$OSMODE
 70
               0
  9
$ATTMODE
 70
               1
  9
$TEXTSIZE
 40
3.2000000476837158
  9
$TRACEWID
 40
0.05
  9
$TEXTSTYLE
  7
MX_NOTE_STANDARD
  9
$CLAYER
  8
0
  9
$CELTYPE
  6
CONTINUOUS
  9
$CECOLOR
 62
             256
  9
$CELTSCALE
 40
1.0
  9
$DELOBJ
 70
               1
  9
$DISPSILH
 70
               0
  9
$DIMSCALE
 40
1.0
  9
$DIMASZ
 40
2.5
  9
$DIMEXO
 40
1.5
  9
$DIMDLI
 40
3.75
  9
$DIMRND
 40
0.0
  9
$DIMDLE
 40
0.0
  9
$DIMEXE
 40
1.5
  9
$DIMTP
 40
0.0
  9
$DIMTM
 40
0.0
  9
$DIMTXT
 40
3.2000000476837158
  9
$DIMCEN
 40
2.5
  9
$DIMTSZ
 40
0.0
  9
$DIMTOL
 70
               0
  9
$DIMLIM
 70
               0
  9
$DIMTIH
 70
               0
  9
$DIMTOH
 70
               0
  9
$DIMSE1
 70
               0
  9
$DIMSE2
 70
               0
  9
$DIMTAD
 70
               1
  9
$DIMZIN
 70
               8
  9
$DIMBLK
  1

  9
$DIMASO
 70
               1
  9
$DIMSHO
 70
               1
  9
$DIMPOST
  1

  9
$DIMAPOST
  1

  9
$DIMALT
 70
               0
  9
$DIMALTD
 70
               4
  9
$DIMALTF
 40
0.03937007874016
  9
$DIMLFAC
 40
1.0
  9
$DIMTOFL
 70
               1
  9
$DIMTVP
 40
0.0
  9
$DIMTIX
 70
               0
  9
$DIMSOXD
 70
               0
  9
$DIMSAH
 70
               0
  9
$DIMBLK1
  1

  9
$DIMBLK2
  1

  9
$DIMSTYLE
  2
MXDIMSTYLE
  9
$DIMCLRD
 70
               0
  9
$DIMCLRE
 70
               0
  9
$DIMCLRT
 70
               0
  9
$DIMTFAC
 40
1.0
  9
$DIMGAP
 40
1.0
  9
$DIMJUST
 70
               0
  9
$DIMSD1
 70
               0
  9
$DIMSD2
 70
               0
  9
$DIMTOLJ
 70
               1
  9
$DIMTZIN
 70
               0
  9
$DIMALTZ
 70
               0
  9
$DIMALTTZ
 70
               0
  9
$DIMFIT
 70
               3
  9
$DIMUPT
 70
               1
  9
$DIMUNIT
 70
               2
  9
$DIMDEC
 70
               4
  9
$DIMTDEC
 70
               4
  9
$DIMALTU
 70
               2
  9
$DIMALTTD
 70
               4
  9
$DIMTXSTY
  7
MX_NOTE_STANDARD
  9
$DIMAUNIT
 70
               0
  9
$LUNITS
 70
               2
  9
$LUPREC
 70
               4
  9
$SKETCHINC
 40
0.1
  9
$FILLETRAD
 40
0.0
  9
$AUNITS
 70
               0
  9
$AUPREC
 70
               0
  9
$MENU
  1
acad
  9
$ELEVATION
 40
0.0
  9
$PELEVATION
 40
0.0
  9
$THICKNESS
 40
0.0
  9
$LIMCHECK
 70
               0
  9
$BLIPMODE
 70
               1
  9
$CHAMFERA
 40
0.0
  9
$CHAMFERB
 40
0.0
  9
$CHAMFERC
 40
0.0
  9
$CHAMFERD
 40
0.0
  9
$SKPOLY
 70
               0
  9
$TDCREATE
 40
2453378.356747685
  9
$TDUPDATE
 40
2453378.356747685
  9
$TDINDWG
 40
0.0000000000
  9
$TDUSRTIMER
 40
0.0000000000
  9
$USRTIMER
 70
               1
  9
$ANGBASE
 50
0.0
  9
$ANGDIR
 70
               0
  9
$PDMODE
 70
               0
  9
$PDSIZE
 40
0.0
  9
$PLINEWID
 40
0.0
  9
$COORDS
 70
               1
  9
$SPLFRAME
 70
               0
  9
$SPLINETYPE
 70
               6
  9
$SPLINESEGS
 70
               8
  9
$ATTDIA
 70
               0
  9
$ATTREQ
 70
               1
  9
$HANDLING
 70
               1
  9
$HANDSEED
  5
4C8
  9
$SURFTAB1
 70
               6
  9
$SURFTAB2
 70
               6
  9
$SURFTYPE
 70
               6
  9
$SURFU
 70
               6
  9
$SURFV
 70
               6
  9
$UCSNAME
  2

  9
$UCSORG
 10
0.0
 20
0.0
 30
0.0
  9
$UCSXDIR
 10
1.0
 20
0.0
 30
0.0
  9
$UCSYDIR
 10
0.0
 20
1.0
 30
0.0
  9
$PUCSNAME
  2

  9
$PUCSORG
 10
0.0
 20
0.0
 30
0.0
  9
$PUCSXDIR
 10
1.0
 20
0.0
 30
0.0
  9
$PUCSYDIR
 10
0.0
 20
1.0
 30
0.0
  9
$USERI1
 70
               0
  9
$USERI2
 70
               0
  9
$USERI3
 70
               0
  9
$USERI4
 70
               0
  9
$USERI5
 70
               0
  9
$USERR1
 40
0.0
  9
$USERR2
 40
0.0
  9
$USERR3
 40
0.0
  9
$USERR4
 40
0.0
  9
$USERR5
 40
0.0
  9
$WORLDVIEW
 70
               1
  9
$SHADEDGE
 70
               3
  9
$SHADEDIF
 70
              70
  9
$TILEMODE
 70
               1
  9
$MAXACTVP
 70
              16
  9
$PINSBASE
 10
0.0
 20
0.0
 30
0.0
  9
$PLIMCHECK
 70
               0
  9
$PEXTMIN
 10
1.0000000000000000E+20
 20
1.0000000000000000E+20
 30
1.0000000000000000E+20
  9
$PEXTMAX
 10
-1.0000000000000000E+20
 20
-1.0000000000000000E+20
 30
-1.0000000000000000E+20
  9
$PLIMMIN
 10
0.0
 20
0.0
  9
$PLIMMAX
 10
12.0
 20
9.0
  9
$UNITMODE
 70
               0
  9
$VISRETAIN
 70
               0
  9
$PLINEGEN
 70
               1
  9
$PSLTSCALE
 70
               0
  9
$TREEDEPTH
 70
            3020
  9
$PICKSTYLE
 70
               1
  9
$CMLSTYLE
  2
Standard
  9
$CMLJUST
 70
               0
  9
$CMLSCALE
 40
1.0
  9
$SAVEIMAGES
 70
               0
  0
ENDSEC
  0
SECTION
  2
CLASSES
  0
CLASS
  1
LWPOLYLINE
  2
AcDbPolyline
  3
"AutoCAD"
 90
        0
280
               0
281
               1
  0
CLASS
  1
IMAGE
  2
AcDbRasterImage
  3
ISM
 90
      127
280
               0
281
               1
  0
CLASS
  1
OLE2FRAME
  2
AcDbOle2Frame
  3
""
 90
        0
280
               0
281
               1
  0
CLASS
  1
HATCH
  2
AcDbHatch
  3
"ACAD_SEDONA"
 90
        0
280
               0
281
               1
  0
CLASS
  1
DICTIONARYVAR
  2
AcDbDictionaryVar
  3
"AutoCAD"
 90
        0
280
               0
281
               0
  0
CLASS
  1
RASTERVARIABLES
  2
AcDbRasterVariables
  3
ISM
 90
        0
280
               0
281
               0
  0
CLASS
  1
IMAGEDEF
  2
AcDbRasterImageDef
  3
ISM
 90
        0
280
               0
281
               0
  0
CLASS
  1
IMAGEDEF_REACTOR
  2
AcDbRasterImageDefReactor
  3
ISM
 90
        1
280
               0
281
               0
  0
CLASS
  1
IDBUFFER
  2
AcDbIdBuffer
  3
"Acad"
 90
        0
280
               0
281
               0
  0
CLASS
  1
SPATIAL_FILTER
  2
AcDbSpatialFilter
  3
"Acad"
 90
        0
280
               0
281
               0
  0
CLASS
  1
XRECORD
  2
AcDbXrecord
  3
"<Built In>"
 90
        0
280
               0
281
               0
  0
CLASS
  1
SORTENTSTABLE
  2
AcDbSortentsTable
  3
"AutoCAD"
 90
        0
280
               0
281
               0
  0
CLASS
  1
LAYER_INDEX
  2
AcDbLayerIndex
  3
"Acad"
 90
        0
280
               0
281
               0
  0
CLASS
  1
SPATIAL_INDEX
  2
AcDbSpatialIndex
  3
"Acad"
 90
        0
280
               0
281
               0
  0
CLASS
  1
OBJECT_PTR
  2
CAseDLPNTableRecord
  3
"ASE-LPNTableRecord"
 90
        1
280
               0
281
               0
  0
CLASS
  1
LAYOUT
  2
AcDbLayout
  3
"AutoCAD 2000"
 90
        1
280
               0
281
               0
  0
CLASS
  1
PLOTSETTINGS
  2
AcDbPlotSettings
  3
"AutoCAD 2000"
 90
        1
280
               0
281
               0
  0
CLASS
  1
ACDBDICTIONARYWDFLT
  2
AcDbDictionaryWithDefault
  3
"AutoCAD 2000"
 90
        1
280
               0
281
               0
  0
CLASS
  1
ACDBPLACEHOLDER
  2
AcDbPlaceHolder
  3
"AutoCAD 2000"
 90
        1
280
               0
281
               0
  0
ENDSEC
  0
SECTION
  2
TABLES
  0
TABLE
  2
VPORT
  5
7
100
AcDbSymbolTable
 70
               1
  0
VPORT
  5
15
100
AcDbSymbolTableRecord
100
AcDbViewportTableRecord
  2
*ACTIVE
 70
               0
 10
0.0
 20
0.0
 11
1.0
 21
1.0
 12
1.0111800427316666
 22
-0.4499969482421875
 13
0.0
 23
0.0
 14
1.0
 24
1.0
 15
0.0
 25
0.0
 16
0.0
 26
0.0
 36
1.0
 17
0.0
 27
0.0
 37
0.0
 40
268.76100616455079
 41
1.7320508075688772
 42
50.0
 43
0.0
 44
0.0
 50
0.0
 51
0.0
 71
               0
 72
             100
 73
               1
 74
               1
 75
               0
 76
               0
 77
               0
 78
               0
  0
ENDTAB
  0
TABLE
  2
LTYPE
  5
4
100
AcDbSymbolTable
 70
               5
  0
LTYPE
  5
11
100
AcDbSymbolTableRecord
100
AcDbLinetypeTableRecord
  2
BYBLOCK
 70
              64
  3

 72
              65
 73
               0
 40
0.0
  0
LTYPE
  5
12
100
AcDbSymbolTableRecord
100
AcDbLinetypeTableRecord
  2
BYLAYER
 70
              64
  3

 72
              65
 73
               0
 40
0.0
  0
LTYPE
  5
13
100
AcDbSymbolTableRecord
100
AcDbLinetypeTableRecord
  2
CONTINUOUS
 70
              64
  3
Solid line
 72
              65
 73
               0
 40
0.0
  0
LTYPE
  5
3C
100
AcDbSymbolTableRecord
100
AcDbLinetypeTableRecord
  2
CENTER
 70
              64
  3
Center ____ _ ____ _ ____ _ ____ _ ____ _ ____
 72
              65
 73
               4
 40
26.0
 49
20.0
 74
               0
 49
-2.0
 74
               0
 49
2.0
 74
               0
 49
-2.0
 74
               0
  0
LTYPE
  5
7B
100
AcDbSymbolTableRecord
100
AcDbLinetypeTableRecord
  2
PHANTOM
 70
              64
  3
Phantom ______  __  __  ______  __  __  ______
 72
              65
 73
               6
 40
30.0
 49
20.0
 74
               0
 49
-2.0
 74
               0
 49
2.0
 74
               0
 49
-2.0
 74
               0
 49
2.0
 74
               0
 49
-2.0
 74
               0
  0
ENDTAB
  0
TABLE
  2
LAYER
  5
2
100
AcDbSymbolTable
 70
               2
  0
LAYER
  5
14
100
AcDbSymbolTableRecord
100
AcDbLayerTableRecord
  2
0
 70
               0
 62
               7
  6
CONTINUOUS
  0
LAYER
  5
1D
100
AcDbSymbolTableRecord
100
AcDbLayerTableRecord
  2
DEFPOINTS
 70
               0
 62
               7
  6
CONTINUOUS
  0
ENDTAB
  0
TABLE
  2
STYLE
  5
3
100
AcDbSymbolTable
 70
               1
  0
STYLE
  5
17
100
AcDbSymbolTableRecord
100
AcDbTextStyleTableRecord
  2
MX_NOTE_STANDARD
 70
               0
 40
0.0
 41
1.0
 50
0.0
 71
               0
 42
3.2000000476837158
  3
txt.shx
  4
extfont.shx
  0
ENDTAB
  0
TABLE
  2
VIEW
  5
5
100
AcDbSymbolTable
 70
               0
  0
ENDTAB
  0
TABLE
  2
UCS
  5
6
100
AcDbSymbolTable
 70
               0
  0
ENDTAB
  0
TABLE
  2
APPID
  5
8
100
AcDbSymbolTable
 70
               1
  0
APPID
  5
16
100
AcDbSymbolTableRecord
100
AcDbRegAppTableRecord
  2
ACAD
 70
               0
  0
ENDTAB
  0
TABLE
  2
DIMSTYLE
  5
9
100
AcDbSymbolTable
 70
               1
  0
DIMSTYLE
105
18
100
AcDbSymbolTableRecord
100
AcDbDimStyleTableRecord
  2
MXDIMSTYLE
 70
               0
  3

  4

  5

  6

  7

 40
1.0
 41
2.5
 42
1.5
 43
3.75
 44
1.5
 45
0.0
 46
0.0
 47
0.0
 48
0.0
 71
               0
 72
               0
 73
               0
 74
               0
 75
               0
 76
               0
 77
               1
 78
               8
140
3.2000000476837158
141
2.5
142
0.0
143
0.03937007874016
144
1.0
145
0.0
146
1.0
147
1.0
170
               0
171
               4
172
               1
173
               0
174
               0
175
               0
176
               0
177
               0
178
               0
270
               2
271
               4
272
               4
273
               2
274
               4
275
               0
280
               0
281
               0
282
               0
283
               1
284
               0
285
               0
286
               0
287
               3
288
               1
340
17
  0
ENDTAB
  0
TABLE
  2
BLOCK_RECORD
  5
1
100
AcDbSymbolTable
 70
              15
  0
BLOCK_RECORD
  5
A
100
AcDbSymbolTableRecord
100
AcDbBlockTableRecord
  2
*MODEL_SPACE
  0
BLOCK_RECORD
  5
B
100
AcDbSymbolTableRecord
100
AcDbBlockTableRecord
  2
*PAPER_SPACE
  0
BLOCK_RECORD
  5
1E
100
AcDbSymbolTableRecord
100
AcDbBlockTableRecord
  2
MV090MA-11-1
  0
BLOCK_RECORD
  5
1F
100
AcDbSymbolTableRecord
100
AcDbBlockTableRecord
  2
MV090MA-11-2
  0
BLOCK_RECORD
  5
20
100
AcDbSymbolTableRecord
100
AcDbBlockTableRecord
  2
MV090MA-11-3
  0
BLOCK_RECORD
  5
21
100
AcDbSymbolTableRecord
100
AcDbBlockTableRecord
  2
MV090MA-11-4
  0
BLOCK_RECORD
  5
22
100
AcDbSymbolTableRecord
100
AcDbBlockTableRecord
  2
MV090MA-11-5
  0
BLOCK_RECORD
  5
23
100
AcDbSymbolTableRecord
100
AcDbBlockTableRecord
  2
MV090MA-11-6
  0
BLOCK_RECORD
  5
24
100
AcDbSymbolTableRecord
100
AcDbBlockTableRecord
  2
MV090MA-11-7
  0
BLOCK_RECORD
  5
25
100
AcDbSymbolTableRecord
100
AcDbBlockTableRecord
  2
MV090MA-11-8
  0
BLOCK_RECORD
  5
26
100
AcDbSymbolTableRecord
100
AcDbBlockTableRecord
  2
MV090MA-11-9
  0
BLOCK_RECORD
  5
455
100
AcDbSymbolTableRecord
100
AcDbBlockTableRecord
  2
*D9
  0
BLOCK_RECORD
  5
45A
100
AcDbSymbolTableRecord
100
AcDbBlockTableRecord
  2
_OPEN30
  0
BLOCK_RECORD
  5
468
100
AcDbSymbolTableRecord
100
AcDbBlockTableRecord
  2
*D11
  0
BLOCK_RECORD
  5
475
100
AcDbSymbolTableRecord
100
AcDbBlockTableRecord
  2
*D12
  0
BLOCK_RECORD
  5
481
100
AcDbSymbolTableRecord
100
AcDbBlockTableRecord
  2
*D13
  0
BLOCK_RECORD
  5
48D
100
AcDbSymbolTableRecord
100
AcDbBlockTableRecord
  2
*D14
  0
ENDTAB
  0
ENDSEC
  0
SECTION
  2
BLOCKS
  0
BLOCK
  5
D
100
AcDbEntity
  8
0
100
AcDbBlockBegin
  2
*MODEL_SPACE
 70
               0
 10
0.0
 20
0.0
 30
0.0
  3
*MODEL_SPACE
  1

  0
ENDBLK
  5
E
100
AcDbEntity
  8
0
100
AcDbBlockEnd
  0
BLOCK
  5
F
100
AcDbEntity
 67
               1
  8
0
100
AcDbBlockBegin
  2
*PAPER_SPACE
 70
               0
 10
0.0
 20
0.0
 30
0.0
  3
*PAPER_SPACE
  1

  0
ENDBLK
  5
10
100
AcDbEntity
 67
               1
  8
0
100
AcDbBlockEnd
  0
BLOCK
  5
27
100
AcDbEntity
  8
0
100
AcDbBlockBegin
  2
MV090MA-11-1
 70
               0
 10
0.0
 20
0.0
 30
0.0
  3
MV090MA-11-1
  1

  0
INSERT
  5
28
100
AcDbEntity
  8
0
  6
ByBlock
100
AcDbBlockReference
  2
MV090MA-11-8
 10
-77.900000011770473
 20
2.5
 30
0.0
  0
INSERT
  5
29
100
AcDbEntity
  8
0
  6
ByBlock
100
AcDbBlockReference
  2
MV090MA-11-8
 10
-67.700000011770484
 20
2.5
 30
0.0
  0
INSERT
  5
2A
100
AcDbEntity
  8
0
  6
ByBlock
100
AcDbBlockReference
  2
MV090MA-11-8
 10
-57.500000011770496
 20
2.5
 30
0.0
  0
INSERT
  5
2B
100
AcDbEntity
  8
0
  6
ByBlock
100
AcDbBlockReference
  2
MV090MA-11-8
 10
-47.300000011770479
 20
2.5
 30
0.0
  0
INSERT
  5
2C
100
AcDbEntity
  8
0
  6
ByBlock
100
AcDbBlockReference
  2
MV090MA-11-7
 10
-37.10000001177049
 20
2.5
 30
0.0
  0
INSERT
  5
2D
100
AcDbEntity
  8
0
  6
ByBlock
100
AcDbBlockReference
  2
MV090MA-11-7
 10
-26.900000011770501
 20
2.5
 30
0.0
  0
INSERT
  5
2E
100
AcDbEntity
  8
0
  6
ByBlock
100
AcDbBlockReference
  2
MV090MA-11-7
 10
-16.700000011770513
 20
2.5
 30
0.0
  0
INSERT
  5
2F
100
AcDbEntity
  8
0
  6
ByBlock
100
AcDbBlockReference
  2
MV090MA-11-7
 10
-6.5000000117705241
 20
2.5
 30
0.0
  0
LINE
  5
30
100
AcDbEntity
  8
0
  6
CONTINUOUS
 62
               7
100
AcDbLine
 10
-87.399999999999963
 20
2.5
 30
0.0
 11
-82.199999999999974
 21
2.5
 31
0.0
  0
LINE
  5
31
100
AcDbEntity
  8
0
  6
CONTINUOUS
 62
               4
100
AcDbLine
 10
-57.199999999999974
 20
2.5000000000000142
 30
0.0
 11
-57.199999999999974
 21
0.5
 31
0.0
  0
LINE
  5
32
100
AcDbEntity
  8
0
  6
CONTINUOUS
 62
               4
100
AcDbLine
 10
-57.699999999999974
 20
0.0
 30
0.0
 11
-65.199999999999974
 21
0.0
 31
0.0
  0
LINE
  5
33
100
AcDbEntity
  8
0
  6
CONTINUOUS
 62
               4
100
AcDbLine
 10
-82.199999999999974
 20
2.5
 30
0.0
 11
-82.199999999999974
 21
0.5
 31
0.0
  0
ARC
  5
34
100
AcDbEntity
  8
0
  6
CONTINUOUS
 62
               4
100
AcDbCircle
 10
-81.699999999999974
 20
0.5
 30
0.0
 40
0.5
100
AcDbArc
 50
179.99999999999963
 51
269.99999999999937
  0
ARC
  5
35
100
AcDbEntity
  8
0
  6
CONTINUOUS
 62
               4
100
AcDbCircle
 10
-57.699999999999974
 20
0.5
 30
0.0
 40
0.5
100
AcDbArc
 50
270.00000000000023
 51
0.0
  0
LINE
  5
36
100
AcDbEntity
  8
0
  6
CONTINUOUS
 62
               4
100
AcDbLine
 10
-65.199999999999974
 20
1.5999999999999943
 30
0.0
 11
-65.199999999999974
 21
0.0
 31
0.0
  0
LINE
  5
37
100
AcDbEntity
  8
0
  6
CONTINUOUS
 62
               4
100
AcDbLine
 10
-67.699999999999974
 20
1.3000000000000114
 30
0.0
 11
-67.699999999999974
 21
0.0
 31
0.0
  0
LINE
  5
38
100
AcDbEntity
  8
0
  6
CONTINUOUS
 62
               4
100
AcDbLine
 10
-65.399999999999963
 20
1.8000000000000114
 30
0.0
 11
-67.199999999999974
 21
1.8000000000000114
 31
0.0
  0
ARC
  5
39
100
AcDbEntity
  8
0
  6
CONTINUOUS
 62
               4
100
AcDbCircle
 10
-65.399999999999963
 20
1.5999999999999943
 30
0.0
 40
0.2
100
AcDbArc
 50
0.0
 51
89.999999999999815
  0
ARC
  5
3A
100
AcDbEntity
  8
0
  6
CONTINUOUS
 62
               4
100
AcDbCircle
 10
-67.199999999999974
 20
1.3000000000000114
 30
0.0
 40
0.5
100
AcDbArc
 50
89.999999999999815
 51
179.99999999999963
  0
LINE
  5
3B
100
AcDbEntity
  8
0
  6
CONTINUOUS
 62
               4
100
AcDbLine
 10
-67.699999999999974
 20
0.0
 30
0.0
 11
-81.699999999999974
 21
0.0
 31
0.0
  0
LINE
  5
3D
100
AcDbEntity
  8
0
  6
CENTER
 62
             200
100
AcDbLine
 10
-61.199999999999974
 20
-1.6999999999999602
 30
0.0
 11
-61.199999999999974
 21
3.3000000000000398
 31
0.0
  0
LINE
  5
3E
100
AcDbEntity
  8
0
  6
CONTINUOUS
 62
               4
100
AcDbLine
 10
-6.5
 20
0.0
 30
0.0
 11
-20.5
 21
0.0
 31
0.0
  0
LINE
  5
3F
100
AcDbEntity
  8
0
  6
CENTER
 62
             200
100
AcDbLine
 10
0.0
 20
-1.6999999999999602
 30
0.0
 11
0.0
 21
3.3000000000000398
 31
0.0
  0
ARC
  5
40
100
AcDbEntity
  8
0
  6
CONTINUOUS
 62
               4
100
AcDbCircle
 10
-6.0
 20
1.3000000000000114
 30
0.0
 40
0.5
100
AcDbArc
 50
89.999999999999815
 51
179.99999999999963
  0
ARC
  5
41
100
AcDbEntity
  8
0
  6
CONTINUOUS
 62
               4
100
AcDbCircle
 10
-4.1999999999999886
 20
1.5999999999999943
 30
0.0
 40
0.2
100
AcDbArc
 50
0.0
 51
89.999999999999815
  0
LINE
  5
42
100
AcDbEntity
  8
0
  6
CONTINUOUS
 62
               4
100
AcDbLine
 10
-4.1999999999999886
 20
1.8000000000000114
 30
0.0
 11
-6.0
 21
1.8000000000000114
 31
0.0
  0
LINE
  5
43
100
AcDbEntity
  8
0
  6
CONTINUOUS
 62
               4
100
AcDbLine
 10
-6.5
 20
1.3000000000000114
 30
0.0
 11
-6.5
 21
0.0
 31
0.0
  0
LINE
  5
44
100
AcDbEntity
  8
0
  6
CONTINUOUS
 62
               4
100
AcDbLine
 10
-4.0
 20
1.5999999999999943
 30
0.0
 11
-4.0
 21
0.0
 31
0.0
  0
ARC
  5
45
100
AcDbEntity
  8
0
  6
CONTINUOUS
 62
               4
100
AcDbCircle
 10
3.5
 20
0.5
 30
0.0
 40
0.5
100
AcDbArc
 50
270.00000000000023
 51
0.0
  0
ARC
  5
46
100
AcDbEntity
  8
0
  6
CONTINUOUS
 62
               4
100
AcDbCircle
 10
-20.5
 20
0.5
 30
0.0
 40
0.5
100
AcDbArc
 50
179.99999999999963
 51
269.99999999999937
  0
ARC
  5
47
100
AcDbEntity
  8
0
  6
CONTINUOUS
 62
               4
100
AcDbCircle
 10
0.0
 20
6.0
 30
0.0
 40
4.0
100
AcDbArc
 50
0.0
 51
81.373073441320855
  0
LINE
  5
48
100
AcDbEntity
  8
0
  6
CONTINUOUS
 62
               4
100
AcDbLine
 10
-21.0
 20
2.5000000000000284
 30
0.0
 11
-21.0
 21
0.5
 31
0.0
  0
LINE
  5
49
100
AcDbEntity
  8
0
  6
CONTINUOUS
 62
               4
100
AcDbLine
 10
3.5
 20
0.0
 30
0.0
 11
-4.0
 21
0.0
 31
0.0
  0
LINE
  5
4A
100
AcDbEntity
  8
0
  6
CONTINUOUS
 62
               4
100
AcDbLine
 10
4.0
 20
6.0
 30
0.0
 11
4.0
 21
0.5
 31
0.0
  0
LINE
  5
4B
100
AcDbEntity
  8
0
  6
CONTINUOUS
 62
               7
100
AcDbLine
 10
-87.399999999999963
 20
2.5
 30
0.0
 11
0.5999999882294702
 21
2.5
 31
0.0
  0
LINE
  5
4C
100
AcDbEntity
  8
0
  6
CONTINUOUS
 62
               7
100
AcDbLine
 10
-87.399999999999963
 20
53.999999999999972
 30
0.0
 11
-82.900000011770928
 21
53.999999999999972
 31
0.0
  0
LINE
  5
4D
100
AcDbEntity
  8
0
  6
CONTINUOUS
 62
               7
100
AcDbLine
 10
0.5999999882294702
 20
54.00000000019908
 30
0.0
 11
0.5999999882294702
 21
2.5
 31
0.0
  0
LINE
  5
4E
100
AcDbEntity
  8
0
  6
CONTINUOUS
 62
               7
100
AcDbLine
 10
-87.40000001177053
 20
54.00000000019908
 30
0.0
 11
-87.40000001177053
 21
2.5000000001990799
 31
0.0
  0
LINE
  5
4F
100
AcDbEntity
  8
0
  6
CONTINUOUS
 62
               7
100
AcDbLine
 10
-1.5000000084467189
 20
53.999999999999972
 30
0.0
 11
0.5999999882294702
 21
53.999999999999972
 31
0.0
  0
ENDBLK
  5
50
100
AcDbEntity
  8
0
100
AcDbBlockEnd
  0
BLOCK
  5
51
100
AcDbEntity
  8
0
100
AcDbBlockBegin
  2
MV090MA-11-2
 70
               0
 10
0.0
 20
0.0
 30
0.0
  3
MV090MA-11-2
  1

  0
LINE
  5
52
100
AcDbEntity
  8
0
  6
CENTER
 62
               2
100
AcDbLine
 10
0.0
 20
-2.3547506726457499
 30
0.0
 11
0.0
 21
47.381003626861002
 31
0.0
  0
LINE
  5
53
100
AcDbEntity
  8
0
  6
CONTINUOUS
 62
               7
100
AcDbLine
 10
4.6999999999999886
 20
44.100000000000023
 30
0.0
 11
-4.6999999999999886
 21
44.100000000000023
 31
0.0
  0
LINE
  5
54
100
AcDbEntity
  8
0
  6
CONTINUOUS
 62
               7
100
AcDbLine
 10
5.0
 20
39.100000000000023
 30
0.0
 11
2.5
 21
39.100000000000023
 31
0.0
  0
LINE
  5
55
100
AcDbEntity
  8
0
  6
CONTINUOUS
 62
               7
100
AcDbLine
 10
-4.9999999999999432
 20
15.199999999999989
 30
0.0
 11
5.0
 21
15.199999999999989
 31
0.0
  0
LINE
  5
56
100
AcDbEntity
  8
0
  6
CONTINUOUS
 62
               7
100
AcDbLine
 10
-4.6999999999999886
 20
33.600000000000023
 30
0.0
 11
4.6999999999999886
 21
33.600000000000023
 31
0.0
  0
LINE
  5
57
100
AcDbEntity
  8
0
  6
CONTINUOUS
 62
               7
100
AcDbLine
 10
5.0
 20
14.899999999999977
 30
0.0
 11
-4.9999999999999432
 21
14.899999999999977
 31
0.0
  0
LINE
  5
58
100
AcDbEntity
  8
0
  6
CONTINUOUS
 62
               2
100
AcDbLine
 10
-5.5799999999999841
 20
49.449999999999989
 30
0.0
 11
5.5183137557572195
 21
52.409550334868584
 31
0.0
  0
LINE
  5
59
100
AcDbEntity
  8
0
  6
CONTINUOUS
 62
               2
100
AcDbLine
 10
-5.5799999999999841
 20
48.20999999999998
 30
0.0
 11
5.5183137557572195
 21
51.169550334868632
 31
0.0
  0
LINE
  5
5A
100
AcDbEntity
  8
0
  6
CONTINUOUS
 62
               7
100
AcDbLine
 10
3.2549999999999955
 20
54.629999999999995
 30
0.0
 11
1.8249999999999886
 21
54.629999999999995
 31
0.0
  0
LINE
  5
5B
100
AcDbEntity
  8
0
  6
CONTINUOUS
 62
               7
100
AcDbLine
 10
-5.0
 20
14.0
 30
0.0
 11
5.0
 21
14.0
 31
0.0
  0
LINE
  5
5C
100
AcDbEntity
  8
0
  6
CONTINUOUS
 62
               7
100
AcDbLine
 10
-4.9999999999999432
 20
0.0
 30
0.0
 11
-4.9999999999999432
 21
39.100000000000023
 31
0.0
  0
CIRCLE
  5
5D
100
AcDbEntity
  8
0
  6
CONTINUOUS
 62
               7
100
AcDbCircle
 10
-1.0000000000001137
 20
4.0
 30
0.0
 40
3.25
  0
CIRCLE
  5
5E
100
AcDbEntity
  8
0
  6
CONTINUOUS
 62
               7
100
AcDbCircle
 10
-1.0000000000001137
 20
4.0
 30
0.0
 40
3.0
  0
CIRCLE
  5
5F
100
AcDbEntity
  8
0
  6
CONTINUOUS
 62
               7
100
AcDbCircle
 10
-1.0000000000001137
 20
4.0
 30
0.0
 40
2.5
  0
LINE
  5
60
100
AcDbEntity
  8
0
  6
CENTER
 62
               2
100
AcDbLine
 10
-1.0000000000001137
 20
0.5
 30
0.0
 11
-1.0000000000001137
 21
7.5
 31
0.0
  0
LINE
  5
61
100
AcDbEntity
  8
0
  6
CENTER
 62
               2
100
AcDbLine
 10
-4.5000000000001137
 20
4.0
 30
0.0
 11
2.4999999999998863
 21
4.0
 31
0.0
  0
ARC
  5
62
100
AcDbEntity
  8
0
  6
CONTINUOUS
 62
               7
100
AcDbCircle
 10
-1.0000000000001137
 20
4.0
 30
0.0
 40
2.0
100
AcDbArc
 50
14.477512185929895
 51
165.52248781406971
  0
LINE
  5
63
100
AcDbEntity
  8
0
  6
CONTINUOUS
 62
               7
100
AcDbLine
 10
-2.1399999999999864
 20
59.629999999999995
 30
0.0
 11
-2.9399999999999977
 21
59.629999999999995
 31
0.0
  0
LINE
  5
64
100
AcDbEntity
  8
0
  6
CONTINUOUS
 62
               7
100
AcDbLine
 10
-1.8249999999999886
 20
54.629999999999995
 30
0.0
 11
-3.2549999999999955
 21
54.629999999999995
 31
0.0
  0
LINE
  5
65
100
AcDbEntity
  8
0
  6
CONTINUOUS
 62
               7
100
AcDbLine
 10
-2.9399999999999977
 20
54.629999999999995
 30
0.0
 11
-2.9399999999999977
 21
59.629999999999995
 31
0.0
  0
LINE
  5
66
100
AcDbEntity
  8
0
  6
CONTINUOUS
 62
               7
100
AcDbLine
 10
-2.1399999999999864
 20
54.629999999999995
 30
0.0
 11
-2.1399999999999864
 21
59.629999999999995
 31
0.0
  0
LINE
  5
67
100
AcDbEntity
  8
0
  6
CONTINUOUS
 62
               7
100
AcDbLine
 10
-1.8249999999999886
 20
50.451333333333309
 30
0.0
 11
-1.8249999999999886
 21
54.629999999999995
 31
0.0
  0
LINE
  5
68
100
AcDbEntity
  8
0
  6
CONTINUOUS
 62
               7
100
AcDbLine
 10
-3.2549999999999955
 20
50.069999999999993
 30
0.0
 11
-3.2549999999999955
 21
54.629999999999995
 31
0.0
  0
LINE
  5
69
100
AcDbEntity
  8
0
  6
CONTINUOUS
 62
               7
100
AcDbLine
 10
-3.2549999999999955
 20
44.100000000000023
 30
0.0
 11
-3.2549999999999955
 21
48.829999999999984
 31
0.0
  0
LINE
  5
6A
100
AcDbEntity
  8
0
  6
CONTINUOUS
 62
               7
100
AcDbLine
 10
-1.8249999999999886
 20
44.100000000000023
 30
0.0
 11
-1.8249999999999886
 21
49.2113333333333
 31
0.0
  0
LINE
  5
6B
100
AcDbEntity
  8
0
  6
CONTINUOUS
 62
               7
100
AcDbLine
 10
1.8249999999999886
 20
51.424666666666667
 30
0.0
 11
1.8249999999999886
 21
54.629999999999995
 31
0.0
  0
LINE
  5
6C
100
AcDbEntity
  8
0
  6
CONTINUOUS
 62
               7
100
AcDbLine
 10
2.1399999999999864
 20
54.629999999999995
 30
0.0
 11
2.1399999999999864
 21
59.629999999999995
 31
0.0
  0
LINE
  5
6D
100
AcDbEntity
  8
0
  6
CONTINUOUS
 62
               7
100
AcDbLine
 10
2.9399999999999977
 20
54.629999999999995
 30
0.0
 11
2.9399999999999977
 21
59.629999999999995
 31
0.0
  0
LINE
  5
6E
100
AcDbEntity
  8
0
  6
CONTINUOUS
 62
               7
100
AcDbLine
 10
2.1399999999999864
 20
59.629999999999995
 30
0.0
 11
2.9399999999999977
 21
59.629999999999995
 31
0.0
  0
LINE
  5
6F
100
AcDbEntity
  8
0
  6
CONTINUOUS
 62
               7
100
AcDbLine
 10
1.8249999999999886
 20
44.100000000000023
 30
0.0
 11
1.8249999999999886
 21
50.184666666666658
 31
0.0
  0
LINE
  5
70
100
AcDbEntity
  8
0
  6
CONTINUOUS
 62
               7
100
AcDbLine
 10
2.9000000000000341
 20
33.600000000000023
 30
0.0
 11
2.9000000000000341
 21
39.100000000000023
 31
0.0
  0
LINE
  5
71
100
AcDbEntity
  8
0
  6
CONTINUOUS
 62
               7
100
AcDbLine
 10
-2.8999999999999773
 20
33.600000000000023
 30
0.0
 11
-2.8999999999999773
 21
39.100000000000023
 31
0.0
  0
LINE
  5
72
100
AcDbEntity
  8
0
  6
CONTINUOUS
 62
               7
100
AcDbLine
 10
-1.5
 20
30.600000000000023
 30
0.0
 11
1.5
 21
30.600000000000023
 31
0.0
  0
LINE
  5
73
100
AcDbEntity
  8
0
  6
CONTINUOUS
 62
               7
100
AcDbLine
 10
1.5
 20
30.600000000000023
 30
0.0
 11
1.5
 21
33.600000000000023
 31
0.0
  0
LINE
  5
74
100
AcDbEntity
  8
0
  6
CONTINUOUS
 62
               7
100
AcDbLine
 10
-1.5
 20
30.600000000000023
 30
0.0
 11
-1.5
 21
33.600000000000023
 31
0.0
  0
ARC
  5
75
100
AcDbEntity
  8
0
  6
CONTINUOUS
 62
               7
100
AcDbCircle
 10
-4.6999999999999886
 20
33.299999999999955
 30
0.0
 40
0.3
100
AcDbArc
 50
89.999999999999815
 51
179.99999999999963
  0
LINE
  5
76
100
AcDbEntity
  8
0
  6
CONTINUOUS
 62
               7
100
AcDbLine
 10
2.5
 20
34.600000000000023
 30
0.0
 11
-2.4999999999999432
 21
34.600000000000023
 31
0.0
  0
LINE
  5
77
100
AcDbEntity
  8
0
  6
CONTINUOUS
 62
               7
100
AcDbLine
 10
2.5
 20
43.100000000000023
 30
0.0
 11
-2.4999999999999432
 21
43.100000000000023
 31
0.0
  0
LINE
  5
78
100
AcDbEntity
  8
0
  6
CONTINUOUS
 62
               7
100
AcDbLine
 10
2.5
 20
34.600000000000023
 30
0.0
 11
2.5
 21
43.100000000000023
 31
0.0
  0
LINE
  5
79
100
AcDbEntity
  8
0
  6
CONTINUOUS
 62
               7
100
AcDbLine
 10
-2.4999999999999432
 20
42.388675134594791
 30
0.0
 11
2.5
 21
42.388675134594791
 31
0.0
  0
LINE
  5
7A
100
AcDbEntity
  8
0
  6
CONTINUOUS
 62
               7
100
AcDbLine
 10
-2.4999999999999432
 20
42.100000000000023
 30
0.0
 11
2.5
 21
42.100000000000023
 31
0.0
  0
LINE
  5
7C
100
AcDbEntity
  8
0
  6
PHANTOM
 62
               7
100
AcDbLine
 10
0.0
 20
35.466025403784442
 30
0.0
 11
1.25
 21
35.466025403784442
 31
0.0
  0
LINE
  5
7D
100
AcDbEntity
  8
0
  6
PHANTOM
 62
               7
100
AcDbLine
 10
0.0
 20
35.466025403784442
 30
0.0
 11
-1.25
 21
35.466025403784442
 31
0.0
  0
LINE
  5
7E
100
AcDbEntity
  8
0
  6
CONTINUOUS
 62
               7
100
AcDbLine
 10
-3.5999999999999659
 20
39.100000000000023
 30
0.0
 11
-3.5999999999999659
 21
44.100000000000023
 31
0.0
  0
LINE
  5
7F
100
AcDbEntity
  8
0
  6
CONTINUOUS
 62
               7
100
AcDbLine
 10
-2.4999999999999432
 20
34.600000000000023
 30
0.0
 11
-2.4999999999999432
 21
43.100000000000023
 31
0.0
  0
LINE
  5
80
100
AcDbEntity
  8
0
  6
CONTINUOUS
 62
               7
100
AcDbLine
 10
-4.6999999999999886
 20
39.100000000000023
 30
0.0
 11
-4.6999999999999886
 21
44.100000000000023
 31
0.0
  0
LINE
  5
81
100
AcDbEntity
  8
0
  6
CONTINUOUS
 62
               7
100
AcDbLine
 10
-2.4999999999999432
 20
35.466025403784442
 30
0.0
 11
2.5
 21
35.466025403784442
 31
0.0
  0
LINE
  5
82
100
AcDbEntity
  8
0
  6
CONTINUOUS
 62
               7
100
AcDbLine
 10
-2.4999999999999432
 20
39.100000000000023
 30
0.0
 11
-4.9999999999999432
 21
39.100000000000023
 31
0.0
  0
LINE
  5
83
100
AcDbEntity
  8
0
  6
CONTINUOUS
 62
               7
100
AcDbLine
 10
-3.4494897427832996
 20
4.5
 30
0.0
 11
1.4494897427830722
 21
4.5
 31
0.0
  0
LINE
  5
84
100
AcDbEntity
  8
0
  6
CONTINUOUS
 62
               7
100
AcDbLine
 10
-3.4494897427832996
 20
3.5
 30
0.0
 11
1.4494897427830722
 21
3.5
 31
0.0
  0
ARC
  5
85
100
AcDbEntity
  8
0
  6
CONTINUOUS
 62
               7
100
AcDbCircle
 10
-1.0000000000001137
 20
4.0
 30
0.0
 40
2.0
100
AcDbArc
 50
194.4775121859295
 51
345.52248781406928
  0
LINE
  5
86
100
AcDbEntity
  8
0
  6
CONTINUOUS
 62
               7
100
AcDbLine
 10
3.2549999999999955
 20
51.80600000000004
 30
0.0
 11
3.2549999999999955
 21
54.629999999999995
 31
0.0
  0
LINE
  5
87
100
AcDbEntity
  8
0
  6
CONTINUOUS
 62
               7
100
AcDbLine
 10
3.2549999999999955
 20
44.100000000000023
 30
0.0
 11
3.2549999999999955
 21
50.566000000000031
 31
0.0
  0
LINE
  5
88
100
AcDbEntity
  8
0
  6
CONTINUOUS
 62
               7
100
AcDbLine
 10
3.5999999999999659
 20
39.100000000000023
 30
0.0
 11
3.5999999999999659
 21
44.100000000000023
 31
0.0
  0
LINE
  5
89
100
AcDbEntity
  8
0
  6
CONTINUOUS
 62
               7
100
AcDbLine
 10
4.6999999999999886
 20
39.100000000000023
 30
0.0
 11
4.6999999999999886
 21
44.100000000000023
 31
0.0
  0
LINE
  5
8A
100
AcDbEntity
  8
0
  6
CONTINUOUS
 62
               7
100
AcDbLine
 10
5.0
 20
0.0
 30
0.0
 11
5.0
 21
39.100000000000023
 31
0.0
  0
ENDBLK
  5
8B
100
AcDbEntity
  8
0
100
AcDbBlockEnd
  0
BLOCK
  5
8C
100
AcDbEntity
  8
0
100
AcDbBlockBegin
  2
MV090MA-11-3
 70
               0
 10
0.0
 20
0.0
 30
0.0
  3
MV090MA-11-3
  1

  0
INSERT
  5
8D
100
AcDbEntity
  8
0
  6
ByBlock
100
AcDbBlockReference
  2
MV090MA-11-9
 10
6.4000000000000341
 20
54.000000000000028
 30
0.0
  0
INSERT
  5
8E
100
AcDbEntity
  8
0
  6
ByBlock
100
AcDbBlockReference
  2
MV090MA-11-9
 10
16.600000000000023
 20
54.000000000000028
 30
0.0
  0
INSERT
  5
8F
100
AcDbEntity
  8
0
  6
ByBlock
100
AcDbBlockReference
  2
MV090MA-11-9
 10
26.800000000000011
 20
54.000000000000028
 30
0.0
  0
INSERT
  5
90
100
AcDbEntity
  8
0
  6
ByBlock
100
AcDbBlockReference
  2
MV090MA-11-9
 10
37.0
 20
54.000000000000028
 30
0.0
  0
INSERT
  5
91
100
AcDbEntity
  8
0
  6
ByBlock
100
AcDbBlockReference
  2
MV090MA-11-9
 10
47.199999999999989
 20
54.000000000000028
 30
0.0
  0
INSERT
  5
92
100
AcDbEntity
  8
0
  6
ByBlock
100
AcDbBlockReference
  2
MV090MA-11-9
 10
57.399999999999977
 20
54.000000000000028
 30
0.0
  0
INSERT
  5
93
100
AcDbEntity
  8
0
  6
ByBlock
100
AcDbBlockReference
  2
MV090MA-11-9
 10
67.599999999999966
 20
54.000000000000028
 30
0.0
  0
INSERT
  5
94
100
AcDbEntity
  8
0
  6
ByBlock
100
AcDbBlockReference
  2
MV090MA-11-9
 10
77.799999999999955
 20
54.000000000000028
 30
0.0
  0
LINE
  5
95
100
AcDbEntity
  8
0
  6
CONTINUOUS
 62
               7
100
AcDbLine
 10
57.199999999999989
 20
2.5000000000000142
 30
0.0
 11
21.0
 21
2.5000000000000284
 31
0.0
  0
LINE
  5
96
100
AcDbEntity
  8
0
  6
CENTER
 62
               2
100
AcDbLine
 10
73.299999999999955
 20
19.500000000000028
 30
0.0
 11
80.147284952766967
 21
19.500000000000028
 31
0.0
  0
CIRCLE
  5
97
100
AcDbEntity
  8
0
  6
CONTINUOUS
 62
               2
100
AcDbCircle
 10
76.799999999999955
 20
19.500000000000028
 30
0.0
 40
2.5
  0
CIRCLE
  5
98
100
AcDbEntity
  8
0
  6
CONTINUOUS
 62
               7
100
AcDbCircle
 10
76.799999999999955
 20
19.500000000000028
 30
0.0
 40
2.1000000000000001
  0
LINE
  5
99
100
AcDbEntity
  8
0
  6
CENTER
 62
               2
100
AcDbLine
 10
76.799999999999955
 20
22.600804524204506
 30
0.0
 11
76.799999999999955
 21
16.000000000000028
 31
0.0
  0
CIRCLE
  5
9A
100
AcDbEntity
  8
0
  6
CONTINUOUS
 62
               7
100
AcDbCircle
 10
81.299999999999898
 20
46.500000000000028
 30
0.0
 40
1.7
  0
LINE
  5
9B
100
AcDbEntity
  8
0
  6
CENTER
 62
               2
100
AcDbLine
 10
74.299999999999955
 20
23.825094488325789
 30
0.0
 11
74.299999999999955
 21
28.054079023476987
 31
0.0
  0
LINE
  5
9C
100
AcDbEntity
  8
0
  6
CENTER
 62
               2
100
AcDbLine
 10
81.299999999999955
 20
48.635137094546337
 30
0.0
 11
81.299999999999955
 21
44.547118710566821
 31
0.0
  0
LINE
  5
9D
100
AcDbEntity
  8
0
  6
CENTER
 62
               2
100
AcDbLine
 10
78.893341029713952
 20
46.500000000000028
 30
0.0
 11
83.629803709083376
 21
46.500000000000028
 31
0.0
  0
LINE
  5
9E
100
AcDbEntity
  8
0
  6
CENTER
 62
               2
100
AcDbLine
 10
72.042386082768871
 20
26.000000000000028
 30
0.0
 11
76.573386090648029
 21
26.000000000000028
 31
0.0
  0
CIRCLE
  5
9F
100
AcDbEntity
  8
0
  6
CONTINUOUS
 62
               7
100
AcDbCircle
 10
74.299999999999898
 20
26.000000000000028
 30
0.0
 40
1.7
  0
CIRCLE
  5
A0
100
AcDbEntity
  8
0
  6
CONTINUOUS
 62
               7
100
AcDbCircle
 10
81.299999999999955
 20
46.500000000000028
 30
0.0
 40
1.5
  0
LINE
  5
A1
100
AcDbEntity
  8
0
  6
CONTINUOUS
 62
               7
100
AcDbLine
 10
80.522182540694757
 20
45.722182540694831
 30
0.0
 11
82.077817459305152
 21
47.277817459305226
 31
0.0
  0
LINE
  5
A2
100
AcDbEntity
  8
0
  6
CONTINUOUS
 62
               7
100
AcDbLine
 10
82.077817459305152
 20
45.722182540694831
 30
0.0
 11
80.522182540694757
 21
47.277817459305226
 31
0.0
  0
LINE
  5
A3
100
AcDbEntity
  8
0
  6
CONTINUOUS
 62
               7
100
AcDbLine
 10
73.522182540694757
 20
25.222182540694831
 30
0.0
 11
75.077817459305152
 21
26.777817459305226
 31
0.0
  0
LINE
  5
A4
100
AcDbEntity
  8
0
  6
CONTINUOUS
 62
               7
100
AcDbLine
 10
75.077817459305152
 20
25.222182540694831
 30
0.0
 11
73.522182540694757
 21
26.777817459305226
 31
0.0
  0
CIRCLE
  5
A5
100
AcDbEntity
  8
0
  6
CONTINUOUS
 62
               7
100
AcDbCircle
 10
74.299999999999955
 20
26.000000000000028
 30
0.0
 40
1.5
  0
LINE
  5
A6
100
AcDbEntity
  8
0
  6
CENTER
 62
               2
100
AcDbLine
 10
63.099999999999966
 20
19.500000000000028
 30
0.0
 11
69.891749087556121
 21
19.500000000000028
 31
0.0
  0
CIRCLE
  5
A7
100
AcDbEntity
  8
0
  6
CONTINUOUS
 62
               2
100
AcDbCircle
 10
66.599999999999966
 20
19.500000000000028
 30
0.0
 40
2.5
  0
CIRCLE
  5
A8
100
AcDbEntity
  8
0
  6
CONTINUOUS
 62
               7
100
AcDbCircle
 10
66.599999999999966
 20
19.500000000000028
 30
0.0
 40
2.1000000000000001
  0
LINE
  5
A9
100
AcDbEntity
  8
0
  6
CENTER
 62
               2
100
AcDbLine
 10
66.599999999999966
 20
22.600804524204506
 30
0.0
 11
66.599999999999966
 21
16.000000000000028
 31
0.0
  0
CIRCLE
  5
AA
100
AcDbEntity
  8
0
  6
CONTINUOUS
 62
               7
100
AcDbCircle
 10
71.099999999999909
 20
46.500000000000028
 30
0.0
 40
1.7
  0
LINE
  5
AB
100
AcDbEntity
  8
0
  6
CENTER
 62
               2
100
AcDbLine
 10
64.099999999999966
 20
23.825094488325789
 30
0.0
 11
64.099999999999966
 21
28.054079023476987
 31
0.0
  0
LINE
  5
AC
100
AcDbEntity
  8
0
  6
CENTER
 62
               2
100
AcDbLine
 10
71.099999999999966
 20
48.635137094546337
 30
0.0
 11
71.099999999999966
 21
44.547118710566821
 31
0.0
  0
LINE
  5
AD
100
AcDbEntity
  8
0
  6
CENTER
 62
               2
100
AcDbLine
 10
68.693341029713963
 20
46.500000000000028
 30
0.0
 11
73.429803709083387
 21
46.500000000000028
 31
0.0
  0
LINE
  5
AE
100
AcDbEntity
  8
0
  6
CENTER
 62
               2
100
AcDbLine
 10
61.842386082768883
 20
26.000000000000028
 30
0.0
 11
66.41108236966636
 21
26.000000000000028
 31
0.0
  0
CIRCLE
  5
AF
100
AcDbEntity
  8
0
  6
CONTINUOUS
 62
               7
100
AcDbCircle
 10
64.099999999999909
 20
26.000000000000028
 30
0.0
 40
1.7
  0
CIRCLE
  5
B0
100
AcDbEntity
  8
0
  6
CONTINUOUS
 62
               7
100
AcDbCircle
 10
71.099999999999966
 20
46.500000000000028
 30
0.0
 40
1.5
  0
LINE
  5
B1
100
AcDbEntity
  8
0
  6
CONTINUOUS
 62
               7
100
AcDbLine
 10
70.322182540694769
 20
45.722182540694831
 30
0.0
 11
71.877817459305163
 21
47.277817459305226
 31
0.0
  0
LINE
  5
B2
100
AcDbEntity
  8
0
  6
CONTINUOUS
 62
               7
100
AcDbLine
 10
71.877817459305163
 20
45.722182540694831
 30
0.0
 11
70.322182540694769
 21
47.277817459305226
 31
0.0
  0
LINE
  5
B3
100
AcDbEntity
  8
0
  6
CONTINUOUS
 62
               7
100
AcDbLine
 10
63.322182540694769
 20
25.222182540694831
 30
0.0
 11
64.877817459305163
 21
26.777817459305226
 31
0.0
  0
LINE
  5
B4
100
AcDbEntity
  8
0
  6
CONTINUOUS
 62
               7
100
AcDbLine
 10
64.877817459305163
 20
25.222182540694831
 30
0.0
 11
63.322182540694769
 21
26.777817459305226
 31
0.0
  0
CIRCLE
  5
B5
100
AcDbEntity
  8
0
  6
CONTINUOUS
 62
               7
100
AcDbCircle
 10
64.099999999999966
 20
26.000000000000028
 30
0.0
 40
1.5
  0
LINE
  5
B6
100
AcDbEntity
  8
0
  6
CENTER
 62
               2
100
AcDbLine
 10
52.899999999999977
 20
19.500000000000028
 30
0.0
 11
59.791600129393885
 21
19.500000000000028
 31
0.0
  0
CIRCLE
  5
B7
100
AcDbEntity
  8
0
  6
CONTINUOUS
 62
               2
100
AcDbCircle
 10
56.399999999999977
 20
19.500000000000028
 30
0.0
 40
2.5
  0
CIRCLE
  5
B8
100
AcDbEntity
  8
0
  6
CONTINUOUS
 62
               7
100
AcDbCircle
 10
56.399999999999977
 20
19.500000000000028
 30
0.0
 40
2.1000000000000001
  0
LINE
  5
B9
100
AcDbEntity
  8
0
  6
CENTER
 62
               2
100
AcDbLine
 10
56.399999999999977
 20
22.600804524204506
 30
0.0
 11
56.399999999999977
 21
16.000000000000028
 31
0.0
  0
CIRCLE
  5
BA
100
AcDbEntity
  8
0
  6
CONTINUOUS
 62
               7
100
AcDbCircle
 10
60.89999999999992
 20
46.500000000000028
 30
0.0
 40
1.7
  0
LINE
  5
BB
100
AcDbEntity
  8
0
  6
CENTER
 62
               2
100
AcDbLine
 10
53.899999999999977
 20
23.825094488325789
 30
0.0
 11
53.899999999999977
 21
28.054079023476987
 31
0.0
  0
LINE
  5
BC
100
AcDbEntity
  8
0
  6
CENTER
 62
               2
100
AcDbLine
 10
60.899999999999977
 20
48.635137094546337
 30
0.0
 11
60.899999999999977
 21
44.547118710566821
 31
0.0
  0
LINE
  5
BD
100
AcDbEntity
  8
0
  6
CENTER
 62
               2
100
AcDbLine
 10
58.493341029713974
 20
46.500000000000028
 30
0.0
 11
63.229803709083399
 21
46.500000000000028
 31
0.0
  0
LINE
  5
BE
100
AcDbEntity
  8
0
  6
CENTER
 62
               2
100
AcDbLine
 10
51.642386082768894
 20
26.000000000000028
 30
0.0
 11
56.186623885865203
 21
26.000000000000028
 31
0.0
  0
CIRCLE
  5
BF
100
AcDbEntity
  8
0
  6
CONTINUOUS
 62
               7
100
AcDbCircle
 10
53.89999999999992
 20
26.000000000000028
 30
0.0
 40
1.7
  0
CIRCLE
  5
C0
100
AcDbEntity
  8
0
  6
CONTINUOUS
 62
               7
100
AcDbCircle
 10
60.899999999999977
 20
46.500000000000028
 30
0.0
 40
1.5
  0
LINE
  5
C1
100
AcDbEntity
  8
0
  6
CONTINUOUS
 62
               7
100
AcDbLine
 10
60.12218254069478
 20
45.722182540694831
 30
0.0
 11
61.677817459305174
 21
47.277817459305226
 31
0.0
  0
LINE
  5
C2
100
AcDbEntity
  8
0
  6
CONTINUOUS
 62
               7
100
AcDbLine
 10
61.677817459305174
 20
45.722182540694831
 30
0.0
 11
60.12218254069478
 21
47.277817459305226
 31
0.0
  0
LINE
  5
C3
100
AcDbEntity
  8
0
  6
CONTINUOUS
 62
               7
100
AcDbLine
 10
53.12218254069478
 20
25.222182540694831
 30
0.0
 11
54.677817459305174
 21
26.777817459305226
 31
0.0
  0
LINE
  5
C4
100
AcDbEntity
  8
0
  6
CONTINUOUS
 62
               7
100
AcDbLine
 10
54.677817459305174
 20
25.222182540694831
 30
0.0
 11
53.12218254069478
 21
26.777817459305226
 31
0.0
  0
CIRCLE
  5
C5
100
AcDbEntity
  8
0
  6
CONTINUOUS
 62
               7
100
AcDbCircle
 10
53.899999999999977
 20
26.000000000000028
 30
0.0
 40
1.5
  0
LINE
  5
C6
100
AcDbEntity
  8
0
  6
CENTER
 62
               2
100
AcDbLine
 10
42.699999999999989
 20
19.500000000000028
 30
0.0
 11
49.857844527344866
 21
19.500000000000028
 31
0.0
  0
CIRCLE
  5
C7
100
AcDbEntity
  8
0
  6
CONTINUOUS
 62
               2
100
AcDbCircle
 10
46.199999999999989
 20
19.500000000000028
 30
0.0
 40
2.5
  0
CIRCLE
  5
C8
100
AcDbEntity
  8
0
  6
CONTINUOUS
 62
               7
100
AcDbCircle
 10
46.199999999999989
 20
19.500000000000028
 30
0.0
 40
2.1000000000000001
  0
LINE
  5
C9
100
AcDbEntity
  8
0
  6
CENTER
 62
               2
100
AcDbLine
 10
46.199999999999989
 20
22.600804524204506
 30
0.0
 11
46.199999999999989
 21
16.000000000000028
 31
0.0
  0
CIRCLE
  5
CA
100
AcDbEntity
  8
0
  6
CONTINUOUS
 62
               7
100
AcDbCircle
 10
50.699999999999932
 20
46.500000000000028
 30
0.0
 40
1.7
  0
LINE
  5
CB
100
AcDbEntity
  8
0
  6
CENTER
 62
               2
100
AcDbLine
 10
43.699999999999989
 20
23.825094488325789
 30
0.0
 11
43.699999999999989
 21
28.054079023476987
 31
0.0
  0
LINE
  5
CC
100
AcDbEntity
  8
0
  6
CENTER
 62
               2
100
AcDbLine
 10
50.699999999999989
 20
48.635137094546337
 30
0.0
 11
50.699999999999989
 21
44.547118710566821
 31
0.0
  0
LINE
  5
CD
100
AcDbEntity
  8
0
  6
CENTER
 62
               2
100
AcDbLine
 10
48.293341029713986
 20
46.500000000000028
 30
0.0
 11
53.02980370908341
 21
46.500000000000028
 31
0.0
  0
LINE
  5
CE
100
AcDbEntity
  8
0
  6
CENTER
 62
               2
100
AcDbLine
 10
41.442386082768905
 20
26.000000000000028
 30
0.0
 11
45.962165402064073
 21
26.000000000000028
 31
0.0
  0
CIRCLE
  5
CF
100
AcDbEntity
  8
0
  6
CONTINUOUS
 62
               7
100
AcDbCircle
 10
43.699999999999932
 20
26.000000000000028
 30
0.0
 40
1.7
  0
CIRCLE
  5
D0
100
AcDbEntity
  8
0
  6
CONTINUOUS
 62
               7
100
AcDbCircle
 10
50.699999999999989
 20
46.500000000000028
 30
0.0
 40
1.5
  0
LINE
  5
D1
100
AcDbEntity
  8
0
  6
CONTINUOUS
 62
               7
100
AcDbLine
 10
49.922182540694791
 20
45.722182540694831
 30
0.0
 11
51.477817459305186
 21
47.277817459305226
 31
0.0
  0
LINE
  5
D2
100
AcDbEntity
  8
0
  6
CONTINUOUS
 62
               7
100
AcDbLine
 10
51.477817459305186
 20
45.722182540694831
 30
0.0
 11
49.922182540694791
 21
47.277817459305226
 31
0.0
  0
LINE
  5
D3
100
AcDbEntity
  8
0
  6
CONTINUOUS
 62
               7
100
AcDbLine
 10
42.922182540694791
 20
25.222182540694831
 30
0.0
 11
44.477817459305186
 21
26.777817459305226
 31
0.0
  0
LINE
  5
D4
100
AcDbEntity
  8
0
  6
CONTINUOUS
 62
               7
100
AcDbLine
 10
44.477817459305186
 20
25.222182540694831
 30
0.0
 11
42.922182540694791
 21
26.777817459305226
 31
0.0
  0
CIRCLE
  5
D5
100
AcDbEntity
  8
0
  6
CONTINUOUS
 62
               7
100
AcDbCircle
 10
43.699999999999989
 20
26.000000000000028
 30
0.0
 40
1.5
  0
LINE
  5
D6
100
AcDbEntity
  8
0
  6
CENTER
 62
               2
100
AcDbLine
 10
32.5
 20
19.500000000000028
 30
0.0
 11
39.657844527344878
 21
19.500000000000028
 31
0.0
  0
CIRCLE
  5
D7
100
AcDbEntity
  8
0
  6
CONTINUOUS
 62
               2
100
AcDbCircle
 10
36.0
 20
19.500000000000028
 30
0.0
 40
2.5
  0
CIRCLE
  5
D8
100
AcDbEntity
  8
0
  6
CONTINUOUS
 62
               7
100
AcDbCircle
 10
36.0
 20
19.500000000000028
 30
0.0
 40
2.1000000000000001
  0
LINE
  5
D9
100
AcDbEntity
  8
0
  6
CENTER
 62
               2
100
AcDbLine
 10
36.0
 20
22.600804524204506
 30
0.0
 11
36.0
 21
16.000000000000028
 31
0.0
  0
CIRCLE
  5
DA
100
AcDbEntity
  8
0
  6
CONTINUOUS
 62
               7
100
AcDbCircle
 10
40.499999999999943
 20
46.500000000000028
 30
0.0
 40
1.7
  0
LINE
  5
DB
100
AcDbEntity
  8
0
  6
CENTER
 62
               2
100
AcDbLine
 10
33.5
 20
23.825094488325789
 30
0.0
 11
33.5
 21
28.054079023476987
 31
0.0
  0
LINE
  5
DC
100
AcDbEntity
  8
0
  6
CENTER
 62
               2
100
AcDbLine
 10
40.5
 20
48.635137094546337
 30
0.0
 11
40.5
 21
44.547118710566821
 31
0.0
  0
LINE
  5
DD
100
AcDbEntity
  8
0
  6
CENTER
 62
               2
100
AcDbLine
 10
38.093341029713997
 20
46.500000000000028
 30
0.0
 11
42.829803709083421
 21
46.500000000000028
 31
0.0
  0
LINE
  5
DE
100
AcDbEntity
  8
0
  6
CENTER
 62
               2
100
AcDbLine
 10
31.242386082768917
 20
26.000000000000028
 30
0.0
 11
35.79986168108239
 21
26.000000000000028
 31
0.0
  0
CIRCLE
  5
DF
100
AcDbEntity
  8
0
  6
CONTINUOUS
 62
               7
100
AcDbCircle
 10
33.499999999999943
 20
26.000000000000028
 30
0.0
 40
1.7
  0
CIRCLE
  5
E0
100
AcDbEntity
  8
0
  6
CONTINUOUS
 62
               7
100
AcDbCircle
 10
40.5
 20
46.500000000000028
 30
0.0
 40
1.5
  0
LINE
  5
E1
100
AcDbEntity
  8
0
  6
CONTINUOUS
 62
               7
100
AcDbLine
 10
39.722182540694803
 20
45.722182540694831
 30
0.0
 11
41.277817459305197
 21
47.277817459305226
 31
0.0
  0
LINE
  5
E2
100
AcDbEntity
  8
0
  6
CONTINUOUS
 62
               7
100
AcDbLine
 10
41.277817459305197
 20
45.722182540694831
 30
0.0
 11
39.722182540694803
 21
47.277817459305226
 31
0.0
  0
LINE
  5
E3
100
AcDbEntity
  8
0
  6
CONTINUOUS
 62
               7
100
AcDbLine
 10
32.722182540694803
 20
25.222182540694831
 30
0.0
 11
34.277817459305197
 21
26.777817459305226
 31
0.0
  0
LINE
  5
E4
100
AcDbEntity
  8
0
  6
CONTINUOUS
 62
               7
100
AcDbLine
 10
34.277817459305197
 20
25.222182540694831
 30
0.0
 11
32.722182540694803
 21
26.777817459305226
 31
0.0
  0
CIRCLE
  5
E5
100
AcDbEntity
  8
0
  6
CONTINUOUS
 62
               7
100
AcDbCircle
 10
33.5
 20
26.000000000000028
 30
0.0
 40
1.5
  0
LINE
  5
E6
100
AcDbEntity
  8
0
  6
CENTER
 62
               2
100
AcDbLine
 10
22.300000000000011
 20
19.500000000000028
 30
0.0
 11
29.457844527344889
 21
19.500000000000028
 31
0.0
  0
CIRCLE
  5
E7
100
AcDbEntity
  8
0
  6
CONTINUOUS
 62
               2
100
AcDbCircle
 10
25.800000000000011
 20
19.500000000000028
 30
0.0
 40
2.5
  0
CIRCLE
  5
E8
100
AcDbEntity
  8
0
  6
CONTINUOUS
 62
               7
100
AcDbCircle
 10
25.800000000000011
 20
19.500000000000028
 30
0.0
 40
2.1000000000000001
  0
LINE
  5
E9
100
AcDbEntity
  8
0
  6
CENTER
 62
               2
100
AcDbLine
 10
25.800000000000011
 20
22.600804524204506
 30
0.0
 11
25.800000000000011
 21
16.000000000000028
 31
0.0
  0
CIRCLE
  5
EA
100
AcDbEntity
  8
0
  6
CONTINUOUS
 62
               7
100
AcDbCircle
 10
30.299999999999955
 20
46.500000000000028
 30
0.0
 40
1.7
  0
LINE
  5
EB
100
AcDbEntity
  8
0
  6
CENTER
 62
               2
100
AcDbLine
 10
23.300000000000011
 20
23.825094488325789
 30
0.0
 11
23.300000000000011
 21
28.054079023476987
 31
0.0
  0
LINE
  5
EC
100
AcDbEntity
  8
0
  6
CENTER
 62
               2
100
AcDbLine
 10
30.300000000000011
 20
48.635137094546337
 30
0.0
 11
30.300000000000011
 21
44.547118710566821
 31
0.0
  0
LINE
  5
ED
100
AcDbEntity
  8
0
  6
CENTER
 62
               2
100
AcDbLine
 10
27.893341029714009
 20
46.500000000000028
 30
0.0
 11
32.629803709083433
 21
46.500000000000028
 31
0.0
  0
LINE
  5
EE
100
AcDbEntity
  8
0
  6
CENTER
 62
               2
100
AcDbLine
 10
21.042386082768928
 20
26.000000000000028
 30
0.0
 11
25.513248434461786
 21
26.000000000000028
 31
0.0
  0
CIRCLE
  5
EF
100
AcDbEntity
  8
0
  6
CONTINUOUS
 62
               7
100
AcDbCircle
 10
23.299999999999955
 20
26.000000000000028
 30
0.0
 40
1.7
  0
CIRCLE
  5
F0
100
AcDbEntity
  8
0
  6
CONTINUOUS
 62
               7
100
AcDbCircle
 10
30.300000000000011
 20
46.500000000000028
 30
0.0
 40
1.5
  0
LINE
  5
F1
100
AcDbEntity
  8
0
  6
CONTINUOUS
 62
               7
100
AcDbLine
 10
29.522182540694814
 20
45.722182540694831
 30
0.0
 11
31.077817459305209
 21
47.277817459305226
 31
0.0
  0
LINE
  5
F2
100
AcDbEntity
  8
0
  6
CONTINUOUS
 62
               7
100
AcDbLine
 10
31.077817459305209
 20
45.722182540694831
 30
0.0
 11
29.522182540694814
 21
47.277817459305226
 31
0.0
  0
LINE
  5
F3
100
AcDbEntity
  8
0
  6
CONTINUOUS
 62
               7
100
AcDbLine
 10
22.522182540694814
 20
25.222182540694831
 30
0.0
 11
24.077817459305209
 21
26.777817459305226
 31
0.0
  0
LINE
  5
F4
100
AcDbEntity
  8
0
  6
CONTINUOUS
 62
               7
100
AcDbLine
 10
24.077817459305209
 20
25.222182540694831
 30
0.0
 11
22.522182540694814
 21
26.777817459305226
 31
0.0
  0
CIRCLE
  5
F5
100
AcDbEntity
  8
0
  6
CONTINUOUS
 62
               7
100
AcDbCircle
 10
23.300000000000011
 20
26.000000000000028
 30
0.0
 40
1.5
  0
LINE
  5
F6
100
AcDbEntity
  8
0
  6
CENTER
 62
               2
100
AcDbLine
 10
12.100000000000023
 20
19.500000000000028
 30
0.0
 11
19.257844527344901
 21
19.500000000000028
 31
0.0
  0
CIRCLE
  5
F7
100
AcDbEntity
  8
0
  6
CONTINUOUS
 62
               2
100
AcDbCircle
 10
15.600000000000023
 20
19.500000000000028
 30
0.0
 40
2.5
  0
CIRCLE
  5
F8
100
AcDbEntity
  8
0
  6
CONTINUOUS
 62
               7
100
AcDbCircle
 10
15.600000000000023
 20
19.500000000000028
 30
0.0
 40
2.1000000000000001
  0
LINE
  5
F9
100
AcDbEntity
  8
0
  6
CENTER
 62
               2
100
AcDbLine
 10
15.600000000000023
 20
22.600804524204506
 30
0.0
 11
15.600000000000023
 21
16.000000000000028
 31
0.0
  0
CIRCLE
  5
FA
100
AcDbEntity
  8
0
  6
CONTINUOUS
 62
               7
100
AcDbCircle
 10
20.099999999999966
 20
46.500000000000028
 30
0.0
 40
1.7
  0
LINE
  5
FB
100
AcDbEntity
  8
0
  6
CENTER
 62
               2
100
AcDbLine
 10
13.100000000000023
 20
23.825094488325789
 30
0.0
 11
13.100000000000023
 21
28.054079023476987
 31
0.0
  0
LINE
  5
FC
100
AcDbEntity
  8
0
  6
CENTER
 62
               2
100
AcDbLine
 10
20.100000000000023
 20
48.635137094546337
 30
0.0
 11
20.100000000000023
 21
44.547118710566821
 31
0.0
  0
LINE
  5
FD
100
AcDbEntity
  8
0
  6
CENTER
 62
               2
100
AcDbLine
 10
17.69334102971402
 20
46.500000000000028
 30
0.0
 11
22.429803709083444
 21
46.500000000000028
 31
0.0
  0
LINE
  5
FE
100
AcDbEntity
  8
0
  6
CENTER
 62
               2
100
AcDbLine
 10
10.84238608276894
 20
26.000000000000028
 30
0.0
 11
15.288789950660657
 21
26.000000000000028
 31
0.0
  0
CIRCLE
  5
FF
100
AcDbEntity
  8
0
  6
CONTINUOUS
 62
               7
100
AcDbCircle
 10
13.099999999999966
 20
26.000000000000028
 30
0.0
 40
1.7
  0
CIRCLE
  5
100
100
AcDbEntity
  8
0
  6
CONTINUOUS
 62
               7
100
AcDbCircle
 10
20.100000000000023
 20
46.500000000000028
 30
0.0
 40
1.5
  0
LINE
  5
101
100
AcDbEntity
  8
0
  6
CONTINUOUS
 62
               7
100
AcDbLine
 10
19.322182540694826
 20
45.722182540694831
 30
0.0
 11
20.87781745930522
 21
47.277817459305226
 31
0.0
  0
LINE
  5
102
100
AcDbEntity
  8
0
  6
CONTINUOUS
 62
               7
100
AcDbLine
 10
20.87781745930522
 20
45.722182540694831
 30
0.0
 11
19.322182540694826
 21
47.277817459305226
 31
0.0
  0
LINE
  5
103
100
AcDbEntity
  8
0
  6
CONTINUOUS
 62
               7
100
AcDbLine
 10
12.322182540694826
 20
25.222182540694831
 30
0.0
 11
13.87781745930522
 21
26.777817459305226
 31
0.0
  0
LINE
  5
104
100
AcDbEntity
  8
0
  6
CONTINUOUS
 62
               7
100
AcDbLine
 10
13.87781745930522
 20
25.222182540694831
 30
0.0
 11
12.322182540694826
 21
26.777817459305226
 31
0.0
  0
CIRCLE
  5
105
100
AcDbEntity
  8
0
  6
CONTINUOUS
 62
               7
100
AcDbCircle
 10
13.100000000000023
 20
26.000000000000028
 30
0.0
 40
1.5
  0
LINE
  5
106
100
AcDbEntity
  8
0
  6
CENTER
 62
               2
100
AcDbLine
 10
1.9000000000000341
 20
19.500000000000028
 30
0.0
 11
9.057844527344912
 21
19.500000000000028
 31
0.0
  0
CIRCLE
  5
107
100
AcDbEntity
  8
0
  6
CONTINUOUS
 62
               2
100
AcDbCircle
 10
5.4000000000000341
 20
19.500000000000028
 30
0.0
 40
2.5
  0
CIRCLE
  5
108
100
AcDbEntity
  8
0
  6
CONTINUOUS
 62
               7
100
AcDbCircle
 10
5.4000000000000341
 20
19.500000000000028
 30
0.0
 40
2.1000000000000001
  0
LINE
  5
109
100
AcDbEntity
  8
0
  6
CENTER
 62
               2
100
AcDbLine
 10
5.4000000000000341
 20
22.600804524204506
 30
0.0
 11
5.4000000000000341
 21
16.000000000000028
 31
0.0
  0
CIRCLE
  5
10A
100
AcDbEntity
  8
0
  6
CONTINUOUS
 62
               7
100
AcDbCircle
 10
9.8999999999999773
 20
46.500000000000028
 30
0.0
 40
1.7
  0
LINE
  5
10B
100
AcDbEntity
  8
0
  6
CENTER
 62
               2
100
AcDbLine
 10
2.9000000000000341
 20
23.825094488325789
 30
0.0
 11
2.9000000000000341
 21
28.054079023476987
 31
0.0
  0
LINE
  5
10C
100
AcDbEntity
  8
0
  6
CENTER
 62
               2
100
AcDbLine
 10
9.9000000000000341
 20
48.635137094546337
 30
0.0
 11
9.9000000000000341
 21
44.547118710566821
 31
0.0
  0
LINE
  5
10D
100
AcDbEntity
  8
0
  6
CENTER
 62
               2
100
AcDbLine
 10
7.4933410297140313
 20
46.500000000000028
 30
0.0
 11
12.229803709083455
 21
46.500000000000028
 31
0.0
  0
LINE
  5
10E
100
AcDbEntity
  8
0
  6
CENTER
 62
               2
100
AcDbLine
 10
0.6423860827689509
 20
26.000000000000028
 30
0.0
 11
5.0954088482692441
 21
26.000000000000028
 31
0.0
  0
CIRCLE
  5
10F
100
AcDbEntity
  8
0
  6
CONTINUOUS
 62
               7
100
AcDbCircle
 10
2.8999999999999773
 20
26.000000000000028
 30
0.0
 40
1.7
  0
CIRCLE
  5
110
100
AcDbEntity
  8
0
  6
CONTINUOUS
 62
               7
100
AcDbCircle
 10
9.9000000000000341
 20
46.500000000000028
 30
0.0
 40
1.5
  0
LINE
  5
111
100
AcDbEntity
  8
0
  6
CONTINUOUS
 62
               7
100
AcDbLine
 10
9.1221825406948369
 20
45.722182540694831
 30
0.0
 11
10.677817459305231
 21
47.277817459305226
 31
0.0
  0
LINE
  5
112
100
AcDbEntity
  8
0
  6
CONTINUOUS
 62
               7
100
AcDbLine
 10
10.677817459305231
 20
45.722182540694831
 30
0.0
 11
9.1221825406948369
 21
47.277817459305226
 31
0.0
  0
LINE
  5
113
100
AcDbEntity
  8
0
  6
CONTINUOUS
 62
               7
100
AcDbLine
 10
2.1221825406948369
 20
25.222182540694831
 30
0.0
 11
3.6778174593052313
 21
26.777817459305226
 31
0.0
  0
LINE
  5
114
100
AcDbEntity
  8
0
  6
CONTINUOUS
 62
               7
100
AcDbLine
 10
3.6778174593052313
 20
25.222182540694831
 30
0.0
 11
2.1221825406948369
 21
26.777817459305226
 31
0.0
  0
CIRCLE
  5
115
100
AcDbEntity
  8
0
  6
CONTINUOUS
 62
               7
100
AcDbCircle
 10
2.9000000000000341
 20
26.000000000000028
 30
0.0
 40
1.5
  0
LINE
  5
116
100
AcDbEntity
  8
0
  6
CONTINUOUS
 62
               7
100
AcDbLine
 10
87.399999999999977
 20
2.5
 30
0.0
 11
82.199999999999989
 21
2.5
 31
0.0
  0
LINE
  5
117
100
AcDbEntity
  8
0
  6
CONTINUOUS
 62
               7
100
AcDbLine
 10
87.399999999999977
 20
54.000000000000028
 30
0.0
 11
-0.6000000000000227
 21
54.000000000000028
 31
0.0
  0
LINE
  5
118
100
AcDbEntity
  8
0
  6
CONTINUOUS
 62
               7
100
AcDbLine
 10
-0.6000000000000227
 20
54.000000000000028
 30
0.0
 11
-0.6000000000000227
 21
10.0
 31
0.0
  0
LINE
  5
119
100
AcDbEntity
  8
0
  6
CONTINUOUS
 62
               7
100
AcDbLine
 10
87.399999999999977
 20
54.000000000000028
 30
0.0
 11
87.399999999999977
 21
2.5000000000000284
 31
0.0
  0
ARC
  5
11A
100
AcDbEntity
  8
0
  6
CONTINUOUS
 62
               4
100
AcDbCircle
 10
57.699999999999989
 20
1.0999999999999943
 30
0.0
 40
0.5
100
AcDbArc
 50
89.999999999999815
 51
179.99999999999963
  0
LINE
  5
11B
100
AcDbEntity
  8
0
  6
CONTINUOUS
 62
               4
100
AcDbLine
 10
57.699999999999989
 20
1.5999999999999943
 30
0.0
 11
65.199999999999989
 21
1.5999999999999943
 31
0.0
  0
LINE
  5
11C
100
AcDbEntity
  8
0
  6
CONTINUOUS
 62
               4
100
AcDbLine
 10
57.199999999999989
 20
6.0
 30
0.0
 11
57.199999999999989
 21
0.5
 31
0.0
  0
LINE
  5
11D
100
AcDbEntity
  8
0
  6
CONTINUOUS
 62
               4
100
AcDbLine
 10
61.199999999999989
 20
10.0
 30
0.0
 11
78.199999999999989
 21
10.0
 31
0.0
  0
LINE
  5
11E
100
AcDbEntity
  8
0
  6
CONTINUOUS
 62
               4
100
AcDbLine
 10
57.699999999999989
 20
0.0
 30
0.0
 11
65.199999999999989
 21
0.0
 31
0.0
  0
LINE
  5
11F
100
AcDbEntity
  8
0
  6
CONTINUOUS
 62
               4
100
AcDbLine
 10
82.199999999999989
 20
6.0
 30
0.0
 11
82.199999999999989
 21
0.5
 31
0.0
  0
LINE
  5
120
100
AcDbEntity
  8
0
  6
CENTER
 62
             200
100
AcDbLine
 10
77.699999999999989
 20
2.3167404597448069
 30
0.0
 11
77.699999999999989
 21
9.437462670352943
 31
0.0
  0
LINE
  5
121
100
AcDbEntity
  8
0
  6
CENTER
 62
             200
100
AcDbLine
 10
71.137278602915387
 20
6.0
 30
0.0
 11
63.932783189829479
 21
6.0
 31
0.0
  0
LINE
  5
122
100
AcDbEntity
  8
0
  6
CENTER
 62
             200
100
AcDbLine
 10
74.236887094591879
 20
6.0
 30
0.0
 11
81.06440309652794
 21
6.0
 31
0.0
  0
ARC
  5
123
100
AcDbEntity
  8
0
  6
CONTINUOUS
 62
               4
100
AcDbCircle
 10
61.199999999999989
 20
6.0
 30
0.0
 40
4.0
100
AcDbArc
 50
89.999999999999815
 51
179.99999999999963
  0
ARC
  5
124
100
AcDbEntity
  8
0
  6
CONTINUOUS
 62
               4
100
AcDbCircle
 10
78.199999999999989
 20
6.0
 30
0.0
 40
4.0
100
AcDbArc
 50
0.0
 51
89.999999999999815
  0
ARC
  5
125
100
AcDbEntity
  8
0
  6
CONTINUOUS
 62
               4
100
AcDbCircle
 10
81.699999999999989
 20
0.5
 30
0.0
 40
0.5
100
AcDbArc
 50
269.99999999999937
 51
0.0
  0
ARC
  5
126
100
AcDbEntity
  8
0
  6
CONTINUOUS
 62
               4
100
AcDbCircle
 10
57.699999999999989
 20
0.5
 30
0.0
 40
0.5
100
AcDbArc
 50
179.99999999999963
 51
269.99999999999937
  0
LINE
  5
127
100
AcDbEntity
  8
0
  6
CONTINUOUS
 62
               4
100
AcDbLine
 10
65.199999999999989
 20
1.5999999999999943
 30
0.0
 11
65.199999999999989
 21
0.0
 31
0.0
  0
LINE
  5
128
100
AcDbEntity
  8
0
  6
CONTINUOUS
 62
               4
100
AcDbLine
 10
67.699999999999989
 20
1.3000000000000114
 30
0.0
 11
67.699999999999989
 21
0.0
 31
0.0
  0
LINE
  5
129
100
AcDbEntity
  8
0
  6
CONTINUOUS
 62
               4
100
AcDbLine
 10
65.399999999999977
 20
1.8000000000000114
 30
0.0
 11
67.199999999999989
 21
1.8000000000000114
 31
0.0
  0
ARC
  5
12A
100
AcDbEntity
  8
0
  6
CONTINUOUS
 62
               4
100
AcDbCircle
 10
65.399999999999977
 20
1.5999999999999943
 30
0.0
 40
0.2
100
AcDbArc
 50
89.999999999999815
 51
179.99999999999963
  0
ARC
  5
12B
100
AcDbEntity
  8
0
  6
CONTINUOUS
 62
               4
100
AcDbCircle
 10
67.199999999999989
 20
1.3000000000000114
 30
0.0
 40
0.5
100
AcDbArc
 50
0.0
 51
89.999999999999815
  0
LINE
  5
12C
100
AcDbEntity
  8
0
  6
CONTINUOUS
 62
               4
100
AcDbLine
 10
68.950000019761035
 20
5.2783122062683105
 30
0.0
 11
67.699999900551745
 21
4.5566242933273315
 31
0.0
  0
LINE
  5
12D
100
AcDbEntity
  8
0
  6
CONTINUOUS
 62
               4
100
AcDbLine
 10
67.699999930354068
 20
7.4433756470680237
 30
0.0
 11
66.449999999999989
 21
6.7216878507910849
 31
0.0
  0
LINE
  5
12E
100
AcDbEntity
  8
0
  6
CONTINUOUS
 62
               4
100
AcDbLine
 10
67.699999930354068
 20
4.5566243529319763
 30
0.0
 11
66.450000019761035
 21
5.2783121466636658
 31
0.0
  0
LINE
  5
12F
100
AcDbEntity
  8
0
  6
CONTINUOUS
 62
               4
100
AcDbLine
 10
68.949999989958712
 20
6.7216878235340118
 30
0.0
 11
67.69999996015639
 21
7.4433756768703461
 31
0.0
  0
LINE
  5
130
100
AcDbEntity
  8
0
  6
CONTINUOUS
 62
               4
100
AcDbLine
 10
68.949999999999989
 20
5.2783121466636658
 30
0.0
 11
68.949999999999989
 21
6.7216878257524684
 31
0.0
  0
LINE
  5
131
100
AcDbEntity
  8
0
  6
CONTINUOUS
 62
               4
100
AcDbLine
 10
66.449999999999989
 20
5.2783121466636658
 30
0.0
 11
66.449999999999989
 21
6.7216878533363342
 31
0.0
  0
CIRCLE
  5
132
100
AcDbEntity
  8
0
  6
CONTINUOUS
 62
               4
100
AcDbCircle
 10
67.699999999999989
 20
6.0
 30
0.0
 40
2.75
  0
CIRCLE
  5
133
100
AcDbEntity
  8
0
  6
CONTINUOUS
 62
               4
100
AcDbCircle
 10
67.699999999999989
 20
6.0
 30
0.0
 40
2.450000000000002
  0
LINE
  5
134
100
AcDbEntity
  8
0
  6
CONTINUOUS
 62
               4
100
AcDbLine
 10
78.950000019761035
 20
5.2783122062683105
 30
0.0
 11
77.699999900551745
 21
4.5566242933273315
 31
0.0
  0
LINE
  5
135
100
AcDbEntity
  8
0
  6
CONTINUOUS
 62
               4
100
AcDbLine
 10
77.699999930354068
 20
7.4433756470680237
 30
0.0
 11
76.449999999999989
 21
6.7216878507910849
 31
0.0
  0
LINE
  5
136
100
AcDbEntity
  8
0
  6
CONTINUOUS
 62
               4
100
AcDbLine
 10
77.699999930354068
 20
4.5566243529319763
 30
0.0
 11
76.450000019761035
 21
5.2783121466636658
 31
0.0
  0
LINE
  5
137
100
AcDbEntity
  8
0
  6
CONTINUOUS
 62
               4
100
AcDbLine
 10
78.949999989958712
 20
6.7216878235340118
 30
0.0
 11
77.69999996015639
 21
7.4433756768703461
 31
0.0
  0
LINE
  5
138
100
AcDbEntity
  8
0
  6
CONTINUOUS
 62
               4
100
AcDbLine
 10
78.949999999999989
 20
5.2783121466636658
 30
0.0
 11
78.949999999999989
 21
6.7216878257524684
 31
0.0
  0
LINE
  5
139
100
AcDbEntity
  8
0
  6
CONTINUOUS
 62
               4
100
AcDbLine
 10
76.449999999999989
 20
5.2783121466636658
 30
0.0
 11
76.449999999999989
 21
6.7216878533363342
 31
0.0
  0
CIRCLE
  5
13A
100
AcDbEntity
  8
0
  6
CONTINUOUS
 62
               4
100
AcDbCircle
 10
77.699999999999989
 20
6.0
 30
0.0
 40
2.75
  0
CIRCLE
  5
13B
100
AcDbEntity
  8
0
  6
CONTINUOUS
 62
               4
100
AcDbCircle
 10
77.699999999999989
 20
6.0
 30
0.0
 40
2.450000000000002
  0
LINE
  5
13C
100
AcDbEntity
  8
0
  6
CONTINUOUS
 62
               4
100
AcDbLine
 10
67.699999999999989
 20
0.0
 30
0.0
 11
81.699999999999989
 21
0.0
 31
0.0
  0
LINE
  5
13D
100
AcDbEntity
  8
0
  6
CENTER
 62
             200
100
AcDbLine
 10
67.699999999999989
 20
2.3167404597448069
 30
0.0
 11
67.699999999999989
 21
9.437462670352943
 31
0.0
  0
LINE
  5
13E
100
AcDbEntity
  8
0
  6
CENTER
 62
             200
100
AcDbLine
 10
61.199999999999989
 20
-1.6999999999999602
 30
0.0
 11
61.199999999999989
 21
3.3000000000000398
 31
0.0
  0
LINE
  5
13F
100
AcDbEntity
  8
0
  6
CENTER
 62
             200
100
AcDbLine
 10
6.5
 20
2.3167404597448069
 30
0.0
 11
6.5
 21
9.437462670352943
 31
0.0
  0
LINE
  5
140
100
AcDbEntity
  8
0
  6
CONTINUOUS
 62
               4
100
AcDbLine
 10
6.5
 20
0.0
 30
0.0
 11
20.5
 21
0.0
 31
0.0
  0
LINE
  5
141
100
AcDbEntity
  8
0
  6
CENTER
 62
             200
100
AcDbLine
 10
0.0
 20
-1.6999999999999602
 30
0.0
 11
0.0
 21
3.3000000000000398
 31
0.0
  0
CIRCLE
  5
142
100
AcDbEntity
  8
0
  6
CONTINUOUS
 62
               4
100
AcDbCircle
 10
16.5
 20
6.0
 30
0.0
 40
2.450000000000002
  0
CIRCLE
  5
143
100
AcDbEntity
  8
0
  6
CONTINUOUS
 62
               4
100
AcDbCircle
 10
16.5
 20
6.0
 30
0.0
 40
2.75
  0
LINE
  5
144
100
AcDbEntity
  8
0
  6
CONTINUOUS
 62
               4
100
AcDbLine
 10
15.25
 20
5.2783121466636658
 30
0.0
 11
15.25
 21
6.7216878533363342
 31
0.0
  0
LINE
  5
145
100
AcDbEntity
  8
0
  6
CONTINUOUS
 62
               4
100
AcDbLine
 10
17.75
 20
5.2783121466636658
 30
0.0
 11
17.75
 21
6.7216878257524684
 31
0.0
  0
LINE
  5
146
100
AcDbEntity
  8
0
  6
CONTINUOUS
 62
               4
100
AcDbLine
 10
17.749999989958724
 20
6.7216878235340118
 30
0.0
 11
16.499999960156401
 21
7.4433756768703461
 31
0.0
  0
LINE
  5
147
100
AcDbEntity
  8
0
  6
CONTINUOUS
 62
               4
100
AcDbLine
 10
16.499999930354079
 20
4.5566243529319763
 30
0.0
 11
15.250000019761046
 21
5.2783121466636658
 31
0.0
  0
LINE
  5
148
100
AcDbEntity
  8
0
  6
CONTINUOUS
 62
               4
100
AcDbLine
 10
16.499999930354079
 20
7.4433756470680237
 30
0.0
 11
15.25
 21
6.7216878507910849
 31
0.0
  0
LINE
  5
149
100
AcDbEntity
  8
0
  6
CONTINUOUS
 62
               4
100
AcDbLine
 10
17.750000019761046
 20
5.2783122062683105
 30
0.0
 11
16.499999900551757
 21
4.5566242933273315
 31
0.0
  0
CIRCLE
  5
14A
100
AcDbEntity
  8
0
  6
CONTINUOUS
 62
               4
100
AcDbCircle
 10
6.5
 20
6.0
 30
0.0
 40
2.450000000000002
  0
CIRCLE
  5
14B
100
AcDbEntity
  8
0
  6
CONTINUOUS
 62
               4
100
AcDbCircle
 10
6.5
 20
6.0
 30
0.0
 40
2.75
  0
LINE
  5
14C
100
AcDbEntity
  8
0
  6
CONTINUOUS
 62
               4
100
AcDbLine
 10
5.25
 20
5.2783121466636658
 30
0.0
 11
5.25
 21
6.7216878533363342
 31
0.0
  0
LINE
  5
14D
100
AcDbEntity
  8
0
  6
CONTINUOUS
 62
               4
100
AcDbLine
 10
7.75
 20
5.2783121466636658
 30
0.0
 11
7.75
 21
6.7216878257524684
 31
0.0
  0
LINE
  5
14E
100
AcDbEntity
  8
0
  6
CONTINUOUS
 62
               4
100
AcDbLine
 10
7.7499999899587237
 20
6.7216878235340118
 30
0.0
 11
6.4999999601564014
 21
7.4433756768703461
 31
0.0
  0
LINE
  5
14F
100
AcDbEntity
  8
0
  6
CONTINUOUS
 62
               4
100
AcDbLine
 10
6.499999930354079
 20
4.5566243529319763
 30
0.0
 11
5.2500000197610461
 21
5.2783121466636658
 31
0.0
  0
LINE
  5
150
100
AcDbEntity
  8
0
  6
CONTINUOUS
 62
               4
100
AcDbLine
 10
6.499999930354079
 20
7.4433756470680237
 30
0.0
 11
5.25
 21
6.7216878507910849
 31
0.0
  0
LINE
  5
151
100
AcDbEntity
  8
0
  6
CONTINUOUS
 62
               4
100
AcDbLine
 10
7.7500000197610461
 20
5.2783122062683105
 30
0.0
 11
6.4999999005517566
 21
4.5566242933273315
 31
0.0
  0
ARC
  5
152
100
AcDbEntity
  8
0
  6
CONTINUOUS
 62
               4
100
AcDbCircle
 10
6.0
 20
1.3000000000000114
 30
0.0
 40
0.5
100
AcDbArc
 50
0.0
 51
89.999999999999815
  0
ARC
  5
153
100
AcDbEntity
  8
0
  6
CONTINUOUS
 62
               4
100
AcDbCircle
 10
4.1999999999999886
 20
1.5999999999999943
 30
0.0
 40
0.2
100
AcDbArc
 50
89.999999999999815
 51
179.99999999999963
  0
LINE
  5
154
100
AcDbEntity
  8
0
  6
CONTINUOUS
 62
               4
100
AcDbLine
 10
4.1999999999999886
 20
1.8000000000000114
 30
0.0
 11
6.0
 21
1.8000000000000114
 31
0.0
  0
LINE
  5
155
100
AcDbEntity
  8
0
  6
CONTINUOUS
 62
               4
100
AcDbLine
 10
6.5
 20
1.3000000000000114
 30
0.0
 11
6.5
 21
0.0
 31
0.0
  0
LINE
  5
156
100
AcDbEntity
  8
0
  6
CONTINUOUS
 62
               4
100
AcDbLine
 10
4.0
 20
1.5999999999999943
 30
0.0
 11
4.0
 21
0.0
 31
0.0
  0
ARC
  5
157
100
AcDbEntity
  8
0
  6
CONTINUOUS
 62
               4
100
AcDbCircle
 10
-3.5
 20
0.5
 30
0.0
 40
0.5
100
AcDbArc
 50
179.99999999999963
 51
269.99999999999937
  0
ARC
  5
158
100
AcDbEntity
  8
0
  6
CONTINUOUS
 62
               4
100
AcDbCircle
 10
20.5
 20
0.5
 30
0.0
 40
0.5
100
AcDbArc
 50
269.99999999999937
 51
0.0
  0
ARC
  5
159
100
AcDbEntity
  8
0
  6
CONTINUOUS
 62
               4
100
AcDbCircle
 10
17.0
 20
6.0
 30
0.0
 40
4.0
100
AcDbArc
 50
0.0
 51
89.999999999999815
  0
ARC
  5
15A
100
AcDbEntity
  8
0
  6
CONTINUOUS
 62
               4
100
AcDbCircle
 10
0.0
 20
6.0
 30
0.0
 40
4.0
100
AcDbArc
 50
89.999999999999815
 51
179.99999999999963
  0
LINE
  5
15B
100
AcDbEntity
  8
0
  6
CENTER
 62
             200
100
AcDbLine
 10
13.03688709459189
 20
6.0
 30
0.0
 11
19.864403096527951
 21
6.0
 31
0.0
  0
LINE
  5
15C
100
AcDbEntity
  8
0
  6
CENTER
 62
             200
100
AcDbLine
 10
9.9372786029153986
 20
6.0
 30
0.0
 11
2.7327831898294903
 21
6.0
 31
0.0
  0
LINE
  5
15D
100
AcDbEntity
  8
0
  6
CENTER
 62
             200
100
AcDbLine
 10
16.5
 20
2.3167404597448069
 30
0.0
 11
16.5
 21
9.437462670352943
 31
0.0
  0
LINE
  5
15E
100
AcDbEntity
  8
0
  6
CONTINUOUS
 62
               4
100
AcDbLine
 10
21.0
 20
6.0
 30
0.0
 11
21.0
 21
0.5
 31
0.0
  0
LINE
  5
15F
100
AcDbEntity
  8
0
  6
CONTINUOUS
 62
               4
100
AcDbLine
 10
-3.5
 20
0.0
 30
0.0
 11
4.0
 21
0.0
 31
0.0
  0
LINE
  5
160
100
AcDbEntity
  8
0
  6
CONTINUOUS
 62
               4
100
AcDbLine
 10
0.0
 20
10.0
 30
0.0
 11
17.0
 21
10.0
 31
0.0
  0
LINE
  5
161
100
AcDbEntity
  8
0
  6
CONTINUOUS
 62
               4
100
AcDbLine
 10
-4.0
 20
6.0
 30
0.0
 11
-4.0
 21
0.5
 31
0.0
  0
LINE
  5
162
100
AcDbEntity
  8
0
  6
CONTINUOUS
 62
               4
100
AcDbLine
 10
-3.5
 20
1.5999999999999943
 30
0.0
 11
4.0
 21
1.5999999999999943
 31
0.0
  0
ARC
  5
163
100
AcDbEntity
  8
0
  6
CONTINUOUS
 62
               4
100
AcDbCircle
 10
-3.5
 20
1.0999999999999943
 30
0.0
 40
0.5
100
AcDbArc
 50
89.999999999999815
 51
179.99999999999963
  0
ENDBLK
  5
164
100
AcDbEntity
  8
0
100
AcDbBlockEnd
  0
BLOCK
  5
165
100
AcDbEntity
  8
0
100
AcDbBlockBegin
  2
MV090MA-11-4
 70
               0
 10
0.0
 20
0.0
 30
0.0
  3
MV090MA-11-4
  1

  0
LINE
  5
166
100
AcDbEntity
  8
0
  6
CONTINUOUS
 62
               7
100
AcDbLine
 10
-20.002191766585355
 20
54.000000076193842
 30
0.0
 11
-20.002191766585355
 21
2.5000000761938423
 31
0.0
  0
LINE
  5
167
100
AcDbEntity
  8
0
  6
CONTINUOUS
 62
               7
100
AcDbLine
 10
-34.002191766585412
 20
54.000000076193842
 30
0.0
 11
-6.002191766585355
 21
54.000000076193842
 31
0.0
  0
LINE
  5
168
100
AcDbEntity
  8
0
  6
CONTINUOUS
 62
               7
100
AcDbLine
 10
-34.002191766585355
 20
2.5000000761938423
 30
0.0
 11
-6.002191766585355
 21
2.5000000761938423
 31
0.0
  0
LINE
  5
169
100
AcDbEntity
  8
0
  6
CONTINUOUS
 62
               7
100
AcDbLine
 10
-6.002191766585355
 20
54.000000076193842
 30
0.0
 11
-6.002191766585355
 21
2.5000000761938423
 31
0.0
  0
LINE
  5
16A
100
AcDbEntity
  8
0
  6
CONTINUOUS
 62
               7
100
AcDbLine
 10
-6.002191766585355
 20
26.800000076193854
 30
0.0
 11
-6.8021917665853664
 21
26.800000076193854
 31
0.0
  0
LINE
  5
16B
100
AcDbEntity
  8
0
  6
CONTINUOUS
 62
               7
100
AcDbLine
 10
-6.002191766585355
 20
25.200000076193859
 30
0.0
 11
-6.8021917665853664
 21
25.200000076193859
 31
0.0
  0
LINE
  5
16C
100
AcDbEntity
  8
0
  6
CONTINUOUS
 62
               7
100
AcDbLine
 10
-6.8021917665853664
 20
26.800000076193854
 30
0.0
 11
-6.8021917665853664
 21
25.200000076193859
 31
0.0
  0
LINE
  5
16D
100
AcDbEntity
  8
0
  6
CONTINUOUS
 62
               7
100
AcDbLine
 10
-30.602191766585378
 20
2.5000000761938423
 30
0.0
 11
-30.602191766585378
 21
3.5000000761938423
 31
0.0
  0
LINE
  5
16E
100
AcDbEntity
  8
0
  6
CONTINUOUS
 62
               7
100
AcDbLine
 10
-30.602191766585378
 20
3.5000000761938423
 30
0.0
 11
-34.002191766585355
 21
3.5000000761938423
 31
0.0
  0
LINE
  5
16F
100
AcDbEntity
  8
0
  6
CONTINUOUS
 62
               7
100
AcDbLine
 10
-34.002191766585355
 20
10.000000076193842
 30
0.0
 11
-20.002191766585355
 21
10.000000076193842
 31
0.0
  0
LINE
  5
170
100
AcDbEntity
  8
0
  6
CONTINUOUS
 62
               7
100
AcDbLine
 10
-34.002191766585355
 20
2.5000000761938423
 30
0.0
 11
-34.002191766585412
 21
69.500000076193786
 31
0.0
  0
LINE
  5
171
100
AcDbEntity
  8
0
  6
CONTINUOUS
 62
               7
100
AcDbLine
 10
-54.802191766585253
 20
14.700000076193803
 30
0.0
 11
-55.668217170369786
 21
14.200000076193803
 31
0.0
  0
LINE
  5
172
100
AcDbEntity
  8
0
  6
CONTINUOUS
 62
               7
100
AcDbLine
 10
-53.602191766585321
 20
20.000000076193814
 30
0.0
 11
-53.602191766585321
 21
2.8000000761938253
 31
0.0
  0
LINE
  5
173
100
AcDbEntity
  8
0
  6
CONTINUOUS
 62
               7
100
AcDbLine
 10
-59.102191766585321
 20
20.000000076193814
 30
0.0
 11
-59.102191766585321
 21
14.700000076193803
 31
0.0
  0
LINE
  5
174
100
AcDbEntity
  8
0
  6
CONTINUOUS
 62
               7
100
AcDbLine
 10
-59.202191766585344
 20
20.000000076193814
 30
0.0
 11
-63.202191766585344
 21
20.000000076193814
 31
0.0
  0
LINE
  5
175
100
AcDbEntity
  8
0
  6
CONTINUOUS
 62
               7
100
AcDbLine
 10
-63.202191766585344
 20
14.900244208989406
 30
0.0
 11
-63.202191766585344
 21
13.700000076193803
 31
0.0
  0
LINE
  5
176
100
AcDbEntity
  8
0
  6
CONTINUOUS
 62
               7
100
AcDbLine
 10
-59.202191766585344
 20
15.390697750612384
 30
0.0
 11
-59.202191766585344
 21
20.000000076193814
 31
0.0
  0
LINE
  5
177
100
AcDbEntity
  8
0
  6
CONTINUOUS
 62
               7
100
AcDbLine
 10
-59.102191766585321
 20
15.200000076193803
 30
0.0
 11
-59.150941766585348
 21
15.200000076193803
 31
0.0
  0
LINE
  5
178
100
AcDbEntity
  8
0
  6
CONTINUOUS
 62
               7
100
AcDbLine
 10
-63.202191766585344
 20
14.900244208989406
 30
0.0
 11
-61.785755857566102
 21
15.150000076193818
 31
0.0
  0
LINE
  5
179
100
AcDbEntity
  8
0
  6
CONTINUOUS
 62
               7
100
AcDbLine
 10
-64.202191766585344
 20
20.500000076193814
 30
0.0
 11
-64.202191766585344
 21
16.050000076193811
 31
0.0
  0
LINE
  5
17A
100
AcDbEntity
  8
0
  6
CONTINUOUS
 62
               7
100
AcDbLine
 10
-59.102191766585321
 20
19.300000076193797
 30
0.0
 11
-59.202191766585344
 21
19.300000076193797
 31
0.0
  0
LINE
  5
17B
100
AcDbEntity
  8
0
  6
CONTINUOUS
 62
               7
100
AcDbLine
 10
-62.490866901180112
 20
13.700000076193803
 30
0.0
 11
-63.202191766585344
 21
13.700000076193803
 31
0.0
  0
LINE
  5
17C
100
AcDbEntity
  8
0
  6
CONTINUOUS
 62
               7
100
AcDbLine
 10
-62.202191766585344
 20
14.200000076193803
 30
0.0
 11
-62.490866901180112
 21
13.700000076193803
 31
0.0
  0
LINE
  5
17D
100
AcDbEntity
  8
0
  6
CONTINUOUS
 62
               7
100
AcDbLine
 10
-63.490866901180112
 20
20.500000076193814
 30
0.0
 11
-64.202191766585344
 21
20.500000076193814
 31
0.0
  0
LINE
  5
17E
100
AcDbEntity
  8
0
  6
CONTINUOUS
 62
               7
100
AcDbLine
 10
-63.202191766585344
 20
20.000000076193814
 30
0.0
 11
-63.490866901180112
 21
20.500000076193814
 31
0.0
  0
LINE
  5
17F
100
AcDbEntity
  8
0
  6
CONTINUOUS
 62
               7
100
AcDbLine
 10
-55.668217170369786
 20
14.200000076193803
 30
0.0
 11
-62.202191766585344
 21
14.200000076193803
 31
0.0
  0
LINE
  5
180
100
AcDbEntity
  8
0
  6
CONTINUOUS
 62
               7
100
AcDbLine
 10
-59.102191766418997
 20
14.700000076193803
 30
0.0
 11
-54.602191766585356
 21
14.700000076193803
 31
0.0
  0
LINE
  5
181
100
AcDbEntity
  8
0
  6
CONTINUOUS
 62
               7
100
AcDbLine
 10
-59.102191766418997
 20
20.000000076193814
 30
0.0
 11
-47.702191766585344
 21
20.000000076193814
 31
0.0
  0
ARC
  5
182
100
AcDbEntity
  8
0
  6
CONTINUOUS
 62
               7
100
AcDbCircle
 10
-48.102191766585321
 20
27.000000076193814
 30
0.0
 40
0.5
100
AcDbArc
 50
89.999999999999815
 51
179.99999999999963
  0
ARC
  5
183
100
AcDbEntity
  8
0
  6
CONTINUOUS
 62
               7
100
AcDbCircle
 10
-48.102191766585321
 20
25.000000076193814
 30
0.0
 40
0.5
100
AcDbArc
 50
179.99999999999963
 51
269.99999999999937
  0
LINE
  5
184
100
AcDbEntity
  8
0
  6
CONTINUOUS
 62
               7
100
AcDbLine
 10
-48.602191766585321
 20
27.000000076193814
 30
0.0
 11
-48.602191766585321
 21
25.000000076193814
 31
0.0
  0
LINE
  5
185
100
AcDbEntity
  8
0
  6
CONTINUOUS
 62
               7
100
AcDbLine
 10
-48.102191766585321
 20
24.500000076193814
 30
0.0
 11
-48.002191766585355
 21
24.500000076193814
 31
0.0
  0
LINE
  5
186
100
AcDbEntity
  8
0
  6
CONTINUOUS
 62
               7
100
AcDbLine
 10
-48.102191766585321
 20
27.500000076193814
 30
0.0
 11
-48.002191766585355
 21
27.500000076193814
 31
0.0
  0
LINE
  5
187
100
AcDbEntity
  8
0
  6
CONTINUOUS
 62
               7
100
AcDbLine
 10
-49.002191766585355
 20
27.600000076193808
 30
0.0
 11
-48.002191766585355
 21
27.600000076193808
 31
0.0
  0
LINE
  5
188
100
AcDbEntity
  8
0
  6
CONTINUOUS
 62
               7
100
AcDbLine
 10
-49.002191766585355
 20
24.40000007619382
 30
0.0
 11
-48.002191766585355
 21
24.40000007619382
 31
0.0
  0
LINE
  5
189
100
AcDbEntity
  8
0
  6
CONTINUOUS
 62
               7
100
AcDbLine
 10
-48.002191766585355
 20
27.600000076193808
 30
0.0
 11
-48.002191766585355
 21
24.40000007619382
 31
0.0
  0
ARC
  5
18A
100
AcDbEntity
  8
0
  6
CONTINUOUS
 62
               7
100
AcDbCircle
 10
-53.302191766585366
 20
2.8000000761938253
 30
0.0
 40
0.3
100
AcDbArc
 50
179.99999999999963
 51
269.99999999999937
  0
LINE
  5
18B
100
AcDbEntity
  8
0
  6
CONTINUOUS
 62
               7
100
AcDbLine
 10
-35.202191766585344
 20
2.5000000761938139
 30
0.0
 11
-53.302191766585366
 21
2.5000000761938139
 31
0.0
  0
LINE
  5
18C
100
AcDbEntity
  8
0
  6
CONTINUOUS
 62
               7
100
AcDbLine
 10
-47.702191766585344
 20
4.0000000761938139
 30
0.0
 11
-47.702191766585344
 21
20.100000076193808
 31
0.0
  0
LINE
  5
18D
100
AcDbEntity
  8
0
  6
CONTINUOUS
 62
               7
100
AcDbLine
 10
-35.202191766585344
 20
2.5000000761938139
 30
0.0
 11
-35.202191766585344
 21
4.0000000761938139
 31
0.0
  0
LINE
  5
18E
100
AcDbEntity
  8
0
  6
CONTINUOUS
 62
               7
100
AcDbLine
 10
-49.002191766585355
 20
28.100000076193837
 30
0.0
 11
-49.002191766585355
 21
21.409182624422655
 31
0.0
  0
LINE
  5
18F
100
AcDbEntity
  8
0
  6
CONTINUOUS
 62
               7
100
AcDbLine
 10
-47.702191766585344
 20
20.100000076193808
 30
0.0
 11
-53.602191766585321
 21
20.100000076193808
 31
0.0
  0
LINE
  5
190
100
AcDbEntity
  8
0
  6
CONTINUOUS
 62
               7
100
AcDbLine
 10
-49.002191766585355
 20
21.409182624422655
 30
0.0
 11
-53.602191766585321
 21
20.598078513163713
 31
0.0
  0
LINE
  5
191
100
AcDbEntity
  8
0
  6
CONTINUOUS
 62
               7
100
AcDbLine
 10
-53.602191766585321
 20
20.598078513163713
 30
0.0
 11
-53.602191766585321
 21
20.100000076193808
 31
0.0
  0
LINE
  5
192
100
AcDbEntity
  8
0
  6
CONTINUOUS
 62
               7
100
AcDbLine
 10
-53.002191766585298
 20
20.000000076193814
 30
0.0
 11
-53.002191766585298
 21
20.100000076193808
 31
0.0
  0
LINE
  5
193
100
AcDbEntity
  8
0
  6
CONTINUOUS
 62
               7
100
AcDbLine
 10
-34.902191766585389
 20
2.5000000761938139
 30
0.0
 11
-35.202191766585344
 21
2.8000000761938253
 31
0.0
  0
LINE
  5
194
100
AcDbEntity
  8
0
  6
CONTINUOUS
 62
               7
100
AcDbLine
 10
-47.702191766585344
 20
4.0000000761938139
 30
0.0
 11
-35.202191766585344
 21
4.0000000761938139
 31
0.0
  0
LINE
  5
195
100
AcDbEntity
  8
0
  6
CONTINUOUS
 62
               7
100
AcDbLine
 10
-45.502191766585355
 20
28.717144508673456
 30
0.0
 11
-49.002191766585355
 21
28.100000076193837
 31
0.0
  0
LINE
  5
196
100
AcDbEntity
  8
0
  6
CONTINUOUS
 62
               7
100
AcDbLine
 10
-45.502191766585355
 20
34.500000076193814
 30
0.0
 11
-45.502191766585355
 21
28.717144508673456
 31
0.0
  0
LINE
  5
197
100
AcDbEntity
  8
0
  6
CONTINUOUS
 62
               7
100
AcDbLine
 10
-34.002191766585355
 20
2.5000000761938139
 30
0.0
 11
-34.902191766585389
 21
2.5000000761938139
 31
0.0
  0
LINE
  5
198
100
AcDbEntity
  8
0
  6
CONTINUOUS
 62
               7
100
AcDbLine
 10
-34.002191766585355
 20
34.500000076193814
 30
0.0
 11
-45.502191766585355
 21
34.500000076193814
 31
0.0
  0
LINE
  5
199
100
AcDbEntity
  8
0
  6
CONTINUOUS
 62
               7
100
AcDbLine
 10
-37.202191766585344
 20
33.800000076193825
 30
0.0
 11
-37.202191766585344
 21
33.000000076193814
 31
0.0
  0
LINE
  5
19A
100
AcDbEntity
  8
0
  6
CONTINUOUS
 62
               7
100
AcDbLine
 10
-44.802191766585366
 20
33.000000076193814
 30
0.0
 11
-44.802191766585366
 21
33.800000076193825
 31
0.0
  0
LINE
  5
19B
100
AcDbEntity
  8
0
  6
CONTINUOUS
 62
               7
100
AcDbLine
 10
-44.802191766585366
 20
33.000000076193814
 30
0.0
 11
-37.202191766585344
 21
33.000000076193814
 31
0.0
  0
LINE
  5
19C
100
AcDbEntity
  8
0
  6
CONTINUOUS
 62
               7
100
AcDbLine
 10
-44.802191766585366
 20
33.800000076193825
 30
0.0
 11
-37.202191766585344
 21
33.800000076193825
 31
0.0
  0
LINE
  5
19D
100
AcDbEntity
  8
0
  6
CONTINUOUS
 62
               7
100
AcDbLine
 10
-44.802191766585366
 20
38.200000076193774
 30
0.0
 11
-37.202191766585344
 21
38.200000076193774
 31
0.0
  0
LINE
  5
19E
100
AcDbEntity
  8
0
  6
CONTINUOUS
 62
               7
100
AcDbLine
 10
-44.802191766585366
 20
39.000000076193786
 30
0.0
 11
-37.202191766585344
 21
39.000000076193786
 31
0.0
  0
LINE
  5
19F
100
AcDbEntity
  8
0
  6
CONTINUOUS
 62
               7
100
AcDbLine
 10
-44.802191766585366
 20
39.000000076193786
 30
0.0
 11
-44.802191766585366
 21
38.200000076193774
 31
0.0
  0
LINE
  5
1A0
100
AcDbEntity
  8
0
  6
CONTINUOUS
 62
               7
100
AcDbLine
 10
-37.202191766585344
 20
38.200000076193774
 30
0.0
 11
-37.202191766585344
 21
39.000000076193786
 31
0.0
  0
LINE
  5
1A1
100
AcDbEntity
  8
0
  6
CONTINUOUS
 62
               7
100
AcDbLine
 10
-34.002191766585355
 20
37.500000076193786
 30
0.0
 11
-45.502191766585355
 21
37.500000076193786
 31
0.0
  0
LINE
  5
1A2
100
AcDbEntity
  8
0
  6
CONTINUOUS
 62
               7
100
AcDbLine
 10
-34.002191766585355
 20
69.500000076193786
 30
0.0
 11
-34.902191766585389
 21
69.500000076193786
 31
0.0
  0
LINE
  5
1A3
100
AcDbEntity
  8
0
  6
CONTINUOUS
 62
               7
100
AcDbLine
 10
-45.502191766585355
 20
37.500000076193786
 30
0.0
 11
-45.502191766585355
 21
43.282855643714143
 31
0.0
  0
LINE
  5
1A4
100
AcDbEntity
  8
0
  6
CONTINUOUS
 62
               7
100
AcDbLine
 10
-45.502191766585355
 20
43.282855643714143
 30
0.0
 11
-49.002191766585355
 21
43.900000076193763
 31
0.0
  0
LINE
  5
1A5
100
AcDbEntity
  8
0
  6
CONTINUOUS
 62
               7
100
AcDbLine
 10
-47.702191766585344
 20
68.000000076193786
 30
0.0
 11
-35.202191766585344
 21
68.000000076193786
 31
0.0
  0
LINE
  5
1A6
100
AcDbEntity
  8
0
  6
CONTINUOUS
 62
               7
100
AcDbLine
 10
-34.902191766585389
 20
69.500000076193786
 30
0.0
 11
-35.202191766585344
 21
69.200000076193774
 31
0.0
  0
LINE
  5
1A7
100
AcDbEntity
  8
0
  6
CONTINUOUS
 62
               7
100
AcDbLine
 10
-53.002191766585298
 20
52.000000076193786
 30
0.0
 11
-53.002191766585298
 21
51.900000076193763
 31
0.0
  0
LINE
  5
1A8
100
AcDbEntity
  8
0
  6
CONTINUOUS
 62
               7
100
AcDbLine
 10
-53.602191766585321
 20
51.401921639223886
 30
0.0
 11
-53.602191766585321
 21
51.900000076193763
 31
0.0
  0
LINE
  5
1A9
100
AcDbEntity
  8
0
  6
CONTINUOUS
 62
               7
100
AcDbLine
 10
-49.002191766585355
 20
50.590817527964944
 30
0.0
 11
-53.602191766585321
 21
51.401921639223886
 31
0.0
  0
LINE
  5
1AA
100
AcDbEntity
  8
0
  6
CONTINUOUS
 62
               7
100
AcDbLine
 10
-47.702191766585344
 20
51.900000076193763
 30
0.0
 11
-53.602191766585321
 21
51.900000076193763
 31
0.0
  0
LINE
  5
1AB
100
AcDbEntity
  8
0
  6
CONTINUOUS
 62
               7
100
AcDbLine
 10
-49.002191766585355
 20
43.900000076193763
 30
0.0
 11
-49.002191766585355
 21
50.590817527964944
 31
0.0
  0
LINE
  5
1AC
100
AcDbEntity
  8
0
  6
CONTINUOUS
 62
               7
100
AcDbLine
 10
-35.202191766585344
 20
69.500000076193786
 30
0.0
 11
-35.202191766585344
 21
68.000000076193786
 31
0.0
  0
LINE
  5
1AD
100
AcDbEntity
  8
0
  6
CONTINUOUS
 62
               7
100
AcDbLine
 10
-47.702191766585344
 20
68.000000076193786
 30
0.0
 11
-47.702191766585344
 21
51.900000076193763
 31
0.0
  0
LINE
  5
1AE
100
AcDbEntity
  8
0
  6
CONTINUOUS
 62
               7
100
AcDbLine
 10
-35.202191766585344
 20
69.500000076193786
 30
0.0
 11
-53.302191766585366
 21
69.500000076193786
 31
0.0
  0
ARC
  5
1AF
100
AcDbEntity
  8
0
  6
CONTINUOUS
 62
               7
100
AcDbCircle
 10
-53.302191766585366
 20
69.200000076193774
 30
0.0
 40
0.3
100
AcDbArc
 50
89.999999999999773
 51
179.99999999999957
  0
LINE
  5
1B0
100
AcDbEntity
  8
0
  6
CONTINUOUS
 62
               7
100
AcDbLine
 10
-48.002191766585355
 20
44.400000076193763
 30
0.0
 11
-48.002191766585355
 21
47.600000076193808
 31
0.0
  0
LINE
  5
1B1
100
AcDbEntity
  8
0
  6
CONTINUOUS
 62
               7
100
AcDbLine
 10
-49.002191766585355
 20
47.600000076193808
 30
0.0
 11
-48.002191766585355
 21
47.600000076193808
 31
0.0
  0
LINE
  5
1B2
100
AcDbEntity
  8
0
  6
CONTINUOUS
 62
               7
100
AcDbLine
 10
-49.002191766585355
 20
44.400000076193763
 30
0.0
 11
-48.002191766585355
 21
44.400000076193763
 31
0.0
  0
LINE
  5
1B3
100
AcDbEntity
  8
0
  6
CONTINUOUS
 62
               7
100
AcDbLine
 10
-48.102191766585321
 20
44.500000076193786
 30
0.0
 11
-48.002191766585355
 21
44.500000076193786
 31
0.0
  0
LINE
  5
1B4
100
AcDbEntity
  8
0
  6
CONTINUOUS
 62
               7
100
AcDbLine
 10
-48.102191766585321
 20
47.500000076193786
 30
0.0
 11
-48.002191766585355
 21
47.500000076193786
 31
0.0
  0
LINE
  5
1B5
100
AcDbEntity
  8
0
  6
CONTINUOUS
 62
               7
100
AcDbLine
 10
-48.602191766585321
 20
45.000000076193786
 30
0.0
 11
-48.602191766585321
 21
47.000000076193786
 31
0.0
  0
ARC
  5
1B6
100
AcDbEntity
  8
0
  6
CONTINUOUS
 62
               7
100
AcDbCircle
 10
-48.102191766585321
 20
47.000000076193786
 30
0.0
 40
0.5
100
AcDbArc
 50
89.999999999999815
 51
179.99999999999963
  0
ARC
  5
1B7
100
AcDbEntity
  8
0
  6
CONTINUOUS
 62
               7
100
AcDbCircle
 10
-48.102191766585321
 20
45.000000076193786
 30
0.0
 40
0.5
100
AcDbArc
 50
179.99999999999963
 51
269.99999999999937
  0
LINE
  5
1B8
100
AcDbEntity
  8
0
  6
CONTINUOUS
 62
               7
100
AcDbLine
 10
-59.102191766418997
 20
52.000000076193786
 30
0.0
 11
-47.702191766585344
 21
52.000000076193786
 31
0.0
  0
LINE
  5
1B9
100
AcDbEntity
  8
0
  6
CONTINUOUS
 62
               7
100
AcDbLine
 10
-59.102191766418997
 20
57.300000076193797
 30
0.0
 11
-54.602191766585356
 21
57.300000076193797
 31
0.0
  0
LINE
  5
1BA
100
AcDbEntity
  8
0
  6
CONTINUOUS
 62
               7
100
AcDbLine
 10
-55.668217170369786
 20
57.800000076193797
 30
0.0
 11
-62.202191766585344
 21
57.800000076193797
 31
0.0
  0
LINE
  5
1BB
100
AcDbEntity
  8
0
  6
CONTINUOUS
 62
               7
100
AcDbLine
 10
-63.202191766585344
 20
52.000000076193786
 30
0.0
 11
-63.490866901180112
 21
51.500000076193786
 31
0.0
  0
LINE
  5
1BC
100
AcDbEntity
  8
0
  6
CONTINUOUS
 62
               7
100
AcDbLine
 10
-63.490866901180112
 20
51.500000076193786
 30
0.0
 11
-64.202191766585344
 21
51.500000076193786
 31
0.0
  0
LINE
  5
1BD
100
AcDbEntity
  8
0
  6
CONTINUOUS
 62
               7
100
AcDbLine
 10
-62.202191766585344
 20
57.800000076193797
 30
0.0
 11
-62.490866901180112
 21
58.300000076193797
 31
0.0
  0
LINE
  5
1BE
100
AcDbEntity
  8
0
  6
CONTINUOUS
 62
               7
100
AcDbLine
 10
-62.490866901180112
 20
58.300000076193797
 30
0.0
 11
-63.202191766585344
 21
58.300000076193797
 31
0.0
  0
LINE
  5
1BF
100
AcDbEntity
  8
0
  6
CONTINUOUS
 62
               7
100
AcDbLine
 10
-59.102191766585321
 20
52.700000076193803
 30
0.0
 11
-59.202191766585344
 21
52.700000076193803
 31
0.0
  0
LINE
  5
1C0
100
AcDbEntity
  8
0
  6
CONTINUOUS
 62
               7
100
AcDbLine
 10
-64.202191766585344
 20
51.500000076193786
 30
0.0
 11
-64.202191766585344
 21
55.950000076193795
 31
0.0
  0
LINE
  5
1C1
100
AcDbEntity
  8
0
  6
CONTINUOUS
 62
               7
100
AcDbLine
 10
-63.202191766585344
 20
57.099755943398193
 30
0.0
 11
-61.785755857566173
 21
56.850000076193794
 31
0.0
  0
LINE
  5
1C2
100
AcDbEntity
  8
0
  6
CONTINUOUS
 62
               7
100
AcDbLine
 10
-59.102191766585321
 20
56.800000076193797
 30
0.0
 11
-59.47344176658536
 21
56.800000076193797
 31
0.0
  0
LINE
  5
1C3
100
AcDbEntity
  8
0
  6
CONTINUOUS
 62
               7
100
AcDbLine
 10
-59.202191766585344
 20
56.800000076193797
 30
0.0
 11
-59.202191766585344
 21
55.790697750612331
 31
0.0
  0
LINE
  5
1C4
100
AcDbEntity
  8
0
  6
CONTINUOUS
 62
               7
100
AcDbLine
 10
-63.202191766585344
 20
57.099755943398193
 30
0.0
 11
-63.202191766585344
 21
58.300000076193797
 31
0.0
  0
LINE
  5
1C5
100
AcDbEntity
  8
0
  6
CONTINUOUS
 62
               7
100
AcDbLine
 10
-59.202191766585344
 20
52.000000076193786
 30
0.0
 11
-63.202191766585344
 21
52.000000076193786
 31
0.0
  0
LINE
  5
1C6
100
AcDbEntity
  8
0
  6
CONTINUOUS
 62
               7
100
AcDbLine
 10
-59.102191766585321
 20
52.000000076193786
 30
0.0
 11
-59.102191766585321
 21
57.300000076193797
 31
0.0
  0
LINE
  5
1C7
100
AcDbEntity
  8
0
  6
CONTINUOUS
 62
               7
100
AcDbLine
 10
-53.602191766585321
 20
52.000000076193786
 30
0.0
 11
-53.602191766585321
 21
69.200000076193774
 31
0.0
  0
LINE
  5
1C8
100
AcDbEntity
  8
0
  6
CONTINUOUS
 62
               7
100
AcDbLine
 10
-54.802191766585253
 20
57.300000076193797
 30
0.0
 11
-55.668217170369786
 21
57.800000076193797
 31
0.0
  0
LINE
  5
1C9
100
AcDbEntity
  8
0
  6
CONTINUOUS
 62
               7
100
AcDbLine
 10
-64.202191766585344
 20
53.585000076193793
 30
0.0
 11
-69.213525099918598
 21
53.585000076193793
 31
0.0
  0
LINE
  5
1CA
100
AcDbEntity
  8
0
  6
CONTINUOUS
 62
               7
100
AcDbLine
 10
-64.202191766585344
 20
55.0150000761938
 30
0.0
 11
-68.832191766585339
 21
55.0150000761938
 31
0.0
  0
LINE
  5
1CB
100
AcDbEntity
  8
0
  6
CONTINUOUS
 62
               2
100
AcDbLine
 10
-68.212191766585335
 20
57.34000007619376
 30
0.0
 11
-69.812191766585357
 21
51.340000076193789
 31
0.0
  0
LINE
  5
1CC
100
AcDbEntity
  8
0
  6
CONTINUOUS
 62
               2
100
AcDbLine
 10
-69.452191766585344
 20
57.34000007619376
 30
0.0
 11
-71.052191766585366
 21
51.340000076193789
 31
0.0
  0
LINE
  5
1CD
100
AcDbEntity
  8
0
  6
CONTINUOUS
 62
               7
100
AcDbLine
 10
-70.072191766585348
 20
55.0150000761938
 30
0.0
 11
-74.632191766585294
 21
55.0150000761938
 31
0.0
  0
LINE
  5
1CE
100
AcDbEntity
  8
0
  6
CONTINUOUS
 62
               7
100
AcDbLine
 10
-70.453525099918608
 20
53.585000076193793
 30
0.0
 11
-74.632191766585294
 21
53.585000076193793
 31
0.0
  0
LINE
  5
1CF
100
AcDbEntity
  8
0
  6
CONTINUOUS
 62
               7
100
AcDbLine
 10
-74.632191766585294
 20
53.90000007619382
 30
0.0
 11
-79.632191766585294
 21
53.90000007619382
 31
0.0
  0
LINE
  5
1D0
100
AcDbEntity
  8
0
  6
CONTINUOUS
 62
               7
100
AcDbLine
 10
-74.632191766585294
 20
54.700000076193774
 30
0.0
 11
-79.632191766585294
 21
54.700000076193774
 31
0.0
  0
LINE
  5
1D1
100
AcDbEntity
  8
0
  6
CONTINUOUS
 62
               7
100
AcDbLine
 10
-74.632191766585294
 20
53.585000076193793
 30
0.0
 11
-74.632191766585294
 21
55.0150000761938
 31
0.0
  0
LINE
  5
1D2
100
AcDbEntity
  8
0
  6
CONTINUOUS
 62
               7
100
AcDbLine
 10
-79.632191766585294
 20
53.90000007619382
 30
0.0
 11
-79.632191766585294
 21
54.700000076193774
 31
0.0
  0
LINE
  5
1D3
100
AcDbEntity
  8
0
  6
CONTINUOUS
 62
               7
100
AcDbLine
 10
-70.072191766585348
 20
18.715000076193817
 30
0.0
 11
-74.632191766585294
 21
18.715000076193817
 31
0.0
  0
LINE
  5
1D4
100
AcDbEntity
  8
0
  6
CONTINUOUS
 62
               2
100
AcDbLine
 10
-69.452191766585344
 20
21.040000076193806
 30
0.0
 11
-71.052191766585366
 21
15.040000076193806
 31
0.0
  0
LINE
  5
1D5
100
AcDbEntity
  8
0
  6
CONTINUOUS
 62
               7
100
AcDbLine
 10
-70.453525099918608
 20
17.285000076193811
 30
0.0
 11
-74.632191766585294
 21
17.285000076193811
 31
0.0
  0
LINE
  5
1D6
100
AcDbEntity
  8
0
  6
CONTINUOUS
 62
               7
100
AcDbLine
 10
-74.632191766585294
 20
17.600000076193808
 30
0.0
 11
-79.632191766585294
 21
17.600000076193808
 31
0.0
  0
LINE
  5
1D7
100
AcDbEntity
  8
0
  6
CONTINUOUS
 62
               7
100
AcDbLine
 10
-74.632191766585294
 20
18.40000007619382
 30
0.0
 11
-79.632191766585294
 21
18.40000007619382
 31
0.0
  0
LINE
  5
1D8
100
AcDbEntity
  8
0
  6
CONTINUOUS
 62
               7
100
AcDbLine
 10
-74.632191766585294
 20
17.285000076193811
 30
0.0
 11
-74.632191766585294
 21
18.715000076193817
 31
0.0
  0
LINE
  5
1D9
100
AcDbEntity
  8
0
  6
CONTINUOUS
 62
               7
100
AcDbLine
 10
-79.632191766585294
 20
17.600000076193808
 30
0.0
 11
-79.632191766585294
 21
18.40000007619382
 31
0.0
  0
LINE
  5
1DA
100
AcDbEntity
  8
0
  6
CONTINUOUS
 62
               7
100
AcDbLine
 10
-64.202191766585344
 20
17.285000076193811
 30
0.0
 11
-69.213525099918598
 21
17.285000076193811
 31
0.0
  0
LINE
  5
1DB
100
AcDbEntity
  8
0
  6
CONTINUOUS
 62
               7
100
AcDbLine
 10
-64.202191766585344
 20
18.715000076193817
 30
0.0
 11
-68.832191766585339
 21
18.715000076193817
 31
0.0
  0
LINE
  5
1DC
100
AcDbEntity
  8
0
  6
CONTINUOUS
 62
               2
100
AcDbLine
 10
-68.212191766585335
 20
21.040000076193806
 30
0.0
 11
-69.812191766585357
 21
15.040000076193806
 31
0.0
  0
CIRCLE
  5
1DD
100
AcDbEntity
  8
0
  6
CONTINUOUS
 62
               2
100
AcDbCircle
 10
-11.002191766585355
 20
50.300000076193854
 30
0.0
 40
2.5
  0
CIRCLE
  5
1DE
100
AcDbEntity
  8
0
  6
CONTINUOUS
 62
               7
100
AcDbCircle
 10
-11.002191766585355
 20
50.300000076193854
 30
0.0
 40
2.1000000000000001
  0
LINE
  5
1DF
100
AcDbEntity
  8
0
  6
CENTER
 62
               2
100
AcDbLine
 10
-14.75137127588934
 20
50.300000076193854
 30
0.0
 11
-8.002191766585355
 21
50.300000076193854
 31
0.0
  0
LINE
  5
1E0
100
AcDbEntity
  8
0
  6
CENTER
 62
               2
100
AcDbLine
 10
-11.002191766585355
 20
47.300000076193854
 30
0.0
 11
-11.002191766585355
 21
53.300000076193854
 31
0.0
  0
LINE
  5
1E1
100
AcDbEntity
  8
0
  6
CENTER
 62
               2
100
AcDbLine
 10
-19.440941496073819
 20
13.500000076193842
 30
0.0
 11
-12.502191766585355
 21
13.500000076193842
 31
0.0
  0
LINE
  5
1E2
100
AcDbEntity
  8
0
  6
CENTER
 62
               2
100
AcDbLine
 10
-16.002191766585355
 20
16.60080460039832
 30
0.0
 11
-16.002191766585355
 21
10.000000076193842
 31
0.0
  0
CIRCLE
  5
1E3
100
AcDbEntity
  8
0
  6
CONTINUOUS
 62
               7
100
AcDbCircle
 10
-16.002191766585355
 20
13.500000076193842
 30
0.0
 40
2.1000000000000001
  0
CIRCLE
  5
1E4
100
AcDbEntity
  8
0
  6
CONTINUOUS
 62
               2
100
AcDbCircle
 10
-16.002191766585355
 20
13.500000076193842
 30
0.0
 40
2.5
  0
CIRCLE
  5
1E5
100
AcDbEntity
  8
0
  6
CONTINUOUS
 62
               7
100
AcDbCircle
 10
-11.802191766585366
 20
33.000000076193842
 30
0.0
 40
4.25
  0
CIRCLE
  5
1E6
100
AcDbEntity
  8
0
  6
CONTINUOUS
 62
               2
100
AcDbCircle
 10
-11.802191766585366
 20
33.000000076193842
 30
0.0
 40
5.0
  0
LINE
  5
1E7
100
AcDbEntity
  8
0
  6
CENTER
 62
               2
100
AcDbLine
 10
-17.288539998734933
 20
33.000000076193842
 30
0.0
 11
-6.4330525348776462
 21
33.000000076193842
 31
0.0
  0
LINE
  5
1E8
100
AcDbEntity
  8
0
  6
CENTER
 62
               2
100
AcDbLine
 10
-11.802191766585366
 20
27.000000076193842
 30
0.0
 11
-11.802191766585366
 21
39.000000076193842
 31
0.0
  0
LINE
  5
1E9
100
AcDbEntity
  8
0
  6
CONTINUOUS
 62
               7
100
AcDbLine
 10
-21.502191766585412
 20
67.544182038668637
 30
0.0
 11
-23.502191766585412
 21
67.544182038668637
 31
0.0
  0
LINE
  5
1EA
100
AcDbEntity
  8
0
  6
CONTINUOUS
 62
               7
100
AcDbLine
 10
-24.502191766585412
 20
67.044182038668637
 30
0.0
 11
-23.502191766585412
 21
67.044182038668637
 31
0.0
  0
LINE
  5
1EB
100
AcDbEntity
  8
0
  6
CONTINUOUS
 62
               7
100
AcDbLine
 10
-23.502191766585412
 20
68.044182038668637
 30
0.0
 11
-23.502191766585412
 21
67.044182038668637
 31
0.0
  0
LINE
  5
1EC
100
AcDbEntity
  8
0
  6
CONTINUOUS
 62
               7
100
AcDbLine
 10
-24.502191766585412
 20
68.044182038668637
 30
0.0
 11
-24.502191766585412
 21
67.044182038668637
 31
0.0
  0
LINE
  5
1ED
100
AcDbEntity
  8
0
  6
CONTINUOUS
 62
               7
100
AcDbLine
 10
-23.502191766585412
 20
68.044182038668637
 30
0.0
 11
-22.002191766585412
 21
68.044182038668637
 31
0.0
  0
LINE
  5
1EE
100
AcDbEntity
  8
0
  6
CONTINUOUS
 62
               7
100
AcDbLine
 10
-26.002191766585412
 20
68.044182038668637
 30
0.0
 11
-24.502191766585412
 21
68.044182038668637
 31
0.0
  0
LINE
  5
1EF
100
AcDbEntity
  8
0
  6
CONTINUOUS
 62
               7
100
AcDbLine
 10
-20.752191766585412
 20
54.000000076193842
 30
0.0
 11
-20.752191766585412
 21
56.700000076193831
 31
0.0
  0
LINE
  5
1F0
100
AcDbEntity
  8
0
  6
CONTINUOUS
 62
               7
100
AcDbLine
 10
-27.252191766585412
 20
54.000000076193842
 30
0.0
 11
-27.252191766585412
 21
56.700000076193831
 31
0.0
  0
LINE
  5
1F1
100
AcDbEntity
  8
0
  6
CENTER
 62
               2
100
AcDbLine
 10
-24.002191766585412
 20
68.687871155097767
 30
0.0
 11
-24.002191766585412
 21
53.130858322546842
 31
0.0
  0
LINE
  5
1F2
100
AcDbEntity
  8
0
  6
CONTINUOUS
 62
               7
100
AcDbLine
 10
-27.252191766585412
 20
56.700000076193831
 30
0.0
 11
-20.752191766585412
 21
56.700000076193831
 31
0.0
  0
LINE
  5
1F3
100
AcDbEntity
  8
0
  6
CONTINUOUS
 62
               7
100
AcDbLine
 10
-27.002191766585412
 20
58.33918203866871
 30
0.0
 11
-21.002191766585412
 21
58.33918203866871
 31
0.0
  0
LINE
  5
1F4
100
AcDbEntity
  8
0
  6
CONTINUOUS
 62
               7
100
AcDbLine
 10
-27.002191766585412
 20
60.33918203866871
 30
0.0
 11
-21.002191766585412
 21
60.33918203866871
 31
0.0
  0
LINE
  5
1F5
100
AcDbEntity
  8
0
  6
CONTINUOUS
 62
               7
100
AcDbLine
 10
-26.502191766585412
 20
62.544182038668637
 30
0.0
 11
-21.502191766585412
 21
62.544182038668637
 31
0.0
  0
LINE
  5
1F6
100
AcDbEntity
  8
0
  6
CONTINUOUS
 62
               7
100
AcDbLine
 10
-26.502191766585412
 20
67.544182038668637
 30
0.0
 11
-24.502191766585412
 21
67.544182038668637
 31
0.0
  0
LINE
  5
1F7
100
AcDbEntity
  8
0
  6
CONTINUOUS
 62
               7
100
AcDbLine
 10
-26.502191766585412
 20
67.544182038668637
 30
0.0
 11
-26.002191766585412
 21
68.044182038668637
 31
0.0
  0
LINE
  5
1F8
100
AcDbEntity
  8
0
  6
CONTINUOUS
 62
               7
100
AcDbLine
 10
-21.502191766585412
 20
67.544182038668637
 30
0.0
 11
-22.002191766585412
 21
68.044182038668637
 31
0.0
  0
LINE
  5
1F9
100
AcDbEntity
  8
0
  6
CONTINUOUS
 62
               7
100
AcDbLine
 10
-22.752191766585412
 20
62.044182038668637
 30
0.0
 11
-22.752191766585412
 21
60.83918203866871
 31
0.0
  0
LINE
  5
1FA
100
AcDbEntity
  8
0
  6
CONTINUOUS
 62
               2
100
AcDbLine
 10
-22.927191766585423
 20
62.044182038668637
 30
0.0
 11
-22.927191766585423
 21
60.83918203866871
 31
0.0
  0
LINE
  5
1FB
100
AcDbEntity
  8
0
  6
CONTINUOUS
 62
               7
100
AcDbLine
 10
-25.252191766585412
 20
62.044182038668637
 30
0.0
 11
-25.252191766585412
 21
60.83918203866871
 31
0.0
  0
LINE
  5
1FC
100
AcDbEntity
  8
0
  6
CONTINUOUS
 62
               2
100
AcDbLine
 10
-25.077191766585401
 20
62.044182038668637
 30
0.0
 11
-25.077191766585401
 21
60.83918203866871
 31
0.0
  0
LINE
  5
1FD
100
AcDbEntity
  8
0
  6
CONTINUOUS
 62
               7
100
AcDbLine
 10
-27.252191766585412
 20
56.700000076193831
 30
0.0
 11
-26.752191766585412
 21
57.200000076193859
 31
0.0
  0
LINE
  5
1FE
100
AcDbEntity
  8
0
  6
CONTINUOUS
 62
               7
100
AcDbLine
 10
-20.752191766585412
 20
56.700000076193831
 30
0.0
 11
-21.252191766585412
 21
57.200000076193859
 31
0.0
  0
LINE
  5
1FF
100
AcDbEntity
  8
0
  6
CONTINUOUS
 62
               7
100
AcDbLine
 10
-21.252191766585412
 20
57.200000076193859
 30
0.0
 11
-26.752191766585412
 21
57.200000076193859
 31
0.0
  0
LINE
  5
200
100
AcDbEntity
  8
0
  6
CONTINUOUS
 62
               7
100
AcDbLine
 10
-21.502191766585412
 20
57.83918203866871
 30
0.0
 11
-26.502191766585412
 21
57.83918203866871
 31
0.0
  0
LINE
  5
201
100
AcDbEntity
  8
0
  6
CONTINUOUS
 62
               7
100
AcDbLine
 10
-21.002191766585412
 20
58.33918203866871
 30
0.0
 11
-21.002191766585412
 21
60.33918203866871
 31
0.0
  0
LINE
  5
202
100
AcDbEntity
  8
0
  6
CONTINUOUS
 62
               7
100
AcDbLine
 10
-21.002191766585412
 20
58.33918203866871
 30
0.0
 11
-21.502191766585412
 21
57.83918203866871
 31
0.0
  0
LINE
  5
203
100
AcDbEntity
  8
0
  6
CONTINUOUS
 62
               7
100
AcDbLine
 10
-21.002191766585412
 20
60.33918203866871
 30
0.0
 11
-21.502191766585412
 21
60.83918203866871
 31
0.0
  0
LINE
  5
204
100
AcDbEntity
  8
0
  6
CONTINUOUS
 62
               7
100
AcDbLine
 10
-27.002191766585412
 20
58.33918203866871
 30
0.0
 11
-26.502191766585412
 21
57.83918203866871
 31
0.0
  0
LINE
  5
205
100
AcDbEntity
  8
0
  6
CONTINUOUS
 62
               7
100
AcDbLine
 10
-27.002191766585412
 20
60.33918203866871
 30
0.0
 11
-26.502191766585412
 21
60.83918203866871
 31
0.0
  0
LINE
  5
206
100
AcDbEntity
  8
0
  6
CONTINUOUS
 62
               7
100
AcDbLine
 10
-21.502191766585412
 20
60.83918203866871
 30
0.0
 11
-26.502191766585412
 21
60.83918203866871
 31
0.0
  0
LINE
  5
207
100
AcDbEntity
  8
0
  6
CONTINUOUS
 62
               7
100
AcDbLine
 10
-26.002191766585412
 20
62.044182038668637
 30
0.0
 11
-26.502191766585412
 21
62.544182038668637
 31
0.0
  0
LINE
  5
208
100
AcDbEntity
  8
0
  6
CONTINUOUS
 62
               7
100
AcDbLine
 10
-21.502191766585412
 20
62.544182038668637
 30
0.0
 11
-22.002191766585412
 21
62.044182038668637
 31
0.0
  0
LINE
  5
209
100
AcDbEntity
  8
0
  6
CONTINUOUS
 62
               7
100
AcDbLine
 10
-26.002191766585412
 20
62.044182038668637
 30
0.0
 11
-22.002191766585412
 21
62.044182038668637
 31
0.0
  0
LINE
  5
20A
100
AcDbEntity
  8
0
  6
CONTINUOUS
 62
               7
100
AcDbLine
 10
-27.002191766585412
 20
58.33918203866871
 30
0.0
 11
-27.002191766585412
 21
60.33918203866871
 31
0.0
  0
LINE
  5
20B
100
AcDbEntity
  8
0
  6
CONTINUOUS
 62
               7
100
AcDbLine
 10
-22.752191766585412
 20
57.83918203866871
 30
0.0
 11
-22.752191766585412
 21
57.200000076193859
 31
0.0
  0
LINE
  5
20C
100
AcDbEntity
  8
0
  6
CONTINUOUS
 62
               2
100
AcDbLine
 10
-22.927191766585423
 20
57.83918203866871
 30
0.0
 11
-22.927191766585423
 21
57.200000076193859
 31
0.0
  0
LINE
  5
20D
100
AcDbEntity
  8
0
  6
CONTINUOUS
 62
               7
100
AcDbLine
 10
-25.252191766585412
 20
57.83918203866871
 30
0.0
 11
-25.252191766585412
 21
57.200000076193859
 31
0.0
  0
LINE
  5
20E
100
AcDbEntity
  8
0
  6
CONTINUOUS
 62
               2
100
AcDbLine
 10
-25.077191766585401
 20
57.83918203866871
 30
0.0
 11
-25.077191766585401
 21
57.200000076193859
 31
0.0
  0
LINE
  5
20F
100
AcDbEntity
  8
0
  6
CONTINUOUS
 62
               7
100
AcDbLine
 10
-26.502191766585412
 20
67.544182038668637
 30
0.0
 11
-26.502191766585412
 21
62.544182038668637
 31
0.0
  0
LINE
  5
210
100
AcDbEntity
  8
0
  6
CONTINUOUS
 62
               7
100
AcDbLine
 10
-21.502191766585412
 20
67.544182038668637
 30
0.0
 11
-21.502191766585412
 21
62.544182038668637
 31
0.0
  0
LINE
  5
211
100
AcDbEntity
  8
0
  6
CONTINUOUS
 62
               4
100
AcDbLine
 10
-6.0
 20
0.5000000000000142
 30
0.0
 11
-6.0007970061721494
 21
2.500000354101914
 31
0.0
  0
LINE
  5
212
100
AcDbEntity
  8
0
  6
CONTINUOUS
 62
               4
100
AcDbLine
 10
-1.6999999999999886
 20
3.25
 30
0.0
 11
-1.6999999999999957
 21
8.75
 31
0.0
  0
LINE
  5
213
100
AcDbEntity
  8
0
  6
CONTINUOUS
 62
               4
100
AcDbLine
 10
-1.6999999999999886
 20
3.25
 30
0.0
 11
-1.3999999999999986
 21
3.5499999999999972
 31
0.0
  0
LINE
  5
214
100
AcDbEntity
  8
0
  6
CONTINUOUS
 62
               4
100
AcDbLine
 10
-1.4000000000000128
 20
8.4500000000000028
 30
0.0
 11
-1.6999999999999957
 21
8.75
 31
0.0
  0
LINE
  5
215
100
AcDbEntity
  8
0
  6
CONTINUOUS
 62
               4
100
AcDbLine
 10
-1.4000000000000128
 20
8.4500000000000028
 30
0.0
 11
-1.3999999999999986
 21
3.5499999999999972
 31
0.0
  0
LINE
  5
216
100
AcDbEntity
  8
0
  6
CONTINUOUS
 62
               4
100
AcDbLine
 10
-1.6999999999999957
 20
8.75
 30
0.0
 11
-4.3999999991494292
 21
8.75
 31
0.0
  0
LINE
  5
217
100
AcDbEntity
  8
0
  6
CONTINUOUS
 62
               4
100
AcDbLine
 10
-1.6999999999999886
 20
3.25
 30
0.0
 11
-4.3999999991494221
 21
3.2499999999999858
 31
0.0
  0
LINE
  5
218
100
AcDbEntity
  8
0
  6
CENTER
 62
             200
100
AcDbLine
 10
-0.2796004218858528
 20
5.9999999999999858
 30
0.0
 11
-7.7000000000000028
 21
5.9999999999999858
 31
0.0
  0
LINE
  5
219
100
AcDbEntity
  8
0
  6
CENTER
 62
             200
100
AcDbLine
 10
0.0
 20
-1.6999999999999744
 30
0.0
 11
0.0
 21
3.2999999999999972
 31
0.0
  0
LINE
  5
21A
100
AcDbEntity
  8
0
  6
CENTER
 62
             200
100
AcDbLine
 10
10.0
 20
-1.6999999999999744
 30
0.0
 11
9.9999999999999929
 21
3.3000000000000114
 31
0.0
  0
LINE
  5
21B
100
AcDbEntity
  8
0
  6
CENTER
 62
             200
100
AcDbLine
 10
13.0
 20
-1.6999999999999744
 30
0.0
 11
12.999999999999993
 21
3.2999999999999972
 31
0.0
  0
ARC
  5
21C
100
AcDbEntity
  8
0
  6
CONTINUOUS
 62
               4
100
AcDbCircle
 10
-5.5000000000000071
 20
0.5
 30
0.0
 40
0.5
100
AcDbArc
 50
179.99999999999972
 51
269.99999999999949
  0
ARC
  5
21D
100
AcDbEntity
  8
0
  6
CONTINUOUS
 62
               4
100
AcDbCircle
 10
-4.0
 20
2.0
 30
0.0
 40
0.4
100
AcDbArc
 50
179.99999999999972
 51
269.99999999999949
  0
ARC
  5
21E
100
AcDbEntity
  8
0
  6
CONTINUOUS
 62
               4
100
AcDbCircle
 10
-4.0
 20
2.0
 30
0.0
 40
2.0
100
AcDbArc
 50
179.99999999999972
 51
269.99999999999949
  0
ARC
  5
21F
100
AcDbEntity
  8
0
  6
CONTINUOUS
 62
               4
100
AcDbCircle
 10
-5.5000000000000071
 20
9.5
 30
0.0
 40
0.5
100
AcDbArc
 50
89.999999999999929
 51
179.99999999999972
  0
ARC
  5
220
100
AcDbEntity
  8
0
  6
CONTINUOUS
 62
               4
100
AcDbCircle
 10
-4.9000000000000199
 20
9.5
 30
0.0
 40
0.5
100
AcDbArc
 50
0.0000000000000891
 51
89.999999999999886
  0
ARC
  5
221
100
AcDbEntity
  8
0
  6
CONTINUOUS
 62
               4
100
AcDbCircle
 10
16.5
 20
1.1000000000000085
 30
0.0
 40
0.5
100
AcDbArc
 50
0.0000000000000891
 51
89.999999999999886
  0
ARC
  5
222
100
AcDbEntity
  8
0
  6
CONTINUOUS
 62
               4
100
AcDbCircle
 10
16.5
 20
0.5000000000000284
 30
0.0
 40
0.5
100
AcDbArc
 50
269.99999999999943
 51
0.0000000000000509
  0
LINE
  5
223
100
AcDbEntity
  8
0
  6
CONTINUOUS
 62
               4
100
AcDbLine
 10
17.000000000000014
 20
0.5000000000000142
 30
0.0
 11
17.000000000000014
 21
1.0999999999999943
 31
0.0
  0
LINE
  5
224
100
AcDbEntity
  8
0
  6
CONTINUOUS
 62
               4
100
AcDbLine
 10
-4.4000000000000057
 20
9.4999999999999858
 30
0.0
 11
-4.3999999999999986
 21
2.0000000000000142
 31
0.0
  0
LINE
  5
225
100
AcDbEntity
  8
0
  6
CONTINUOUS
 62
               4
100
AcDbLine
 10
16.500000000000014
 20
1.6000000000000227
 30
0.0
 11
-4.0000000000000071
 21
1.6000000000000085
 31
0.0
  0
LINE
  5
226
100
AcDbEntity
  8
0
  6
CONTINUOUS
 62
               4
100
AcDbLine
 10
16.499999999999993
 20
0.0000000000000284
 30
0.0
 11
-5.5
 21
-0.0000000000000142
 31
0.0
  0
LINE
  5
227
100
AcDbEntity
  8
0
  6
CONTINUOUS
 62
               4
100
AcDbLine
 10
-4.9000000000000199
 20
10.000000000000014
 30
0.0
 11
-5.5000000000000142
 21
10.000000000000014
 31
0.0
  0
LINE
  5
228
100
AcDbEntity
  8
0
  6
CONTINUOUS
 62
               7
100
AcDbLine
 10
-59.492191766585357
 20
56.850000076193794
 30
0.0
 11
-62.802191766585352
 21
56.850000076193794
 31
0.0
  0
LINE
  5
229
100
AcDbEntity
  8
0
  6
CONTINUOUS
 62
               7
100
AcDbLine
 10
-59.142191766585356
 20
55.550000076193797
 30
0.0
 11
-62.802191766585352
 21
55.550000076193797
 31
0.0
  0
LINE
  5
22A
100
AcDbEntity
  8
0
  6
CONTINUOUS
 62
               7
100
AcDbLine
 10
-62.802191766585352
 20
55.950000076193795
 30
0.0
 11
-66.802191766585352
 21
55.950000076193795
 31
0.0
  0
LINE
  5
22B
100
AcDbEntity
  8
0
  6
CONTINUOUS
 62
               7
100
AcDbLine
 10
-62.802191766585352
 20
56.450000076193795
 30
0.0
 11
-66.802191766585352
 21
56.450000076193795
 31
0.0
  0
LINE
  5
22C
100
AcDbEntity
  8
0
  6
CONTINUOUS
 62
               7
100
AcDbLine
 10
-62.802191766585352
 20
56.850000076193794
 30
0.0
 11
-62.802191766585352
 21
55.550000076193797
 31
0.0
  0
LINE
  5
22D
100
AcDbEntity
  8
0
  6
CONTINUOUS
 62
               7
100
AcDbLine
 10
-66.802191766585352
 20
56.450000076193795
 30
0.0
 11
-66.802191766585352
 21
55.950000076193795
 31
0.0
  0
LINE
  5
22E
100
AcDbEntity
  8
0
  6
CONTINUOUS
 62
               2
100
AcDbLine
 10
-57.852191766585364
 20
54.600000076193794
 30
0.0
 11
-58.712191766585349
 21
57.800000076193797
 31
0.0
  0
LINE
  5
22F
100
AcDbEntity
  8
0
  6
CONTINUOUS
 62
               2
100
AcDbLine
 10
-58.882191766585365
 20
54.600000076193794
 30
0.0
 11
-59.742191766585357
 21
57.800000076193797
 31
0.0
  0
LINE
  5
230
100
AcDbEntity
  8
0
  6
CONTINUOUS
 62
               7
100
AcDbLine
 10
-54.602191766585356
 20
56.850000076193794
 30
0.0
 11
-58.452191766585358
 21
56.850000076193794
 31
0.0
  0
LINE
  5
231
100
AcDbEntity
  8
0
  6
CONTINUOUS
 62
               7
100
AcDbLine
 10
-54.602191766585356
 20
55.550000076193797
 30
0.0
 11
-58.102191766585356
 21
55.550000076193797
 31
0.0
  0
LINE
  5
232
100
AcDbEntity
  8
0
  6
CONTINUOUS
 62
               7
100
AcDbLine
 10
-54.402191766585354
 20
58.200000076193788
 30
0.0
 11
-53.602191766585356
 21
58.200000076193788
 31
0.0
  0
ARC
  5
233
100
AcDbEntity
  8
0
  6
CONTINUOUS
 62
               7
100
AcDbCircle
 10
-54.402903204249093
 20
58.000711513857546
 30
0.0
 40
0.1992898322082596
100
AcDbArc
 50
89.795461405895324
 51
180.20453859410418
  0
LINE
  5
234
100
AcDbEntity
  8
0
  6
CONTINUOUS
 62
               7
100
AcDbLine
 10
-54.602191766585364
 20
54.400000076193791
 30
0.0
 11
-54.602191766585356
 21
58.000000076193793
 31
0.0
  0
ARC
  5
235
100
AcDbEntity
  8
0
  6
CONTINUOUS
 62
               7
100
AcDbCircle
 10
-54.402903204249114
 20
54.399288638530031
 30
0.0
 40
0.1992898322082596
100
AcDbArc
 50
179.79546140589522
 51
270.20453859410389
  0
LINE
  5
236
100
AcDbEntity
  8
0
  6
CONTINUOUS
 62
               7
100
AcDbLine
 10
-54.402191766585361
 20
54.200000076193788
 30
0.0
 11
-53.602191766585364
 21
54.200000076193788
 31
0.0
  0
LINE
  5
237
100
AcDbEntity
  8
0
  6
CONTINUOUS
 62
               7
100
AcDbLine
 10
-64.202191766585344
 20
56.450000076193795
 30
0.0
 11
-64.202191766585344
 21
56.800000076193797
 31
0.0
  0
LINE
  5
238
100
AcDbEntity
  8
0
  6
CONTINUOUS
 62
               7
100
AcDbLine
 10
-62.802191766585352
 20
56.800000076193797
 30
0.0
 11
-64.202191766585344
 21
56.800000076193797
 31
0.0
  0
LINE
  5
239
100
AcDbEntity
  8
0
  6
CONTINUOUS
 62
               7
100
AcDbLine
 10
-59.202191766585344
 20
55.550000076193797
 30
0.0
 11
-59.202191766585344
 21
52.000000076193786
 31
0.0
  0
LINE
  5
23A
100
AcDbEntity
  8
0
  6
CONTINUOUS
 62
               7
100
AcDbLine
 10
-54.402191766585346
 20
17.800000076193811
 30
0.0
 11
-53.602191766585349
 21
17.800000076193811
 31
0.0
  0
ARC
  5
23B
100
AcDbEntity
  8
0
  6
CONTINUOUS
 62
               7
100
AcDbCircle
 10
-54.4029032042491
 20
17.600711513857568
 30
0.0
 40
0.1992898322082596
100
AcDbArc
 50
89.795461405895423
 51
180.20453859410404
  0
LINE
  5
23C
100
AcDbEntity
  8
0
  6
CONTINUOUS
 62
               7
100
AcDbLine
 10
-54.602191766585349
 20
17.600000076193808
 30
0.0
 11
-54.602191766585356
 21
14.000000076193812
 31
0.0
  0
ARC
  5
23D
100
AcDbEntity
  8
0
  6
CONTINUOUS
 62
               7
100
AcDbCircle
 10
-54.402903204249093
 20
13.999288638530055
 30
0.0
 40
0.1992898322082596
100
AcDbArc
 50
179.79546140589503
 51
270.20453859410389
  0
LINE
  5
23E
100
AcDbEntity
  8
0
  6
CONTINUOUS
 62
               7
100
AcDbLine
 10
-54.402191766585354
 20
13.800000076193813
 30
0.0
 11
-53.602191766585356
 21
13.800000076193813
 31
0.0
  0
LINE
  5
23F
100
AcDbEntity
  8
0
  6
CONTINUOUS
 62
               7
100
AcDbLine
 10
-54.602191766585356
 20
15.150000076193821
 30
0.0
 11
-58.102191766585356
 21
15.150000076193823
 31
0.0
  0
LINE
  5
240
100
AcDbEntity
  8
0
  6
CONTINUOUS
 62
               7
100
AcDbLine
 10
-54.602191766585356
 20
16.450000076193817
 30
0.0
 11
-58.452191766585358
 21
16.450000076193817
 31
0.0
  0
LINE
  5
241
100
AcDbEntity
  8
0
  6
CONTINUOUS
 62
               2
100
AcDbLine
 10
-58.882191766585358
 20
14.20000007619382
 30
0.0
 11
-59.74219176658535
 21
17.40000007619382
 31
0.0
  0
LINE
  5
242
100
AcDbEntity
  8
0
  6
CONTINUOUS
 62
               2
100
AcDbLine
 10
-57.852191766585356
 20
14.200000076193824
 30
0.0
 11
-58.712191766585349
 21
17.40000007619382
 31
0.0
  0
LINE
  5
243
100
AcDbEntity
  8
0
  6
CONTINUOUS
 62
               7
100
AcDbLine
 10
-66.802191766585352
 20
15.550000076193811
 30
0.0
 11
-66.802191766585352
 21
16.050000076193811
 31
0.0
  0
LINE
  5
244
100
AcDbEntity
  8
0
  6
CONTINUOUS
 62
               7
100
AcDbLine
 10
-62.802191766585352
 20
15.150000076193813
 30
0.0
 11
-62.802191766585352
 21
16.45000007619381
 31
0.0
  0
LINE
  5
245
100
AcDbEntity
  8
0
  6
CONTINUOUS
 62
               7
100
AcDbLine
 10
-62.802191766585352
 20
15.550000076193811
 30
0.0
 11
-66.802191766585352
 21
15.550000076193811
 31
0.0
  0
LINE
  5
246
100
AcDbEntity
  8
0
  6
CONTINUOUS
 62
               7
100
AcDbLine
 10
-62.802191766585352
 20
16.050000076193811
 30
0.0
 11
-63.623768408239506
 21
16.050000076193811
 31
0.0
  0
LINE
  5
247
100
AcDbEntity
  8
0
  6
CONTINUOUS
 62
               7
100
AcDbLine
 10
-59.142191766585356
 20
15.15000007619382
 30
0.0
 11
-62.802191766585352
 21
15.150000076193816
 31
0.0
  0
LINE
  5
248
100
AcDbEntity
  8
0
  6
CONTINUOUS
 62
               7
100
AcDbLine
 10
-59.492191766585357
 20
16.450000076193817
 30
0.0
 11
-62.802191766585352
 21
16.450000076193813
 31
0.0
  0
LINE
  5
249
100
AcDbEntity
  8
0
  6
CONTINUOUS
 62
               7
100
AcDbLine
 10
-64.202191766585344
 20
15.550000076193811
 30
0.0
 11
-64.202191766585344
 21
15.200000076193803
 31
0.0
  0
LINE
  5
24A
100
AcDbEntity
  8
0
  6
CONTINUOUS
 62
               7
100
AcDbLine
 10
-63.623768408239506
 20
16.050000076193811
 30
0.0
 11
-66.802191766585352
 21
16.050000076193811
 31
0.0
  0
LINE
  5
24B
100
AcDbEntity
  8
0
  6
CONTINUOUS
 62
               7
100
AcDbLine
 10
-62.802191766585352
 20
15.200000076193803
 30
0.0
 11
-64.202191766585344
 21
15.200000076193803
 31
0.0
  0
ENDBLK
  5
24C
100
AcDbEntity
  8
0
100
AcDbBlockEnd
  0
BLOCK
  5
24D
100
AcDbEntity
  8
0
100
AcDbBlockBegin
  2
MV090MA-11-5
 70
               0
 10
0.0
 20
0.0
 30
0.0
  3
MV090MA-11-5
  1

  0
INSERT
  5
24E
100
AcDbEntity
  8
0
  6
ByBlock
100
AcDbBlockReference
  2
MV090MA-11-2
 10
47.199999999999989
 20
20.0
 30
0.0
  0
INSERT
  5
24F
100
AcDbEntity
  8
0
  6
ByBlock
100
AcDbBlockReference
  2
MV090MA-11-2
 10
57.399999999999977
 20
20.0
 30
0.0
  0
INSERT
  5
250
100
AcDbEntity
  8
0
  6
ByBlock
100
AcDbBlockReference
  2
MV090MA-11-2
 10
67.599999999999966
 20
20.0
 30
0.0
  0
INSERT
  5
251
100
AcDbEntity
  8
0
  6
ByBlock
100
AcDbBlockReference
  2
MV090MA-11-2
 10
77.799999999999955
 20
20.0
 30
0.0
  0
INSERT
  5
252
100
AcDbEntity
  8
0
  6
ByBlock
100
AcDbBlockReference
  2
MV090MA-11-6
 10
6.4000000000000341
 20
20.0
 30
0.0
  0
INSERT
  5
253
100
AcDbEntity
  8
0
  6
ByBlock
100
AcDbBlockReference
  2
MV090MA-11-6
 10
16.600000000000023
 20
20.0
 30
0.0
  0
INSERT
  5
254
100
AcDbEntity
  8
0
  6
ByBlock
100
AcDbBlockReference
  2
MV090MA-11-6
 10
26.800000000000011
 20
20.0
 30
0.0
  0
INSERT
  5
255
100
AcDbEntity
  8
0
  6
ByBlock
100
AcDbBlockReference
  2
MV090MA-11-6
 10
37.0
 20
20.0
 30
0.0
  0
LINE
  5
256
100
AcDbEntity
  8
0
  6
CONTINUOUS
 62
               7
100
AcDbLine
 10
-0.6000000000000227
 20
20.0
 30
0.0
 11
-0.6000000000000227
 21
6.0
 31
0.0
  0
LINE
  5
257
100
AcDbEntity
  8
0
  6
CONTINUOUS
 62
               7
100
AcDbLine
 10
87.399999999999977
 20
20.0
 30
0.0
 11
87.399999999999977
 21
6.0
 31
0.0
  0
LINE
  5
258
100
AcDbEntity
  8
0
  6
CONTINUOUS
 62
               7
100
AcDbLine
 10
87.399999999999977
 20
20.0
 30
0.0
 11
-0.6000000000000227
 21
20.0
 31
0.0
  0
LINE
  5
259
100
AcDbEntity
  8
0
  6
CONTINUOUS
 62
               7
100
AcDbLine
 10
87.399999999999977
 20
6.0
 30
0.0
 11
-0.6000000000000227
 21
6.0
 31
0.0
  0
ARC
  5
25A
100
AcDbEntity
  8
0
  6
CONTINUOUS
 62
               4
100
AcDbCircle
 10
62.699999999999989
 20
-11.833809621030923
 30
0.0
 40
0.1
100
AcDbArc
 50
179.99999999999963
 51
217.86364636172905
  0
LINE
  5
25B
100
AcDbEntity
  8
0
  6
CENTER
 62
             200
100
AcDbLine
 10
63.728875475685101
 20
-10.0
 30
0.0
 11
58.699999999999989
 21
-10.0
 31
0.0
  0
LINE
  5
25C
100
AcDbEntity
  8
0
  6
CONTINUOUS
 62
               4
100
AcDbLine
 10
62.599999999999966
 20
-10.0
 30
0.0
 11
62.599999999999966
 21
-11.833809621030923
 31
0.0
  0
LINE
  5
25D
100
AcDbEntity
  8
0
  6
CONTINUOUS
 62
               4
100
AcDbLine
 10
59.799999999999983
 20
-10.0
 30
0.0
 11
59.799999999999983
 21
-11.868629150101469
 31
0.0
  0
ARC
  5
25E
100
AcDbEntity
  8
0
  6
CONTINUOUS
 62
               4
100
AcDbCircle
 10
61.199999999999989
 20
-10.0
 30
0.0
 40
1.3999999999999999
100
AcDbArc
 50
0.0
 51
179.99999999999963
  0
ARC
  5
25F
100
AcDbEntity
  8
0
  6
CONTINUOUS
 62
               4
100
AcDbCircle
 10
81.699999999999989
 20
4.9000000000000909
 30
0.0
 40
0.5
100
AcDbArc
 50
269.99999999999937
 51
0.0
  0
LINE
  5
260
100
AcDbEntity
  8
0
  6
CONTINUOUS
 62
               4
100
AcDbLine
 10
82.199999999999989
 20
4.9000000000000909
 30
0.0
 11
82.199999999999989
 21
5.5
 31
0.0
  0
LINE
  5
261
100
AcDbEntity
  8
0
  6
CONTINUOUS
 62
               4
100
AcDbLine
 10
57.199999999999989
 20
4.4000000000000909
 30
0.0
 11
81.699999999999989
 21
4.4000000000000909
 31
0.0
  0
LINE
  5
262
100
AcDbEntity
  8
0
  6
CONTINUOUS
 62
               4
100
AcDbLine
 10
65.199999999999989
 20
-13.0
 30
0.0
 11
65.199999999999989
 21
1.4500000000000455
 31
0.0
  0
LINE
  5
263
100
AcDbEntity
  8
0
  6
CONTINUOUS
 62
               4
100
AcDbLine
 10
57.199999999999989
 20
-13.0
 30
0.0
 11
57.199999999999989
 21
5.5
 31
0.0
  0
ARC
  5
264
100
AcDbEntity
  8
0
  6
CONTINUOUS
 62
               4
100
AcDbCircle
 10
61.199999999999989
 20
-13.0
 30
0.0
 40
4.0
100
AcDbArc
 50
179.99999999999963
 51
0.0
  0
CIRCLE
  5
265
100
AcDbEntity
  8
0
  6
CONTINUOUS
 62
               4
100
AcDbCircle
 10
61.199999999999989
 20
0.0
 30
0.0
 40
1.8
  0
ARC
  5
266
100
AcDbEntity
  8
0
  6
CONTINUOUS
 62
               4
100
AcDbCircle
 10
61.199999999999989
 20
-13.0
 30
0.0
 40
1.8
100
AcDbArc
 50
141.05755873101825
 51
37.863646361730339
  0
LINE
  5
267
100
AcDbEntity
  8
0
  6
CENTER
 62
             200
100
AcDbLine
 10
61.199999999999989
 20
-7.5574096867509297
 30
0.0
 11
61.199999999999989
 21
-15.5
 31
0.0
  0
LINE
  5
268
100
AcDbEntity
  8
0
  6
CENTER
 62
             200
100
AcDbLine
 10
63.728875475685101
 20
-13.0
 30
0.0
 11
58.699999999999989
 21
-13.0
 31
0.0
  0
LINE
  5
269
100
AcDbEntity
  8
0
  6
CENTER
 62
             200
100
AcDbLine
 10
61.199999999999989
 20
2.5
 30
0.0
 11
61.199999999999989
 21
-2.5
 31
0.0
  0
LINE
  5
26A
100
AcDbEntity
  8
0
  6
CENTER
 62
             200
100
AcDbLine
 10
63.728875475685101
 20
0.0
 30
0.0
 11
58.699999999999989
 21
0.0
 31
0.0
  0
LINE
  5
26B
100
AcDbEntity
  8
0
  6
CONTINUOUS
 62
               4
100
AcDbLine
 10
64.949999999999989
 20
1.7000000000000455
 30
0.0
 11
64.949999999999989
 21
4.399999999149486
 31
0.0
  0
LINE
  5
26C
100
AcDbEntity
  8
0
  6
CONTINUOUS
 62
               4
100
AcDbLine
 10
70.449999999999989
 20
1.7000000000000455
 30
0.0
 11
70.449999999999989
 21
4.399999999149486
 31
0.0
  0
LINE
  5
26D
100
AcDbEntity
  8
0
  6
CONTINUOUS
 62
               4
100
AcDbLine
 10
70.149999999999977
 20
1.4000000000000909
 30
0.0
 11
65.25
 21
1.4000000000000909
 31
0.0
  0
LINE
  5
26E
100
AcDbEntity
  8
0
  6
CONTINUOUS
 62
               4
100
AcDbLine
 10
70.149999999999977
 20
1.4000000000000909
 30
0.0
 11
70.449999999999989
 21
1.7000000000000455
 31
0.0
  0
LINE
  5
26F
100
AcDbEntity
  8
0
  6
CONTINUOUS
 62
               4
100
AcDbLine
 10
64.949999999999989
 20
1.7000000000000455
 30
0.0
 11
65.25
 21
1.4000000000000909
 31
0.0
  0
LINE
  5
270
100
AcDbEntity
  8
0
  6
CONTINUOUS
 62
               4
100
AcDbLine
 10
64.949999999999989
 20
1.7000000000000455
 30
0.0
 11
70.449999999999989
 21
1.7000000000000455
 31
0.0
  0
LINE
  5
271
100
AcDbEntity
  8
0
  6
CONTINUOUS
 62
               4
100
AcDbLine
 10
74.949999999999989
 20
1.7000000000000455
 30
0.0
 11
74.949999999999989
 21
4.399999999149486
 31
0.0
  0
LINE
  5
272
100
AcDbEntity
  8
0
  6
CONTINUOUS
 62
               4
100
AcDbLine
 10
80.449999999999989
 20
1.7000000000000455
 30
0.0
 11
80.449999999999989
 21
4.399999999149486
 31
0.0
  0
LINE
  5
273
100
AcDbEntity
  8
0
  6
CONTINUOUS
 62
               4
100
AcDbLine
 10
80.149999999999977
 20
1.4000000000000909
 30
0.0
 11
75.25
 21
1.4000000000000909
 31
0.0
  0
LINE
  5
274
100
AcDbEntity
  8
0
  6
CONTINUOUS
 62
               4
100
AcDbLine
 10
80.149999999999977
 20
1.4000000000000909
 30
0.0
 11
80.449999999999989
 21
1.7000000000000455
 31
0.0
  0
LINE
  5
275
100
AcDbEntity
  8
0
  6
CONTINUOUS
 62
               4
100
AcDbLine
 10
74.949999999999989
 20
1.7000000000000455
 30
0.0
 11
75.25
 21
1.4000000000000909
 31
0.0
  0
LINE
  5
276
100
AcDbEntity
  8
0
  6
CONTINUOUS
 62
               4
100
AcDbLine
 10
74.949999999999989
 20
1.7000000000000455
 30
0.0
 11
80.449999999999989
 21
1.7000000000000455
 31
0.0
  0
ARC
  5
277
100
AcDbEntity
  8
0
  6
CONTINUOUS
 62
               4
100
AcDbCircle
 10
57.699999999999989
 20
5.5
 30
0.0
 40
0.5
100
AcDbArc
 50
89.999999999999815
 51
179.99999999999963
  0
ARC
  5
278
100
AcDbEntity
  8
0
  6
CONTINUOUS
 62
               4
100
AcDbCircle
 10
81.699999999999989
 20
5.5
 30
0.0
 40
0.5
100
AcDbArc
 50
0.0
 51
89.999999999999815
  0
LINE
  5
279
100
AcDbEntity
  8
0
  6
CENTER
 62
             200
100
AcDbLine
 10
67.699999999999989
 20
-0.0056298598843796
 30
0.0
 11
67.699999999999989
 21
7.7000000000000455
 31
0.0
  0
LINE
  5
27A
100
AcDbEntity
  8
0
  6
CENTER
 62
             200
100
AcDbLine
 10
77.699999999999989
 20
0.2319170511999573
 30
0.0
 11
77.699999999999989
 21
7.7000000000000455
 31
0.0
  0
LINE
  5
27B
100
AcDbEntity
  8
0
  6
CONTINUOUS
 62
               4
100
AcDbLine
 10
13.75
 20
1.7000000000000455
 30
0.0
 11
19.25
 21
1.7000000000000455
 31
0.0
  0
LINE
  5
27C
100
AcDbEntity
  8
0
  6
CONTINUOUS
 62
               4
100
AcDbLine
 10
13.75
 20
1.7000000000000455
 30
0.0
 11
14.049999999999997
 21
1.4000000000000909
 31
0.0
  0
LINE
  5
27D
100
AcDbEntity
  8
0
  6
CONTINUOUS
 62
               4
100
AcDbLine
 10
18.950000000000003
 20
1.4000000000000909
 30
0.0
 11
19.25
 21
1.7000000000000455
 31
0.0
  0
LINE
  5
27E
100
AcDbEntity
  8
0
  6
CONTINUOUS
 62
               4
100
AcDbLine
 10
18.950000000000003
 20
1.4000000000000909
 30
0.0
 11
14.049999999999997
 21
1.4000000000000909
 31
0.0
  0
LINE
  5
27F
100
AcDbEntity
  8
0
  6
CONTINUOUS
 62
               4
100
AcDbLine
 10
19.25
 20
1.7000000000000455
 30
0.0
 11
19.25
 21
4.399999999149486
 31
0.0
  0
LINE
  5
280
100
AcDbEntity
  8
0
  6
CONTINUOUS
 62
               4
100
AcDbLine
 10
13.75
 20
1.7000000000000455
 30
0.0
 11
13.75
 21
4.399999999149486
 31
0.0
  0
LINE
  5
281
100
AcDbEntity
  8
0
  6
CONTINUOUS
 62
               4
100
AcDbLine
 10
3.75
 20
1.7000000000000455
 30
0.0
 11
9.25
 21
1.7000000000000455
 31
0.0
  0
LINE
  5
282
100
AcDbEntity
  8
0
  6
CONTINUOUS
 62
               4
100
AcDbLine
 10
3.75
 20
1.7000000000000455
 30
0.0
 11
4.0499999999999972
 21
1.4000000000000909
 31
0.0
  0
LINE
  5
283
100
AcDbEntity
  8
0
  6
CONTINUOUS
 62
               4
100
AcDbLine
 10
8.9500000000000028
 20
1.4000000000000909
 30
0.0
 11
9.25
 21
1.7000000000000455
 31
0.0
  0
LINE
  5
284
100
AcDbEntity
  8
0
  6
CONTINUOUS
 62
               4
100
AcDbLine
 10
8.9500000000000028
 20
1.4000000000000909
 30
0.0
 11
4.0499999999999972
 21
1.4000000000000909
 31
0.0
  0
LINE
  5
285
100
AcDbEntity
  8
0
  6
CONTINUOUS
 62
               4
100
AcDbLine
 10
9.25
 20
1.7000000000000455
 30
0.0
 11
9.25
 21
4.399999999149486
 31
0.0
  0
LINE
  5
286
100
AcDbEntity
  8
0
  6
CONTINUOUS
 62
               4
100
AcDbLine
 10
3.75
 20
1.7000000000000455
 30
0.0
 11
3.75
 21
4.399999999149486
 31
0.0
  0
LINE
  5
287
100
AcDbEntity
  8
0
  6
CENTER
 62
             200
100
AcDbLine
 10
2.528875475685112
 20
0.0
 30
0.0
 11
-2.5
 21
0.0
 31
0.0
  0
LINE
  5
288
100
AcDbEntity
  8
0
  6
CENTER
 62
             200
100
AcDbLine
 10
0.0
 20
2.5
 30
0.0
 11
0.0
 21
-2.5
 31
0.0
  0
LINE
  5
289
100
AcDbEntity
  8
0
  6
CENTER
 62
             200
100
AcDbLine
 10
2.528875475685112
 20
-13.0
 30
0.0
 11
-2.5
 21
-13.0
 31
0.0
  0
LINE
  5
28A
100
AcDbEntity
  8
0
  6
CENTER
 62
             200
100
AcDbLine
 10
0.0
 20
-7.5574096867509297
 30
0.0
 11
0.0
 21
-15.5
 31
0.0
  0
ARC
  5
28B
100
AcDbEntity
  8
0
  6
CONTINUOUS
 62
               4
100
AcDbCircle
 10
0.0
 20
-13.0
 30
0.0
 40
1.8
100
AcDbArc
 50
141.05755873101825
 51
37.863646361730339
  0
CIRCLE
  5
28C
100
AcDbEntity
  8
0
  6
CONTINUOUS
 62
               4
100
AcDbCircle
 10
0.0
 20
0.0
 30
0.0
 40
1.8
  0
ARC
  5
28D
100
AcDbEntity
  8
0
  6
CONTINUOUS
 62
               4
100
AcDbCircle
 10
0.0
 20
-13.0
 30
0.0
 40
4.0
100
AcDbArc
 50
179.99999999999963
 51
0.0
  0
LINE
  5
28E
100
AcDbEntity
  8
0
  6
CONTINUOUS
 62
               4
100
AcDbLine
 10
-4.0
 20
-13.0
 30
0.0
 11
-4.0
 21
5.5
 31
0.0
  0
LINE
  5
28F
100
AcDbEntity
  8
0
  6
CONTINUOUS
 62
               4
100
AcDbLine
 10
4.0
 20
-13.0
 30
0.0
 11
4.0
 21
1.4500000000000455
 31
0.0
  0
LINE
  5
290
100
AcDbEntity
  8
0
  6
CONTINUOUS
 62
               4
100
AcDbLine
 10
-3.5
 20
6.0
 30
0.0
 11
-0.6000000000000227
 21
6.0
 31
0.0
  0
LINE
  5
291
100
AcDbEntity
  8
0
  6
CONTINUOUS
 62
               4
100
AcDbLine
 10
-4.0
 20
4.4000000000000909
 30
0.0
 11
20.5
 21
4.4000000000000909
 31
0.0
  0
LINE
  5
292
100
AcDbEntity
  8
0
  6
CONTINUOUS
 62
               4
100
AcDbLine
 10
21.0
 20
4.9000000000000909
 30
0.0
 11
21.0
 21
5.5
 31
0.0
  0
ARC
  5
293
100
AcDbEntity
  8
0
  6
CONTINUOUS
 62
               4
100
AcDbCircle
 10
-3.5
 20
5.5
 30
0.0
 40
0.5
100
AcDbArc
 50
89.999999999999815
 51
179.99999999999963
  0
ARC
  5
294
100
AcDbEntity
  8
0
  6
CONTINUOUS
 62
               4
100
AcDbCircle
 10
20.5
 20
5.5
 30
0.0
 40
0.5
100
AcDbArc
 50
0.0
 51
89.999999999999815
  0
ARC
  5
295
100
AcDbEntity
  8
0
  6
CONTINUOUS
 62
               4
100
AcDbCircle
 10
20.5
 20
4.9000000000000909
 30
0.0
 40
0.5
100
AcDbArc
 50
269.99999999999937
 51
0.0
  0
ARC
  5
296
100
AcDbEntity
  8
0
  6
CONTINUOUS
 62
               4
100
AcDbCircle
 10
0.0
 20
-10.0
 30
0.0
 40
1.3999999999999999
100
AcDbArc
 50
0.0
 51
179.99999999999963
  0
LINE
  5
297
100
AcDbEntity
  8
0
  6
CONTINUOUS
 62
               4
100
AcDbLine
 10
-1.4000000000000057
 20
-10.0
 30
0.0
 11
-1.4000000000000057
 21
-11.868629150101469
 31
0.0
  0
LINE
  5
298
100
AcDbEntity
  8
0
  6
CONTINUOUS
 62
               4
100
AcDbLine
 10
1.3999999999999915
 20
-10.0
 30
0.0
 11
1.3999999999999915
 21
-11.833809621030923
 31
0.0
  0
LINE
  5
299
100
AcDbEntity
  8
0
  6
CENTER
 62
             200
100
AcDbLine
 10
2.528875475685112
 20
-10.0
 30
0.0
 11
-2.5
 21
-10.0
 31
0.0
  0
ARC
  5
29A
100
AcDbEntity
  8
0
  6
CONTINUOUS
 62
               4
100
AcDbCircle
 10
1.5
 20
-11.833809621030923
 30
0.0
 40
0.1
100
AcDbArc
 50
179.99999999999963
 51
217.86364636172905
  0
LINE
  5
29B
100
AcDbEntity
  8
0
  6
CENTER
 62
             200
100
AcDbLine
 10
6.5
 20
-0.0056298598843796
 30
0.0
 11
6.5
 21
7.7000000000000455
 31
0.0
  0
LINE
  5
29C
100
AcDbEntity
  8
0
  6
CENTER
 62
             200
100
AcDbLine
 10
16.5
 20
0.2319170511999573
 30
0.0
 11
16.5
 21
7.7000000000000455
 31
0.0
  0
ENDBLK
  5
29D
100
AcDbEntity
  8
0
100
AcDbBlockEnd
  0
BLOCK
  5
29E
100
AcDbEntity
  8
0
100
AcDbBlockBegin
  2
MV090MA-11-6
 70
               0
 10
0.0
 20
0.0
 30
0.0
  3
MV090MA-11-6
  1

  0
LINE
  5
29F
100
AcDbEntity
  8
0
  6
CONTINUOUS
 62
               2
100
AcDbLine
 10
1.3000000000000131
 20
38.879999999999995
 30
0.0
 11
4.5000000000000036
 21
39.739999999999995
 31
0.0
  0
LINE
  5
2A0
100
AcDbEntity
  8
0
  6
CONTINUOUS
 62
               2
100
AcDbLine
 10
1.3000000000000131
 20
37.849999999999994
 30
0.0
 11
4.5000000000000018
 21
38.70999999999998
 31
0.0
  0
LINE
  5
2A1
100
AcDbEntity
  8
0
  6
CONTINUOUS
 62
               7
100
AcDbLine
 10
-3.1500000000000039
 20
46.799999999999983
 30
0.0
 11
-2.6500000000000039
 21
46.799999999999983
 31
0.0
  0
LINE
  5
2A2
100
AcDbEntity
  8
0
  6
CONTINUOUS
 62
               7
100
AcDbLine
 10
-3.5500000000000096
 20
42.799999999999983
 30
0.0
 11
-2.2499999999999982
 21
42.799999999999983
 31
0.0
  0
LINE
  5
2A3
100
AcDbEntity
  8
0
  6
CONTINUOUS
 62
               7
100
AcDbLine
 10
-3.1500000000000039
 20
42.799999999999983
 30
0.0
 11
-3.1500000000000039
 21
46.799999999999983
 31
0.0
  0
LINE
  5
2A4
100
AcDbEntity
  8
0
  6
CONTINUOUS
 62
               7
100
AcDbLine
 10
-2.6500000000000039
 20
42.799999999999983
 30
0.0
 11
-2.6500000000000039
 21
46.799999999999983
 31
0.0
  0
LINE
  5
2A5
100
AcDbEntity
  8
0
  6
CONTINUOUS
 62
               7
100
AcDbLine
 10
2.2500000000000018
 20
39.139999999999986
 30
0.0
 11
2.2500000000000036
 21
42.799999999999983
 31
0.0
  0
LINE
  5
2A6
100
AcDbEntity
  8
0
  6
CONTINUOUS
 62
               7
100
AcDbLine
 10
3.5500000000000131
 20
39.489999999999995
 30
0.0
 11
3.5500000000000149
 21
42.799999999999983
 31
0.0
  0
LINE
  5
2A7
100
AcDbEntity
  8
0
  6
CONTINUOUS
 62
               7
100
AcDbLine
 10
3.5500000000000131
 20
34.599999999999994
 30
0.0
 11
3.5500000000000131
 21
38.449999999999989
 31
0.0
  0
LINE
  5
2A8
100
AcDbEntity
  8
0
  6
CONTINUOUS
 62
               7
100
AcDbLine
 10
2.2500000000000018
 20
34.599999999999994
 30
0.0
 11
2.2500000000000018
 21
38.099999999999994
 31
0.0
  0
LINE
  5
2A9
100
AcDbEntity
  8
0
  6
CONTINUOUS
 62
               2
100
AcDbLine
 10
-4.4999999999999831
 20
38.879999999999995
 30
0.0
 11
-1.2999999999999803
 21
39.739999999999995
 31
0.0
  0
LINE
  5
2AA
100
AcDbEntity
  8
0
  6
CONTINUOUS
 62
               2
100
AcDbLine
 10
-4.499999999999984
 20
37.849999999999994
 30
0.0
 11
-1.2999999999999812
 21
38.70999999999998
 31
0.0
  0
LINE
  5
2AB
100
AcDbEntity
  8
0
  6
CONTINUOUS
 62
               7
100
AcDbLine
 10
2.6499999999999932
 20
46.799999999999983
 30
0.0
 11
3.1499999999999932
 21
46.799999999999983
 31
0.0
  0
LINE
  5
2AC
100
AcDbEntity
  8
0
  6
CONTINUOUS
 62
               7
100
AcDbLine
 10
2.2499999999999876
 20
42.799999999999983
 30
0.0
 11
3.5499999999999847
 21
42.799999999999983
 31
0.0
  0
LINE
  5
2AD
100
AcDbEntity
  8
0
  6
CONTINUOUS
 62
               7
100
AcDbLine
 10
2.6499999999999932
 20
42.799999999999983
 30
0.0
 11
2.6499999999999932
 21
46.799999999999983
 31
0.0
  0
LINE
  5
2AE
100
AcDbEntity
  8
0
  6
CONTINUOUS
 62
               7
100
AcDbLine
 10
3.1499999999999932
 20
42.799999999999983
 30
0.0
 11
3.1499999999999932
 21
46.799999999999983
 31
0.0
  0
LINE
  5
2AF
100
AcDbEntity
  8
0
  6
CONTINUOUS
 62
               7
100
AcDbLine
 10
-3.5499999999999803
 20
39.139999999999986
 30
0.0
 11
-3.5499999999999798
 21
42.799999999999983
 31
0.0
  0
LINE
  5
2B0
100
AcDbEntity
  8
0
  6
CONTINUOUS
 62
               7
100
AcDbLine
 10
-2.249999999999984
 20
39.489999999999995
 30
0.0
 11
-2.2499999999999822
 21
42.799999999999983
 31
0.0
  0
LINE
  5
2B1
100
AcDbEntity
  8
0
  6
CONTINUOUS
 62
               7
100
AcDbLine
 10
-2.249999999999984
 20
34.599999999999994
 30
0.0
 11
-2.249999999999984
 21
38.449999999999989
 31
0.0
  0
LINE
  5
2B2
100
AcDbEntity
  8
0
  6
CONTINUOUS
 62
               7
100
AcDbLine
 10
-3.5499999999999812
 20
34.599999999999994
 30
0.0
 11
-3.5499999999999803
 21
38.099999999999994
 31
0.0
  0
LINE
  5
2B3
100
AcDbEntity
  8
0
  6
CONTINUOUS
 62
               7
100
AcDbLine
 10
5.0
 20
14.900000000000006
 30
0.0
 11
-5.0
 21
14.900000000000006
 31
0.0
  0
LINE
  5
2B4
100
AcDbEntity
  8
0
  6
CONTINUOUS
 62
               7
100
AcDbLine
 10
4.7000000000000028
 20
33.599999999999994
 30
0.0
 11
-4.7000000000000028
 21
33.599999999999994
 31
0.0
  0
LINE
  5
2B5
100
AcDbEntity
  8
0
  6
CONTINUOUS
 62
               7
100
AcDbLine
 10
5.0
 20
15.199999999999989
 30
0.0
 11
-5.0
 21
15.199999999999989
 31
0.0
  0
LINE
  5
2B6
100
AcDbEntity
  8
0
  6
CONTINUOUS
 62
               7
100
AcDbLine
 10
4.7000000000000028
 20
34.599999999999994
 30
0.0
 11
-4.7000000000000028
 21
34.59999999999998
 31
0.0
  0
ARC
  5
2B7
100
AcDbEntity
  8
0
  6
CONTINUOUS
 62
               7
100
AcDbCircle
 10
-4.700711437663756
 20
34.40071143766373
 30
0.0
 40
0.1992898322082596
100
AcDbArc
 50
89.795461405895423
 51
180.20453859410404
  0
LINE
  5
2B8
100
AcDbEntity
  8
0
  6
CONTINUOUS
 62
               7
100
AcDbLine
 10
-4.9000000000000057
 20
34.399999999999991
 30
0.0
 11
-4.9000000000000057
 21
33.523606797749963
 31
0.0
  0
LINE
  5
2B9
100
AcDbEntity
  8
0
  6
CONTINUOUS
 62
               7
100
AcDbLine
 10
4.9000000000000057
 20
34.399999999999991
 30
0.0
 11
4.9000000000000057
 21
33.523606797749977
 31
0.0
  0
ARC
  5
2BA
100
AcDbEntity
  8
0
  6
CONTINUOUS
 62
               7
100
AcDbCircle
 10
4.700711437663756
 20
34.40071143766373
 30
0.0
 40
0.1992898322082596
100
AcDbArc
 50
359.79546140589559
 51
90.204538594104179
  0
LINE
  5
2BB
100
AcDbEntity
  8
0
  6
CONTINUOUS
 62
               7
100
AcDbLine
 10
1.5000000000000009
 20
30.599999999999994
 30
0.0
 11
0.0000000000000009
 21
30.599999999999994
 31
0.0
  0
LINE
  5
2BC
100
AcDbEntity
  8
0
  6
CONTINUOUS
 62
               7
100
AcDbLine
 10
1.5000000000000009
 20
30.599999999999994
 30
0.0
 11
1.5000000000000009
 21
33.599999999999994
 31
0.0
  0
LINE
  5
2BD
100
AcDbEntity
  8
0
  6
CONTINUOUS
 62
               7
100
AcDbLine
 10
-1.4999999999999982
 20
30.599999999999994
 30
0.0
 11
0.0000000000000009
 21
30.599999999999994
 31
0.0
  0
LINE
  5
2BE
100
AcDbEntity
  8
0
  6
CONTINUOUS
 62
               7
100
AcDbLine
 10
-1.4999999999999982
 20
30.599999999999994
 30
0.0
 11
-1.4999999999999982
 21
33.599999999999994
 31
0.0
  0
ARC
  5
2BF
100
AcDbEntity
  8
0
  6
CONTINUOUS
 62
               7
100
AcDbCircle
 10
-4.7000000000000028
 20
33.299999999999997
 30
0.0
 40
0.3
100
AcDbArc
 50
89.999999999999815
 51
179.99999999999963
  0
ARC
  5
2C0
100
AcDbEntity
  8
0
  6
CONTINUOUS
 62
               7
100
AcDbCircle
 10
4.7000000000000028
 20
33.299999999999997
 30
0.0
 40
0.3
100
AcDbArc
 50
0.0
 51
89.999999999999815
  0
LINE
  5
2C1
100
AcDbEntity
  8
0
  6
CONTINUOUS
 62
               7
100
AcDbLine
 10
-5.0
 20
14.0
 30
0.0
 11
5.0
 21
14.0
 31
0.0
  0
LINE
  5
2C2
100
AcDbEntity
  8
0
  6
CENTER
 62
               2
100
AcDbLine
 10
-1.0000000000001137
 20
0.5
 30
0.0
 11
-1.0000000000001137
 21
7.5
 31
0.0
  0
CIRCLE
  5
2C3
100
AcDbEntity
  8
0
  6
CONTINUOUS
 62
               7
100
AcDbCircle
 10
-1.0000000000001137
 20
4.0
 30
0.0
 40
2.5
  0
CIRCLE
  5
2C4
100
AcDbEntity
  8
0
  6
CONTINUOUS
 62
               7
100
AcDbCircle
 10
-1.0000000000001137
 20
4.0
 30
0.0
 40
3.0
  0
CIRCLE
  5
2C5
100
AcDbEntity
  8
0
  6
CONTINUOUS
 62
               7
100
AcDbCircle
 10
-1.0000000000001137
 20
4.0
 30
0.0
 40
3.25
  0
LINE
  5
2C6
100
AcDbEntity
  8
0
  6
CONTINUOUS
 62
               7
100
AcDbLine
 10
-4.9999999999999432
 20
0.0
 30
0.0
 11
-4.9999999999999432
 21
33.299999999999997
 31
0.0
  0
LINE
  5
2C7
100
AcDbEntity
  8
0
  6
CENTER
 62
               2
100
AcDbLine
 10
-4.5000000000001137
 20
4.0
 30
0.0
 11
2.4999999999998863
 21
4.0
 31
0.0
  0
ARC
  5
2C8
100
AcDbEntity
  8
0
  6
CONTINUOUS
 62
               7
100
AcDbCircle
 10
-1.0000000000001137
 20
4.0
 30
0.0
 40
2.0
100
AcDbArc
 50
14.477512185929895
 51
165.52248781406971
  0
LINE
  5
2C9
100
AcDbEntity
  8
0
  6
CONTINUOUS
 62
               7
100
AcDbLine
 10
-3.4494897427832996
 20
4.5
 30
0.0
 11
1.449489742783058
 21
4.5
 31
0.0
  0
LINE
  5
2CA
100
AcDbEntity
  8
0
  6
CONTINUOUS
 62
               7
100
AcDbLine
 10
-3.4494897427832996
 20
3.5
 30
0.0
 11
1.449489742783058
 21
3.5
 31
0.0
  0
ARC
  5
2CB
100
AcDbEntity
  8
0
  6
CONTINUOUS
 62
               7
100
AcDbCircle
 10
-1.0000000000001137
 20
4.0
 30
0.0
 40
2.0
100
AcDbArc
 50
194.4775121859295
 51
345.52248781406928
  0
LINE
  5
2CC
100
AcDbEntity
  8
0
  6
CONTINUOUS
 62
               7
100
AcDbLine
 10
5.0
 20
0.0
 30
0.0
 11
5.0
 21
33.299999999999997
 31
0.0
  0
LINE
  5
2CD
100
AcDbEntity
  8
0
  6
CENTER
 62
               2
100
AcDbLine
 10
0.0
 20
-2.1070531372985855
 30
0.0
 11
0.0
 21
36.997509534890064
 31
0.0
  0
ENDBLK
  5
2CE
100
AcDbEntity
  8
0
100
AcDbBlockEnd
  0
BLOCK
  5
2CF
100
AcDbEntity
  8
0
100
AcDbBlockBegin
  2
MV090MA-11-7
 70
               0
 10
0.0
 20
0.0
 30
0.0
  3
MV090MA-11-7
  1

  0
LINE
  5
2D0
100
AcDbEntity
  8
0
  6
CONTINUOUS
 62
               7
100
AcDbLine
 10
5.0000000000000071
 20
49.499999999999886
 30
0.0
 11
5.0000000000000071
 21
34.999999999999886
 31
0.0
  0
LINE
  5
2D1
100
AcDbEntity
  8
0
  6
CONTINUOUS
 62
               7
100
AcDbLine
 10
-4.9999999999999929
 20
49.499999999999886
 30
0.0
 11
-4.9999999999999929
 21
34.999999999999886
 31
0.0
  0
LINE
  5
2D2
100
AcDbEntity
  8
0
  6
CONTINUOUS
 62
               7
100
AcDbLine
 10
5.0000000000000071
 20
34.999999999999886
 30
0.0
 11
-4.9999999999999929
 21
34.999999999999886
 31
0.0
  0
CIRCLE
  5
2D3
100
AcDbEntity
  8
0
  6
CONTINUOUS
 62
               7
100
AcDbCircle
 10
3.5000000000000071
 20
43.499999999999886
 30
0.0
 40
1.5
  0
LINE
  5
2D4
100
AcDbEntity
  8
0
  6
CONTINUOUS
 62
               7
100
AcDbLine
 10
4.2071067811865603
 20
42.792893218813333
 30
0.0
 11
2.7928932188134539
 21
44.20710678118644
 31
0.0
  0
LINE
  5
2D5
100
AcDbEntity
  8
0
  6
CONTINUOUS
 62
               7
100
AcDbLine
 10
4.2071067811865603
 20
44.20710678118644
 30
0.0
 11
2.7928932188134539
 21
42.792893218813333
 31
0.0
  0
LINE
  5
2D6
100
AcDbEntity
  8
0
  6
CONTINUOUS
 62
               7
100
AcDbLine
 10
-4.2071067811865461
 20
44.20710678118644
 30
0.0
 11
-2.7928932188134397
 21
42.792893218813333
 31
0.0
  0
LINE
  5
2D7
100
AcDbEntity
  8
0
  6
CONTINUOUS
 62
               7
100
AcDbLine
 10
-4.2071067811865461
 20
42.792893218813333
 30
0.0
 11
-2.7928932188134397
 21
44.20710678118644
 31
0.0
  0
CIRCLE
  5
2D8
100
AcDbEntity
  8
0
  6
CONTINUOUS
 62
               7
100
AcDbCircle
 10
-3.4999999999999929
 20
43.499999999999886
 30
0.0
 40
1.5
  0
ARC
  5
2D9
100
AcDbEntity
  8
0
  6
CONTINUOUS
 62
               7
100
AcDbCircle
 10
0.0000000000000069
 20
45.249999999999886
 30
0.0
 40
0.8
100
AcDbArc
 50
202.02431283704175
 51
337.97568716295712
  0
ARC
  5
2DA
100
AcDbEntity
  8
0
  6
CONTINUOUS
 62
               7
100
AcDbCircle
 10
0.0000000000000069
 20
45.249999999999886
 30
0.0
 40
0.8
100
AcDbArc
 50
22.024312837042132
 51
157.97568716295751
  0
CIRCLE
  5
2DB
100
AcDbEntity
  8
0
  6
CONTINUOUS
 62
               7
100
AcDbCircle
 10
0.0000000000000069
 20
45.249999999999886
 30
0.0
 40
1.8500000000000001
  0
LINE
  5
2DC
100
AcDbEntity
  8
0
  6
CONTINUOUS
 62
               7
100
AcDbLine
 10
1.8255136263528724
 20
45.549999999999898
 30
0.0
 11
-1.8255136263528657
 21
45.549999999999898
 31
0.0
  0
LINE
  5
2DD
100
AcDbEntity
  8
0
  6
CONTINUOUS
 62
               7
100
AcDbLine
 10
1.8255136263528795
 20
44.949999999999875
 30
0.0
 11
-1.8255136263528657
 21
44.949999999999875
 31
0.0
  0
LINE
  5
2DE
100
AcDbEntity
  8
0
  6
CONTINUOUS
 62
               7
100
AcDbLine
 10
2.8999999999999986
 20
55.699999999999875
 30
0.0
 11
-2.8999999999999986
 21
55.699999999999875
 31
0.0
  0
LINE
  5
2DF
100
AcDbEntity
  8
0
  6
CONTINUOUS
 62
               7
100
AcDbLine
 10
2.8999999999999986
 20
51.699999999999875
 30
0.0
 11
-2.8999999999999986
 21
51.699999999999875
 31
0.0
  0
ARC
  5
2E0
100
AcDbEntity
  8
0
  6
CONTINUOUS
 62
               7
100
AcDbCircle
 10
-2.8999999999999986
 20
53.699999999999875
 30
0.0
 40
2.0000000881710069
100
AcDbArc
 50
89.999999999999815
 51
269.99999999999937
  0
ARC
  5
2E1
100
AcDbEntity
  8
0
  6
CONTINUOUS
 62
               7
100
AcDbCircle
 10
2.8999999999999986
 20
53.699999999999875
 30
0.0
 40
2.0000000881710069
100
AcDbArc
 50
270.00000000000023
 51
89.999999999999844
  0
LINE
  5
2E2
100
AcDbEntity
  8
0
  6
CONTINUOUS
 62
               7
100
AcDbLine
 10
-1.4999999999999931
 20
61.999999999999886
 30
0.0
 11
1.5000000000000069
 21
61.999999999999886
 31
0.0
  0
LINE
  5
2E3
100
AcDbEntity
  8
0
  6
CONTINUOUS
 62
               7
100
AcDbLine
 10
-1.4999999999999931
 20
61.999999999999886
 30
0.0
 11
-1.4999999999999931
 21
66.999999999999886
 31
0.0
  0
LINE
  5
2E4
100
AcDbEntity
  8
0
  6
CONTINUOUS
 62
               7
100
AcDbLine
 10
1.5000000000000069
 20
61.999999999999886
 30
0.0
 11
1.5000000000000069
 21
66.999999999999886
 31
0.0
  0
CIRCLE
  5
2E5
100
AcDbEntity
  8
0
  6
CONTINUOUS
 62
               7
100
AcDbCircle
 10
2.8999999999999986
 20
53.699999999999875
 30
0.0
 40
0.875
  0
CIRCLE
  5
2E6
100
AcDbEntity
  8
0
  6
CONTINUOUS
 62
               7
100
AcDbCircle
 10
-2.8999999999999986
 20
53.699999832063838
 30
0.0
 40
0.875
  0
ARC
  5
2E7
100
AcDbEntity
  8
0
  6
CONTINUOUS
 62
               7
100
AcDbCircle
 10
4.6999999999999957
 20
66.699999999999875
 30
0.0
 40
0.3
100
AcDbArc
 50
0.0000000000000254
 51
89.999999999999829
  0
ARC
  5
2E8
100
AcDbEntity
  8
0
  6
CONTINUOUS
 62
               7
100
AcDbCircle
 10
-4.7000000000000099
 20
66.699999999999875
 30
0.0
 40
0.3
100
AcDbArc
 50
89.999999999999829
 51
179.99999999999963
  0
LINE
  5
2E9
100
AcDbEntity
  8
0
  6
CONTINUOUS
 62
               7
100
AcDbLine
 10
5.0000000033238123
 20
49.499999999999886
 30
0.0
 11
-4.9999999966761877
 21
49.499999999999886
 31
0.0
  0
LINE
  5
2EA
100
AcDbEntity
  8
0
  6
CONTINUOUS
 62
               7
100
AcDbLine
 10
-4.7000000000000099
 20
66.999999999999886
 30
0.0
 11
4.6999999999999957
 21
66.999999999999886
 31
0.0
  0
CIRCLE
  5
2EB
100
AcDbEntity
  8
0
  6
CONTINUOUS
 62
               7
100
AcDbCircle
 10
0.0000000000000069
 20
45.249999999999886
 30
0.0
 40
1.9000000000000001
  0
LINE
  5
2EC
100
AcDbEntity
  8
0
  6
CONTINUOUS
 62
               7
100
AcDbLine
 10
5.0000000000000071
 20
66.699999999999875
 30
0.0
 11
5.0000000000000071
 21
49.499999999999886
 31
0.0
  0
LINE
  5
2ED
100
AcDbEntity
  8
0
  6
CENTER
 62
               2
100
AcDbLine
 10
2.5000000000000071
 20
45.249999999999886
 30
0.0
 11
-2.4999999999999929
 21
45.249999999999886
 31
0.0
  0
LINE
  5
2EE
100
AcDbEntity
  8
0
  6
CONTINUOUS
 62
               7
100
AcDbLine
 10
-4.9999999999999929
 20
66.699999999999875
 30
0.0
 11
-4.9999999999999929
 21
49.499999999999886
 31
0.0
  0
ARC
  5
2EF
100
AcDbEntity
  8
0
  6
CONTINUOUS
 62
               7
100
AcDbCircle
 10
3.5000000000000071
 20
43.499999999999886
 30
0.0
 40
1.6000000000000001
100
AcDbArc
 50
89.999999999999815
 51
269.99999999999937
  0
ARC
  5
2F0
100
AcDbEntity
  8
0
  6
CONTINUOUS
 62
               7
100
AcDbCircle
 10
-3.4999999999999929
 20
43.499999999999886
 30
0.0
 40
1.6000000000000001
100
AcDbArc
 50
270.00000000000023
 51
89.999999999999844
  0
LINE
  5
2F1
100
AcDbEntity
  8
0
  6
CONTINUOUS
 62
               7
100
AcDbLine
 10
-4.9999999999999929
 20
45.099999999999909
 30
0.0
 11
-3.4999999999999929
 21
45.099999999999909
 31
0.0
  0
LINE
  5
2F2
100
AcDbEntity
  8
0
  6
CONTINUOUS
 62
               7
100
AcDbLine
 10
-3.4999999999999929
 20
41.899999999999864
 30
0.0
 11
-4.9999999999999929
 21
41.899999999999864
 31
0.0
  0
LINE
  5
2F3
100
AcDbEntity
  8
0
  6
CONTINUOUS
 62
               7
100
AcDbLine
 10
5.0000000000000071
 20
41.899999999999864
 30
0.0
 11
3.5000000000000071
 21
41.899999999999864
 31
0.0
  0
LINE
  5
2F4
100
AcDbEntity
  8
0
  6
CONTINUOUS
 62
               7
100
AcDbLine
 10
3.5000000000000071
 20
45.099999999999909
 30
0.0
 11
5.0000000000000071
 21
45.099999999999909
 31
0.0
  0
LINE
  5
2F5
100
AcDbEntity
  8
0
  6
CONTINUOUS
 62
               7
100
AcDbLine
 10
5.0000000000000071
 20
49.399999999999864
 30
0.0
 11
-4.9999999999999929
 21
49.399999999999864
 31
0.0
  0
LINE
  5
2F6
100
AcDbEntity
  8
0
  6
CONTINUOUS
 62
               7
100
AcDbLine
 10
-4.9999999999999929
 20
48.901921563029987
 30
0.0
 11
5.0000000000000071
 21
48.901921563029987
 31
0.0
  0
CIRCLE
  5
2F7
100
AcDbEntity
  8
0
  6
CONTINUOUS
 62
               7
100
AcDbCircle
 10
0.0000000000000069
 20
45.249999999999886
 30
0.0
 40
2.0500000000000003
  0
LINE
  5
2F8
100
AcDbEntity
  8
0
  6
CONTINUOUS
 62
               7
100
AcDbLine
 10
-2.6499999999999986
 20
41.399999999999892
 30
0.0
 11
-4.9999999999999929
 21
41.399999999999892
 31
0.0
  0
LINE
  5
2F9
100
AcDbEntity
  8
0
  6
CONTINUOUS
 62
               7
100
AcDbLine
 10
-1.3999999999999988
 20
42.649999999999864
 30
0.0
 11
1.4000000000000126
 21
42.649999999999864
 31
0.0
  0
LINE
  5
2FA
100
AcDbEntity
  8
0
  6
CONTINUOUS
 62
               7
100
AcDbLine
 10
2.6500000000000128
 20
41.399999999999892
 30
0.0
 11
1.4000000000000126
 21
42.649999999999864
 31
0.0
  0
LINE
  5
2FB
100
AcDbEntity
  8
0
  6
CONTINUOUS
 62
               7
100
AcDbLine
 10
5.0000000000000355
 20
41.399999999999892
 30
0.0
 11
2.6500000000000128
 21
41.399999999999892
 31
0.0
  0
LINE
  5
2FC
100
AcDbEntity
  8
0
  6
CONTINUOUS
 62
               7
100
AcDbLine
 10
-1.1443704061238906
 20
42.209182548228739
 30
0.0
 11
1.1443704061239044
 21
42.209182548228739
 31
0.0
  0
LINE
  5
2FD
100
AcDbEntity
  8
0
  6
CONTINUOUS
 62
               7
100
AcDbLine
 10
-2.3943704061238904
 20
40.959182548228711
 30
0.0
 11
-4.9999999999999929
 21
40.959182548228711
 31
0.0
  0
LINE
  5
2FE
100
AcDbEntity
  8
0
  6
CONTINUOUS
 62
               7
100
AcDbLine
 10
5.0000000000000071
 20
40.959182548228739
 30
0.0
 11
2.3943704061239046
 21
40.959182548228739
 31
0.0
  0
LINE
  5
2FF
100
AcDbEntity
  8
0
  6
CONTINUOUS
 62
               7
100
AcDbLine
 10
1.1443704061239044
 20
42.209182548228739
 30
0.0
 11
2.3943704061239046
 21
40.959182548228739
 31
0.0
  0
LINE
  5
300
100
AcDbEntity
  8
0
  6
CONTINUOUS
 62
               7
100
AcDbLine
 10
5.0000000000000071
 20
48.090817451771045
 30
0.0
 11
-4.9999999999999929
 21
48.090817451771045
 31
0.0
  0
LINE
  5
301
100
AcDbEntity
  8
0
  6
CONTINUOUS
 62
               7
100
AcDbLine
 10
1.1443704061239044
 20
42.209182548228739
 30
0.0
 11
1.4000000000000126
 21
42.649999999999864
 31
0.0
  0
LINE
  5
302
100
AcDbEntity
  8
0
  6
CONTINUOUS
 62
               7
100
AcDbLine
 10
-1.1443704061238906
 20
42.209182548228739
 30
0.0
 11
-2.3943704061238904
 21
40.959182548228711
 31
0.0
  0
LINE
  5
303
100
AcDbEntity
  8
0
  6
CONTINUOUS
 62
               7
100
AcDbLine
 10
-2.6499999999999986
 20
41.399999999999892
 30
0.0
 11
-1.3999999999999988
 21
42.649999999999864
 31
0.0
  0
LINE
  5
304
100
AcDbEntity
  8
0
  6
CONTINUOUS
 62
               7
100
AcDbLine
 10
-1.1443704061238906
 20
42.209182548228739
 30
0.0
 11
-1.3999999999999988
 21
42.649999999999864
 31
0.0
  0
LINE
  5
305
100
AcDbEntity
  8
0
  6
CONTINUOUS
 62
               7
100
AcDbLine
 10
2.6500000000000128
 20
41.399999999999892
 30
0.0
 11
2.3943704061239046
 21
40.959182548228739
 31
0.0
  0
LINE
  5
306
100
AcDbEntity
  8
0
  6
CONTINUOUS
 62
               7
100
AcDbLine
 10
-2.3943704061238904
 20
40.959182548228711
 30
0.0
 11
-2.6499999999999986
 21
41.399999999999892
 31
0.0
  0
LINE
  5
307
100
AcDbEntity
  8
0
  6
CONTINUOUS
 62
               7
100
AcDbLine
 10
-4.9999999999999929
 20
17.5
 30
0.0
 11
-4.9999999999999929
 21
32.0
 31
0.0
  0
LINE
  5
308
100
AcDbEntity
  8
0
  6
CONTINUOUS
 62
               7
100
AcDbLine
 10
5.0000000000000071
 20
17.5
 30
0.0
 11
5.0000000000000071
 21
32.0
 31
0.0
  0
LINE
  5
309
100
AcDbEntity
  8
0
  6
CONTINUOUS
 62
               7
100
AcDbLine
 10
-4.9999999999999929
 20
32.0
 30
0.0
 11
5.0000000000000071
 21
32.0
 31
0.0
  0
CIRCLE
  5
30A
100
AcDbEntity
  8
0
  6
CONTINUOUS
 62
               7
100
AcDbCircle
 10
-3.4999999999999929
 20
23.5
 30
0.0
 40
1.5
  0
LINE
  5
30B
100
AcDbEntity
  8
0
  6
CONTINUOUS
 62
               7
100
AcDbLine
 10
-4.2071067811865461
 20
24.207106781186553
 30
0.0
 11
-2.7928932188134397
 21
22.792893218813447
 31
0.0
  0
LINE
  5
30C
100
AcDbEntity
  8
0
  6
CONTINUOUS
 62
               7
100
AcDbLine
 10
-4.2071067811865461
 20
22.792893218813447
 30
0.0
 11
-2.7928932188134397
 21
24.207106781186553
 31
0.0
  0
LINE
  5
30D
100
AcDbEntity
  8
0
  6
CONTINUOUS
 62
               7
100
AcDbLine
 10
4.2071067811865603
 20
22.792893218813447
 30
0.0
 11
2.7928932188134539
 21
24.207106781186553
 31
0.0
  0
LINE
  5
30E
100
AcDbEntity
  8
0
  6
CONTINUOUS
 62
               7
100
AcDbLine
 10
4.2071067811865603
 20
24.207106781186553
 30
0.0
 11
2.7928932188134539
 21
22.792893218813447
 31
0.0
  0
CIRCLE
  5
30F
100
AcDbEntity
  8
0
  6
CONTINUOUS
 62
               7
100
AcDbCircle
 10
3.5000000000000071
 20
23.5
 30
0.0
 40
1.5
  0
ARC
  5
310
100
AcDbEntity
  8
0
  6
CONTINUOUS
 62
               7
100
AcDbCircle
 10
0.0000000000000069
 20
21.75
 30
0.0
 40
0.8
100
AcDbArc
 50
22.024312837042157
 51
157.97568716295754
  0
ARC
  5
311
100
AcDbEntity
  8
0
  6
CONTINUOUS
 62
               7
100
AcDbCircle
 10
0.0000000000000069
 20
21.75
 30
0.0
 40
0.8
100
AcDbArc
 50
202.02431283704175
 51
337.97568716295712
  0
CIRCLE
  5
312
100
AcDbEntity
  8
0
  6
CONTINUOUS
 62
               7
100
AcDbCircle
 10
0.0000000000000069
 20
21.75
 30
0.0
 40
1.8500000000000001
  0
LINE
  5
313
100
AcDbEntity
  8
0
  6
CONTINUOUS
 62
               7
100
AcDbLine
 10
-1.8255136263528586
 20
21.449999999999989
 30
0.0
 11
1.8255136263528795
 21
21.449999999999989
 31
0.0
  0
LINE
  5
314
100
AcDbEntity
  8
0
  6
CONTINUOUS
 62
               7
100
AcDbLine
 10
-1.8255136263528657
 20
22.050000000000011
 30
0.0
 11
1.8255136263528795
 21
22.050000000000011
 31
0.0
  0
LINE
  5
315
100
AcDbEntity
  8
0
  6
CONTINUOUS
 62
               7
100
AcDbLine
 10
-2.8999999999999879
 20
11.300000000000011
 30
0.0
 11
2.9000000000000128
 21
11.300000000000011
 31
0.0
  0
LINE
  5
316
100
AcDbEntity
  8
0
  6
CONTINUOUS
 62
               7
100
AcDbLine
 10
-2.8999999999999879
 20
15.300000000000011
 30
0.0
 11
2.9000000000000128
 21
15.300000000000011
 31
0.0
  0
ARC
  5
317
100
AcDbEntity
  8
0
  6
CONTINUOUS
 62
               7
100
AcDbCircle
 10
2.9000000000000128
 20
13.300000000000011
 30
0.0
 40
2.0000000881710069
100
AcDbArc
 50
270.00000000000023
 51
89.999999999999801
  0
ARC
  5
318
100
AcDbEntity
  8
0
  6
CONTINUOUS
 62
               7
100
AcDbCircle
 10
-2.8999999999999879
 20
13.300000000000011
 30
0.0
 40
2.0000000881710069
100
AcDbArc
 50
89.999999999999815
 51
269.99999999999937
  0
LINE
  5
319
100
AcDbEntity
  8
0
  6
CONTINUOUS
 62
               7
100
AcDbLine
 10
1.5000000000000069
 20
5.0
 30
0.0
 11
-1.4999999999999967
 21
5.0
 31
0.0
  0
LINE
  5
31A
100
AcDbEntity
  8
0
  6
CONTINUOUS
 62
               7
100
AcDbLine
 10
1.5000000000000069
 20
5.0
 30
0.0
 11
1.4999999999999998
 21
0.0
 31
0.0
  0
LINE
  5
31B
100
AcDbEntity
  8
0
  6
CONTINUOUS
 62
               7
100
AcDbLine
 10
-1.4999999999999967
 20
5.0
 30
0.0
 11
-1.4999999999999967
 21
0.0
 31
0.0
  0
CIRCLE
  5
31C
100
AcDbEntity
  8
0
  6
CONTINUOUS
 62
               7
100
AcDbCircle
 10
-2.8999999999999879
 20
13.300000000000011
 30
0.0
 40
0.875
  0
CIRCLE
  5
31D
100
AcDbEntity
  8
0
  6
CONTINUOUS
 62
               7
100
AcDbCircle
 10
2.9000000000000128
 20
13.300000167936048
 30
0.0
 40
0.875
  0
ARC
  5
31E
100
AcDbEntity
  8
0
  6
CONTINUOUS
 62
               7
100
AcDbCircle
 10
-4.6999999999999851
 20
0.3000000000000114
 30
0.0
 40
0.3
100
AcDbArc
 50
179.99999999999963
 51
269.99999999999937
  0
ARC
  5
31F
100
AcDbEntity
  8
0
  6
CONTINUOUS
 62
               7
100
AcDbCircle
 10
4.7000000000000242
 20
0.3000000000000114
 30
0.0
 40
0.3
100
AcDbArc
 50
269.99999999999937
 51
0.0
  0
LINE
  5
320
100
AcDbEntity
  8
0
  6
CONTINUOUS
 62
               7
100
AcDbLine
 10
-5.0000000033237981
 20
17.5
 30
0.0
 11
4.9999999966762019
 21
17.5
 31
0.0
  0
LINE
  5
321
100
AcDbEntity
  8
0
  6
CONTINUOUS
 62
               7
100
AcDbLine
 10
4.7000000000000242
 20
0.0
 30
0.0
 11
-4.6999999999999851
 21
0.0
 31
0.0
  0
CIRCLE
  5
322
100
AcDbEntity
  8
0
  6
CONTINUOUS
 62
               7
100
AcDbCircle
 10
0.0000000000000069
 20
21.75
 30
0.0
 40
1.9000000000000001
  0
LINE
  5
323
100
AcDbEntity
  8
0
  6
CONTINUOUS
 62
               7
100
AcDbLine
 10
-4.9999999999999964
 20
0.3000000000000114
 30
0.0
 11
-4.9999999999999929
 21
17.5
 31
0.0
  0
LINE
  5
324
100
AcDbEntity
  8
0
  6
CENTER
 62
               2
100
AcDbLine
 10
-2.4999999999999929
 20
21.75
 30
0.0
 11
2.5000000000000071
 21
21.75
 31
0.0
  0
LINE
  5
325
100
AcDbEntity
  8
0
  6
CONTINUOUS
 62
               7
100
AcDbLine
 10
5.0000000000000071
 20
0.3000000000000114
 30
0.0
 11
5.0000000000000071
 21
17.5
 31
0.0
  0
ARC
  5
326
100
AcDbEntity
  8
0
  6
CONTINUOUS
 62
               7
100
AcDbCircle
 10
-3.4999999999999929
 20
23.5
 30
0.0
 40
1.6000000000000001
100
AcDbArc
 50
270.00000000000023
 51
89.999999999999801
  0
ARC
  5
327
100
AcDbEntity
  8
0
  6
CONTINUOUS
 62
               7
100
AcDbCircle
 10
3.5000000000000071
 20
23.5
 30
0.0
 40
1.6000000000000001
100
AcDbArc
 50
89.999999999999815
 51
269.99999999999937
  0
LINE
  5
328
100
AcDbEntity
  8
0
  6
CONTINUOUS
 62
               7
100
AcDbLine
 10
5.0000000000000071
 20
21.899999999999977
 30
0.0
 11
3.5000000000000071
 21
21.899999999999977
 31
0.0
  0
LINE
  5
329
100
AcDbEntity
  8
0
  6
CONTINUOUS
 62
               7
100
AcDbLine
 10
3.5000000000000071
 20
25.100000000000023
 30
0.0
 11
5.0000000000000071
 21
25.100000000000023
 31
0.0
  0
LINE
  5
32A
100
AcDbEntity
  8
0
  6
CONTINUOUS
 62
               7
100
AcDbLine
 10
-4.9999999999999929
 20
25.100000000000023
 30
0.0
 11
-3.4999999999999929
 21
25.100000000000023
 31
0.0
  0
LINE
  5
32B
100
AcDbEntity
  8
0
  6
CONTINUOUS
 62
               7
100
AcDbLine
 10
-3.4999999999999929
 20
21.899999999999977
 30
0.0
 11
-4.9999999999999929
 21
21.899999999999977
 31
0.0
  0
LINE
  5
32C
100
AcDbEntity
  8
0
  6
CONTINUOUS
 62
               7
100
AcDbLine
 10
-4.9999999999999929
 20
17.600000000000023
 30
0.0
 11
5.0000000000000071
 21
17.600000000000023
 31
0.0
  0
LINE
  5
32D
100
AcDbEntity
  8
0
  6
CONTINUOUS
 62
               7
100
AcDbLine
 10
5.0000000000000071
 20
18.098078436969899
 30
0.0
 11
-4.9999999999999929
 21
18.098078436969899
 31
0.0
  0
CIRCLE
  5
32E
100
AcDbEntity
  8
0
  6
CONTINUOUS
 62
               7
100
AcDbCircle
 10
0.0000000000000069
 20
21.75
 30
0.0
 40
2.0500000000000003
  0
LINE
  5
32F
100
AcDbEntity
  8
0
  6
CONTINUOUS
 62
               7
100
AcDbLine
 10
2.6500000000000128
 20
25.599999999999994
 30
0.0
 11
5.0000000000000071
 21
25.599999999999994
 31
0.0
  0
LINE
  5
330
100
AcDbEntity
  8
0
  6
CONTINUOUS
 62
               7
100
AcDbLine
 10
1.4000000000000126
 20
24.350000000000023
 30
0.0
 11
-1.3999999999999988
 21
24.350000000000023
 31
0.0
  0
LINE
  5
331
100
AcDbEntity
  8
0
  6
CONTINUOUS
 62
               7
100
AcDbLine
 10
-2.6499999999999986
 20
25.599999999999994
 30
0.0
 11
-1.3999999999999988
 21
24.350000000000023
 31
0.0
  0
LINE
  5
332
100
AcDbEntity
  8
0
  6
CONTINUOUS
 62
               7
100
AcDbLine
 10
-5.0000000000000213
 20
25.599999999999994
 30
0.0
 11
-2.6499999999999986
 21
25.599999999999994
 31
0.0
  0
LINE
  5
333
100
AcDbEntity
  8
0
  6
CONTINUOUS
 62
               7
100
AcDbLine
 10
1.1443704061239044
 20
24.790817451771147
 30
0.0
 11
-1.1443704061238906
 21
24.790817451771147
 31
0.0
  0
LINE
  5
334
100
AcDbEntity
  8
0
  6
CONTINUOUS
 62
               7
100
AcDbLine
 10
2.3943704061239046
 20
26.040817451771176
 30
0.0
 11
5.0000000000000071
 21
26.040817451771176
 31
0.0
  0
LINE
  5
335
100
AcDbEntity
  8
0
  6
CONTINUOUS
 62
               7
100
AcDbLine
 10
-4.9999999999999929
 20
26.040817451771147
 30
0.0
 11
-2.3943704061238904
 21
26.040817451771147
 31
0.0
  0
LINE
  5
336
100
AcDbEntity
  8
0
  6
CONTINUOUS
 62
               7
100
AcDbLine
 10
-1.1443704061238906
 20
24.790817451771147
 30
0.0
 11
-2.3943704061238904
 21
26.040817451771147
 31
0.0
  0
LINE
  5
337
100
AcDbEntity
  8
0
  6
CONTINUOUS
 62
               7
100
AcDbLine
 10
-4.9999999999999929
 20
18.909182548228841
 30
0.0
 11
5.0000000000000071
 21
18.909182548228841
 31
0.0
  0
LINE
  5
338
100
AcDbEntity
  8
0
  6
CONTINUOUS
 62
               7
100
AcDbLine
 10
-1.1443704061238906
 20
24.790817451771147
 30
0.0
 11
-1.3999999999999988
 21
24.350000000000023
 31
0.0
  0
LINE
  5
339
100
AcDbEntity
  8
0
  6
CONTINUOUS
 62
               7
100
AcDbLine
 10
1.1443704061239044
 20
24.790817451771147
 30
0.0
 11
2.3943704061239046
 21
26.040817451771176
 31
0.0
  0
LINE
  5
33A
100
AcDbEntity
  8
0
  6
CONTINUOUS
 62
               7
100
AcDbLine
 10
2.6500000000000128
 20
25.599999999999994
 30
0.0
 11
1.4000000000000126
 21
24.350000000000023
 31
0.0
  0
LINE
  5
33B
100
AcDbEntity
  8
0
  6
CONTINUOUS
 62
               7
100
AcDbLine
 10
1.1443704061239044
 20
24.790817451771147
 30
0.0
 11
1.4000000000000126
 21
24.350000000000023
 31
0.0
  0
LINE
  5
33C
100
AcDbEntity
  8
0
  6
CONTINUOUS
 62
               7
100
AcDbLine
 10
-2.6499999999999986
 20
25.599999999999994
 30
0.0
 11
-2.3943704061238904
 21
26.040817451771147
 31
0.0
  0
LINE
  5
33D
100
AcDbEntity
  8
0
  6
CONTINUOUS
 62
               7
100
AcDbLine
 10
2.3943704061239046
 20
26.040817451771176
 30
0.0
 11
2.6500000000000128
 21
25.599999999999994
 31
0.0
  0
LINE
  5
33E
100
AcDbEntity
  8
0
  6
CENTER
 62
               2
100
AcDbLine
 10
0.0000000000000069
 20
69.136052925234992
 30
0.0
 11
-0.0000000000000002
 21
-2.1360529252351057
 31
0.0
  0
ENDBLK
  5
33F
100
AcDbEntity
  8
0
100
AcDbBlockEnd
  0
BLOCK
  5
340
100
AcDbEntity
  8
0
100
AcDbBlockBegin
  2
MV090MA-11-8
 70
               0
 10
0.0
 20
0.0
 30
0.0
  3
MV090MA-11-8
  1

  0
LINE
  5
341
100
AcDbEntity
  8
0
  6
CONTINUOUS
 62
               7
100
AcDbLine
 10
2.5
 20
54.799999999999955
 30
0.0
 11
4.6999999999999318
 21
54.799999999999955
 31
0.0
  0
LINE
  5
342
100
AcDbEntity
  8
0
  6
CONTINUOUS
 62
               7
100
AcDbLine
 10
-3.7000000000000455
 20
53.299999999999955
 30
0.0
 11
3.6999999999999318
 21
53.299999999999955
 31
0.0
  0
LINE
  5
343
100
AcDbEntity
  8
0
  6
CONTINUOUS
 62
               7
100
AcDbLine
 10
-4.7000000000000455
 20
48.999999999999886
 30
0.0
 11
-4.7000000000000455
 21
54.299999999999955
 31
0.0
  0
LINE
  5
344
100
AcDbEntity
  8
0
  6
CONTINUOUS
 62
               7
100
AcDbLine
 10
4.6999999999999318
 20
66.999999999999886
 30
0.0
 11
-4.7000000000000455
 21
66.999999999999886
 31
0.0
  0
LINE
  5
345
100
AcDbEntity
  8
0
  6
CONTINUOUS
 62
               7
100
AcDbLine
 10
-5.0
 20
66.699999999999932
 30
0.0
 11
-5.0
 21
34.999999999999886
 31
0.0
  0
LINE
  5
346
100
AcDbEntity
  8
0
  6
CENTER
 62
               2
100
AcDbLine
 10
0.0
 20
56.5
 30
0.0
 11
0.0
 21
-2.5701803136998933
 31
0.0
  0
ARC
  5
347
100
AcDbEntity
  8
0
  6
CONTINUOUS
 62
               7
100
AcDbCircle
 10
-4.7000000000000455
 20
66.699999999999932
 30
0.0
 40
0.3
100
AcDbArc
 50
89.999999999999815
 51
179.99999999999963
  0
ARC
  5
348
100
AcDbEntity
  8
0
  6
CONTINUOUS
 62
               7
100
AcDbCircle
 10
-4.7000000000000455
 20
54.499999999999886
 30
0.0
 40
0.3
100
AcDbArc
 50
89.999999999999815
 51
179.99999999999963
  0
LINE
  5
349
100
AcDbEntity
  8
0
  6
CONTINUOUS
 62
               7
100
AcDbLine
 10
-1.5
 20
61.999999999999886
 30
0.0
 11
-1.5
 21
66.999999999999886
 31
0.0
  0
LINE
  5
34A
100
AcDbEntity
  8
0
  6
CONTINUOUS
 62
               7
100
AcDbLine
 10
-1.5
 20
61.999999999999886
 30
0.0
 11
1.5
 21
61.999999999999886
 31
0.0
  0
LINE
  5
34B
100
AcDbEntity
  8
0
  6
CONTINUOUS
 62
               7
100
AcDbLine
 10
1.5
 20
61.999999999999886
 30
0.0
 11
1.5
 21
66.999999999999886
 31
0.0
  0
LINE
  5
34C
100
AcDbEntity
  8
0
  6
CONTINUOUS
 62
               7
100
AcDbLine
 10
-4.7000000000000455
 20
54.799999999999955
 30
0.0
 11
-2.5
 21
54.799999999999955
 31
0.0
  0
LINE
  5
34D
100
AcDbEntity
  8
0
  6
CONTINUOUS
 62
               7
100
AcDbLine
 10
-2.9000000000000909
 20
53.799999999999955
 30
0.0
 11
-2.5
 21
53.799999999999955
 31
0.0
  0
LINE
  5
34E
100
AcDbEntity
  8
0
  6
CONTINUOUS
 62
               7
100
AcDbLine
 10
-2.9000000000000909
 20
53.799999999999955
 30
0.0
 11
-2.9000000000000909
 21
54.799999999999955
 31
0.0
  0
LINE
  5
34F
100
AcDbEntity
  8
0
  6
CONTINUOUS
 62
               7
100
AcDbLine
 10
2.8999999999998636
 20
53.799999999999955
 30
0.0
 11
2.8999999999998636
 21
54.799999999999955
 31
0.0
  0
LINE
  5
350
100
AcDbEntity
  8
0
  6
CONTINUOUS
 62
               7
100
AcDbLine
 10
-2.9000000000000909
 20
54.299999999999955
 30
0.0
 11
2.8999999999998636
 21
54.299999999999955
 31
0.0
  0
LINE
  5
351
100
AcDbEntity
  8
0
  6
CONTINUOUS
 62
               7
100
AcDbLine
 10
2.5
 20
55.799999999999955
 30
0.0
 11
2.5
 21
53.299999999999955
 31
0.0
  0
LINE
  5
352
100
AcDbEntity
  8
0
  6
CONTINUOUS
 62
               7
100
AcDbLine
 10
-2.5
 20
55.799999999999955
 30
0.0
 11
-2.5
 21
53.299999999999955
 31
0.0
  0
LINE
  5
353
100
AcDbEntity
  8
0
  6
CONTINUOUS
 62
               7
100
AcDbLine
 10
-3.7000000000000455
 20
53.299999999999955
 30
0.0
 11
-3.7000000000000455
 21
54.299999999999955
 31
0.0
  0
LINE
  5
354
100
AcDbEntity
  8
0
  6
CONTINUOUS
 62
               7
100
AcDbLine
 10
-4.7000000000000455
 20
54.299999999999955
 30
0.0
 11
-3.7000000000000455
 21
54.299999999999955
 31
0.0
  0
LINE
  5
355
100
AcDbEntity
  8
0
  6
CONTINUOUS
 62
               7
100
AcDbLine
 10
-1.25
 20
54.299999999999955
 30
0.0
 11
-1.25
 21
53.299999999999955
 31
0.0
  0
LINE
  5
356
100
AcDbEntity
  8
0
  6
CONTINUOUS
 62
               7
100
AcDbLine
 10
1.25
 20
54.299999999999955
 30
0.0
 11
1.25
 21
53.299999999999955
 31
0.0
  0
LINE
  5
357
100
AcDbEntity
  8
0
  6
CONTINUOUS
 62
               7
100
AcDbLine
 10
-2.5000000005766196
 20
55.799999999999955
 30
0.0
 11
2.4999999994232667
 21
55.799999999999955
 31
0.0
  0
LINE
  5
358
100
AcDbEntity
  8
0
  6
CONTINUOUS
 62
               7
100
AcDbLine
 10
-2.5
 20
54.599999999999909
 30
0.0
 11
2.5
 21
54.599999999999909
 31
0.0
  0
LINE
  5
359
100
AcDbEntity
  8
0
  6
CONTINUOUS
 62
               7
100
AcDbLine
 10
2.5
 20
53.799999999999955
 30
0.0
 11
2.8999999999998636
 21
53.799999999999955
 31
0.0
  0
LINE
  5
35A
100
AcDbEntity
  8
0
  6
CONTINUOUS
 62
               7
100
AcDbLine
 10
-5.0
 20
34.999999999999886
 30
0.0
 11
5.0
 21
34.999999999999886
 31
0.0
  0
LINE
  5
35B
100
AcDbEntity
  8
0
  6
CONTINUOUS
 62
               7
100
AcDbLine
 10
5.0
 20
49.499999999999886
 30
0.0
 11
4.6999999999999318
 21
49.499999999999886
 31
0.0
  0
ARC
  5
35C
100
AcDbEntity
  8
0
  6
CONTINUOUS
 62
               7
100
AcDbCircle
 10
4.6999999999999318
 20
54.499999999999886
 30
0.0
 40
0.3
100
AcDbArc
 50
0.0
 51
89.999999999999815
  0
LINE
  5
35D
100
AcDbEntity
  8
0
  6
CONTINUOUS
 62
               7
100
AcDbLine
 10
5.0
 20
48.090817451771159
 30
0.0
 11
-5.0
 21
48.090817451771159
 31
0.0
  0
LINE
  5
35E
100
AcDbEntity
  8
0
  6
CONTINUOUS
 62
               7
100
AcDbLine
 10
5.0
 20
40.959182548228796
 30
0.0
 11
2.3943704061238122
 21
40.959182548228796
 31
0.0
  0
LINE
  5
35F
100
AcDbEntity
  8
0
  6
CONTINUOUS
 62
               7
100
AcDbLine
 10
5.0
 20
41.399999999999977
 30
0.0
 11
2.6499999999999773
 21
41.399999999999977
 31
0.0
  0
LINE
  5
360
100
AcDbEntity
  8
0
  6
CONTINUOUS
 62
               7
100
AcDbLine
 10
-5.0
 20
48.901921563029987
 30
0.0
 11
5.0
 21
48.901921563029987
 31
0.0
  0
LINE
  5
361
100
AcDbEntity
  8
0
  6
CONTINUOUS
 62
               7
100
AcDbLine
 10
5.0
 20
49.399999999999977
 30
0.0
 11
4.6999999999999318
 21
49.399999999999977
 31
0.0
  0
LINE
  5
362
100
AcDbEntity
  8
0
  6
CONTINUOUS
 62
               7
100
AcDbLine
 10
3.5
 20
45.099999999999909
 30
0.0
 11
5.0
 21
45.099999999999909
 31
0.0
  0
LINE
  5
363
100
AcDbEntity
  8
0
  6
CONTINUOUS
 62
               7
100
AcDbLine
 10
5.0
 20
41.899999999999977
 30
0.0
 11
3.5
 21
41.899999999999977
 31
0.0
  0
CIRCLE
  5
364
100
AcDbEntity
  8
0
  6
CONTINUOUS
 62
               7
100
AcDbCircle
 10
3.5
 20
43.499999999999886
 30
0.0
 40
1.5
  0
LINE
  5
365
100
AcDbEntity
  8
0
  6
CONTINUOUS
 62
               7
100
AcDbLine
 10
4.2071067811864395
 20
42.792893218813333
 30
0.0
 11
2.7928932188133331
 21
44.20710678118644
 31
0.0
  0
LINE
  5
366
100
AcDbEntity
  8
0
  6
CONTINUOUS
 62
               7
100
AcDbLine
 10
4.2071067811864395
 20
44.20710678118644
 30
0.0
 11
2.7928932188133331
 21
42.792893218813333
 31
0.0
  0
LINE
  5
367
100
AcDbEntity
  8
0
  6
CONTINUOUS
 62
               7
100
AcDbLine
 10
-4.2071067811866669
 20
44.20710678118644
 30
0.0
 11
-2.7928932188135605
 21
42.792893218813333
 31
0.0
  0
LINE
  5
368
100
AcDbEntity
  8
0
  6
CONTINUOUS
 62
               7
100
AcDbLine
 10
-4.2071067811866669
 20
42.792893218813333
 30
0.0
 11
-2.7928932188135605
 21
44.20710678118644
 31
0.0
  0
CIRCLE
  5
369
100
AcDbEntity
  8
0
  6
CONTINUOUS
 62
               7
100
AcDbCircle
 10
-3.5
 20
43.499999999999886
 30
0.0
 40
1.5
  0
LINE
  5
36A
100
AcDbEntity
  8
0
  6
CONTINUOUS
 62
               7
100
AcDbLine
 10
1.8255136263528584
 20
45.549999999999955
 30
0.0
 11
0.0
 21
45.549999999999955
 31
0.0
  0
ARC
  5
36B
100
AcDbEntity
  8
0
  6
CONTINUOUS
 62
               7
100
AcDbCircle
 10
0.0
 20
45.249999999999886
 30
0.0
 40
0.8
100
AcDbArc
 50
202.02431283704175
 51
337.97568716295712
  0
ARC
  5
36C
100
AcDbEntity
  8
0
  6
CONTINUOUS
 62
               7
100
AcDbCircle
 10
0.0
 20
45.249999999999886
 30
0.0
 40
0.8
100
AcDbArc
 50
22.024312837042132
 51
157.97568716295751
  0
CIRCLE
  5
36D
100
AcDbEntity
  8
0
  6
CONTINUOUS
 62
               7
100
AcDbCircle
 10
0.0
 20
45.249999999999886
 30
0.0
 40
1.8500000000000001
  0
LINE
  5
36E
100
AcDbEntity
  8
0
  6
CONTINUOUS
 62
               7
100
AcDbLine
 10
0.0
 20
45.549999999999955
 30
0.0
 11
-1.8255136263528584
 21
45.549999999999955
 31
0.0
  0
LINE
  5
36F
100
AcDbEntity
  8
0
  6
CONTINUOUS
 62
               7
100
AcDbLine
 10
1.8255136263528584
 20
44.949999999999932
 30
0.0
 11
-1.8255136263528584
 21
44.949999999999932
 31
0.0
  0
CIRCLE
  5
370
100
AcDbEntity
  8
0
  6
CONTINUOUS
 62
               7
100
AcDbCircle
 10
0.0
 20
45.249999999999886
 30
0.0
 40
1.9000000000000001
  0
LINE
  5
371
100
AcDbEntity
  8
0
  6
CENTER
 62
               2
100
AcDbLine
 10
2.5
 20
45.249999999999886
 30
0.0
 11
-2.5
 21
45.249999999999886
 31
0.0
  0
ARC
  5
372
100
AcDbEntity
  8
0
  6
CONTINUOUS
 62
               7
100
AcDbCircle
 10
3.5
 20
43.499999999999886
 30
0.0
 40
1.6000000000000001
100
AcDbArc
 50
89.999999999999815
 51
269.99999999999937
  0
ARC
  5
373
100
AcDbEntity
  8
0
  6
CONTINUOUS
 62
               7
100
AcDbCircle
 10
-3.5
 20
43.499999999999886
 30
0.0
 40
1.6000000000000001
100
AcDbArc
 50
270.00000000000023
 51
89.999999999999844
  0
LINE
  5
374
100
AcDbEntity
  8
0
  6
CONTINUOUS
 62
               7
100
AcDbLine
 10
-5.0
 20
45.099999999999909
 30
0.0
 11
-3.5
 21
45.099999999999909
 31
0.0
  0
LINE
  5
375
100
AcDbEntity
  8
0
  6
CONTINUOUS
 62
               7
100
AcDbLine
 10
-3.5
 20
41.899999999999977
 30
0.0
 11
-5.0
 21
41.899999999999977
 31
0.0
  0
CIRCLE
  5
376
100
AcDbEntity
  8
0
  6
CONTINUOUS
 62
               7
100
AcDbCircle
 10
0.0
 20
45.249999999999886
 30
0.0
 40
2.0500000000000003
  0
LINE
  5
377
100
AcDbEntity
  8
0
  6
CONTINUOUS
 62
               7
100
AcDbLine
 10
-2.6500000000000909
 20
41.399999999999977
 30
0.0
 11
-5.0
 21
41.399999999999977
 31
0.0
  0
LINE
  5
378
100
AcDbEntity
  8
0
  6
CONTINUOUS
 62
               7
100
AcDbLine
 10
-1.4000000000000909
 20
42.649999999999977
 30
0.0
 11
1.3999999999999773
 21
42.649999999999977
 31
0.0
  0
LINE
  5
379
100
AcDbEntity
  8
0
  6
CONTINUOUS
 62
               7
100
AcDbLine
 10
2.6499999999999773
 20
41.399999999999977
 30
0.0
 11
1.3999999999999773
 21
42.649999999999977
 31
0.0
  0
LINE
  5
37A
100
AcDbEntity
  8
0
  6
CONTINUOUS
 62
               7
100
AcDbLine
 10
-1.1443704061239259
 20
42.209182548228796
 30
0.0
 11
1.1443704061238122
 21
42.209182548228796
 31
0.0
  0
LINE
  5
37B
100
AcDbEntity
  8
0
  6
CONTINUOUS
 62
               7
100
AcDbLine
 10
-2.3943704061239259
 20
40.959182548228796
 30
0.0
 11
-5.0
 21
40.959182548228796
 31
0.0
  0
LINE
  5
37C
100
AcDbEntity
  8
0
  6
CONTINUOUS
 62
               7
100
AcDbLine
 10
1.1443704061238122
 20
42.209182548228796
 30
0.0
 11
2.3943704061238122
 21
40.959182548228796
 31
0.0
  0
LINE
  5
37D
100
AcDbEntity
  8
0
  6
CONTINUOUS
 62
               7
100
AcDbLine
 10
1.1443704061238122
 20
42.209182548228796
 30
0.0
 11
1.3999999999999773
 21
42.649999999999977
 31
0.0
  0
LINE
  5
37E
100
AcDbEntity
  8
0
  6
CONTINUOUS
 62
               7
100
AcDbLine
 10
-1.1443704061239259
 20
42.209182548228796
 30
0.0
 11
-2.3943704061239259
 21
40.959182548228796
 31
0.0
  0
LINE
  5
37F
100
AcDbEntity
  8
0
  6
CONTINUOUS
 62
               7
100
AcDbLine
 10
-2.6500000000000909
 20
41.399999999999977
 30
0.0
 11
-1.4000000000000909
 21
42.649999999999977
 31
0.0
  0
LINE
  5
380
100
AcDbEntity
  8
0
  6
CONTINUOUS
 62
               7
100
AcDbLine
 10
-1.1443704061239259
 20
42.209182548228796
 30
0.0
 11
-1.4000000000000909
 21
42.649999999999977
 31
0.0
  0
LINE
  5
381
100
AcDbEntity
  8
0
  6
CONTINUOUS
 62
               7
100
AcDbLine
 10
2.6499999999999773
 20
41.399999999999977
 30
0.0
 11
2.3943704061238122
 21
40.959182548228796
 31
0.0
  0
LINE
  5
382
100
AcDbEntity
  8
0
  6
CONTINUOUS
 62
               7
100
AcDbLine
 10
-2.3943704061239259
 20
40.959182548228796
 30
0.0
 11
-2.6500000000000909
 21
41.399999999999977
 31
0.0
  0
LINE
  5
383
100
AcDbEntity
  8
0
  6
CONTINUOUS
 62
               7
100
AcDbLine
 10
3.4900000000000091
 20
52.799999999999955
 30
0.0
 11
3.6139999999999191
 21
50.911999999999921
 31
0.0
  0
ARC
  5
384
100
AcDbEntity
  8
0
  6
CONTINUOUS
 62
               7
100
AcDbCircle
 10
3.4147148526387809
 20
50.899665233359542
 30
0.0
 40
0.1996665130331531
100
AcDbArc
 50
269.79486732121239
 51
3.5418075753734648
  0
LINE
  5
385
100
AcDbEntity
  8
0
  6
CONTINUOUS
 62
               7
100
AcDbLine
 10
3.0899999999999181
 20
50.699999999999932
 30
0.0
 11
3.0899999999999181
 21
50.199999999999932
 31
0.0
  0
LINE
  5
386
100
AcDbEntity
  8
0
  6
CONTINUOUS
 62
               7
100
AcDbLine
 10
1.9900000000000091
 20
50.199999999999932
 30
0.0
 11
3.0899999999999181
 21
50.199999999999932
 31
0.0
  0
LINE
  5
387
100
AcDbEntity
  8
0
  6
CONTINUOUS
 62
               7
100
AcDbLine
 10
1.9900000000000091
 20
50.699999999999932
 30
0.0
 11
1.9900000000000091
 21
50.199999999999932
 31
0.0
  0
LINE
  5
388
100
AcDbEntity
  8
0
  6
CONTINUOUS
 62
               7
100
AcDbLine
 10
1.6639999999999873
 20
50.699999999999932
 30
0.0
 11
3.4139999999999873
 21
50.699999999999932
 31
0.0
  0
ARC
  5
389
100
AcDbEntity
  8
0
  6
CONTINUOUS
 62
               7
100
AcDbCircle
 10
1.6643441079742161
 20
50.900664252805882
 30
0.0
 40
0.2006645478515588
100
AcDbArc
 50
176.76157835491691
 51
269.90174674849533
  0
LINE
  5
38A
100
AcDbEntity
  8
0
  6
CONTINUOUS
 62
               7
100
AcDbLine
 10
1.4639999999999418
 20
50.911999999999921
 30
0.0
 11
1.5899999999999181
 21
52.799999999999955
 31
0.0
  0
LINE
  5
38B
100
AcDbEntity
  8
0
  6
CONTINUOUS
 62
               7
100
AcDbLine
 10
1.5899999999999181
 20
52.799999999999955
 30
0.0
 11
3.4900000000000091
 21
52.799999999999955
 31
0.0
  0
LINE
  5
38C
100
AcDbEntity
  8
0
  6
CONTINUOUS
 62
               7
100
AcDbLine
 10
0.3999999999999773
 20
51.399999999999977
 30
0.0
 11
-0.400000000000091
 21
51.399999999999977
 31
0.0
  0
LINE
  5
38D
100
AcDbEntity
  8
0
  6
CONTINUOUS
 62
               7
100
AcDbLine
 10
0.3999999999999773
 20
52.199999999999932
 30
0.0
 11
0.3999999999999773
 21
51.399999999999977
 31
0.0
  0
LINE
  5
38E
100
AcDbEntity
  8
0
  6
CONTINUOUS
 62
               7
100
AcDbLine
 10
0.3999999999999773
 20
52.199999999999932
 30
0.0
 11
-0.400000000000091
 21
52.199999999999932
 31
0.0
  0
LINE
  5
38F
100
AcDbEntity
  8
0
  6
CONTINUOUS
 62
               7
100
AcDbLine
 10
-0.400000000000091
 20
52.199999999999932
 30
0.0
 11
-0.400000000000091
 21
51.399999999999977
 31
0.0
  0
LINE
  5
390
100
AcDbEntity
  8
0
  6
CONTINUOUS
 62
               7
100
AcDbLine
 10
0.9499999999999318
 20
52.799999999999955
 30
0.0
 11
1.0739999999999554
 21
50.911999999999921
 31
0.0
  0
ARC
  5
391
100
AcDbEntity
  8
0
  6
CONTINUOUS
 62
               7
100
AcDbCircle
 10
0.8747148526388173
 20
50.899665233359542
 30
0.0
 40
0.1996665130331531
100
AcDbArc
 50
269.79486732121239
 51
3.5418075753734648
  0
LINE
  5
392
100
AcDbEntity
  8
0
  6
CONTINUOUS
 62
               7
100
AcDbLine
 10
0.5499999999999545
 20
50.699999999999932
 30
0.0
 11
0.5499999999999545
 21
50.199999999999932
 31
0.0
  0
LINE
  5
393
100
AcDbEntity
  8
0
  6
CONTINUOUS
 62
               7
100
AcDbLine
 10
-0.5500000000000682
 20
50.199999999999932
 30
0.0
 11
0.5499999999999545
 21
50.199999999999932
 31
0.0
  0
LINE
  5
394
100
AcDbEntity
  8
0
  6
CONTINUOUS
 62
               7
100
AcDbLine
 10
-0.5500000000000682
 20
50.699999999999932
 30
0.0
 11
-0.5500000000000682
 21
50.199999999999932
 31
0.0
  0
LINE
  5
395
100
AcDbEntity
  8
0
  6
CONTINUOUS
 62
               7
100
AcDbLine
 10
-0.87600000000009
 20
50.699999999999932
 30
0.0
 11
0.87399999999991
 21
50.699999999999932
 31
0.0
  0
ARC
  5
396
100
AcDbEntity
  8
0
  6
CONTINUOUS
 62
               7
100
AcDbCircle
 10
-0.8756558920257476
 20
50.900664252805882
 30
0.0
 40
0.2006645478515588
100
AcDbArc
 50
176.76157835491691
 51
269.90174674849533
  0
LINE
  5
397
100
AcDbEntity
  8
0
  6
CONTINUOUS
 62
               7
100
AcDbLine
 10
-1.0760000000000218
 20
50.911999999999921
 30
0.0
 11
-0.9500000000000455
 21
52.799999999999955
 31
0.0
  0
LINE
  5
398
100
AcDbEntity
  8
0
  6
CONTINUOUS
 62
               7
100
AcDbLine
 10
-0.9500000000000455
 20
52.799999999999955
 30
0.0
 11
0.9499999999999318
 21
52.799999999999955
 31
0.0
  0
LINE
  5
399
100
AcDbEntity
  8
0
  6
CONTINUOUS
 62
               7
100
AcDbLine
 10
-3.6159999999999854
 20
50.911999999999921
 30
0.0
 11
-3.4900000000000091
 21
52.799999999999955
 31
0.0
  0
LINE
  5
39A
100
AcDbEntity
  8
0
  6
CONTINUOUS
 62
               7
100
AcDbLine
 10
-1.5900000000000318
 20
52.799999999999955
 30
0.0
 11
-1.4660000000001219
 21
50.911999999999921
 31
0.0
  0
LINE
  5
39B
100
AcDbEntity
  8
0
  6
CONTINUOUS
 62
               7
100
AcDbLine
 10
3.6999999999999318
 20
53.299999999999955
 30
0.0
 11
3.6999999999999318
 21
54.299999999999955
 31
0.0
  0
LINE
  5
39C
100
AcDbEntity
  8
0
  6
CONTINUOUS
 62
               7
100
AcDbLine
 10
4.6999999999999318
 20
54.299999999999955
 30
0.0
 11
3.6999999999999318
 21
54.299999999999955
 31
0.0
  0
LINE
  5
39D
100
AcDbEntity
  8
0
  6
CONTINUOUS
 62
               7
100
AcDbLine
 10
-3.0900000000000318
 20
50.199999999999932
 30
0.0
 11
-1.9900000000000091
 21
50.199999999999932
 31
0.0
  0
LINE
  5
39E
100
AcDbEntity
  8
0
  6
CONTINUOUS
 62
               7
100
AcDbLine
 10
-3.4160000000000537
 20
50.699999999999932
 30
0.0
 11
-1.6660000000000537
 21
50.699999999999932
 31
0.0
  0
LINE
  5
39F
100
AcDbEntity
  8
0
  6
CONTINUOUS
 62
               7
100
AcDbLine
 10
-3.4900000000000091
 20
52.799999999999955
 30
0.0
 11
-1.5900000000000318
 21
52.799999999999955
 31
0.0
  0
ARC
  5
3A0
100
AcDbEntity
  8
0
  6
CONTINUOUS
 62
               7
100
AcDbCircle
 10
-1.6652851473611463
 20
50.899665233359542
 30
0.0
 40
0.1996665130331531
100
AcDbArc
 50
269.79486732121239
 51
3.5418075753734648
  0
LINE
  5
3A1
100
AcDbEntity
  8
0
  6
CONTINUOUS
 62
               7
100
AcDbLine
 10
-1.9900000000000091
 20
50.699999999999932
 30
0.0
 11
-1.9900000000000091
 21
50.199999999999932
 31
0.0
  0
ARC
  5
3A2
100
AcDbEntity
  8
0
  6
CONTINUOUS
 62
               7
100
AcDbCircle
 10
-3.4156558920257112
 20
50.900664252805882
 30
0.0
 40
0.2006645478515588
100
AcDbArc
 50
176.76157835491691
 51
269.90174674849533
  0
LINE
  5
3A3
100
AcDbEntity
  8
0
  6
CONTINUOUS
 62
               7
100
AcDbLine
 10
-3.0900000000000318
 20
50.699999999999932
 30
0.0
 11
-3.0900000000000318
 21
50.199999999999932
 31
0.0
  0
LINE
  5
3A4
100
AcDbEntity
  8
0
  6
CONTINUOUS
 62
               7
100
AcDbLine
 10
-4.7000000000000455
 20
48.999999999999886
 30
0.0
 11
4.6999999999999318
 21
48.999999999999886
 31
0.0
  0
LINE
  5
3A5
100
AcDbEntity
  8
0
  6
CONTINUOUS
 62
               7
100
AcDbLine
 10
4.6999999999999318
 20
48.999999999999886
 30
0.0
 11
4.6999999999999318
 21
54.299999999999955
 31
0.0
  0
CIRCLE
  5
3A6
100
AcDbEntity
  8
0
  6
CONTINUOUS
 62
               7
100
AcDbCircle
 10
-2.5400000000000773
 20
51.799999999999955
 30
0.0
 40
0.75
  0
CIRCLE
  5
3A7
100
AcDbEntity
  8
0
  6
CONTINUOUS
 62
               7
100
AcDbCircle
 10
2.5399999999999636
 20
51.799999999999955
 30
0.0
 40
0.75
  0
LINE
  5
3A8
100
AcDbEntity
  8
0
  6
CONTINUOUS
 62
               7
100
AcDbLine
 10
-4.7000000000000455
 20
49.399999999999977
 30
0.0
 11
-5.0
 21
49.399999999999977
 31
0.0
  0
LINE
  5
3A9
100
AcDbEntity
  8
0
  6
CONTINUOUS
 62
               7
100
AcDbLine
 10
-4.7000000000000455
 20
49.499999999999886
 30
0.0
 11
-5.0
 21
49.499999999999886
 31
0.0
  0
ARC
  5
3AA
100
AcDbEntity
  8
0
  6
CONTINUOUS
 62
               7
100
AcDbCircle
 10
4.6999999999999318
 20
66.699999999999932
 30
0.0
 40
0.3
100
AcDbArc
 50
0.0
 51
89.999999999999815
  0
LINE
  5
3AB
100
AcDbEntity
  8
0
  6
CONTINUOUS
 62
               7
100
AcDbLine
 10
5.0
 20
66.699999999999932
 30
0.0
 11
5.0
 21
34.999999999999886
 31
0.0
  0
LINE
  5
3AC
100
AcDbEntity
  8
0
  6
CONTINUOUS
 62
               7
100
AcDbLine
 10
-5.0
 20
32.0
 30
0.0
 11
5.0
 21
32.0
 31
0.0
  0
LINE
  5
3AD
100
AcDbEntity
  8
0
  6
CONTINUOUS
 62
               7
100
AcDbLine
 10
4.2071067811864395
 20
22.792893218813447
 30
0.0
 11
2.7928932188133331
 21
24.207106781186553
 31
0.0
  0
LINE
  5
3AE
100
AcDbEntity
  8
0
  6
CONTINUOUS
 62
               7
100
AcDbLine
 10
4.2071067811864395
 20
24.207106781186553
 30
0.0
 11
2.7928932188133331
 21
22.792893218813447
 31
0.0
  0
CIRCLE
  5
3AF
100
AcDbEntity
  8
0
  6
CONTINUOUS
 62
               7
100
AcDbCircle
 10
3.5
 20
23.5
 30
0.0
 40
1.5
  0
CIRCLE
  5
3B0
100
AcDbEntity
  8
0
  6
CONTINUOUS
 62
               7
100
AcDbCircle
 10
0.0
 20
21.75
 30
0.0
 40
1.8500000000000001
  0
CIRCLE
  5
3B1
100
AcDbEntity
  8
0
  6
CONTINUOUS
 62
               7
100
AcDbCircle
 10
0.0
 20
21.75
 30
0.0
 40
1.9000000000000001
  0
LINE
  5
3B2
100
AcDbEntity
  8
0
  6
CONTINUOUS
 62
               7
100
AcDbLine
 10
-5.0
 20
0.2999999999999545
 30
0.0
 11
-5.0
 21
32.0
 31
0.0
  0
LINE
  5
3B3
100
AcDbEntity
  8
0
  6
CONTINUOUS
 62
               7
100
AcDbLine
 10
5.0
 20
21.899999999999977
 30
0.0
 11
3.5
 21
21.899999999999977
 31
0.0
  0
LINE
  5
3B4
100
AcDbEntity
  8
0
  6
CONTINUOUS
 62
               7
100
AcDbLine
 10
3.5
 20
25.100000000000023
 30
0.0
 11
5.0
 21
25.100000000000023
 31
0.0
  0
CIRCLE
  5
3B5
100
AcDbEntity
  8
0
  6
CONTINUOUS
 62
               7
100
AcDbCircle
 10
0.0
 20
21.75
 30
0.0
 40
2.0500000000000003
  0
LINE
  5
3B6
100
AcDbEntity
  8
0
  6
CONTINUOUS
 62
               7
100
AcDbLine
 10
2.6499999999999773
 20
25.600000000000023
 30
0.0
 11
5.0
 21
25.600000000000023
 31
0.0
  0
LINE
  5
3B7
100
AcDbEntity
  8
0
  6
CONTINUOUS
 62
               7
100
AcDbLine
 10
2.3943704061238122
 20
26.04081745177109
 30
0.0
 11
5.0
 21
26.04081745177109
 31
0.0
  0
LINE
  5
3B8
100
AcDbEntity
  8
0
  6
CONTINUOUS
 62
               7
100
AcDbLine
 10
2.3943704061238122
 20
26.04081745177109
 30
0.0
 11
2.6499999999999773
 21
25.600000000000023
 31
0.0
  0
LINE
  5
3B9
100
AcDbEntity
  8
0
  6
CONTINUOUS
 62
               7
100
AcDbLine
 10
-2.6500000000000909
 20
25.600000000000023
 30
0.0
 11
-2.3943704061239259
 21
26.04081745177109
 31
0.0
  0
LINE
  5
3BA
100
AcDbEntity
  8
0
  6
CONTINUOUS
 62
               7
100
AcDbLine
 10
1.1443704061238122
 20
24.79081745177109
 30
0.0
 11
1.3999999999999773
 21
24.350000000000023
 31
0.0
  0
LINE
  5
3BB
100
AcDbEntity
  8
0
  6
CONTINUOUS
 62
               7
100
AcDbLine
 10
2.6499999999999773
 20
25.600000000000023
 30
0.0
 11
1.3999999999999773
 21
24.350000000000023
 31
0.0
  0
LINE
  5
3BC
100
AcDbEntity
  8
0
  6
CONTINUOUS
 62
               7
100
AcDbLine
 10
1.1443704061238122
 20
24.79081745177109
 30
0.0
 11
2.3943704061238122
 21
26.04081745177109
 31
0.0
  0
LINE
  5
3BD
100
AcDbEntity
  8
0
  6
CONTINUOUS
 62
               7
100
AcDbLine
 10
-1.1443704061239259
 20
24.79081745177109
 30
0.0
 11
-1.4000000000000909
 21
24.350000000000023
 31
0.0
  0
LINE
  5
3BE
100
AcDbEntity
  8
0
  6
CONTINUOUS
 62
               7
100
AcDbLine
 10
-1.1443704061239259
 20
24.79081745177109
 30
0.0
 11
-2.3943704061239259
 21
26.04081745177109
 31
0.0
  0
LINE
  5
3BF
100
AcDbEntity
  8
0
  6
CONTINUOUS
 62
               7
100
AcDbLine
 10
-5.0
 20
26.04081745177109
 30
0.0
 11
-2.3943704061239259
 21
26.04081745177109
 31
0.0
  0
LINE
  5
3C0
100
AcDbEntity
  8
0
  6
CONTINUOUS
 62
               7
100
AcDbLine
 10
1.1443704061238122
 20
24.79081745177109
 30
0.0
 11
-1.1443704061239259
 21
24.79081745177109
 31
0.0
  0
LINE
  5
3C1
100
AcDbEntity
  8
0
  6
CONTINUOUS
 62
               7
100
AcDbLine
 10
-5.0000000000001137
 20
25.600000000000023
 30
0.0
 11
-2.6500000000000909
 21
25.600000000000023
 31
0.0
  0
LINE
  5
3C2
100
AcDbEntity
  8
0
  6
CONTINUOUS
 62
               7
100
AcDbLine
 10
-2.6500000000000909
 20
25.600000000000023
 30
0.0
 11
-1.4000000000000909
 21
24.350000000000023
 31
0.0
  0
LINE
  5
3C3
100
AcDbEntity
  8
0
  6
CONTINUOUS
 62
               7
100
AcDbLine
 10
1.3999999999999773
 20
24.350000000000023
 30
0.0
 11
-1.4000000000000909
 21
24.350000000000023
 31
0.0
  0
LINE
  5
3C4
100
AcDbEntity
  8
0
  6
CONTINUOUS
 62
               7
100
AcDbLine
 10
-3.5
 20
21.899999999999977
 30
0.0
 11
-5.0
 21
21.899999999999977
 31
0.0
  0
LINE
  5
3C5
100
AcDbEntity
  8
0
  6
CONTINUOUS
 62
               7
100
AcDbLine
 10
-5.0
 20
25.100000000000023
 30
0.0
 11
-3.5
 21
25.100000000000023
 31
0.0
  0
ARC
  5
3C6
100
AcDbEntity
  8
0
  6
CONTINUOUS
 62
               7
100
AcDbCircle
 10
3.5
 20
23.5
 30
0.0
 40
1.6000000000000001
100
AcDbArc
 50
89.999999999999815
 51
269.99999999999937
  0
ARC
  5
3C7
100
AcDbEntity
  8
0
  6
CONTINUOUS
 62
               7
100
AcDbCircle
 10
-3.5
 20
23.5
 30
0.0
 40
1.6000000000000001
100
AcDbArc
 50
270.00000000000023
 51
89.999999999999801
  0
LINE
  5
3C8
100
AcDbEntity
  8
0
  6
CENTER
 62
               2
100
AcDbLine
 10
-2.5
 20
21.75
 30
0.0
 11
2.5
 21
21.75
 31
0.0
  0
LINE
  5
3C9
100
AcDbEntity
  8
0
  6
CONTINUOUS
 62
               7
100
AcDbLine
 10
-1.8255136263528584
 20
22.049999999999955
 30
0.0
 11
1.8255136263528584
 21
22.049999999999955
 31
0.0
  0
LINE
  5
3CA
100
AcDbEntity
  8
0
  6
CONTINUOUS
 62
               7
100
AcDbLine
 10
0.0
 20
21.449999999999932
 30
0.0
 11
1.8255136263528584
 21
21.449999999999932
 31
0.0
  0
ARC
  5
3CB
100
AcDbEntity
  8
0
  6
CONTINUOUS
 62
               7
100
AcDbCircle
 10
0.0
 20
21.75
 30
0.0
 40
0.8
100
AcDbArc
 50
202.02431283704175
 51
337.97568716295712
  0
ARC
  5
3CC
100
AcDbEntity
  8
0
  6
CONTINUOUS
 62
               7
100
AcDbCircle
 10
0.0
 20
21.75
 30
0.0
 40
0.8
100
AcDbArc
 50
22.024312837042157
 51
157.97568716295754
  0
LINE
  5
3CD
100
AcDbEntity
  8
0
  6
CONTINUOUS
 62
               7
100
AcDbLine
 10
-1.8255136263528584
 20
21.449999999999932
 30
0.0
 11
0.0
 21
21.449999999999932
 31
0.0
  0
LINE
  5
3CE
100
AcDbEntity
  8
0
  6
CONTINUOUS
 62
               7
100
AcDbLine
 10
-4.2071067811866669
 20
22.792893218813447
 30
0.0
 11
-2.7928932188135605
 21
24.207106781186553
 31
0.0
  0
LINE
  5
3CF
100
AcDbEntity
  8
0
  6
CONTINUOUS
 62
               7
100
AcDbLine
 10
-4.2071067811866669
 20
24.207106781186553
 30
0.0
 11
-2.7928932188135605
 21
22.792893218813447
 31
0.0
  0
CIRCLE
  5
3D0
100
AcDbEntity
  8
0
  6
CONTINUOUS
 62
               7
100
AcDbCircle
 10
-3.5
 20
23.5
 30
0.0
 40
1.5
  0
LINE
  5
3D1
100
AcDbEntity
  8
0
  6
CONTINUOUS
 62
               7
100
AcDbLine
 10
5.0
 20
18.098078436969899
 30
0.0
 11
-5.0
 21
18.098078436969899
 31
0.0
  0
LINE
  5
3D2
100
AcDbEntity
  8
0
  6
CONTINUOUS
 62
               7
100
AcDbLine
 10
-5.0
 20
18.909182548228841
 30
0.0
 11
5.0
 21
18.909182548228841
 31
0.0
  0
LINE
  5
3D3
100
AcDbEntity
  8
0
  6
CONTINUOUS
 62
               7
100
AcDbLine
 10
4.6999999999999318
 20
17.999999999999886
 30
0.0
 11
-4.7000000000000455
 21
17.999999999999886
 31
0.0
  0
LINE
  5
3D4
100
AcDbEntity
  8
0
  6
CONTINUOUS
 62
               7
100
AcDbLine
 10
-4.7000000000000455
 20
17.999999999999886
 30
0.0
 11
-4.7000000000000455
 21
12.699999999999932
 31
0.0
  0
LINE
  5
3D5
100
AcDbEntity
  8
0
  6
CONTINUOUS
 62
               7
100
AcDbLine
 10
-5.0
 20
17.499999999999886
 30
0.0
 11
-4.7000000000000455
 21
17.499999999999886
 31
0.0
  0
LINE
  5
3D6
100
AcDbEntity
  8
0
  6
CONTINUOUS
 62
               7
100
AcDbLine
 10
-5.0
 20
17.600000000000023
 30
0.0
 11
-4.7000000000000455
 21
17.600000000000023
 31
0.0
  0
ARC
  5
3D7
100
AcDbEntity
  8
0
  6
CONTINUOUS
 62
               7
100
AcDbCircle
 10
4.6999999999999318
 20
12.499999999999886
 30
0.0
 40
0.3
100
AcDbArc
 50
269.99999999999937
 51
0.0
  0
LINE
  5
3D8
100
AcDbEntity
  8
0
  6
CONTINUOUS
 62
               7
100
AcDbLine
 10
-4.7000000000000455
 20
12.699999999999932
 30
0.0
 11
-3.7000000000000455
 21
12.699999999999932
 31
0.0
  0
LINE
  5
3D9
100
AcDbEntity
  8
0
  6
CONTINUOUS
 62
               7
100
AcDbLine
 10
-2.5
 20
12.199999999999932
 30
0.0
 11
-4.7000000000000455
 21
12.199999999999932
 31
0.0
  0
LINE
  5
3DA
100
AcDbEntity
  8
0
  6
CONTINUOUS
 62
               7
100
AcDbLine
 10
4.6999999999999318
 20
17.600000000000023
 30
0.0
 11
5.0
 21
17.600000000000023
 31
0.0
  0
LINE
  5
3DB
100
AcDbEntity
  8
0
  6
CONTINUOUS
 62
               7
100
AcDbLine
 10
4.6999999999999318
 20
17.499999999999886
 30
0.0
 11
5.0
 21
17.499999999999886
 31
0.0
  0
LINE
  5
3DC
100
AcDbEntity
  8
0
  6
CONTINUOUS
 62
               7
100
AcDbLine
 10
-2.5
 20
13.199999999999932
 30
0.0
 11
-2.9000000000000909
 21
13.199999999999932
 31
0.0
  0
CIRCLE
  5
3DD
100
AcDbEntity
  8
0
  6
CONTINUOUS
 62
               7
100
AcDbCircle
 10
-2.5400000000000773
 20
15.199999999999932
 30
0.0
 40
0.75
  0
CIRCLE
  5
3DE
100
AcDbEntity
  8
0
  6
CONTINUOUS
 62
               7
100
AcDbCircle
 10
2.5399999999999636
 20
15.199999999999932
 30
0.0
 40
0.75
  0
LINE
  5
3DF
100
AcDbEntity
  8
0
  6
CONTINUOUS
 62
               7
100
AcDbLine
 10
2.5
 20
12.399999999999977
 30
0.0
 11
-2.5
 21
12.399999999999977
 31
0.0
  0
LINE
  5
3E0
100
AcDbEntity
  8
0
  6
CONTINUOUS
 62
               7
100
AcDbLine
 10
2.5000000005766196
 20
11.199999999999932
 30
0.0
 11
-2.4999999994233804
 21
11.199999999999932
 31
0.0
  0
LINE
  5
3E1
100
AcDbEntity
  8
0
  6
CONTINUOUS
 62
               7
100
AcDbLine
 10
3.6999999999999318
 20
13.699999999999932
 30
0.0
 11
-3.7000000000000455
 21
13.699999999999932
 31
0.0
  0
LINE
  5
3E2
100
AcDbEntity
  8
0
  6
CONTINUOUS
 62
               7
100
AcDbLine
 10
4.6999999999999318
 20
17.999999999999886
 30
0.0
 11
4.6999999999999318
 21
12.699999999999932
 31
0.0
  0
LINE
  5
3E3
100
AcDbEntity
  8
0
  6
CONTINUOUS
 62
               7
100
AcDbLine
 10
3.0899999999999181
 20
16.299999999999955
 30
0.0
 11
3.0899999999999181
 21
16.799999999999955
 31
0.0
  0
ARC
  5
3E4
100
AcDbEntity
  8
0
  6
CONTINUOUS
 62
               7
100
AcDbCircle
 10
3.4156558920255975
 20
16.099335747194004
 30
0.0
 40
0.2006645478515588
100
AcDbArc
 50
356.76157835491654
 51
89.901746748495754
  0
LINE
  5
3E5
100
AcDbEntity
  8
0
  6
CONTINUOUS
 62
               7
100
AcDbLine
 10
1.9900000000000091
 20
16.299999999999955
 30
0.0
 11
1.9900000000000091
 21
16.799999999999955
 31
0.0
  0
ARC
  5
3E6
100
AcDbEntity
  8
0
  6
CONTINUOUS
 62
               7
100
AcDbCircle
 10
1.6652851473610326
 20
16.100334766640458
 30
0.0
 40
0.1996665130331531
100
AcDbArc
 50
89.79486732121282
 51
183.54180757537307
  0
LINE
  5
3E7
100
AcDbEntity
  8
0
  6
CONTINUOUS
 62
               7
100
AcDbLine
 10
3.4900000000000091
 20
14.199999999999932
 30
0.0
 11
1.5899999999999181
 21
14.199999999999932
 31
0.0
  0
LINE
  5
3E8
100
AcDbEntity
  8
0
  6
CONTINUOUS
 62
               7
100
AcDbLine
 10
3.41599999999994
 20
16.299999999999955
 30
0.0
 11
1.66599999999994
 21
16.299999999999955
 31
0.0
  0
LINE
  5
3E9
100
AcDbEntity
  8
0
  6
CONTINUOUS
 62
               7
100
AcDbLine
 10
3.0899999999999181
 20
16.799999999999955
 30
0.0
 11
1.9900000000000091
 21
16.799999999999955
 31
0.0
  0
LINE
  5
3EA
100
AcDbEntity
  8
0
  6
CONTINUOUS
 62
               7
100
AcDbLine
 10
-1.25
 20
12.699999999999932
 30
0.0
 11
-1.25
 21
13.699999999999932
 31
0.0
  0
LINE
  5
3EB
100
AcDbEntity
  8
0
  6
CONTINUOUS
 62
               7
100
AcDbLine
 10
1.25
 20
12.699999999999932
 30
0.0
 11
1.25
 21
13.699999999999932
 31
0.0
  0
LINE
  5
3EC
100
AcDbEntity
  8
0
  6
CONTINUOUS
 62
               7
100
AcDbLine
 10
4.6999999999999318
 20
12.699999999999932
 30
0.0
 11
3.6999999999999318
 21
12.699999999999932
 31
0.0
  0
LINE
  5
3ED
100
AcDbEntity
  8
0
  6
CONTINUOUS
 62
               7
100
AcDbLine
 10
3.6999999999999318
 20
13.699999999999932
 30
0.0
 11
3.6999999999999318
 21
12.699999999999932
 31
0.0
  0
LINE
  5
3EE
100
AcDbEntity
  8
0
  6
CONTINUOUS
 62
               7
100
AcDbLine
 10
-3.7000000000000455
 20
13.699999999999932
 30
0.0
 11
-3.7000000000000455
 21
12.699999999999932
 31
0.0
  0
LINE
  5
3EF
100
AcDbEntity
  8
0
  6
CONTINUOUS
 62
               7
100
AcDbLine
 10
1.5899999999999181
 20
14.199999999999932
 30
0.0
 11
1.4659999999998945
 21
16.087999999999965
 31
0.0
  0
LINE
  5
3F0
100
AcDbEntity
  8
0
  6
CONTINUOUS
 62
               7
100
AcDbLine
 10
3.6159999999999854
 20
16.087999999999965
 30
0.0
 11
3.4900000000000091
 21
14.199999999999932
 31
0.0
  0
LINE
  5
3F1
100
AcDbEntity
  8
0
  6
CONTINUOUS
 62
               7
100
AcDbLine
 10
0.9499999999999318
 20
14.199999999999932
 30
0.0
 11
-0.9500000000000455
 21
14.199999999999932
 31
0.0
  0
LINE
  5
3F2
100
AcDbEntity
  8
0
  6
CONTINUOUS
 62
               7
100
AcDbLine
 10
1.0759999999999081
 20
16.087999999999965
 30
0.0
 11
0.9499999999999318
 21
14.199999999999932
 31
0.0
  0
ARC
  5
3F3
100
AcDbEntity
  8
0
  6
CONTINUOUS
 62
               7
100
AcDbCircle
 10
0.8756558920256339
 20
16.099335747194004
 30
0.0
 40
0.2006645478515588
100
AcDbArc
 50
356.76157835491654
 51
89.901746748495754
  0
LINE
  5
3F4
100
AcDbEntity
  8
0
  6
CONTINUOUS
 62
               7
100
AcDbLine
 10
0.8759999999999764
 20
16.299999999999955
 30
0.0
 11
-0.8740000000000237
 21
16.299999999999955
 31
0.0
  0
LINE
  5
3F5
100
AcDbEntity
  8
0
  6
CONTINUOUS
 62
               7
100
AcDbLine
 10
0.5499999999999545
 20
16.299999999999955
 30
0.0
 11
0.5499999999999545
 21
16.799999999999955
 31
0.0
  0
LINE
  5
3F6
100
AcDbEntity
  8
0
  6
CONTINUOUS
 62
               7
100
AcDbLine
 10
0.5499999999999545
 20
16.799999999999955
 30
0.0
 11
-0.5500000000000682
 21
16.799999999999955
 31
0.0
  0
LINE
  5
3F7
100
AcDbEntity
  8
0
  6
CONTINUOUS
 62
               7
100
AcDbLine
 10
-0.5500000000000682
 20
16.299999999999955
 30
0.0
 11
-0.5500000000000682
 21
16.799999999999955
 31
0.0
  0
ARC
  5
3F8
100
AcDbEntity
  8
0
  6
CONTINUOUS
 62
               7
100
AcDbCircle
 10
-0.874714852638931
 20
16.100334766640458
 30
0.0
 40
0.1996665130331531
100
AcDbArc
 50
89.79486732121282
 51
183.54180757537307
  0
LINE
  5
3F9
100
AcDbEntity
  8
0
  6
CONTINUOUS
 62
               7
100
AcDbLine
 10
-0.9500000000000455
 20
14.199999999999932
 30
0.0
 11
-1.0740000000000691
 21
16.087999999999965
 31
0.0
  0
LINE
  5
3FA
100
AcDbEntity
  8
0
  6
CONTINUOUS
 62
               7
100
AcDbLine
 10
0.3999999999999773
 20
14.799999999999955
 30
0.0
 11
0.3999999999999773
 21
15.599999999999909
 31
0.0
  0
LINE
  5
3FB
100
AcDbEntity
  8
0
  6
CONTINUOUS
 62
               7
100
AcDbLine
 10
-0.400000000000091
 20
14.799999999999955
 30
0.0
 11
0.3999999999999773
 21
14.799999999999955
 31
0.0
  0
LINE
  5
3FC
100
AcDbEntity
  8
0
  6
CONTINUOUS
 62
               7
100
AcDbLine
 10
-0.400000000000091
 20
14.799999999999955
 30
0.0
 11
-0.400000000000091
 21
15.599999999999909
 31
0.0
  0
LINE
  5
3FD
100
AcDbEntity
  8
0
  6
CONTINUOUS
 62
               7
100
AcDbLine
 10
-0.400000000000091
 20
15.599999999999909
 30
0.0
 11
0.3999999999999773
 21
15.599999999999909
 31
0.0
  0
LINE
  5
3FE
100
AcDbEntity
  8
0
  6
CONTINUOUS
 62
               7
100
AcDbLine
 10
-1.5900000000000318
 20
14.199999999999932
 30
0.0
 11
-3.4900000000000091
 21
14.199999999999932
 31
0.0
  0
LINE
  5
3FF
100
AcDbEntity
  8
0
  6
CONTINUOUS
 62
               7
100
AcDbLine
 10
-1.4640000000000555
 20
16.087999999999965
 30
0.0
 11
-1.5900000000000318
 21
14.199999999999932
 31
0.0
  0
ARC
  5
400
100
AcDbEntity
  8
0
  6
CONTINUOUS
 62
               7
100
AcDbCircle
 10
-1.6643441079743297
 20
16.099335747194004
 30
0.0
 40
0.2006645478515588
100
AcDbArc
 50
356.76157835491654
 51
89.901746748495754
  0
LINE
  5
401
100
AcDbEntity
  8
0
  6
CONTINUOUS
 62
               7
100
AcDbLine
 10
-1.664000000000101
 20
16.299999999999955
 30
0.0
 11
-3.414000000000101
 21
16.299999999999955
 31
0.0
  0
LINE
  5
402
100
AcDbEntity
  8
0
  6
CONTINUOUS
 62
               7
100
AcDbLine
 10
-1.9900000000000091
 20
16.299999999999955
 30
0.0
 11
-1.9900000000000091
 21
16.799999999999955
 31
0.0
  0
LINE
  5
403
100
AcDbEntity
  8
0
  6
CONTINUOUS
 62
               7
100
AcDbLine
 10
-1.9900000000000091
 20
16.799999999999955
 30
0.0
 11
-3.0900000000000318
 21
16.799999999999955
 31
0.0
  0
LINE
  5
404
100
AcDbEntity
  8
0
  6
CONTINUOUS
 62
               7
100
AcDbLine
 10
-3.0900000000000318
 20
16.299999999999955
 30
0.0
 11
-3.0900000000000318
 21
16.799999999999955
 31
0.0
  0
ARC
  5
405
100
AcDbEntity
  8
0
  6
CONTINUOUS
 62
               7
100
AcDbCircle
 10
-3.4147148526390083
 20
16.100334766640458
 30
0.0
 40
0.1996665130331531
100
AcDbArc
 50
89.79486732121282
 51
183.54180757537307
  0
LINE
  5
406
100
AcDbEntity
  8
0
  6
CONTINUOUS
 62
               7
100
AcDbLine
 10
-3.4900000000000091
 20
14.199999999999932
 30
0.0
 11
-3.6140000000000327
 21
16.087999999999965
 31
0.0
  0
LINE
  5
407
100
AcDbEntity
  8
0
  6
CONTINUOUS
 62
               7
100
AcDbLine
 10
2.5
 20
11.199999999999932
 30
0.0
 11
2.5
 21
13.699999999999932
 31
0.0
  0
LINE
  5
408
100
AcDbEntity
  8
0
  6
CONTINUOUS
 62
               7
100
AcDbLine
 10
-2.5
 20
11.199999999999932
 30
0.0
 11
-2.5
 21
13.699999999999932
 31
0.0
  0
LINE
  5
409
100
AcDbEntity
  8
0
  6
CONTINUOUS
 62
               7
100
AcDbLine
 10
2.8999999999999773
 20
12.699999999999932
 30
0.0
 11
-2.9000000000000909
 21
12.699999999999932
 31
0.0
  0
LINE
  5
40A
100
AcDbEntity
  8
0
  6
CONTINUOUS
 62
               7
100
AcDbLine
 10
-2.9000000000000909
 20
13.199999999999932
 30
0.0
 11
-2.9000000000000909
 21
12.199999999999932
 31
0.0
  0
LINE
  5
40B
100
AcDbEntity
  8
0
  6
CONTINUOUS
 62
               7
100
AcDbLine
 10
2.8999999999999773
 20
13.199999999999932
 30
0.0
 11
2.8999999999999773
 21
12.199999999999932
 31
0.0
  0
LINE
  5
40C
100
AcDbEntity
  8
0
  6
CONTINUOUS
 62
               7
100
AcDbLine
 10
2.8999999999999773
 20
13.199999999999932
 30
0.0
 11
2.5
 21
13.199999999999932
 31
0.0
  0
LINE
  5
40D
100
AcDbEntity
  8
0
  6
CONTINUOUS
 62
               7
100
AcDbLine
 10
4.6999999999999318
 20
12.199999999999932
 30
0.0
 11
2.5
 21
12.199999999999932
 31
0.0
  0
LINE
  5
40E
100
AcDbEntity
  8
0
  6
CONTINUOUS
 62
               7
100
AcDbLine
 10
1.5
 20
5.0
 30
0.0
 11
1.5
 21
0.0
 31
0.0
  0
LINE
  5
40F
100
AcDbEntity
  8
0
  6
CONTINUOUS
 62
               7
100
AcDbLine
 10
-1.5
 20
5.0
 30
0.0
 11
-1.5
 21
0.0
 31
0.0
  0
LINE
  5
410
100
AcDbEntity
  8
0
  6
CONTINUOUS
 62
               7
100
AcDbLine
 10
1.5
 20
5.0
 30
0.0
 11
-1.5
 21
5.0
 31
0.0
  0
ARC
  5
411
100
AcDbEntity
  8
0
  6
CONTINUOUS
 62
               7
100
AcDbCircle
 10
-4.7000000000000455
 20
0.2999999999999545
 30
0.0
 40
0.3
100
AcDbArc
 50
179.99999999999963
 51
269.99999999999937
  0
LINE
  5
412
100
AcDbEntity
  8
0
  6
CONTINUOUS
 62
               7
100
AcDbLine
 10
5.0
 20
0.2999999999999545
 30
0.0
 11
5.0
 21
32.0
 31
0.0
  0
ARC
  5
413
100
AcDbEntity
  8
0
  6
CONTINUOUS
 62
               7
100
AcDbCircle
 10
4.6999999999999318
 20
0.2999999999999545
 30
0.0
 40
0.3
100
AcDbArc
 50
270.00000000000023
 51
0.0
  0
LINE
  5
414
100
AcDbEntity
  8
0
  6
CONTINUOUS
 62
               7
100
AcDbLine
 10
-4.7000000000000455
 20
0.0
 30
0.0
 11
4.6999999999999318
 21
0.0
 31
0.0
  0
ENDBLK
  5
415
100
AcDbEntity
  8
0
100
AcDbBlockEnd
  0
BLOCK
  5
416
100
AcDbEntity
  8
0
100
AcDbBlockBegin
  2
MV090MA-11-9
 70
               0
 10
0.0
 20
0.0
 30
0.0
  3
MV090MA-11-9
  1

  0
LINE
  5
417
100
AcDbEntity
  8
0
  6
CENTER
 62
               2
100
AcDbLine
 10
0.0
 20
16.977687671954584
 30
0.0
 11
0.0
 21
-2.0148602543919907
 31
0.0
  0
LINE
  5
418
100
AcDbEntity
  8
0
  6
CONTINUOUS
 62
               7
100
AcDbLine
 10
5.0
 20
15.499999999999943
 30
0.0
 11
-5.0
 21
15.499999999999943
 31
0.0
  0
LINE
  5
419
100
AcDbEntity
  8
0
  6
CONTINUOUS
 62
               7
100
AcDbLine
 10
3.0
 20
14.999999999999943
 30
0.0
 11
-3.0
 21
14.999999999999943
 31
0.0
  0
LINE
  5
41A
100
AcDbEntity
  8
0
  6
CONTINUOUS
 62
               7
100
AcDbLine
 10
3.0
 20
14.499999999999943
 30
0.0
 11
-3.0
 21
14.499999999999943
 31
0.0
  0
LINE
  5
41B
100
AcDbEntity
  8
0
  6
CONTINUOUS
 62
               7
100
AcDbLine
 10
-3.0
 20
14.999999999999943
 30
0.0
 11
-3.0
 21
14.499999999999943
 31
0.0
  0
LINE
  5
41C
100
AcDbEntity
  8
0
  6
CONTINUOUS
 62
               7
100
AcDbLine
 10
3.0
 20
14.999999999999943
 30
0.0
 11
3.0
 21
14.499999999999943
 31
0.0
  0
LINE
  5
41D
100
AcDbEntity
  8
0
  6
CONTINUOUS
 62
               7
100
AcDbLine
 10
5.0
 20
15.499999999999943
 30
0.0
 11
5.0
 21
0.0
 31
0.0
  0
LINE
  5
41E
100
AcDbEntity
  8
0
  6
CONTINUOUS
 62
               7
100
AcDbLine
 10
-5.0
 20
15.499999999999943
 30
0.0
 11
-5.0
 21
0.0
 31
0.0
  0
LINE
  5
41F
100
AcDbEntity
  8
0
  6
CONTINUOUS
 62
               7
100
AcDbLine
 10
0.9999999999998863
 20
14.06340289823595
 30
0.0
 11
-3.0000000000001137
 21
14.06340289823595
 31
0.0
  0
LINE
  5
420
100
AcDbEntity
  8
0
  6
CONTINUOUS
 62
               7
100
AcDbLine
 10
1.4999999999998863
 20
13.56340289823595
 30
0.0
 11
0.9999999999998863
 21
14.06340289823595
 31
0.0
  0
LINE
  5
421
100
AcDbEntity
  8
0
  6
CONTINUOUS
 62
               7
100
AcDbLine
 10
-3.5000000000001137
 20
13.56340289823595
 30
0.0
 11
-3.0000000000001137
 21
14.06340289823595
 31
0.0
  0
LINE
  5
422
100
AcDbEntity
  8
0
  6
CONTINUOUS
 62
               7
100
AcDbLine
 10
-3.5000000000001137
 20
13.56340289823595
 30
0.0
 11
1.4999999999998863
 21
13.56340289823595
 31
0.0
  0
LINE
  5
423
100
AcDbEntity
  8
0
  6
CONTINUOUS
 62
               7
100
AcDbLine
 10
1.4999999999998863
 20
13.56340289823595
 30
0.0
 11
1.4999999999998863
 21
8.5634028982359496
 31
0.0
  0
LINE
  5
424
100
AcDbEntity
  8
0
  6
CONTINUOUS
 62
               7
100
AcDbLine
 10
-3.5000000000001137
 20
13.56340289823595
 30
0.0
 11
-3.5000000000001137
 21
8.5634028982359496
 31
0.0
  0
LINE
  5
425
100
AcDbEntity
  8
0
  6
CENTER
 62
               2
100
AcDbLine
 10
-1.0000000000001137
 20
14.707092014665079
 30
0.0
 11
-1.0000000000001137
 21
-0.8499208178858453
 31
0.0
  0
LINE
  5
426
100
AcDbEntity
  8
0
  6
CONTINUOUS
 62
               7
100
AcDbLine
 10
-4.2500000000001137
 20
0.0192209357611546
 30
0.0
 11
-4.2500000000001137
 21
2.7192209357611432
 31
0.0
  0
LINE
  5
427
100
AcDbEntity
  8
0
  6
CONTINUOUS
 62
               7
100
AcDbLine
 10
2.2499999999998863
 20
0.0192209357611546
 30
0.0
 11
2.2499999999998863
 21
2.7192209357611432
 31
0.0
  0
LINE
  5
428
100
AcDbEntity
  8
0
  6
CONTINUOUS
 62
               7
100
AcDbLine
 10
-4.2500000000001137
 20
2.7192209357611432
 30
0.0
 11
2.2499999999998863
 21
2.7192209357611432
 31
0.0
  0
LINE
  5
429
100
AcDbEntity
  8
0
  6
CONTINUOUS
 62
               7
100
AcDbLine
 10
-4.0000000000001137
 20
4.3584028982359655
 30
0.0
 11
1.9999999999998863
 21
4.3584028982359655
 31
0.0
  0
LINE
  5
42A
100
AcDbEntity
  8
0
  6
CONTINUOUS
 62
               7
100
AcDbLine
 10
-4.0000000000001137
 20
6.3584028982359655
 30
0.0
 11
1.9999999999998863
 21
6.3584028982359655
 31
0.0
  0
LINE
  5
42B
100
AcDbEntity
  8
0
  6
CONTINUOUS
 62
               7
100
AcDbLine
 10
-3.5000000000001137
 20
8.5634028982359496
 30
0.0
 11
1.4999999999998863
 21
8.5634028982359496
 31
0.0
  0
LINE
  5
42C
100
AcDbEntity
  8
0
  6
CONTINUOUS
 62
               7
100
AcDbLine
 10
0.2499999999998863
 20
8.0634028982359496
 30
0.0
 11
0.2499999999998863
 21
6.8584028982359655
 31
0.0
  0
LINE
  5
42D
100
AcDbEntity
  8
0
  6
CONTINUOUS
 62
               2
100
AcDbLine
 10
0.0749999999998749
 20
8.0634028982359496
 30
0.0
 11
0.0749999999998749
 21
6.8584028982359655
 31
0.0
  0
LINE
  5
42E
100
AcDbEntity
  8
0
  6
CONTINUOUS
 62
               7
100
AcDbLine
 10
-2.2500000000001137
 20
8.0634028982359496
 30
0.0
 11
-2.2500000000001137
 21
6.8584028982359655
 31
0.0
  0
LINE
  5
42F
100
AcDbEntity
  8
0
  6
CONTINUOUS
 62
               2
100
AcDbLine
 10
-2.0750000000001023
 20
8.0634028982359496
 30
0.0
 11
-2.0750000000001023
 21
6.8584028982359655
 31
0.0
  0
LINE
  5
430
100
AcDbEntity
  8
0
  6
CONTINUOUS
 62
               7
100
AcDbLine
 10
-4.2500000000001137
 20
2.7192209357611432
 30
0.0
 11
-3.7500000000001137
 21
3.2192209357611432
 31
0.0
  0
LINE
  5
431
100
AcDbEntity
  8
0
  6
CONTINUOUS
 62
               7
100
AcDbLine
 10
2.2499999999998863
 20
2.7192209357611432
 30
0.0
 11
1.7499999999998863
 21
3.2192209357611432
 31
0.0
  0
LINE
  5
432
100
AcDbEntity
  8
0
  6
CONTINUOUS
 62
               7
100
AcDbLine
 10
1.7499999999998863
 20
3.2192209357611432
 30
0.0
 11
-3.7500000000001137
 21
3.2192209357611432
 31
0.0
  0
LINE
  5
433
100
AcDbEntity
  8
0
  6
CONTINUOUS
 62
               7
100
AcDbLine
 10
1.4999999999998863
 20
3.8584028982359655
 30
0.0
 11
-3.5000000000001137
 21
3.8584028982359655
 31
0.0
  0
LINE
  5
434
100
AcDbEntity
  8
0
  6
CONTINUOUS
 62
               7
100
AcDbLine
 10
1.9999999999998863
 20
4.3584028982359655
 30
0.0
 11
1.9999999999998863
 21
6.3584028982359655
 31
0.0
  0
LINE
  5
435
100
AcDbEntity
  8
0
  6
CONTINUOUS
 62
               7
100
AcDbLine
 10
1.9999999999998863
 20
4.3584028982359655
 30
0.0
 11
1.4999999999998863
 21
3.8584028982359655
 31
0.0
  0
LINE
  5
436
100
AcDbEntity
  8
0
  6
CONTINUOUS
 62
               7
100
AcDbLine
 10
1.9999999999998863
 20
6.3584028982359655
 30
0.0
 11
1.4999999999998863
 21
6.8584028982359655
 31
0.0
  0
LINE
  5
437
100
AcDbEntity
  8
0
  6
CONTINUOUS
 62
               7
100
AcDbLine
 10
-4.0000000000001137
 20
4.3584028982359655
 30
0.0
 11
-3.5000000000001137
 21
3.8584028982359655
 31
0.0
  0
LINE
  5
438
100
AcDbEntity
  8
0
  6
CONTINUOUS
 62
               7
100
AcDbLine
 10
-4.0000000000001137
 20
6.3584028982359655
 30
0.0
 11
-3.5000000000001137
 21
6.8584028982359655
 31
0.0
  0
LINE
  5
439
100
AcDbEntity
  8
0
  6
CONTINUOUS
 62
               7
100
AcDbLine
 10
1.4999999999998863
 20
6.8584028982359655
 30
0.0
 11
-3.5000000000001137
 21
6.8584028982359655
 31
0.0
  0
LINE
  5
43A
100
AcDbEntity
  8
0
  6
CONTINUOUS
 62
               7
100
AcDbLine
 10
-3.0000000000001137
 20
8.0634028982359496
 30
0.0
 11
-3.5000000000001137
 21
8.5634028982359496
 31
0.0
  0
LINE
  5
43B
100
AcDbEntity
  8
0
  6
CONTINUOUS
 62
               7
100
AcDbLine
 10
1.4999999999998863
 20
8.5634028982359496
 30
0.0
 11
0.9999999999998863
 21
8.0634028982359496
 31
0.0
  0
LINE
  5
43C
100
AcDbEntity
  8
0
  6
CONTINUOUS
 62
               7
100
AcDbLine
 10
-3.0000000000001137
 20
8.0634028982359496
 30
0.0
 11
0.9999999999998863
 21
8.0634028982359496
 31
0.0
  0
LINE
  5
43D
100
AcDbEntity
  8
0
  6
CONTINUOUS
 62
               7
100
AcDbLine
 10
-4.0000000000001137
 20
4.3584028982359655
 30
0.0
 11
-4.0000000000001137
 21
6.3584028982359655
 31
0.0
  0
LINE
  5
43E
100
AcDbEntity
  8
0
  6
CONTINUOUS
 62
               7
100
AcDbLine
 10
0.2499999999998863
 20
3.8584028982359655
 30
0.0
 11
0.2499999999998863
 21
3.2192209357611432
 31
0.0
  0
LINE
  5
43F
100
AcDbEntity
  8
0
  6
CONTINUOUS
 62
               2
100
AcDbLine
 10
0.0749999999998749
 20
3.8584028982359655
 30
0.0
 11
0.0749999999998749
 21
3.2192209357611432
 31
0.0
  0
LINE
  5
440
100
AcDbEntity
  8
0
  6
CONTINUOUS
 62
               7
100
AcDbLine
 10
-2.2500000000001137
 20
3.8584028982359655
 30
0.0
 11
-2.2500000000001137
 21
3.2192209357611432
 31
0.0
  0
LINE
  5
441
100
AcDbEntity
  8
0
  6
CONTINUOUS
 62
               2
100
AcDbLine
 10
-2.0750000000001023
 20
3.8584028982359655
 30
0.0
 11
-2.0750000000001023
 21
3.2192209357611432
 31
0.0
  0
ENDBLK
  5
442
100
AcDbEntity
  8
0
100
AcDbBlockEnd
  0
BLOCK
  5
456
100
AcDbEntity
  8
0
  6
ByBlock
 62
               0
100
AcDbBlockBegin
  2
*D9
 70
               1
 10
0.0
 20
0.0
 30
0.0
  3
*D9
  1

  0
LINE
  5
457
100
AcDbEntity
  8
0
  6
CONTINUOUS
 62
               2
100
AcDbLine
 10
73.778478943331606
 20
-5.8618674276269189
 30
0.0
 11
161.77847894333161
 21
-5.8618674276269189
 31
0.0
  0
LINE
  5
458
100
AcDbEntity
  8
0
  6
CONTINUOUS
 62
               2
100
AcDbLine
 10
73.778478943331606
 20
-29.861867427626919
 30
0.0
 11
73.778478943331606
 21
-4.3618674276269189
 31
0.0
  0
LINE
  5
459
100
AcDbEntity
  8
0
  6
CONTINUOUS
 62
               2
100
AcDbLine
 10
161.77847894333161
 20
-29.861867427626919
 30
0.0
 11
161.77847894333161
 21
-4.3618674276269189
 31
0.0
  0
INSERT
  5
460
100
AcDbEntity
  8
0
  6
CONTINUOUS
 62
               2
100
AcDbBlockReference
  2
_OPEN30
 10
73.778478943331606
 20
-5.8618674276269189
 30
0.0
 41
2.77
 42
2.77
 43
2.77
 50
180.0
  0
INSERT
  5
461
100
AcDbEntity
  8
0
  6
CONTINUOUS
 62
               2
100
AcDbBlockReference
  2
_OPEN30
 10
161.77847894333161
 20
-5.8618674276269189
 30
0.0
 41
2.77
 42
2.77
 43
2.77
  0
MTEXT
  5
462
100
AcDbEntity
  8
0
  6
CONTINUOUS
 62
               2
100
AcDbMText
 10
117.77847894333161
 20
-2.6118674276269189
 30
0.0
 40
4.5
 41
0.0
 71
               5
 72
               1
  1
\A1;P
  0
POINT
  5
463
100
AcDbEntity
  8
DEFPOINTS
  6
CONTINUOUS
 62
               0
100
AcDbPoint
 10
73.778478943331606
 20
-31.361867427626919
 30
0.0
  0
POINT
  5
464
100
AcDbEntity
  8
DEFPOINTS
  6
CONTINUOUS
 62
               0
100
AcDbPoint
 10
161.77847894333161
 20
-31.361867427626919
 30
0.0
  0
POINT
  5
465
100
AcDbEntity
  8
DEFPOINTS
  6
CONTINUOUS
 62
               0
100
AcDbPoint
 10
161.77847894333161
 20
-5.8618674276269189
 30
0.0
  0
ENDBLK
  5
466
100
AcDbEntity
  8
0
  6
ByBlock
 62
               0
100
AcDbBlockEnd
  0
BLOCK
  5
45B
100
AcDbEntity
  8
0
  6
ByBlock
 62
               0
100
AcDbBlockBegin
  2
_OPEN30
 70
               2
 10
0.0
 20
0.0
 30
0.0
  3
_OPEN30
  1

  0
LINE
  5
45C
100
AcDbEntity
  8
0
  6
ByBlock
 62
               0
100
AcDbLine
 10
-1.0
 20
0.267949
 30
0.0
 11
0.0
 21
0.0
 31
0.0
  0
LINE
  5
45D
100
AcDbEntity
  8
0
  6
ByBlock
 62
               0
100
AcDbLine
 10
0.0
 20
0.0
 30
0.0
 11
-1.0
 21
-0.267949
 31
0.0
  0
LINE
  5
45E
100
AcDbEntity
  8
0
  6
ByBlock
 62
               0
100
AcDbLine
 10
0.0
 20
0.0
 30
0.0
 11
-1.0
 21
0.0
 31
0.0
  0
ENDBLK
  5
45F
100
AcDbEntity
  8
0
  6
ByBlock
 62
               0
100
AcDbBlockEnd
  0
BLOCK
  5
469
100
AcDbEntity
  8
0
  6
ByBlock
 62
               0
100
AcDbBlockBegin
  2
*D11
 70
               1
 10
0.0
 20
0.0
 30
0.0
  3
*D11
  1

  0
LINE
  5
46A
100
AcDbEntity
  8
0
  6
CONTINUOUS
 62
               2
100
AcDbLine
 10
142.07847894333162
 20
-106.63785397108612
 30
0.0
 11
90.878478943331629
 21
-106.63785397108612
 31
0.0
  0
LINE
  5
46B
100
AcDbEntity
  8
0
  6
CONTINUOUS
 62
               2
100
AcDbLine
 10
142.07847894333162
 20
-84.545128217301937
 30
0.0
 11
142.07847894333162
 21
-108.13785397108612
 31
0.0
  0
LINE
  5
46C
100
AcDbEntity
  8
0
  6
CONTINUOUS
 62
               2
100
AcDbLine
 10
90.878478943331629
 20
-84.545128217301937
 30
0.0
 11
90.878478943331629
 21
-108.13785397108612
 31
0.0
  0
INSERT
  5
46D
100
AcDbEntity
  8
0
  6
CONTINUOUS
 62
               2
100
AcDbBlockReference
  2
_OPEN30
 10
142.07847894333162
 20
-106.63785397108612
 30
0.0
 41
2.77
 42
2.77
 43
2.77
  0
INSERT
  5
46E
100
AcDbEntity
  8
0
  6
CONTINUOUS
 62
               2
100
AcDbBlockReference
  2
_OPEN30
 10
90.878478943331629
 20
-106.63785397108612
 30
0.0
 41
2.77
 42
2.77
 43
2.77
 50
180.0
  0
MTEXT
  5
46F
100
AcDbEntity
  8
0
  6
CONTINUOUS
 62
               2
100
AcDbMText
 10
116.47847856186189
 20
-103.38785397108612
 30
0.0
 40
4.5
 41
0.0
 71
               5
 72
               1
  1
\A1;L
 11
1.0
 21
-0.0000000000000001
 31
0.0
  0
POINT
  5
470
100
AcDbEntity
  8
DEFPOINTS
  6
CONTINUOUS
 62
               0
100
AcDbPoint
 10
142.07847894333162
 20
-83.045128217301937
 30
0.0
  0
POINT
  5
471
100
AcDbEntity
  8
DEFPOINTS
  6
CONTINUOUS
 62
               0
100
AcDbPoint
 10
90.878478943331629
 20
-83.045128217301937
 30
0.0
  0
POINT
  5
472
100
AcDbEntity
  8
DEFPOINTS
  6
CONTINUOUS
 62
               0
100
AcDbPoint
 10
90.878478943331629
 20
-106.63785397108612
 30
0.0
  0
ENDBLK
  5
473
100
AcDbEntity
  8
0
  6
ByBlock
 62
               0
100
AcDbBlockEnd
  0
BLOCK
  5
476
100
AcDbEntity
  8
0
  6
ByBlock
 62
               0
100
AcDbBlockBegin
  2
*D12
 70
               1
 10
0.0
 20
0.0
 30
0.0
  3
*D12
  1

  0
LINE
  5
477
100
AcDbEntity
  8
0
  6
CONTINUOUS
 62
               2
100
AcDbLine
 10
152.07847894333162
 20
-106.63785397108612
 30
0.0
 11
142.07847894333162
 21
-106.63785397108612
 31
0.0
  0
LINE
  5
478
100
AcDbEntity
  8
0
  6
CONTINUOUS
 62
               2
100
AcDbLine
 10
152.07847894333162
 20
-84.545128217301937
 30
0.0
 11
152.07847894333162
 21
-108.13785397108612
 31
0.0
  0
INSERT
  5
479
100
AcDbEntity
  8
0
  6
CONTINUOUS
 62
               2
100
AcDbBlockReference
  2
_OPEN30
 10
152.07847894333162
 20
-106.63785397108612
 30
0.0
 41
2.77
 42
2.77
 43
2.77
  0
INSERT
  5
47A
100
AcDbEntity
  8
0
  6
CONTINUOUS
 62
               2
100
AcDbBlockReference
  2
_OPEN30
 10
142.07847894333162
 20
-106.63785397108612
 30
0.0
 41
2.77
 42
2.77
 43
2.77
 50
180.0
  0
MTEXT
  5
47B
100
AcDbEntity
  8
0
  6
CONTINUOUS
 62
               2
100
AcDbMText
 10
147.07847894333162
 20
-103.38785397108612
 30
0.0
 40
4.5
 41
0.0
 71
               5
 72
               1
  1
\A1;10
 11
1.0
 21
-0.0000000000000001
 31
0.0
  0
POINT
  5
47C
100
AcDbEntity
  8
DEFPOINTS
  6
CONTINUOUS
 62
               0
100
AcDbPoint
 10
152.07847894333162
 20
-83.045128217301937
 30
0.0
  0
POINT
  5
47D
100
AcDbEntity
  8
DEFPOINTS
  6
CONTINUOUS
 62
               0
100
AcDbPoint
 10
142.07847894333162
 20
-100.36186729963836
 30
0.0
  0
POINT
  5
47E
100
AcDbEntity
  8
DEFPOINTS
  6
CONTINUOUS
 62
               0
100
AcDbPoint
 10
142.07847894333162
 20
-106.63785397108612
 30
0.0
  0
ENDBLK
  5
47F
100
AcDbEntity
  8
0
  6
ByBlock
 62
               0
100
AcDbBlockEnd
  0
BLOCK
  5
482
100
AcDbEntity
  8
0
  6
ByBlock
 62
               0
100
AcDbBlockBegin
  2
*D13
 70
               1
 10
0.0
 20
0.0
 30
0.0
  3
*D13
  1

  0
LINE
  5
483
100
AcDbEntity
  8
0
  6
CONTINUOUS
 62
               2
100
AcDbLine
 10
90.878478943331629
 20
-106.63785397108612
 30
0.0
 11
80.878478943331629
 21
-106.63785397108612
 31
0.0
  0
LINE
  5
484
100
AcDbEntity
  8
0
  6
CONTINUOUS
 62
               2
100
AcDbLine
 10
80.878478943331629
 20
-84.545128217301937
 30
0.0
 11
80.878478943331629
 21
-108.13785397108612
 31
0.0
  0
INSERT
  5
485
100
AcDbEntity
  8
0
  6
CONTINUOUS
 62
               2
100
AcDbBlockReference
  2
_OPEN30
 10
90.878478943331629
 20
-106.63785397108612
 30
0.0
 41
2.77
 42
2.77
 43
2.77
  0
INSERT
  5
486
100
AcDbEntity
  8
0
  6
CONTINUOUS
 62
               2
100
AcDbBlockReference
  2
_OPEN30
 10
80.878478943331629
 20
-106.63785397108612
 30
0.0
 41
2.77
 42
2.77
 43
2.77
 50
180.0
  0
MTEXT
  5
487
100
AcDbEntity
  8
0
  6
CONTINUOUS
 62
               2
100
AcDbMText
 10
85.878478943331629
 20
-103.38785397108612
 30
0.0
 40
4.5
 41
0.0
 71
               5
 72
               1
  1
\A1;10
 11
1.0
 21
-0.0000000000000001
 31
0.0
  0
POINT
  5
488
100
AcDbEntity
  8
DEFPOINTS
  6
CONTINUOUS
 62
               0
100
AcDbPoint
 10
90.878478943331629
 20
-100.36186729963836
 30
0.0
  0
POINT
  5
489
100
AcDbEntity
  8
DEFPOINTS
  6
CONTINUOUS
 62
               0
100
AcDbPoint
 10
80.878478943331629
 20
-83.045128217301937
 30
0.0
  0
POINT
  5
48A
100
AcDbEntity
  8
DEFPOINTS
  6
CONTINUOUS
 62
               0
100
AcDbPoint
 10
80.878478943331629
 20
-106.63785397108612
 30
0.0
  0
ENDBLK
  5
48B
100
AcDbEntity
  8
0
  6
ByBlock
 62
               0
100
AcDbBlockEnd
  0
BLOCK
  5
48E
100
AcDbEntity
  8
0
  6
ByBlock
 62
               0
100
AcDbBlockBegin
  2
*D14
 70
               1
 10
0.0
 20
0.0
 30
0.0
  3
*D14
  1

  0
LINE
  5
48F
100
AcDbEntity
  8
0
  6
CONTINUOUS
 62
               2
100
AcDbLine
 10
80.878478943331629
 20
-106.63785397108612
 30
0.0
 11
73.778478943331606
 21
-106.63785397108612
 31
0.0
  0
LINE
  5
490
100
AcDbEntity
  8
0
  6
CONTINUOUS
 62
               2
100
AcDbLine
 10
73.778478943331606
 20
-106.63785397108612
 30
0.0
 11
57.178777634127528
 21
-106.63785397108612
 31
0.0
  0
LINE
  5
491
100
AcDbEntity
  8
0
  6
CONTINUOUS
 62
               2
100
AcDbLine
 10
73.778478943331606
 20
-76.907125821672054
 30
0.0
 11
73.778478943331606
 21
-108.13785397108612
 31
0.0
  0
LINE
  5
492
100
AcDbEntity
  8
0
  6
CONTINUOUS
 62
               2
100
AcDbLine
 10
80.878478943331629
 20
-106.63785397108612
 30
0.0
 11
84.434478937609583
 21
-106.63785397108612
 31
0.0
  0
LINE
  5
493
100
AcDbEntity
  8
0
  6
CONTINUOUS
 62
               2
100
AcDbLine
 10
73.778478943331606
 20
-106.63785397108612
 30
0.0
 11
70.222478949053652
 21
-106.63785397108612
 31
0.0
  0
INSERT
  5
494
100
AcDbEntity
  8
0
  6
CONTINUOUS
 62
               2
100
AcDbBlockReference
  2
_OPEN30
 10
80.878478943331629
 20
-106.63785397108612
 30
0.0
 41
2.77
 42
2.77
 43
2.77
 50
180.0
  0
INSERT
  5
495
100
AcDbEntity
  8
0
  6
CONTINUOUS
 62
               2
100
AcDbBlockReference
  2
_OPEN30
 10
73.778478943331606
 20
-106.63785397108612
 30
0.0
 41
2.77
 42
2.77
 43
2.77
  0
MTEXT
  5
496
100
AcDbEntity
  8
0
  6
CONTINUOUS
 62
               2
100
AcDbMText
 10
61.678777634127528
 20
-103.38785397108612
 30
0.0
 40
4.5
 41
0.0
 71
               5
 72
               1
  1
\A1;7.1
 11
1.0
 21
-0.0000000000000001
 31
0.0
  0
POINT
  5
497
100
AcDbEntity
  8
DEFPOINTS
  6
CONTINUOUS
 62
               0
100
AcDbPoint
 10
80.878478943331629
 20
-100.36186729963836
 30
0.0
  0
POINT
  5
498
100
AcDbEntity
  8
DEFPOINTS
  6
CONTINUOUS
 62
               0
100
AcDbPoint
 10
73.778478943331606
 20
-75.407125821672054
 30
0.0
  0
POINT
  5
499
100
AcDbEntity
  8
DEFPOINTS
  6
CONTINUOUS
 62
               0
100
AcDbPoint
 10
73.778478943331606
 20
-106.63785397108612
 30
0.0
  0
ENDBLK
  5
49A
100
AcDbEntity
  8
0
  6
ByBlock
 62
               0
100
AcDbBlockEnd
  0
ENDSEC
  0
SECTION
  2
ENTITIES
  0
INSERT
  5
443
100
AcDbEntity
  8
0
  6
ByBlock
100
AcDbBlockReference
  2
MV090MA-11-3
 10
74.378478943331629
 20
-85.361867427626891
 30
0.0
  0
INSERT
  5
444
100
AcDbEntity
  8
0
  6
ByBlock
100
AcDbBlockReference
  2
MV090MA-11-4
 10
18.462753415432189
 20
-85.361867503820704
 30
0.0
 50
359.99999999999909
  0
INSERT
  5
445
100
AcDbEntity
  8
0
  6
ByBlock
100
AcDbBlockReference
  2
MV090MA-11-5
 10
74.378478943331629
 20
31.138132572373081
 30
0.0
  0
INSERT
  5
446
100
AcDbEntity
  8
0
  6
ByBlock
100
AcDbBlockReference
  2
MV090MA-11-1
 10
-97.11048541893831
 20
-85.361867503820704
 30
0.0
  0
MTEXT
  5
447
100
AcDbEntity
  8
0
  6
CONTINUOUS
 62
               7
100
AcDbMText
 10
115.52672595002113
 20
-126.0
 30
0.0
 40
6.3000001907348633
 41
0.0
 71
               4
 72
               1
  1
\W1.121;\A1;KOGANEI CORP.
  0
MTEXT
  5
448
100
AcDbEntity
  8
0
  6
CONTINUOUS
 62
               7
100
AcDbMText
 10
135.31124253717977
 20
125.10000610351562
 30
0.0
 40
4.5
 41
0.0
 71
               4
 72
               1
  1
\W1.348;\A1;Ver. 1.1
  0
LINE
  5
449
100
AcDbEntity
  8
0
  6
CONTINUOUS
 62
               7
100
AcDbLine
 10
-194.25
 20
117.60000610351562
 30
0.0
 11
-109.25
 21
117.60000610351562
 31
0.0
  0
LINE
  5
44A
100
AcDbEntity
  8
0
  6
CONTINUOUS
 62
               7
100
AcDbLine
 10
109.80000305175781
 20
117.60000610351562
 30
0.0
 11
194.80000305175781
 21
117.60000610351562
 31
0.0
  0
LINE
  5
44B
100
AcDbEntity
  8
0
  6
CONTINUOUS
 62
               7
100
AcDbLine
 10
109.80000305175781
 20
132.60000610351562
 30
0.0
 11
109.80000305175781
 21
117.60000610351562
 31
0.0
  0
LINE
  5
44C
100
AcDbEntity
  8
0
  6
CONTINUOUS
 62
               7
100
AcDbLine
 10
109.80000305175781
 20
-118.5
 30
0.0
 11
194.80000305175781
 21
-118.5
 31
0.0
  0
LINE
  5
44D
100
AcDbEntity
  8
0
  6
CONTINUOUS
 62
               7
100
AcDbLine
 10
109.80000305175781
 20
-118.5
 30
0.0
 11
109.80000305175781
 21
-133.5
 31
0.0
  0
LINE
  5
44E
100
AcDbEntity
  8
0
  6
CONTINUOUS
 62
               7
100
AcDbLine
 10
-194.25
 20
-133.5
 30
0.0
 11
194.80000305175781
 21
-133.5
 31
0.0
  0
LINE
  5
44F
100
AcDbEntity
  8
0
  6
CONTINUOUS
 62
               7
100
AcDbLine
 10
-194.25
 20
132.60000610351562
 30
0.0
 11
-194.25
 21
-133.5
 31
0.0
  0
LINE
  5
450
100
AcDbEntity
  8
0
  6
CONTINUOUS
 62
               7
100
AcDbLine
 10
194.80000305175781
 20
132.60000610351562
 30
0.0
 11
194.80000305175781
 21
-133.5
 31
0.0
  0
LINE
  5
451
100
AcDbEntity
  8
0
  6
CONTINUOUS
 62
               7
100
AcDbLine
 10
-194.25
 20
132.60000610351562
 30
0.0
 11
194.80000305175781
 21
132.60000610351562
 31
0.0
  0
MTEXT
  5
452
100
AcDbEntity
  8
0
  6
CONTINUOUS
 62
               7
100
AcDbMText
 10
-185.68617186656525
 20
107.60000610351562
 30
0.0
 40
4.5
 41
0.0
 71
               4
 72
               1
  1
\W1.085;\A1;MODEL:MV090M8A-11
  0
MTEXT
  5
453
100
AcDbEntity
  8
0
  6
CONTINUOUS
 62
               1
100
AcDbMText
 10
-186.97746031622665
 20
125.10000610351562
 30
0.0
 40
4.5
 41
0.0
 71
               4
 72
               1
  1
\W1.030;\A1;VACUUM VALE UNIT
  0
MTEXT
  5
454
100
AcDbEntity
  8
0
  6
CONTINUOUS
 62
               7
100
AcDbMText
 10
-158.65934067660822
 20
99.600006103515625
 30
0.0
 40
4.5
 41
0.0
 71
               4
 72
               1
  1
\W1.121;\A1;STN.1-2:AMV090-02
  0
DIMENSION
  5
467
100
AcDbEntity
  8
0
  6
CONTINUOUS
 62
               2
100
AcDbDimension
  2
*D9
 10
161.77847894333161
 20
-5.8618674276269189
 30
0.0
 11
117.77847894333161
 21
-5.8618674276269189
 31
0.0
 70
             128
  1
P
  3
MXDIMSTYLE
100
AcDbAlignedDimension
 13
73.778478943331606
 23
-31.361867427626919
 33
0.0
 14
161.77847894333161
 24
-31.361867427626919
 34
0.0
100
AcDbRotatedDimension
1001
ACAD
1000
DSTYLE
1002
{
1070
               6
1000
_OPEN30
1070
               7
1000
_OPEN30
1070
              41
1040
2.77
1070
             140
1040
4.5
1070
             173
1070
               1
1070
             271
1070
               2
1070
             341
1005
45A
1002
}
  0
DIMENSION
  5
474
100
AcDbEntity
  8
0
  6
CONTINUOUS
 62
               2
100
AcDbDimension
  2
*D11
 10
90.878478943331629
 20
-106.63785397108612
 30
0.0
 11
116.47847856186189
 21
-106.63785397108612
 31
0.0
 70
             128
  1
L
  3
MXDIMSTYLE
100
AcDbAlignedDimension
 13
142.07847894333162
 23
-83.045128217301937
 33
0.0
 14
90.878478943331629
 24
-83.045128217301937
 34
0.0
100
AcDbRotatedDimension
1001
ACAD
1000
DSTYLE
1002
{
1070
               6
1000
_OPEN30
1070
               7
1000
_OPEN30
1070
              41
1040
2.77
1070
             140
1040
4.5
1070
             173
1070
               1
1070
             271
1070
               2
1070
             341
1005
45A
1002
}
  0
DIMENSION
  5
480
100
AcDbEntity
  8
0
  6
CONTINUOUS
 62
               2
100
AcDbDimension
  2
*D12
 10
142.07847894333162
 20
-106.63785397108612
 30
0.0
 11
147.07847894333162
 21
-106.63785397108612
 31
0.0
 70
             128
  1
<>
  3
MXDIMSTYLE
100
AcDbAlignedDimension
 13
152.07847894333162
 23
-83.045128217301937
 33
0.0
 14
142.07847894333162
 24
-100.36186729963836
 34
0.0
100
AcDbRotatedDimension
1001
ACAD
1000
DSTYLE
1002
{
1070
               6
1000
_OPEN30
1070
               7
1000
_OPEN30
1070
              41
1040
2.77
1070
              76
1070
               1
1070
             140
1040
4.5
1070
             173
1070
               1
1070
             271
1070
               2
1070
             284
1070
               8
1070
             341
1005
45A
1002
}
  0
DIMENSION
  5
48C
100
AcDbEntity
  8
0
  6
CONTINUOUS
 62
               2
100
AcDbDimension
  2
*D13
 10
80.878478943331629
 20
-106.63785397108612
 30
0.0
 11
85.878478943331629
 21
-106.63785397108612
 31
0.0
 70
             128
  1
<>
  3
MXDIMSTYLE
100
AcDbAlignedDimension
 13
90.878478943331629
 23
-100.36186729963836
 33
0.0
 14
80.878478943331629
 24
-83.045128217301937
 34
0.0
100
AcDbRotatedDimension
1001
ACAD
1000
DSTYLE
1002
{
1070
               6
1000
_OPEN30
1070
               7
1000
_OPEN30
1070
              41
1040
2.77
1070
              75
1070
               1
1070
             140
1040
4.5
1070
             173
1070
               1
1070
             271
1070
               2
1070
             284
1070
               8
1070
             341
1005
45A
1002
}
  0
DIMENSION
  5
49B
100
AcDbEntity
  8
0
  6
CONTINUOUS
 62
               2
100
AcDbDimension
  2
*D14
 10
73.778478943331606
 20
-106.63785397108612
 30
0.0
 11
61.678777634127528
 21
-106.63785397108612
 31
0.0
 70
             128
  1
<>
  3
MXDIMSTYLE
100
AcDbAlignedDimension
 13
80.878478943331629
 23
-100.36186729963836
 33
0.0
 14
73.778478943331606
 24
-75.407125821672054
 34
0.0
100
AcDbRotatedDimension
1001
ACAD
1000
DSTYLE
1002
{
1070
               6
1000
_OPEN30
1070
               7
1000
_OPEN30
1070
              41
1040
2.77
1070
              75
1070
               1
1070
             140
1040
4.5
1070
             173
1070
               1
1070
             271
1070
               2
1070
             284
1070
               8
1070
             341
1005
45A
1002
}
  0
MTEXT
  5
49C
100
AcDbEntity
  8
0
  6
CONTINUOUS
 62
               7
100
AcDbMText
 10
-170.85740867045007
 20
57.5
 30
0.0
 40
3.1999950408935547
 41
0.0
 71
               4
 72
               1
  1
\W1.111;\A1;DIMENSION LIST
  0
LINE
  5
49D
100
AcDbEntity
  8
0
  6
CONTINUOUS
 62
               7
100
AcDbLine
 10
-184.25
 20
6.5
 30
0.0
 11
-113.84999999999999
 21
6.5
 31
0.0
  0
MTEXT
  5
49E
100
AcDbEntity
  8
0
  6
CONTINUOUS
 62
               7
100
AcDbMText
 10
-182.08225919099294
 20
15.5
 30
0.0
 40
3.1999950408935547
 41
0.0
 71
               4
 72
               1
  1
\W1.065;\A1;MV090M7A-11
  0
MTEXT
  5
49F
100
AcDbEntity
  8
0
  6
CONTINUOUS
 62
               7
100
AcDbMText
 10
-182.08225919099294
 20
21.5
 30
0.0
 40
3.1999950408935547
 41
0.0
 71
               4
 72
               1
  1
\W1.065;\A1;MV090M6A-11
  0
MTEXT
  5
4A0
100
AcDbEntity
  8
0
  6
CONTINUOUS
 62
               7
100
AcDbMText
 10
-122.91666672229766
 20
51.5
 30
0.0
 40
3.1999998092651367
 41
0.0
 71
               4
 72
               1
  1
\A1;P
  0
MTEXT
  5
4A1
100
AcDbEntity
  8
0
  6
CONTINUOUS
 62
               7
100
AcDbMText
 10
-182.08225919099294
 20
45.5
 30
0.0
 40
3.1999950408935547
 41
0.0
 71
               4
 72
               1
  1
\W1.065;\A1;MV090M2A-11
  0
MTEXT
  5
4A2
100
AcDbEntity
  8
0
  6
CONTINUOUS
 62
               7
100
AcDbMText
 10
-182.08225919099294
 20
39.5
 30
0.0
 40
3.1999950408935547
 41
0.0
 71
               4
 72
               1
  1
\W1.065;\A1;MV090M3A-11
  0
MTEXT
  5
4A3
100
AcDbEntity
  8
0
  6
CONTINUOUS
 62
               7
100
AcDbMText
 10
-182.08225919099294
 20
33.5
 30
0.0
 40
3.1999950408935547
 41
0.0
 71
               4
 72
               1
  1
\W1.065;\A1;MV090M4A-11
  0
MTEXT
  5
4A4
100
AcDbEntity
  8
0
  6
CONTINUOUS
 62
               7
100
AcDbMText
 10
-182.08225919099294
 20
27.5
 30
0.0
 40
3.1999950408935547
 41
0.0
 71
               4
 72
               1
  1
\W1.065;\A1;MV090M5A-11
  0
MTEXT
  5
4A5
100
AcDbEntity
  8
0
  6
CONTINUOUS
 62
               7
100
AcDbMText
 10
-170.91666679382325
 20
51.5
 30
0.0
 40
3.1999998092651367
 41
0.0
 71
               4
 72
               1
  1
\A1;TYPE
  0
MTEXT
  5
4A6
100
AcDbEntity
  8
0
  6
CONTINUOUS
 62
               7
100
AcDbMText
 10
-138.91666672229766
 20
51.5
 30
0.0
 40
3.1999998092651367
 41
0.0
 71
               4
 72
               1
  1
\A1;L
  0
LINE
  5
4A7
100
AcDbEntity
  8
0
  6
CONTINUOUS
 62
               7
100
AcDbLine
 10
-184.25
 20
54.5
 30
0.0
 11
-113.84999999999999
 21
54.5
 31
0.0
  0
MTEXT
  5
4A8
100
AcDbEntity
  8
0
  6
CONTINUOUS
 62
               7
100
AcDbMText
 10
-138.91666672229766
 20
45.5
 30
0.0
 40
3.1999998092651367
 41
0.0
 71
               4
 72
               1
  1
\A1;-
  0
MTEXT
  5
4A9
100
AcDbEntity
  8
0
  6
CONTINUOUS
 62
               7
100
AcDbMText
 10
-138.91666672229766
 20
39.5
 30
0.0
 40
3.1999998092651367
 41
0.0
 71
               4
 72
               1
  1
\A1;-
  0
MTEXT
  5
4AA
100
AcDbEntity
  8
0
  6
CONTINUOUS
 62
               7
100
AcDbMText
 10
-143.49706005736849
 20
33.5
 30
0.0
 40
3.1999950408935547
 41
0.0
 71
               4
 72
               1
  1
\W1.412;\A1;10.4
  0
MTEXT
  5
4AB
100
AcDbEntity
  8
0
  6
CONTINUOUS
 62
               7
100
AcDbMText
 10
-143.57631694471308
 20
27.5
 30
0.0
 40
3.1999950408935547
 41
0.0
 71
               4
 72
               1
  1
\W1.263;\A1;20.6
  0
MTEXT
  5
4AC
100
AcDbEntity
  8
0
  6
CONTINUOUS
 62
               7
100
AcDbMText
 10
-143.57631694471308
 20
21.5
 30
0.0
 40
3.1999950408935547
 41
0.0
 71
               4
 72
               1
  1
\W1.263;\A1;30.8
  0
MTEXT
  5
4AD
100
AcDbEntity
  8
0
  6
CONTINUOUS
 62
               7
100
AcDbMText
 10
-143.49706005736849
 20
15.5
 30
0.0
 40
3.1999950408935547
 41
0.0
 71
               4
 72
               1
  1
\W1.412;\A1;41.0
  0
MTEXT
  5
4AE
100
AcDbEntity
  8
0
  6
CONTINUOUS
 62
               7
100
AcDbMText
 10
-127.61000016276041
 20
15.5
 30
0.0
 40
3.1999998092651367
 41
0.0
 71
               4
 72
               1
  1
\W1.200;\A1;77.8
  0
MTEXT
  5
4AF
100
AcDbEntity
  8
0
  6
CONTINUOUS
 62
               7
100
AcDbMText
 10
-127.61000016276041
 20
21.5
 30
0.0
 40
3.1999998092651367
 41
0.0
 71
               4
 72
               1
  1
\W1.200;\A1;67.6
  0
MTEXT
  5
4B0
100
AcDbEntity
  8
0
  6
CONTINUOUS
 62
               7
100
AcDbMText
 10
-127.61000016276041
 20
27.5
 30
0.0
 40
3.1999998092651367
 41
0.0
 71
               4
 72
               1
  1
\W1.200;\A1;57.4
  0
MTEXT
  5
4B1
100
AcDbEntity
  8
0
  6
CONTINUOUS
 62
               7
100
AcDbMText
 10
-127.61000016276041
 20
33.5
 30
0.0
 40
3.1999998092651367
 41
0.0
 71
               4
 72
               1
  1
\W1.200;\A1;47.2
  0
MTEXT
  5
4B2
100
AcDbEntity
  8
0
  6
CONTINUOUS
 62
               7
100
AcDbMText
 10
-127.57631694471306
 20
39.5
 30
0.0
 40
3.1999950408935547
 41
0.0
 71
               4
 72
               1
  1
\W1.263;\A1;37.0
  0
MTEXT
  5
4B3
100
AcDbEntity
  8
0
  6
CONTINUOUS
 62
               7
100
AcDbMText
 10
-127.61000016276041
 20
45.5
 30
0.0
 40
3.1999998092651367
 41
0.0
 71
               4
 72
               1
  1
\W1.200;\A1;26.8
  0
MTEXT
  5
4B4
100
AcDbEntity
  8
0
  6
CONTINUOUS
 62
               7
100
AcDbMText
 10
-127.57631694471306
 20
9.5
 30
0.0
 40
3.1999950408935547
 41
0.0
 71
               4
 72
               1
  1
\W1.263;\A1;88.0
  0
MTEXT
  5
4B5
100
AcDbEntity
  8
0
  6
CONTINUOUS
 62
               7
100
AcDbMText
 10
-143.53889010040405
 20
9.5
 30
0.0
 40
3.1999950408935547
 41
0.0
 71
               4
 72
               1
  1
\W1.333;\A1;51.2
  0
LINE
  5
4B6
100
AcDbEntity
  8
0
  6
CONTINUOUS
 62
               7
100
AcDbLine
 10
-129.84999999999999
 20
54.5
 30
0.0
 11
-129.84999999999999
 21
6.5
 31
0.0
  0
LINE
  5
4B7
100
AcDbEntity
  8
0
  6
CONTINUOUS
 62
               7
100
AcDbLine
 10
-145.84999999999999
 20
54.5
 30
0.0
 11
-145.84999999999999
 21
6.5
 31
0.0
  0
LINE
  5
4B8
100
AcDbEntity
  8
0
  6
CONTINUOUS
 62
               7
100
AcDbLine
 10
-184.25
 20
54.5
 30
0.0
 11
-184.25
 21
6.5
 31
0.0
  0
LINE
  5
4B9
100
AcDbEntity
  8
0
  6
CONTINUOUS
 62
               7
100
AcDbLine
 10
-113.84999999999999
 20
54.5
 30
0.0
 11
-113.84999999999999
 21
6.5
 31
0.0
  0
MTEXT
  5
4BA
100
AcDbEntity
  8
0
  6
CONTINUOUS
 62
               7
100
AcDbMText
 10
-182.08225919099294
 20
9.5
 30
0.0
 40
3.1999950408935547
 41
0.0
 71
               4
 72
               1
  1
\W1.065;\A1;MV090M8A-11
  0
LINE
  5
4BB
100
AcDbEntity
  8
0
  6
CONTINUOUS
 62
               7
100
AcDbLine
 10
-184.25
 20
48.5
 30
0.0
 11
-113.84999999999999
 21
48.5
 31
0.0
  0
LINE
  5
4BC
100
AcDbEntity
  8
0
  6
CONTINUOUS
 62
               7
100
AcDbLine
 10
-184.25
 20
42.5
 30
0.0
 11
-113.84999999999999
 21
42.5
 31
0.0
  0
LINE
  5
4BD
100
AcDbEntity
  8
0
  6
CONTINUOUS
 62
               7
100
AcDbLine
 10
-184.25
 20
36.5
 30
0.0
 11
-113.84999999999999
 21
36.5
 31
0.0
  0
LINE
  5
4BE
100
AcDbEntity
  8
0
  6
CONTINUOUS
 62
               7
100
AcDbLine
 10
-184.25
 20
30.5
 30
0.0
 11
-113.84999999999999
 21
30.5
 31
0.0
  0
LINE
  5
4BF
100
AcDbEntity
  8
0
  6
CONTINUOUS
 62
               7
100
AcDbLine
 10
-184.25
 20
24.5
 30
0.0
 11
-113.84999999999999
 21
24.5
 31
0.0
  0
LINE
  5
4C0
100
AcDbEntity
  8
0
  6
CONTINUOUS
 62
               7
100
AcDbLine
 10
-184.25
 20
18.5
 30
0.0
 11
-113.84999999999999
 21
18.5
 31
0.0
  0
LINE
  5
4C1
100
AcDbEntity
  8
0
  6
CONTINUOUS
 62
               7
100
AcDbLine
 10
-184.25
 20
12.5
 30
0.0
 11
-113.84999999999999
 21
12.5
 31
0.0
  0
LINE
  5
4C2
100
AcDbEntity
  8
0
  6
CONTINUOUS
 62
               7
100
AcDbLine
 10
-109.25
 20
132.60000610351562
 30
0.0
 11
-109.25
 21
117.60000610351562
 31
0.0
  0
MTEXT
  5
4C3
100
AcDbEntity
  8
0
  6
CONTINUOUS
 62
               7
100
AcDbMText
 10
-158.65934067660822
 20
91.600006103515625
 30
0.0
 40
4.5
 41
0.0
 71
               4
 72
               1
  1
\W1.121;\A1;STN.1-8:AMV090-04
  0
MTEXT
  5
4C4
100
AcDbEntity
  8
0
  6
CONTINUOUS
 62
               7
100
AcDbMText
 10
-158.6743119609481
 20
83.600006103515625
 30
0.0
 40
4.5
 41
0.0
 71
               4
 72
               1
  1
\W1.101;\A1;STN.1-2:AMV090-02-PL
  0
MTEXT
  5
4C5
100
AcDbEntity
  8
0
  6
CONTINUOUS
 62
               7
100
AcDbMText
 10
-158.6743119609481
 20
75.600006103515625
 30
0.0
 40
4.5
 41
0.0
 71
               4
 72
               1
  1
\W1.101;\A1;STN.1-2:AMV090-04-PL
  0
ENDSEC
  0
SECTION
  2
OBJECTS
  0
DICTIONARY
  5
19
100
AcDbDictionary
  3
ACAD_GROUP
350
1A
  3
ACAD_MLINESTYLE
350
1B
  0
DICTIONARY
  5
1A
102
{ACAD_REACTORS
330
19
102
}
100
AcDbDictionary
  0
DICTIONARY
  5
1B
102
{ACAD_REACTORS
330
19
102
}
100
AcDbDictionary
  3
STANDARD
350
1C
  0
MLINESTYLE
  5
1C
102
{ACAD_REACTORS
330
1B
102
}
100
AcDbMlineStyle
  2
Standard
 70
               0
  3

 62
               0
 51
90.0
 52
90.0
 71
               2
 49
0.5
 62
             256
  6
ByLayer
 49
-0.5
 62
             256
  6
ByLayer
  0
ENDSEC
  0
EOF
