  0
SECTION
  2
HEADER
  9
$ACADVER
  1
AC1012
  9
$DWGCODEPAGE
  3
dos932
  9
$INSBASE
 10
0.0
 20
0.0
 30
0.0
  9
$EXTMIN
 10
-281.25
 20
-195.0
 30
0.0
  9
$EXTMAX
 10
285.6319057062413
 20
195.5
 30
0.0
  9
$LIMMIN
 10
-281.25
 20
-195.0
  9
$LIMMAX
 10
285.6319057062413
 20
195.5
  9
$ORTHOMODE
 70
               0
  9
$REGENMODE
 70
               1
  9
$FILLMODE
 70
               1
  9
$QTEXTMODE
 70
               0
  9
$MIRRTEXT
 70
               1
  9
$DRAGMODE
 70
               2
  9
$LTSCALE
 40
1.0
  9
$OSMODE
 70
               0
  9
$ATTMODE
 70
               1
  9
$TEXTSIZE
 40
3.2000000476837158
  9
$TRACEWID
 40
0.05
  9
$TEXTSTYLE
  7
MX_NOTE_STANDARD
  9
$CLAYER
  8
0
  9
$CELTYPE
  6
CONTINUOUS
  9
$CECOLOR
 62
             256
  9
$CELTSCALE
 40
1.0
  9
$DELOBJ
 70
               1
  9
$DISPSILH
 70
               0
  9
$DIMSCALE
 40
1.0
  9
$DIMASZ
 40
2.5
  9
$DIMEXO
 40
1.5
  9
$DIMDLI
 40
3.75
  9
$DIMRND
 40
0.0
  9
$DIMDLE
 40
0.0
  9
$DIMEXE
 40
1.5
  9
$DIMTP
 40
0.0
  9
$DIMTM
 40
0.0
  9
$DIMTXT
 40
3.2000000476837158
  9
$DIMCEN
 40
2.5
  9
$DIMTSZ
 40
0.0
  9
$DIMTOL
 70
               0
  9
$DIMLIM
 70
               0
  9
$DIMTIH
 70
               0
  9
$DIMTOH
 70
               0
  9
$DIMSE1
 70
               0
  9
$DIMSE2
 70
               0
  9
$DIMTAD
 70
               1
  9
$DIMZIN
 70
               8
  9
$DIMBLK
  1

  9
$DIMASO
 70
               1
  9
$DIMSHO
 70
               1
  9
$DIMPOST
  1

  9
$DIMAPOST
  1

  9
$DIMALT
 70
               0
  9
$DIMALTD
 70
               4
  9
$DIMALTF
 40
0.03937007874016
  9
$DIMLFAC
 40
1.0
  9
$DIMTOFL
 70
               1
  9
$DIMTVP
 40
0.0
  9
$DIMTIX
 70
               0
  9
$DIMSOXD
 70
               0
  9
$DIMSAH
 70
               0
  9
$DIMBLK1
  1

  9
$DIMBLK2
  1

  9
$DIMSTYLE
  2
MXDIMSTYLE
  9
$DIMCLRD
 70
               0
  9
$DIMCLRE
 70
               0
  9
$DIMCLRT
 70
               0
  9
$DIMTFAC
 40
1.0
  9
$DIMGAP
 40
1.0
  9
$DIMJUST
 70
               0
  9
$DIMSD1
 70
               0
  9
$DIMSD2
 70
               0
  9
$DIMTOLJ
 70
               1
  9
$DIMTZIN
 70
               0
  9
$DIMALTZ
 70
               0
  9
$DIMALTTZ
 70
               0
  9
$DIMFIT
 70
               3
  9
$DIMUPT
 70
               1
  9
$DIMUNIT
 70
               2
  9
$DIMDEC
 70
               4
  9
$DIMTDEC
 70
               4
  9
$DIMALTU
 70
               2
  9
$DIMALTTD
 70
               4
  9
$DIMTXSTY
  7
MX_NOTE_STANDARD
  9
$DIMAUNIT
 70
               0
  9
$LUNITS
 70
               2
  9
$LUPREC
 70
               4
  9
$SKETCHINC
 40
0.1
  9
$FILLETRAD
 40
0.0
  9
$AUNITS
 70
               0
  9
$AUPREC
 70
               0
  9
$MENU
  1
acad
  9
$ELEVATION
 40
0.0
  9
$PELEVATION
 40
0.0
  9
$THICKNESS
 40
0.0
  9
$LIMCHECK
 70
               0
  9
$BLIPMODE
 70
               1
  9
$CHAMFERA
 40
0.0
  9
$CHAMFERB
 40
0.0
  9
$CHAMFERC
 40
0.0
  9
$CHAMFERD
 40
0.0
  9
$SKPOLY
 70
               0
  9
$TDCREATE
 40
2453378.356724537
  9
$TDUPDATE
 40
2453378.356724537
  9
$TDINDWG
 40
0.0000000000
  9
$TDUSRTIMER
 40
0.0000000000
  9
$USRTIMER
 70
               1
  9
$ANGBASE
 50
0.0
  9
$ANGDIR
 70
               0
  9
$PDMODE
 70
               0
  9
$PDSIZE
 40
0.0
  9
$PLINEWID
 40
0.0
  9
$COORDS
 70
               1
  9
$SPLFRAME
 70
               0
  9
$SPLINETYPE
 70
               6
  9
$SPLINESEGS
 70
               8
  9
$ATTDIA
 70
               0
  9
$ATTREQ
 70
               1
  9
$HANDLING
 70
               1
  9
$HANDSEED
  5
6A5
  9
$SURFTAB1
 70
               6
  9
$SURFTAB2
 70
               6
  9
$SURFTYPE
 70
               6
  9
$SURFU
 70
               6
  9
$SURFV
 70
               6
  9
$UCSNAME
  2

  9
$UCSORG
 10
0.0
 20
0.0
 30
0.0
  9
$UCSXDIR
 10
1.0
 20
0.0
 30
0.0
  9
$UCSYDIR
 10
0.0
 20
1.0
 30
0.0
  9
$PUCSNAME
  2

  9
$PUCSORG
 10
0.0
 20
0.0
 30
0.0
  9
$PUCSXDIR
 10
1.0
 20
0.0
 30
0.0
  9
$PUCSYDIR
 10
0.0
 20
1.0
 30
0.0
  9
$USERI1
 70
               0
  9
$USERI2
 70
               0
  9
$USERI3
 70
               0
  9
$USERI4
 70
               0
  9
$USERI5
 70
               0
  9
$USERR1
 40
0.0
  9
$USERR2
 40
0.0
  9
$USERR3
 40
0.0
  9
$USERR4
 40
0.0
  9
$USERR5
 40
0.0
  9
$WORLDVIEW
 70
               1
  9
$SHADEDGE
 70
               3
  9
$SHADEDIF
 70
              70
  9
$TILEMODE
 70
               1
  9
$MAXACTVP
 70
              16
  9
$PINSBASE
 10
0.0
 20
0.0
 30
0.0
  9
$PLIMCHECK
 70
               0
  9
$PEXTMIN
 10
1.0000000000000000E+20
 20
1.0000000000000000E+20
 30
1.0000000000000000E+20
  9
$PEXTMAX
 10
-1.0000000000000000E+20
 20
-1.0000000000000000E+20
 30
-1.0000000000000000E+20
  9
$PLIMMIN
 10
0.0
 20
0.0
  9
$PLIMMAX
 10
12.0
 20
9.0
  9
$UNITMODE
 70
               0
  9
$VISRETAIN
 70
               0
  9
$PLINEGEN
 70
               1
  9
$PSLTSCALE
 70
               0
  9
$TREEDEPTH
 70
            3020
  9
$PICKSTYLE
 70
               1
  9
$CMLSTYLE
  2
Standard
  9
$CMLJUST
 70
               0
  9
$CMLSCALE
 40
1.0
  9
$SAVEIMAGES
 70
               0
  0
ENDSEC
  0
SECTION
  2
CLASSES
  0
CLASS
  1
LWPOLYLINE
  2
AcDbPolyline
  3
"AutoCAD"
 90
        0
280
               0
281
               1
  0
CLASS
  1
IMAGE
  2
AcDbRasterImage
  3
ISM
 90
      127
280
               0
281
               1
  0
CLASS
  1
OLE2FRAME
  2
AcDbOle2Frame
  3
""
 90
        0
280
               0
281
               1
  0
CLASS
  1
HATCH
  2
AcDbHatch
  3
"ACAD_SEDONA"
 90
        0
280
               0
281
               1
  0
CLASS
  1
DICTIONARYVAR
  2
AcDbDictionaryVar
  3
"AutoCAD"
 90
        0
280
               0
281
               0
  0
CLASS
  1
RASTERVARIABLES
  2
AcDbRasterVariables
  3
ISM
 90
        0
280
               0
281
               0
  0
CLASS
  1
IMAGEDEF
  2
AcDbRasterImageDef
  3
ISM
 90
        0
280
               0
281
               0
  0
CLASS
  1
IMAGEDEF_REACTOR
  2
AcDbRasterImageDefReactor
  3
ISM
 90
        1
280
               0
281
               0
  0
CLASS
  1
IDBUFFER
  2
AcDbIdBuffer
  3
"Acad"
 90
        0
280
               0
281
               0
  0
CLASS
  1
SPATIAL_FILTER
  2
AcDbSpatialFilter
  3
"Acad"
 90
        0
280
               0
281
               0
  0
CLASS
  1
XRECORD
  2
AcDbXrecord
  3
"<Built In>"
 90
        0
280
               0
281
               0
  0
CLASS
  1
SORTENTSTABLE
  2
AcDbSortentsTable
  3
"AutoCAD"
 90
        0
280
               0
281
               0
  0
CLASS
  1
LAYER_INDEX
  2
AcDbLayerIndex
  3
"Acad"
 90
        0
280
               0
281
               0
  0
CLASS
  1
SPATIAL_INDEX
  2
AcDbSpatialIndex
  3
"Acad"
 90
        0
280
               0
281
               0
  0
CLASS
  1
OBJECT_PTR
  2
CAseDLPNTableRecord
  3
"ASE-LPNTableRecord"
 90
        1
280
               0
281
               0
  0
CLASS
  1
LAYOUT
  2
AcDbLayout
  3
"AutoCAD 2000"
 90
        1
280
               0
281
               0
  0
CLASS
  1
PLOTSETTINGS
  2
AcDbPlotSettings
  3
"AutoCAD 2000"
 90
        1
280
               0
281
               0
  0
CLASS
  1
ACDBDICTIONARYWDFLT
  2
AcDbDictionaryWithDefault
  3
"AutoCAD 2000"
 90
        1
280
               0
281
               0
  0
CLASS
  1
ACDBPLACEHOLDER
  2
AcDbPlaceHolder
  3
"AutoCAD 2000"
 90
        1
280
               0
281
               0
  0
ENDSEC
  0
SECTION
  2
TABLES
  0
TABLE
  2
VPORT
  5
7
100
AcDbSymbolTable
 70
               1
  0
VPORT
  5
15
100
AcDbSymbolTableRecord
100
AcDbViewportTableRecord
  2
*ACTIVE
 70
               0
 10
0.0
 20
0.0
 11
1.0
 21
1.0
 12
2.1909528531206206
 22
0.25
 13
0.0
 23
0.0
 14
1.0
 24
1.0
 15
0.0
 25
0.0
 16
0.0
 26
0.0
 36
1.0
 17
0.0
 27
0.0
 37
0.0
 40
394.40500000000003
 41
1.7320508075688772
 42
50.0
 43
0.0
 44
0.0
 50
0.0
 51
0.0
 71
               0
 72
             100
 73
               1
 74
               1
 75
               0
 76
               0
 77
               0
 78
               0
  0
ENDTAB
  0
TABLE
  2
LTYPE
  5
4
100
AcDbSymbolTable
 70
               5
  0
LTYPE
  5
11
100
AcDbSymbolTableRecord
100
AcDbLinetypeTableRecord
  2
BYBLOCK
 70
              64
  3

 72
              65
 73
               0
 40
0.0
  0
LTYPE
  5
12
100
AcDbSymbolTableRecord
100
AcDbLinetypeTableRecord
  2
BYLAYER
 70
              64
  3

 72
              65
 73
               0
 40
0.0
  0
LTYPE
  5
13
100
AcDbSymbolTableRecord
100
AcDbLinetypeTableRecord
  2
CONTINUOUS
 70
              64
  3
Solid line
 72
              65
 73
               0
 40
0.0
  0
LTYPE
  5
45
100
AcDbSymbolTableRecord
100
AcDbLinetypeTableRecord
  2
CENTER
 70
              64
  3
Center ____ _ ____ _ ____ _ ____ _ ____ _ ____
 72
              65
 73
               4
 40
26.0
 49
20.0
 74
               0
 49
-2.0
 74
               0
 49
2.0
 74
               0
 49
-2.0
 74
               0
  0
LTYPE
  5
9C
100
AcDbSymbolTableRecord
100
AcDbLinetypeTableRecord
  2
PHANTOM
 70
              64
  3
Phantom ______  __  __  ______  __  __  ______
 72
              65
 73
               6
 40
30.0
 49
20.0
 74
               0
 49
-2.0
 74
               0
 49
2.0
 74
               0
 49
-2.0
 74
               0
 49
2.0
 74
               0
 49
-2.0
 74
               0
  0
ENDTAB
  0
TABLE
  2
LAYER
  5
2
100
AcDbSymbolTable
 70
               2
  0
LAYER
  5
14
100
AcDbSymbolTableRecord
100
AcDbLayerTableRecord
  2
0
 70
               0
 62
               7
  6
CONTINUOUS
  0
LAYER
  5
1D
100
AcDbSymbolTableRecord
100
AcDbLayerTableRecord
  2
DEFPOINTS
 70
               0
 62
               7
  6
CONTINUOUS
  0
ENDTAB
  0
TABLE
  2
STYLE
  5
3
100
AcDbSymbolTable
 70
               1
  0
STYLE
  5
17
100
AcDbSymbolTableRecord
100
AcDbTextStyleTableRecord
  2
MX_NOTE_STANDARD
 70
               0
 40
0.0
 41
1.0
 50
0.0
 71
               0
 42
3.2000000476837158
  3
txt.shx
  4
extfont.shx
  0
ENDTAB
  0
TABLE
  2
VIEW
  5
5
100
AcDbSymbolTable
 70
               0
  0
ENDTAB
  0
TABLE
  2
UCS
  5
6
100
AcDbSymbolTable
 70
               0
  0
ENDTAB
  0
TABLE
  2
APPID
  5
8
100
AcDbSymbolTable
 70
               1
  0
APPID
  5
16
100
AcDbSymbolTableRecord
100
AcDbRegAppTableRecord
  2
ACAD
 70
               0
  0
ENDTAB
  0
TABLE
  2
DIMSTYLE
  5
9
100
AcDbSymbolTable
 70
               1
  0
DIMSTYLE
105
18
100
AcDbSymbolTableRecord
100
AcDbDimStyleTableRecord
  2
MXDIMSTYLE
 70
               0
  3

  4

  5

  6

  7

 40
1.0
 41
2.5
 42
1.5
 43
3.75
 44
1.5
 45
0.0
 46
0.0
 47
0.0
 48
0.0
 71
               0
 72
               0
 73
               0
 74
               0
 75
               0
 76
               0
 77
               1
 78
               8
140
3.2000000476837158
141
2.5
142
0.0
143
0.03937007874016
144
1.0
145
0.0
146
1.0
147
1.0
170
               0
171
               4
172
               1
173
               0
174
               0
175
               0
176
               0
177
               0
178
               0
270
               2
271
               4
272
               4
273
               2
274
               4
275
               0
280
               0
281
               0
282
               0
283
               1
284
               0
285
               0
286
               0
287
               3
288
               1
340
17
  0
ENDTAB
  0
TABLE
  2
BLOCK_RECORD
  5
1
100
AcDbSymbolTable
 70
              20
  0
BLOCK_RECORD
  5
A
100
AcDbSymbolTableRecord
100
AcDbBlockTableRecord
  2
*MODEL_SPACE
  0
BLOCK_RECORD
  5
B
100
AcDbSymbolTableRecord
100
AcDbBlockTableRecord
  2
*PAPER_SPACE
  0
BLOCK_RECORD
  5
1E
100
AcDbSymbolTableRecord
100
AcDbBlockTableRecord
  2
MV030MAS-11-1
  0
BLOCK_RECORD
  5
1F
100
AcDbSymbolTableRecord
100
AcDbBlockTableRecord
  2
MV030MAS-11-2
  0
BLOCK_RECORD
  5
20
100
AcDbSymbolTableRecord
100
AcDbBlockTableRecord
  2
MV030MAS-11-3
  0
BLOCK_RECORD
  5
21
100
AcDbSymbolTableRecord
100
AcDbBlockTableRecord
  2
MV030MAS-11-4
  0
BLOCK_RECORD
  5
22
100
AcDbSymbolTableRecord
100
AcDbBlockTableRecord
  2
MV030MAS-11-5
  0
BLOCK_RECORD
  5
23
100
AcDbSymbolTableRecord
100
AcDbBlockTableRecord
  2
MV030MAS-11-6
  0
BLOCK_RECORD
  5
24
100
AcDbSymbolTableRecord
100
AcDbBlockTableRecord
  2
MV030MAS-11-7
  0
BLOCK_RECORD
  5
25
100
AcDbSymbolTableRecord
100
AcDbBlockTableRecord
  2
MV030MAS-11-8
  0
BLOCK_RECORD
  5
26
100
AcDbSymbolTableRecord
100
AcDbBlockTableRecord
  2
MV030MAS-11-9
  0
BLOCK_RECORD
  5
27
100
AcDbSymbolTableRecord
100
AcDbBlockTableRecord
  2
MV030MAS-11-10
  0
BLOCK_RECORD
  5
28
100
AcDbSymbolTableRecord
100
AcDbBlockTableRecord
  2
MV030MAS-11-11
  0
BLOCK_RECORD
  5
29
100
AcDbSymbolTableRecord
100
AcDbBlockTableRecord
  2
MV030MAS-11-12
  0
BLOCK_RECORD
  5
2A
100
AcDbSymbolTableRecord
100
AcDbBlockTableRecord
  2
MV030MAS-11-13
  0
BLOCK_RECORD
  5
2B
100
AcDbSymbolTableRecord
100
AcDbBlockTableRecord
  2
MV030MAS-11-14
  0
BLOCK_RECORD
  5
2C
100
AcDbSymbolTableRecord
100
AcDbBlockTableRecord
  2
MV030MAS-11-15
  0
BLOCK_RECORD
  5
643
100
AcDbSymbolTableRecord
100
AcDbBlockTableRecord
  2
*D15
  0
BLOCK_RECORD
  5
647
100
AcDbSymbolTableRecord
100
AcDbBlockTableRecord
  2
_OPEN30
  0
BLOCK_RECORD
  5
655
100
AcDbSymbolTableRecord
100
AcDbBlockTableRecord
  2
*D17
  0
BLOCK_RECORD
  5
663
100
AcDbSymbolTableRecord
100
AcDbBlockTableRecord
  2
*D18
  0
BLOCK_RECORD
  5
670
100
AcDbSymbolTableRecord
100
AcDbBlockTableRecord
  2
*D19
  0
ENDTAB
  0
ENDSEC
  0
SECTION
  2
BLOCKS
  0
BLOCK
  5
D
100
AcDbEntity
  8
0
100
AcDbBlockBegin
  2
*MODEL_SPACE
 70
               0
 10
0.0
 20
0.0
 30
0.0
  3
*MODEL_SPACE
  1

  0
ENDBLK
  5
E
100
AcDbEntity
  8
0
100
AcDbBlockEnd
  0
BLOCK
  5
F
100
AcDbEntity
 67
               1
  8
0
100
AcDbBlockBegin
  2
*PAPER_SPACE
 70
               0
 10
0.0
 20
0.0
 30
0.0
  3
*PAPER_SPACE
  1

  0
ENDBLK
  5
10
100
AcDbEntity
 67
               1
  8
0
100
AcDbBlockEnd
  0
BLOCK
  5
2D
100
AcDbEntity
  8
0
100
AcDbBlockBegin
  2
MV030MAS-11-1
 70
               0
 10
0.0
 20
0.0
 30
0.0
  3
MV030MAS-11-1
  1

  0
INSERT
  5
2E
100
AcDbEntity
  8
0
  6
ByBlock
100
AcDbBlockReference
  2
MV030MAS-11-11
 10
18.0
 20
0.0
 30
0.0
  0
INSERT
  5
2F
100
AcDbEntity
  8
0
  6
ByBlock
100
AcDbBlockReference
  2
MV030MAS-11-12
 10
48.600000000000136
 20
0.0
 30
0.0
  0
INSERT
  5
30
100
AcDbEntity
  8
0
  6
ByBlock
100
AcDbBlockReference
  2
MV030MAS-11-12
 10
58.800000000000182
 20
0.0
 30
0.0
  0
INSERT
  5
31
100
AcDbEntity
  8
0
  6
ByBlock
100
AcDbBlockReference
  2
MV030MAS-11-12
 10
69.000000000000227
 20
0.0
 30
0.0
  0
INSERT
  5
32
100
AcDbEntity
  8
0
  6
ByBlock
100
AcDbBlockReference
  2
MV030MAS-11-12
 10
89.400000000000318
 20
0.0
 30
0.0
  0
INSERT
  5
33
100
AcDbEntity
  8
0
  6
ByBlock
100
AcDbBlockReference
  2
MV030MAS-11-12
 10
79.200000000000273
 20
0.0
 30
0.0
  0
INSERT
  5
34
100
AcDbEntity
  8
0
  6
ByBlock
100
AcDbBlockReference
  2
MV030MAS-11-3
 10
28.200000000000045
 20
0.0
 30
0.0
  0
INSERT
  5
35
100
AcDbEntity
  8
0
  6
ByBlock
100
AcDbBlockReference
  2
MV030MAS-11-3
 10
38.400000000000091
 20
0.0
 30
0.0
  0
LINE
  5
36
100
AcDbEntity
  8
0
  6
CONTINUOUS
 62
               4
100
AcDbLine
 10
1.6999999999999886
 20
8.75
 30
0.0
 11
4.3999999991494292
 21
8.75
 31
0.0
  0
LINE
  5
37
100
AcDbEntity
  8
0
  6
CONTINUOUS
 62
               4
100
AcDbLine
 10
1.6999999999999886
 20
3.25
 30
0.0
 11
4.3999999991494292
 21
3.25
 31
0.0
  0
LINE
  5
38
100
AcDbEntity
  8
0
  6
CONTINUOUS
 62
               4
100
AcDbLine
 10
1.4000000000000057
 20
3.5500000000000114
 30
0.0
 11
1.4000000000000057
 21
8.4499999999999886
 31
0.0
  0
LINE
  5
39
100
AcDbEntity
  8
0
  6
CONTINUOUS
 62
               4
100
AcDbLine
 10
1.4000000000000057
 20
3.5500000000000114
 30
0.0
 11
1.6999999999999886
 21
3.25
 31
0.0
  0
LINE
  5
3A
100
AcDbEntity
  8
0
  6
CONTINUOUS
 62
               4
100
AcDbLine
 10
1.6999999999999886
 20
8.75
 30
0.0
 11
1.4000000000000057
 21
8.4499999999999886
 31
0.0
  0
LINE
  5
3B
100
AcDbEntity
  8
0
  6
CONTINUOUS
 62
               4
100
AcDbLine
 10
1.6999999999999886
 20
8.75
 30
0.0
 11
1.6999999999999886
 21
3.25
 31
0.0
  0
LINE
  5
3C
100
AcDbEntity
  8
0
  6
CONTINUOUS
 62
               4
100
AcDbLine
 10
4.9000000000000057
 20
10.0
 30
0.0
 11
5.5
 21
10.0
 31
0.0
  0
LINE
  5
3D
100
AcDbEntity
  8
0
  6
CONTINUOUS
 62
               4
100
AcDbLine
 10
-16.5
 20
0.0
 30
0.0
 11
5.5
 21
0.0
 31
0.0
  0
LINE
  5
3E
100
AcDbEntity
  8
0
  6
CONTINUOUS
 62
               4
100
AcDbLine
 10
-16.5
 20
1.6000000000000227
 30
0.0
 11
4.0
 21
1.6000000000000227
 31
0.0
  0
LINE
  5
3F
100
AcDbEntity
  8
0
  6
CONTINUOUS
 62
               4
100
AcDbLine
 10
4.4000000000000057
 20
9.5
 30
0.0
 11
4.4000000000000057
 21
0.040408205773474
 31
0.0
  0
LINE
  5
40
100
AcDbEntity
  8
0
  6
CONTINUOUS
 62
               4
100
AcDbLine
 10
-17.0
 20
0.5
 30
0.0
 11
-17.0
 21
1.1000000000000227
 31
0.0
  0
ARC
  5
41
100
AcDbEntity
  8
0
  6
CONTINUOUS
 62
               4
100
AcDbCircle
 10
-16.5
 20
0.5
 30
0.0
 40
0.5
100
AcDbArc
 50
179.99999999999963
 51
269.99999999999937
  0
ARC
  5
42
100
AcDbEntity
  8
0
  6
CONTINUOUS
 62
               4
100
AcDbCircle
 10
-16.5
 20
1.1000000000000227
 30
0.0
 40
0.5
100
AcDbArc
 50
89.999999999999815
 51
179.99999999999963
  0
ARC
  5
43
100
AcDbEntity
  8
0
  6
CONTINUOUS
 62
               4
100
AcDbCircle
 10
4.9000000000000057
 20
9.5
 30
0.0
 40
0.5
100
AcDbArc
 50
89.999999999999815
 51
179.99999999999963
  0
ARC
  5
44
100
AcDbEntity
  8
0
  6
CONTINUOUS
 62
               4
100
AcDbCircle
 10
4.0
 20
2.0
 30
0.0
 40
0.4
100
AcDbArc
 50
270.00000000000023
 51
0.0
  0
LINE
  5
46
100
AcDbEntity
  8
0
  6
CENTER
 62
             200
100
AcDbLine
 10
-13.0
 20
-1.6999999999999886
 30
0.0
 11
-13.0
 21
3.3000000000000114
 31
0.0
  0
LINE
  5
47
100
AcDbEntity
  8
0
  6
CENTER
 62
             200
100
AcDbLine
 10
-10.0
 20
-1.6999999999999886
 30
0.0
 11
-10.0
 21
3.3000000000000114
 31
0.0
  0
LINE
  5
48
100
AcDbEntity
  8
0
  6
CENTER
 62
             200
100
AcDbLine
 10
0.0
 20
-1.6999999999999886
 30
0.0
 11
0.0
 21
3.3000000000000114
 31
0.0
  0
ARC
  5
49
100
AcDbEntity
  8
0
  6
CONTINUOUS
 62
               4
100
AcDbCircle
 10
5.5
 20
9.5
 30
0.0
 40
0.5
100
AcDbArc
 50
0.0
 51
89.999999999999815
  0
ARC
  5
4A
100
AcDbEntity
  8
0
  6
CENTER
 62
             200
100
AcDbCircle
 10
4.0
 20
2.0
 30
0.0
 40
2.0
100
AcDbArc
 50
270.00000000000023
 51
0.0
  0
ARC
  5
4B
100
AcDbEntity
  8
0
  6
CONTINUOUS
 62
               4
100
AcDbCircle
 10
5.5
 20
0.5
 30
0.0
 40
0.5
100
AcDbArc
 50
270.00000000000023
 51
0.0
  0
LINE
  5
4C
100
AcDbEntity
  8
0
  6
CENTER
 62
             200
100
AcDbLine
 10
0.3486132506550916
 20
6.0
 30
0.0
 11
7.6999999999999886
 21
6.0
 31
0.0
  0
LINE
  5
4D
100
AcDbEntity
  8
0
  6
CONTINUOUS
 62
               4
100
AcDbLine
 10
102.70000000000005
 20
3.25
 30
0.0
 11
102.70000000000005
 21
8.75
 31
0.0
  0
LINE
  5
4E
100
AcDbEntity
  8
0
  6
CONTINUOUS
 62
               4
100
AcDbLine
 10
102.70000000000005
 20
3.25
 30
0.0
 11
103.0
 21
3.5500000000000114
 31
0.0
  0
LINE
  5
4F
100
AcDbEntity
  8
0
  6
CONTINUOUS
 62
               4
100
AcDbLine
 10
103.0
 20
8.4499999999999886
 30
0.0
 11
102.70000000000005
 21
8.75
 31
0.0
  0
LINE
  5
50
100
AcDbEntity
  8
0
  6
CONTINUOUS
 62
               4
100
AcDbLine
 10
103.0
 20
8.4499999999999886
 30
0.0
 11
103.0
 21
3.5500000000000114
 31
0.0
  0
LINE
  5
51
100
AcDbEntity
  8
0
  6
CONTINUOUS
 62
               4
100
AcDbLine
 10
102.70000000000005
 20
8.75
 30
0.0
 11
100.0000000008506
 21
8.75
 31
0.0
  0
LINE
  5
52
100
AcDbEntity
  8
0
  6
CONTINUOUS
 62
               4
100
AcDbLine
 10
102.70000000000005
 20
3.25
 30
0.0
 11
100.0000000008506
 21
3.25
 31
0.0
  0
LINE
  5
53
100
AcDbEntity
  8
0
  6
CENTER
 62
             200
100
AcDbLine
 10
104.39999999999998
 20
-1.6999999999999886
 30
0.0
 11
104.39999999999998
 21
3.3000000000000114
 31
0.0
  0
LINE
  5
54
100
AcDbEntity
  8
0
  6
CENTER
 62
             200
100
AcDbLine
 10
114.39999999999998
 20
-1.6999999999999886
 30
0.0
 11
114.39999999999998
 21
3.3000000000000114
 31
0.0
  0
LINE
  5
55
100
AcDbEntity
  8
0
  6
CENTER
 62
             200
100
AcDbLine
 10
117.39999999999998
 20
-1.6999999999999886
 30
0.0
 11
117.39999999999998
 21
3.3000000000000114
 31
0.0
  0
ARC
  5
56
100
AcDbEntity
  8
0
  6
CONTINUOUS
 62
               4
100
AcDbCircle
 10
100.39999999999998
 20
2.0
 30
0.0
 40
0.4
100
AcDbArc
 50
179.99999999999963
 51
269.99999999999937
  0
ARC
  5
57
100
AcDbEntity
  8
0
  6
CONTINUOUS
 62
               4
100
AcDbCircle
 10
99.5
 20
9.5
 30
0.0
 40
0.5
100
AcDbArc
 50
0.0
 51
89.999999999999815
  0
ARC
  5
58
100
AcDbEntity
  8
0
  6
CONTINUOUS
 62
               4
100
AcDbCircle
 10
120.89999999999998
 20
1.1000000000000227
 30
0.0
 40
0.5
100
AcDbArc
 50
0.0
 51
89.999999999999815
  0
ARC
  5
59
100
AcDbEntity
  8
0
  6
CONTINUOUS
 62
               4
100
AcDbCircle
 10
120.89999999999998
 20
0.5
 30
0.0
 40
0.5
100
AcDbArc
 50
269.99999999999937
 51
0.0
  0
LINE
  5
5A
100
AcDbEntity
  8
0
  6
CONTINUOUS
 62
               4
100
AcDbLine
 10
121.39999999999998
 20
0.5
 30
0.0
 11
121.39999999999998
 21
1.1000000000000227
 31
0.0
  0
LINE
  5
5B
100
AcDbEntity
  8
0
  6
CONTINUOUS
 62
               4
100
AcDbLine
 10
100.0
 20
9.5
 30
0.0
 11
100.0
 21
2.0
 31
0.0
  0
LINE
  5
5C
100
AcDbEntity
  8
0
  6
CONTINUOUS
 62
               4
100
AcDbLine
 10
120.89999999999998
 20
1.6000000000000227
 30
0.0
 11
100.39999999999998
 21
1.6000000000000227
 31
0.0
  0
LINE
  5
5D
100
AcDbEntity
  8
0
  6
CONTINUOUS
 62
               4
100
AcDbLine
 10
120.89999999999998
 20
0.0
 30
0.0
 11
98.899999999999977
 21
0.0
 31
0.0
  0
LINE
  5
5E
100
AcDbEntity
  8
0
  6
CONTINUOUS
 62
               4
100
AcDbLine
 10
99.5
 20
10.0
 30
0.0
 11
98.899999999999977
 21
10.0
 31
0.0
  0
LINE
  5
5F
100
AcDbEntity
  8
0
  6
CENTER
 62
             200
100
AcDbLine
 10
104.12039957811419
 20
6.0
 30
0.0
 11
96.700000000000045
 21
6.0
 31
0.0
  0
ARC
  5
60
100
AcDbEntity
  8
0
  6
CONTINUOUS
 62
               4
100
AcDbCircle
 10
98.899999999999977
 20
0.5
 30
0.0
 40
0.5
100
AcDbArc
 50
179.99999999999963
 51
269.99999999999937
  0
ARC
  5
61
100
AcDbEntity
  8
0
  6
CONTINUOUS
 62
               4
100
AcDbCircle
 10
100.39999999999998
 20
2.0
 30
0.0
 40
2.0
100
AcDbArc
 50
179.99999999999963
 51
269.99999999999937
  0
ARC
  5
62
100
AcDbEntity
  8
0
  6
CONTINUOUS
 62
               4
100
AcDbCircle
 10
98.899999999999977
 20
9.5
 30
0.0
 40
0.5
100
AcDbArc
 50
89.999999999999815
 51
179.99999999999963
  0
LINE
  5
63
100
AcDbEntity
  8
0
  6
CONTINUOUS
 62
               7
100
AcDbLine
 10
6.0
 20
54.999999999999943
 30
0.0
 11
6.0
 21
0.0
 31
0.0
  0
LINE
  5
64
100
AcDbEntity
  8
0
  6
CONTINUOUS
 62
               7
100
AcDbLine
 10
98.399999999999977
 20
0.0
 30
0.0
 11
94.399999999999977
 21
0.0
 31
0.0
  0
LINE
  5
65
100
AcDbEntity
  8
0
  6
CONTINUOUS
 62
               7
100
AcDbLine
 10
98.400000000000034
 20
54.999999999999943
 30
0.0
 11
98.400000000000034
 21
0.0
 31
0.0
  0
LINE
  5
66
100
AcDbEntity
  8
0
  6
CONTINUOUS
 62
               7
100
AcDbLine
 10
6.0
 20
54.999999999999943
 30
0.0
 11
13.0
 21
54.999999999999943
 31
0.0
  0
LINE
  5
67
100
AcDbEntity
  8
0
  6
CONTINUOUS
 62
               7
100
AcDbLine
 10
98.399999999999977
 20
54.999999999999943
 30
0.0
 11
94.399999999999977
 21
54.999999999999943
 31
0.0
  0
LINE
  5
68
100
AcDbEntity
  8
0
  6
CONTINUOUS
 62
               7
100
AcDbLine
 10
13.0
 20
54.999999999999943
 30
0.0
 11
13.0
 21
0.0
 31
0.0
  0
LINE
  5
69
100
AcDbEntity
  8
0
  6
CONTINUOUS
 62
               7
100
AcDbLine
 10
94.399999999999977
 20
54.999999999999943
 30
0.0
 11
94.399999999999977
 21
0.0
 31
0.0
  0
LINE
  5
6A
100
AcDbEntity
  8
0
  6
CONTINUOUS
 62
               7
100
AcDbLine
 10
13.0
 20
0.0
 30
0.0
 11
6.0
 21
0.0
 31
0.0
  0
ENDBLK
  5
6B
100
AcDbEntity
  8
0
100
AcDbBlockEnd
  0
BLOCK
  5
6C
100
AcDbEntity
  8
0
100
AcDbBlockBegin
  2
MV030MAS-11-2
 70
               0
 10
0.0
 20
0.0
 30
0.0
  3
MV030MAS-11-2
  1

  0
ARC
  5
6D
100
AcDbEntity
  8
0
  6
CONTINUOUS
 62
               7
100
AcDbCircle
 10
4.6999999999999886
 20
19.299999999999955
 30
0.0
 40
0.3
100
AcDbArc
 50
359.99999999999972
 51
89.999999999999801
  0
LINE
  5
6E
100
AcDbEntity
  8
0
  6
CONTINUOUS
 62
               7
100
AcDbLine
 10
4.6999999999999886
 20
25.099999999999909
 30
0.0
 11
4.6999999999999886
 21
30.099999999999909
 31
0.0
  0
LINE
  5
6F
100
AcDbEntity
  8
0
  6
CONTINUOUS
 62
               7
100
AcDbLine
 10
5.0
 20
-14.0
 30
0.0
 11
5.0
 21
-62.000000000000227
 31
0.0
  0
LINE
  5
70
100
AcDbEntity
  8
0
  6
CONTINUOUS
 62
               7
100
AcDbLine
 10
5.0
 20
0.0
 30
0.0
 11
5.0
 21
25.099999999999909
 31
0.0
  0
CIRCLE
  5
71
100
AcDbEntity
  8
0
  6
CONTINUOUS
 62
               7
100
AcDbCircle
 10
-2.0
 20
-44.000000000000227
 30
0.0
 40
2.5
  0
CIRCLE
  5
72
100
AcDbEntity
  8
0
  6
CONTINUOUS
 62
               7
100
AcDbCircle
 10
-2.0
 20
-44.000000000000227
 30
0.0
 40
3.0
  0
CIRCLE
  5
73
100
AcDbEntity
  8
0
  6
CONTINUOUS
 62
               7
100
AcDbCircle
 10
-0.7182872358884538
 20
-44.597672477460492
 30
0.0
 40
1.0
  0
CIRCLE
  5
74
100
AcDbEntity
  8
0
  6
CONTINUOUS
 62
               7
100
AcDbCircle
 10
-0.7182872358884538
 20
-44.597672477460492
 30
0.0
 40
0.6
  0
CIRCLE
  5
75
100
AcDbEntity
  8
0
  6
CONTINUOUS
 62
               7
100
AcDbCircle
 10
-2.5976724774602644
 20
-45.281712764111717
 30
0.0
 40
1.0
  0
CIRCLE
  5
76
100
AcDbEntity
  8
0
  6
CONTINUOUS
 62
               7
100
AcDbCircle
 10
-2.5976724774602644
 20
-45.281712764111717
 30
0.0
 40
0.6
  0
CIRCLE
  5
77
100
AcDbEntity
  8
0
  6
CONTINUOUS
 62
               7
100
AcDbCircle
 10
-3.2817127641116031
 20
-43.402327522539963
 30
0.0
 40
1.0
  0
CIRCLE
  5
78
100
AcDbEntity
  8
0
  6
CONTINUOUS
 62
               7
100
AcDbCircle
 10
-3.2817127641116031
 20
-43.402327522539963
 30
0.0
 40
0.6
  0
CIRCLE
  5
79
100
AcDbEntity
  8
0
  6
CONTINUOUS
 62
               7
100
AcDbCircle
 10
-1.4023275225397924
 20
-42.718287235888511
 30
0.0
 40
1.0
  0
CIRCLE
  5
7A
100
AcDbEntity
  8
0
  6
CONTINUOUS
 62
               7
100
AcDbCircle
 10
-1.4023275225397924
 20
-42.718287235888511
 30
0.0
 40
0.6
  0
LINE
  5
7B
100
AcDbEntity
  8
0
  6
CONTINUOUS
 62
               7
100
AcDbLine
 10
-4.9749371855331219
 20
-20.500000000000227
 30
0.0
 11
4.9749371855330651
 21
-20.500000000000227
 31
0.0
  0
LINE
  5
7C
100
AcDbEntity
  8
0
  6
CONTINUOUS
 62
               7
100
AcDbLine
 10
-4.9749371855331219
 20
-21.500000000000227
 30
0.0
 11
4.9749371855330651
 21
-21.500000000000227
 31
0.0
  0
LINE
  5
7D
100
AcDbEntity
  8
0
  6
CONTINUOUS
 62
               7
100
AcDbLine
 10
5.0
 20
-62.000000000000227
 30
0.0
 11
-5.0
 21
-62.000000000000227
 31
0.0
  0
LINE
  5
7E
100
AcDbEntity
  8
0
  6
CONTINUOUS
 62
               7
100
AcDbLine
 10
-5.0
 20
-14.0
 30
0.0
 11
-5.0
 21
-62.000000000000227
 31
0.0
  0
LINE
  5
7F
100
AcDbEntity
  8
0
  6
CONTINUOUS
 62
               7
100
AcDbLine
 10
-5.0
 20
-37.000000000000227
 30
0.0
 11
5.0
 21
-37.000000000000227
 31
0.0
  0
CIRCLE
  5
80
100
AcDbEntity
  8
0
  6
CONTINUOUS
 62
               7
100
AcDbCircle
 10
0.0
 20
-21.000000000000227
 30
0.0
 40
5.0
  0
LINE
  5
81
100
AcDbEntity
  8
0
  6
CONTINUOUS
 62
               7
100
AcDbLine
 10
-2.1400000000000432
 20
45.630000000000109
 30
0.0
 11
-2.9400000000000546
 21
45.630000000000109
 31
0.0
  0
LINE
  5
82
100
AcDbEntity
  8
0
  6
CONTINUOUS
 62
               7
100
AcDbLine
 10
-1.8250000000000455
 20
40.630000000000109
 30
0.0
 11
-3.2550000000000523
 21
40.630000000000109
 31
0.0
  0
LINE
  5
83
100
AcDbEntity
  8
0
  6
CONTINUOUS
 62
               7
100
AcDbLine
 10
-2.9400000000000546
 20
40.630000000000109
 30
0.0
 11
-2.9400000000000546
 21
45.630000000000109
 31
0.0
  0
LINE
  5
84
100
AcDbEntity
  8
0
  6
CONTINUOUS
 62
               7
100
AcDbLine
 10
-2.1400000000000432
 20
40.630000000000109
 30
0.0
 11
-2.1400000000000432
 21
45.630000000000109
 31
0.0
  0
LINE
  5
85
100
AcDbEntity
  8
0
  6
CONTINUOUS
 62
               7
100
AcDbLine
 10
-1.8250000000000455
 20
36.451333333333423
 30
0.0
 11
-1.8250000000000455
 21
40.630000000000109
 31
0.0
  0
LINE
  5
86
100
AcDbEntity
  8
0
  6
CONTINUOUS
 62
               7
100
AcDbLine
 10
-3.2550000000000523
 20
36.069999999999936
 30
0.0
 11
-3.2550000000000523
 21
40.630000000000109
 31
0.0
  0
LINE
  5
87
100
AcDbEntity
  8
0
  6
CONTINUOUS
 62
               7
100
AcDbLine
 10
-3.2550000000000523
 20
30.099999999999909
 30
0.0
 11
-3.2550000000000523
 21
34.829999999999927
 31
0.0
  0
LINE
  5
88
100
AcDbEntity
  8
0
  6
CONTINUOUS
 62
               7
100
AcDbLine
 10
-1.8250000000000455
 20
30.099999999999909
 30
0.0
 11
-1.8250000000000455
 21
35.211333333333414
 31
0.0
  0
LINE
  5
89
100
AcDbEntity
  8
0
  6
CONTINUOUS
 62
               7
100
AcDbLine
 10
3.2549999999999955
 20
40.630000000000109
 30
0.0
 11
1.8249999999999318
 21
40.630000000000109
 31
0.0
  0
LINE
  5
8A
100
AcDbEntity
  8
0
  6
CONTINUOUS
 62
               7
100
AcDbLine
 10
1.8249999999999318
 20
37.424666666666553
 30
0.0
 11
1.8249999999999318
 21
40.630000000000109
 31
0.0
  0
LINE
  5
8B
100
AcDbEntity
  8
0
  6
CONTINUOUS
 62
               7
100
AcDbLine
 10
3.2549999999999955
 20
37.80600000000004
 30
0.0
 11
3.2549999999999955
 21
40.630000000000109
 31
0.0
  0
LINE
  5
8C
100
AcDbEntity
  8
0
  6
CONTINUOUS
 62
               7
100
AcDbLine
 10
2.1399999999999864
 20
40.630000000000109
 30
0.0
 11
2.1399999999999864
 21
45.630000000000109
 31
0.0
  0
LINE
  5
8D
100
AcDbEntity
  8
0
  6
CONTINUOUS
 62
               7
100
AcDbLine
 10
2.9399999999999409
 20
40.630000000000109
 30
0.0
 11
2.9399999999999409
 21
45.630000000000109
 31
0.0
  0
LINE
  5
8E
100
AcDbEntity
  8
0
  6
CONTINUOUS
 62
               7
100
AcDbLine
 10
2.1399999999999864
 20
45.630000000000109
 30
0.0
 11
2.9399999999999409
 21
45.630000000000109
 31
0.0
  0
LINE
  5
8F
100
AcDbEntity
  8
0
  6
CONTINUOUS
 62
               7
100
AcDbLine
 10
1.8249999999999318
 20
30.099999999999909
 30
0.0
 11
1.8249999999999318
 21
36.184666666666772
 31
0.0
  0
LINE
  5
90
100
AcDbEntity
  8
0
  6
CONTINUOUS
 62
               7
100
AcDbLine
 10
3.2549999999999955
 20
30.099999999999909
 30
0.0
 11
3.2549999999999955
 21
36.566000000000031
 31
0.0
  0
LINE
  5
91
100
AcDbEntity
  8
0
  6
CONTINUOUS
 62
               7
100
AcDbLine
 10
2.8999999999999773
 20
19.599999999999909
 30
0.0
 11
2.8999999999999773
 21
25.099999999999909
 31
0.0
  0
LINE
  5
92
100
AcDbEntity
  8
0
  6
CONTINUOUS
 62
               7
100
AcDbLine
 10
-2.9000000000000341
 20
19.599999999999909
 30
0.0
 11
-2.9000000000000341
 21
25.099999999999909
 31
0.0
  0
LINE
  5
93
100
AcDbEntity
  8
0
  6
CONTINUOUS
 62
               7
100
AcDbLine
 10
-1.5
 20
16.599999999999909
 30
0.0
 11
1.5
 21
16.599999999999909
 31
0.0
  0
LINE
  5
94
100
AcDbEntity
  8
0
  6
CONTINUOUS
 62
               7
100
AcDbLine
 10
1.5
 20
16.599999999999909
 30
0.0
 11
1.5
 21
19.599999999999909
 31
0.0
  0
LINE
  5
95
100
AcDbEntity
  8
0
  6
CONTINUOUS
 62
               7
100
AcDbLine
 10
-1.5
 20
16.599999999999909
 30
0.0
 11
-1.5
 21
19.599999999999909
 31
0.0
  0
ARC
  5
96
100
AcDbEntity
  8
0
  6
CONTINUOUS
 62
               7
100
AcDbCircle
 10
-4.7000000000000455
 20
19.299999999999955
 30
0.0
 40
0.3
100
AcDbArc
 50
89.999999999999815
 51
179.99999999999963
  0
LINE
  5
97
100
AcDbEntity
  8
0
  6
CONTINUOUS
 62
               7
100
AcDbLine
 10
2.5
 20
20.599999999999909
 30
0.0
 11
-2.5
 21
20.599999999999909
 31
0.0
  0
LINE
  5
98
100
AcDbEntity
  8
0
  6
CONTINUOUS
 62
               7
100
AcDbLine
 10
2.5
 20
29.099999999999909
 30
0.0
 11
-2.5
 21
29.099999999999909
 31
0.0
  0
LINE
  5
99
100
AcDbEntity
  8
0
  6
CONTINUOUS
 62
               7
100
AcDbLine
 10
2.5
 20
20.599999999999909
 30
0.0
 11
2.5
 21
29.099999999999909
 31
0.0
  0
LINE
  5
9A
100
AcDbEntity
  8
0
  6
CONTINUOUS
 62
               7
100
AcDbLine
 10
-2.5
 20
28.388675134594905
 30
0.0
 11
2.5
 21
28.388675134594905
 31
0.0
  0
LINE
  5
9B
100
AcDbEntity
  8
0
  6
CONTINUOUS
 62
               7
100
AcDbLine
 10
-2.5
 20
28.099999999999909
 30
0.0
 11
2.5
 21
28.099999999999909
 31
0.0
  0
LINE
  5
9D
100
AcDbEntity
  8
0
  6
PHANTOM
 62
               7
100
AcDbLine
 10
0.0
 20
21.466025403784442
 30
0.0
 11
1.25
 21
21.466025403784442
 31
0.0
  0
LINE
  5
9E
100
AcDbEntity
  8
0
  6
CONTINUOUS
 62
               7
100
AcDbLine
 10
3.5999999999999659
 20
25.099999999999909
 30
0.0
 11
3.5999999999999659
 21
30.099999999999909
 31
0.0
  0
LINE
  5
9F
100
AcDbEntity
  8
0
  6
PHANTOM
 62
               7
100
AcDbLine
 10
0.0
 20
21.466025403784442
 30
0.0
 11
-1.25
 21
21.466025403784442
 31
0.0
  0
LINE
  5
A0
100
AcDbEntity
  8
0
  6
CONTINUOUS
 62
               7
100
AcDbLine
 10
-3.6000000000000227
 20
25.099999999999909
 30
0.0
 11
-3.6000000000000227
 21
30.099999999999909
 31
0.0
  0
LINE
  5
A1
100
AcDbEntity
  8
0
  6
CONTINUOUS
 62
               7
100
AcDbLine
 10
-2.5
 20
20.599999999999909
 30
0.0
 11
-2.5
 21
29.099999999999909
 31
0.0
  0
LINE
  5
A2
100
AcDbEntity
  8
0
  6
CONTINUOUS
 62
               7
100
AcDbLine
 10
-4.7000000000000455
 20
25.099999999999909
 30
0.0
 11
-4.7000000000000455
 21
30.099999999999909
 31
0.0
  0
LINE
  5
A3
100
AcDbEntity
  8
0
  6
CONTINUOUS
 62
               7
100
AcDbLine
 10
-2.5
 20
21.466025403784442
 30
0.0
 11
2.5
 21
21.466025403784442
 31
0.0
  0
LINE
  5
A4
100
AcDbEntity
  8
0
  6
CONTINUOUS
 62
               7
100
AcDbLine
 10
-2.5
 20
25.099999999999909
 30
0.0
 11
-5.0
 21
25.099999999999909
 31
0.0
  0
LINE
  5
A5
100
AcDbEntity
  8
0
  6
CENTER
 62
               2
100
AcDbLine
 10
0.0
 20
-64.492900118906022
 30
0.0
 11
0.0
 21
33.381003626861002
 31
0.0
  0
LINE
  5
A6
100
AcDbEntity
  8
0
  6
CONTINUOUS
 62
               7
100
AcDbLine
 10
4.6999999999999886
 20
30.099999999999909
 30
0.0
 11
-4.7000000000000455
 21
30.099999999999909
 31
0.0
  0
LINE
  5
A7
100
AcDbEntity
  8
0
  6
CONTINUOUS
 62
               7
100
AcDbLine
 10
5.0
 20
25.099999999999909
 30
0.0
 11
2.5
 21
25.099999999999909
 31
0.0
  0
LINE
  5
A8
100
AcDbEntity
  8
0
  6
CONTINUOUS
 62
               7
100
AcDbLine
 10
-5.0
 20
0.0
 30
0.0
 11
-5.0
 21
25.099999999999909
 31
0.0
  0
LINE
  5
A9
100
AcDbEntity
  8
0
  6
CONTINUOUS
 62
               7
100
AcDbLine
 10
-5.0
 20
1.2000000000000455
 30
0.0
 11
5.0
 21
1.2000000000000455
 31
0.0
  0
LINE
  5
AA
100
AcDbEntity
  8
0
  6
CONTINUOUS
 62
               7
100
AcDbLine
 10
-4.7000000000000455
 20
19.599999999999909
 30
0.0
 11
4.6999999999999886
 21
19.599999999999909
 31
0.0
  0
LINE
  5
AB
100
AcDbEntity
  8
0
  6
CONTINUOUS
 62
               7
100
AcDbLine
 10
5.0
 20
0.900000000000091
 30
0.0
 11
-5.0
 21
0.900000000000091
 31
0.0
  0
LINE
  5
AC
100
AcDbEntity
  8
0
  6
CONTINUOUS
 62
               2
100
AcDbLine
 10
-5.5800000000000409
 20
35.450000000000045
 30
0.0
 11
5.5183137557571627
 21
38.409550334868527
 31
0.0
  0
LINE
  5
AD
100
AcDbEntity
  8
0
  6
CONTINUOUS
 62
               2
100
AcDbLine
 10
-5.5800000000000409
 20
34.210000000000036
 30
0.0
 11
5.5183137557571627
 21
37.169550334868518
 31
0.0
  0
ENDBLK
  5
AE
100
AcDbEntity
  8
0
100
AcDbBlockEnd
  0
BLOCK
  5
AF
100
AcDbEntity
  8
0
100
AcDbBlockBegin
  2
MV030MAS-11-3
 70
               0
 10
0.0
 20
0.0
 30
0.0
  3
MV030MAS-11-3
  1

  0
LINE
  5
B0
100
AcDbEntity
  8
0
  6
CONTINUOUS
 62
               7
100
AcDbLine
 10
3.1000000000000227
 20
66.5
 30
0.0
 11
4.9999999999999929
 21
66.5
 31
0.0
  0
LINE
  5
B1
100
AcDbEntity
  8
0
  6
CONTINUOUS
 62
               7
100
AcDbLine
 10
-5.0
 20
66.5
 30
0.0
 11
-1.8999999999999773
 21
66.5
 31
0.0
  0
LINE
  5
B2
100
AcDbEntity
  8
0
  6
CONTINUOUS
 62
               7
100
AcDbLine
 10
-3.449999988079071
 20
66.000000000000114
 30
0.0
 11
3.449999988079071
 21
66.000000000000114
 31
0.0
  0
LINE
  5
B3
100
AcDbEntity
  8
0
  6
CONTINUOUS
 62
               7
100
AcDbLine
 10
-5.0
 20
0.0
 30
0.0
 11
-5.0
 21
66.5
 31
0.0
  0
LINE
  5
B4
100
AcDbEntity
  8
0
  6
CENTER
 62
               2
100
AcDbLine
 10
-3.0
 20
5.5
 30
0.0
 11
3.0
 21
5.5
 31
0.0
  0
LINE
  5
B5
100
AcDbEntity
  8
0
  6
CONTINUOUS
 62
               7
100
AcDbLine
 10
-5.0
 20
14.0
 30
0.0
 11
5.0
 21
14.0
 31
0.0
  0
CIRCLE
  5
B6
100
AcDbEntity
  8
0
  6
CONTINUOUS
 62
               2
100
AcDbCircle
 10
0.0
 20
5.5
 30
0.0
 40
2.5
  0
CIRCLE
  5
B7
100
AcDbEntity
  8
0
  6
CONTINUOUS
 62
               7
100
AcDbCircle
 10
0.0
 20
5.5
 30
0.0
 40
2.1000000000000001
  0
LINE
  5
B8
100
AcDbEntity
  8
0
  6
CONTINUOUS
 62
               7
100
AcDbLine
 10
5.0
 20
58.000000000000114
 30
0.0
 11
-5.0
 21
58.000000000000114
 31
0.0
  0
ARC
  5
B9
100
AcDbEntity
  8
0
  6
CONTINUOUS
 62
               7
100
AcDbCircle
 10
-3.4500000000000455
 20
64.500000000000114
 30
0.0
 40
1.5
100
AcDbArc
 50
89.999999999999815
 51
179.99999999999963
  0
ARC
  5
BA
100
AcDbEntity
  8
0
  6
CONTINUOUS
 62
               7
100
AcDbCircle
 10
3.4499999999999886
 20
64.500000000000114
 30
0.0
 40
1.5
100
AcDbArc
 50
0.0
 51
89.999999999999815
  0
LINE
  5
BB
100
AcDbEntity
  8
0
  6
CONTINUOUS
 62
               7
100
AcDbLine
 10
-4.9500000000000455
 20
58.300000000000125
 30
0.0
 11
-4.6500000000000341
 21
58.000000000000114
 31
0.0
  0
LINE
  5
BC
100
AcDbEntity
  8
0
  6
CONTINUOUS
 62
               7
100
AcDbLine
 10
4.9499999999999886
 20
58.300000000000125
 30
0.0
 11
4.6499999999999773
 21
58.000000000000114
 31
0.0
  0
LINE
  5
BD
100
AcDbEntity
  8
0
  6
CONTINUOUS
 62
               7
100
AcDbLine
 10
-4.9500000000000455
 20
58.300000000000125
 30
0.0
 11
-4.9500000000000455
 21
64.500000000000114
 31
0.0
  0
LINE
  5
BE
100
AcDbEntity
  8
0
  6
CONTINUOUS
 62
               7
100
AcDbLine
 10
4.9499999999999886
 20
58.300000000000125
 30
0.0
 11
4.9499999999999886
 21
64.500000000000114
 31
0.0
  0
LINE
  5
BF
100
AcDbEntity
  8
0
  6
CENTER
 62
               2
100
AcDbLine
 10
0.0
 20
69.089506285714293
 30
0.0
 11
0.0
 21
-1.6200000000000045
 31
0.0
  0
LINE
  5
C0
100
AcDbEntity
  8
0
  6
CONTINUOUS
 62
               7
100
AcDbLine
 10
4.9999999999999929
 20
66.5
 30
0.0
 11
4.9999999999999929
 21
0.0
 31
0.0
  0
LINE
  5
C1
100
AcDbEntity
  8
0
  6
CONTINUOUS
 62
               7
100
AcDbLine
 10
-5.0
 20
0.0
 30
0.0
 11
4.9999999999999929
 21
0.0
 31
0.0
  0
LINE
  5
C2
100
AcDbEntity
  8
0
  6
CONTINUOUS
 62
               7
100
AcDbLine
 10
-5.0
 20
22.5
 30
0.0
 11
5.0
 21
22.5
 31
0.0
  0
LINE
  5
C3
100
AcDbEntity
  8
0
  6
CONTINUOUS
 62
               7
100
AcDbLine
 10
-1.8999999999999773
 20
68.544181962474923
 30
0.0
 11
3.1000000000000227
 21
68.544181962474923
 31
0.0
  0
LINE
  5
C4
100
AcDbEntity
  8
0
  6
CONTINUOUS
 62
               7
100
AcDbLine
 10
3.1000000000000227
 20
68.544181962474923
 30
0.0
 11
3.1000000000000227
 21
66.000000000000114
 31
0.0
  0
LINE
  5
C5
100
AcDbEntity
  8
0
  6
CONTINUOUS
 62
               7
100
AcDbLine
 10
2.6000000000000227
 20
69.044181962474923
 30
0.0
 11
-1.3999999999999773
 21
69.044181962474923
 31
0.0
  0
LINE
  5
C6
100
AcDbEntity
  8
0
  6
CONTINUOUS
 62
               7
100
AcDbLine
 10
3.1000000000000227
 20
68.544181962474923
 30
0.0
 11
2.6000000000000227
 21
69.044181962474923
 31
0.0
  0
LINE
  5
C7
100
AcDbEntity
  8
0
  6
CONTINUOUS
 62
               7
100
AcDbLine
 10
-1.8999999999999773
 20
68.544181962474923
 30
0.0
 11
-1.8999999999999773
 21
66.000000000000114
 31
0.0
  0
LINE
  5
C8
100
AcDbEntity
  8
0
  6
CONTINUOUS
 62
               7
100
AcDbLine
 10
-1.8999999999999773
 20
68.544181962474923
 30
0.0
 11
-1.3999999999999773
 21
69.044181962474923
 31
0.0
  0
ENDBLK
  5
C9
100
AcDbEntity
  8
0
100
AcDbBlockEnd
  0
BLOCK
  5
CA
100
AcDbEntity
  8
0
100
AcDbBlockBegin
  2
MV030MAS-11-4
 70
               0
 10
0.0
 20
0.0
 30
0.0
  3
MV030MAS-11-4
  1

  0
LINE
  5
CB
100
AcDbEntity
  8
0
  6
CONTINUOUS
 62
               7
100
AcDbLine
 10
5.0000000000000071
 20
48.999999999999886
 30
0.0
 11
5.0000000000000071
 21
34.499999999999886
 31
0.0
  0
LINE
  5
CC
100
AcDbEntity
  8
0
  6
CONTINUOUS
 62
               7
100
AcDbLine
 10
-4.9999999999999929
 20
48.999999999999886
 30
0.0
 11
-4.9999999999999929
 21
34.499999999999886
 31
0.0
  0
LINE
  5
CD
100
AcDbEntity
  8
0
  6
CONTINUOUS
 62
               7
100
AcDbLine
 10
5.0000000000000071
 20
34.499999999999886
 30
0.0
 11
-4.9999999999999929
 21
34.499999999999886
 31
0.0
  0
CIRCLE
  5
CE
100
AcDbEntity
  8
0
  6
CONTINUOUS
 62
               7
100
AcDbCircle
 10
3.5000000000000071
 20
42.999999999999886
 30
0.0
 40
1.5
  0
LINE
  5
CF
100
AcDbEntity
  8
0
  6
CONTINUOUS
 62
               7
100
AcDbLine
 10
4.2071067811865603
 20
42.292893218813333
 30
0.0
 11
2.7928932188134539
 21
43.70710678118644
 31
0.0
  0
LINE
  5
D0
100
AcDbEntity
  8
0
  6
CONTINUOUS
 62
               7
100
AcDbLine
 10
4.2071067811865603
 20
43.70710678118644
 30
0.0
 11
2.7928932188134539
 21
42.292893218813333
 31
0.0
  0
LINE
  5
D1
100
AcDbEntity
  8
0
  6
CONTINUOUS
 62
               7
100
AcDbLine
 10
-4.2071067811865461
 20
43.70710678118644
 30
0.0
 11
-2.7928932188134397
 21
42.292893218813333
 31
0.0
  0
LINE
  5
D2
100
AcDbEntity
  8
0
  6
CONTINUOUS
 62
               7
100
AcDbLine
 10
-4.2071067811865461
 20
42.292893218813333
 30
0.0
 11
-2.7928932188134397
 21
43.70710678118644
 31
0.0
  0
CIRCLE
  5
D3
100
AcDbEntity
  8
0
  6
CONTINUOUS
 62
               7
100
AcDbCircle
 10
-3.4999999999999929
 20
42.999999999999886
 30
0.0
 40
1.5
  0
ARC
  5
D4
100
AcDbEntity
  8
0
  6
CONTINUOUS
 62
               7
100
AcDbCircle
 10
0.0000000000000071
 20
44.749999999999886
 30
0.0
 40
0.8
100
AcDbArc
 50
202.02431283704175
 51
337.97568716295712
  0
ARC
  5
D5
100
AcDbEntity
  8
0
  6
CONTINUOUS
 62
               7
100
AcDbCircle
 10
0.0000000000000071
 20
44.749999999999886
 30
0.0
 40
0.8
100
AcDbArc
 50
22.024312837042132
 51
157.97568716295751
  0
CIRCLE
  5
D6
100
AcDbEntity
  8
0
  6
CONTINUOUS
 62
               7
100
AcDbCircle
 10
0.0000000000000071
 20
44.749999999999886
 30
0.0
 40
1.8500000000000001
  0
LINE
  5
D7
100
AcDbEntity
  8
0
  6
CONTINUOUS
 62
               7
100
AcDbLine
 10
1.8255136263528726
 20
45.049999999999898
 30
0.0
 11
-1.8255136263528655
 21
45.049999999999898
 31
0.0
  0
LINE
  5
D8
100
AcDbEntity
  8
0
  6
CONTINUOUS
 62
               7
100
AcDbLine
 10
1.8255136263528797
 20
44.449999999999875
 30
0.0
 11
-1.8255136263528655
 21
44.449999999999875
 31
0.0
  0
LINE
  5
D9
100
AcDbEntity
  8
0
  6
CONTINUOUS
 62
               7
100
AcDbLine
 10
2.8999999999999986
 20
55.199999999999875
 30
0.0
 11
-2.8999999999999986
 21
55.199999999999875
 31
0.0
  0
LINE
  5
DA
100
AcDbEntity
  8
0
  6
CONTINUOUS
 62
               7
100
AcDbLine
 10
2.8999999999999986
 20
51.199999999999875
 30
0.0
 11
-2.8999999999999986
 21
51.199999999999875
 31
0.0
  0
ARC
  5
DB
100
AcDbEntity
  8
0
  6
CONTINUOUS
 62
               7
100
AcDbCircle
 10
-2.8999999999999986
 20
53.199999999999875
 30
0.0
 40
2.0000000881710069
100
AcDbArc
 50
89.999999999999815
 51
269.99999999999937
  0
ARC
  5
DC
100
AcDbEntity
  8
0
  6
CONTINUOUS
 62
               7
100
AcDbCircle
 10
2.8999999999999986
 20
53.199999999999875
 30
0.0
 40
2.0000000881710069
100
AcDbArc
 50
270.00000000000023
 51
89.999999999999844
  0
LINE
  5
DD
100
AcDbEntity
  8
0
  6
CONTINUOUS
 62
               7
100
AcDbLine
 10
-1.4999999999999929
 20
61.499999999999886
 30
0.0
 11
1.5000000000000071
 21
61.499999999999886
 31
0.0
  0
LINE
  5
DE
100
AcDbEntity
  8
0
  6
CONTINUOUS
 62
               7
100
AcDbLine
 10
-1.4999999999999929
 20
61.499999999999886
 30
0.0
 11
-1.4999999999999929
 21
66.499999999999886
 31
0.0
  0
LINE
  5
DF
100
AcDbEntity
  8
0
  6
CONTINUOUS
 62
               7
100
AcDbLine
 10
1.5000000000000071
 20
61.499999999999886
 30
0.0
 11
1.5000000000000071
 21
66.499999999999886
 31
0.0
  0
CIRCLE
  5
E0
100
AcDbEntity
  8
0
  6
CONTINUOUS
 62
               7
100
AcDbCircle
 10
2.8999999999999986
 20
53.199999999999875
 30
0.0
 40
0.875
  0
CIRCLE
  5
E1
100
AcDbEntity
  8
0
  6
CONTINUOUS
 62
               7
100
AcDbCircle
 10
-2.8999999999999986
 20
53.199999832063838
 30
0.0
 40
0.875
  0
ARC
  5
E2
100
AcDbEntity
  8
0
  6
CONTINUOUS
 62
               7
100
AcDbCircle
 10
4.6999999999999957
 20
66.199999999999875
 30
0.0
 40
0.3
100
AcDbArc
 50
0.0000000000000254
 51
89.999999999999829
  0
ARC
  5
E3
100
AcDbEntity
  8
0
  6
CONTINUOUS
 62
               7
100
AcDbCircle
 10
-4.7000000000000099
 20
66.199999999999875
 30
0.0
 40
0.3
100
AcDbArc
 50
89.999999999999829
 51
179.99999999999963
  0
LINE
  5
E4
100
AcDbEntity
  8
0
  6
CONTINUOUS
 62
               7
100
AcDbLine
 10
5.0000000033238123
 20
48.999999999999886
 30
0.0
 11
-4.9999999966761877
 21
48.999999999999886
 31
0.0
  0
LINE
  5
E5
100
AcDbEntity
  8
0
  6
CONTINUOUS
 62
               7
100
AcDbLine
 10
-4.7000000000000099
 20
66.499999999999886
 30
0.0
 11
4.6999999999999957
 21
66.499999999999886
 31
0.0
  0
CIRCLE
  5
E6
100
AcDbEntity
  8
0
  6
CONTINUOUS
 62
               7
100
AcDbCircle
 10
0.0000000000000071
 20
44.749999999999886
 30
0.0
 40
1.9000000000000001
  0
LINE
  5
E7
100
AcDbEntity
  8
0
  6
CONTINUOUS
 62
               7
100
AcDbLine
 10
5.0000000000000071
 20
66.199999999999875
 30
0.0
 11
5.0000000000000071
 21
48.999999999999886
 31
0.0
  0
LINE
  5
E8
100
AcDbEntity
  8
0
  6
CENTER
 62
               2
100
AcDbLine
 10
2.5000000000000071
 20
44.749999999999886
 30
0.0
 11
-2.4999999999999929
 21
44.749999999999886
 31
0.0
  0
LINE
  5
E9
100
AcDbEntity
  8
0
  6
CONTINUOUS
 62
               7
100
AcDbLine
 10
-4.9999999999999929
 20
66.199999999999875
 30
0.0
 11
-4.9999999999999929
 21
48.999999999999886
 31
0.0
  0
ARC
  5
EA
100
AcDbEntity
  8
0
  6
CONTINUOUS
 62
               7
100
AcDbCircle
 10
3.5000000000000071
 20
42.999999999999886
 30
0.0
 40
1.6000000000000001
100
AcDbArc
 50
89.999999999999815
 51
269.99999999999937
  0
ARC
  5
EB
100
AcDbEntity
  8
0
  6
CONTINUOUS
 62
               7
100
AcDbCircle
 10
-3.4999999999999929
 20
42.999999999999886
 30
0.0
 40
1.6000000000000001
100
AcDbArc
 50
270.00000000000023
 51
89.999999999999844
  0
LINE
  5
EC
100
AcDbEntity
  8
0
  6
CONTINUOUS
 62
               7
100
AcDbLine
 10
-4.9999999999999929
 20
44.599999999999909
 30
0.0
 11
-3.4999999999999929
 21
44.599999999999909
 31
0.0
  0
LINE
  5
ED
100
AcDbEntity
  8
0
  6
CONTINUOUS
 62
               7
100
AcDbLine
 10
-3.4999999999999929
 20
41.399999999999864
 30
0.0
 11
-4.9999999999999929
 21
41.399999999999864
 31
0.0
  0
LINE
  5
EE
100
AcDbEntity
  8
0
  6
CONTINUOUS
 62
               7
100
AcDbLine
 10
5.0000000000000071
 20
41.399999999999864
 30
0.0
 11
3.5000000000000071
 21
41.399999999999864
 31
0.0
  0
LINE
  5
EF
100
AcDbEntity
  8
0
  6
CONTINUOUS
 62
               7
100
AcDbLine
 10
3.5000000000000071
 20
44.599999999999909
 30
0.0
 11
5.0000000000000071
 21
44.599999999999909
 31
0.0
  0
LINE
  5
F0
100
AcDbEntity
  8
0
  6
CONTINUOUS
 62
               7
100
AcDbLine
 10
5.0000000000000071
 20
48.899999999999864
 30
0.0
 11
-4.9999999999999929
 21
48.899999999999864
 31
0.0
  0
LINE
  5
F1
100
AcDbEntity
  8
0
  6
CONTINUOUS
 62
               7
100
AcDbLine
 10
-4.9999999999999929
 20
48.401921563029987
 30
0.0
 11
5.0000000000000071
 21
48.401921563029987
 31
0.0
  0
CIRCLE
  5
F2
100
AcDbEntity
  8
0
  6
CONTINUOUS
 62
               7
100
AcDbCircle
 10
0.0000000000000071
 20
44.749999999999886
 30
0.0
 40
2.0500000000000003
  0
LINE
  5
F3
100
AcDbEntity
  8
0
  6
CONTINUOUS
 62
               7
100
AcDbLine
 10
-2.6499999999999986
 20
40.899999999999892
 30
0.0
 11
-4.9999999999999929
 21
40.899999999999892
 31
0.0
  0
LINE
  5
F4
100
AcDbEntity
  8
0
  6
CONTINUOUS
 62
               7
100
AcDbLine
 10
-1.3999999999999986
 20
42.149999999999864
 30
0.0
 11
1.4000000000000128
 21
42.149999999999864
 31
0.0
  0
LINE
  5
F5
100
AcDbEntity
  8
0
  6
CONTINUOUS
 62
               7
100
AcDbLine
 10
2.6500000000000128
 20
40.899999999999892
 30
0.0
 11
1.4000000000000128
 21
42.149999999999864
 31
0.0
  0
LINE
  5
F6
100
AcDbEntity
  8
0
  6
CONTINUOUS
 62
               7
100
AcDbLine
 10
5.0000000000000355
 20
40.899999999999892
 30
0.0
 11
2.6500000000000128
 21
40.899999999999892
 31
0.0
  0
LINE
  5
F7
100
AcDbEntity
  8
0
  6
CONTINUOUS
 62
               7
100
AcDbLine
 10
-1.1443704061238904
 20
41.709182548228739
 30
0.0
 11
1.1443704061239046
 21
41.709182548228739
 31
0.0
  0
LINE
  5
F8
100
AcDbEntity
  8
0
  6
CONTINUOUS
 62
               7
100
AcDbLine
 10
-2.3943704061238904
 20
40.459182548228711
 30
0.0
 11
-4.9999999999999929
 21
40.459182548228711
 31
0.0
  0
LINE
  5
F9
100
AcDbEntity
  8
0
  6
CONTINUOUS
 62
               7
100
AcDbLine
 10
5.0000000000000071
 20
40.459182548228739
 30
0.0
 11
2.3943704061239046
 21
40.459182548228739
 31
0.0
  0
LINE
  5
FA
100
AcDbEntity
  8
0
  6
CONTINUOUS
 62
               7
100
AcDbLine
 10
1.1443704061239046
 20
41.709182548228739
 30
0.0
 11
2.3943704061239046
 21
40.459182548228739
 31
0.0
  0
LINE
  5
FB
100
AcDbEntity
  8
0
  6
CONTINUOUS
 62
               7
100
AcDbLine
 10
5.0000000000000071
 20
47.590817451771045
 30
0.0
 11
-4.9999999999999929
 21
47.590817451771045
 31
0.0
  0
LINE
  5
FC
100
AcDbEntity
  8
0
  6
CONTINUOUS
 62
               7
100
AcDbLine
 10
1.1443704061239046
 20
41.709182548228739
 30
0.0
 11
1.4000000000000128
 21
42.149999999999864
 31
0.0
  0
LINE
  5
FD
100
AcDbEntity
  8
0
  6
CONTINUOUS
 62
               7
100
AcDbLine
 10
-1.1443704061238904
 20
41.709182548228739
 30
0.0
 11
-2.3943704061238904
 21
40.459182548228711
 31
0.0
  0
LINE
  5
FE
100
AcDbEntity
  8
0
  6
CONTINUOUS
 62
               7
100
AcDbLine
 10
-2.6499999999999986
 20
40.899999999999892
 30
0.0
 11
-1.3999999999999986
 21
42.149999999999864
 31
0.0
  0
LINE
  5
FF
100
AcDbEntity
  8
0
  6
CONTINUOUS
 62
               7
100
AcDbLine
 10
-1.1443704061238904
 20
41.709182548228739
 30
0.0
 11
-1.3999999999999986
 21
42.149999999999864
 31
0.0
  0
LINE
  5
100
100
AcDbEntity
  8
0
  6
CONTINUOUS
 62
               7
100
AcDbLine
 10
2.6500000000000128
 20
40.899999999999892
 30
0.0
 11
2.3943704061239046
 21
40.459182548228739
 31
0.0
  0
LINE
  5
101
100
AcDbEntity
  8
0
  6
CONTINUOUS
 62
               7
100
AcDbLine
 10
-2.3943704061238904
 20
40.459182548228711
 30
0.0
 11
-2.6499999999999986
 21
40.899999999999892
 31
0.0
  0
LINE
  5
102
100
AcDbEntity
  8
0
  6
CONTINUOUS
 62
               7
100
AcDbLine
 10
-4.9999999999999929
 20
17.5
 30
0.0
 11
-4.9999999999999929
 21
32.0
 31
0.0
  0
LINE
  5
103
100
AcDbEntity
  8
0
  6
CONTINUOUS
 62
               7
100
AcDbLine
 10
5.0000000000000071
 20
17.5
 30
0.0
 11
5.0000000000000071
 21
32.0
 31
0.0
  0
LINE
  5
104
100
AcDbEntity
  8
0
  6
CONTINUOUS
 62
               7
100
AcDbLine
 10
-4.9999999999999929
 20
32.0
 30
0.0
 11
5.0000000000000071
 21
32.0
 31
0.0
  0
CIRCLE
  5
105
100
AcDbEntity
  8
0
  6
CONTINUOUS
 62
               7
100
AcDbCircle
 10
-3.4999999999999929
 20
23.5
 30
0.0
 40
1.5
  0
LINE
  5
106
100
AcDbEntity
  8
0
  6
CONTINUOUS
 62
               7
100
AcDbLine
 10
-4.2071067811865461
 20
24.207106781186553
 30
0.0
 11
-2.7928932188134397
 21
22.792893218813447
 31
0.0
  0
LINE
  5
107
100
AcDbEntity
  8
0
  6
CONTINUOUS
 62
               7
100
AcDbLine
 10
-4.2071067811865461
 20
22.792893218813447
 30
0.0
 11
-2.7928932188134397
 21
24.207106781186553
 31
0.0
  0
LINE
  5
108
100
AcDbEntity
  8
0
  6
CONTINUOUS
 62
               7
100
AcDbLine
 10
4.2071067811865603
 20
22.792893218813447
 30
0.0
 11
2.7928932188134539
 21
24.207106781186553
 31
0.0
  0
LINE
  5
109
100
AcDbEntity
  8
0
  6
CONTINUOUS
 62
               7
100
AcDbLine
 10
4.2071067811865603
 20
24.207106781186553
 30
0.0
 11
2.7928932188134539
 21
22.792893218813447
 31
0.0
  0
CIRCLE
  5
10A
100
AcDbEntity
  8
0
  6
CONTINUOUS
 62
               7
100
AcDbCircle
 10
3.5000000000000071
 20
23.5
 30
0.0
 40
1.5
  0
ARC
  5
10B
100
AcDbEntity
  8
0
  6
CONTINUOUS
 62
               7
100
AcDbCircle
 10
0.0000000000000071
 20
21.75
 30
0.0
 40
0.8
100
AcDbArc
 50
22.024312837042157
 51
157.97568716295754
  0
ARC
  5
10C
100
AcDbEntity
  8
0
  6
CONTINUOUS
 62
               7
100
AcDbCircle
 10
0.0000000000000071
 20
21.75
 30
0.0
 40
0.8
100
AcDbArc
 50
202.02431283704175
 51
337.97568716295712
  0
CIRCLE
  5
10D
100
AcDbEntity
  8
0
  6
CONTINUOUS
 62
               7
100
AcDbCircle
 10
0.0000000000000071
 20
21.75
 30
0.0
 40
1.8500000000000001
  0
LINE
  5
10E
100
AcDbEntity
  8
0
  6
CONTINUOUS
 62
               7
100
AcDbLine
 10
-1.8255136263528584
 20
21.449999999999989
 30
0.0
 11
1.8255136263528797
 21
21.449999999999989
 31
0.0
  0
LINE
  5
10F
100
AcDbEntity
  8
0
  6
CONTINUOUS
 62
               7
100
AcDbLine
 10
-1.8255136263528655
 20
22.050000000000011
 30
0.0
 11
1.8255136263528797
 21
22.050000000000011
 31
0.0
  0
LINE
  5
110
100
AcDbEntity
  8
0
  6
CONTINUOUS
 62
               7
100
AcDbLine
 10
-2.8999999999999879
 20
11.300000000000011
 30
0.0
 11
2.9000000000000128
 21
11.300000000000011
 31
0.0
  0
LINE
  5
111
100
AcDbEntity
  8
0
  6
CONTINUOUS
 62
               7
100
AcDbLine
 10
-2.8999999999999879
 20
15.300000000000011
 30
0.0
 11
2.9000000000000128
 21
15.300000000000011
 31
0.0
  0
ARC
  5
112
100
AcDbEntity
  8
0
  6
CONTINUOUS
 62
               7
100
AcDbCircle
 10
2.9000000000000128
 20
13.300000000000011
 30
0.0
 40
2.0000000881710069
100
AcDbArc
 50
270.00000000000023
 51
89.999999999999801
  0
ARC
  5
113
100
AcDbEntity
  8
0
  6
CONTINUOUS
 62
               7
100
AcDbCircle
 10
-2.8999999999999879
 20
13.300000000000011
 30
0.0
 40
2.0000000881710069
100
AcDbArc
 50
89.999999999999815
 51
269.99999999999937
  0
LINE
  5
114
100
AcDbEntity
  8
0
  6
CONTINUOUS
 62
               7
100
AcDbLine
 10
1.5000000000000071
 20
5.0
 30
0.0
 11
-1.4999999999999964
 21
5.0
 31
0.0
  0
LINE
  5
115
100
AcDbEntity
  8
0
  6
CONTINUOUS
 62
               7
100
AcDbLine
 10
1.5000000000000071
 20
5.0
 30
0.0
 11
1.5
 21
0.0
 31
0.0
  0
LINE
  5
116
100
AcDbEntity
  8
0
  6
CONTINUOUS
 62
               7
100
AcDbLine
 10
-1.4999999999999964
 20
5.0
 30
0.0
 11
-1.4999999999999964
 21
0.0
 31
0.0
  0
CIRCLE
  5
117
100
AcDbEntity
  8
0
  6
CONTINUOUS
 62
               7
100
AcDbCircle
 10
-2.8999999999999879
 20
13.300000000000011
 30
0.0
 40
0.875
  0
CIRCLE
  5
118
100
AcDbEntity
  8
0
  6
CONTINUOUS
 62
               7
100
AcDbCircle
 10
2.9000000000000128
 20
13.300000167936048
 30
0.0
 40
0.875
  0
ARC
  5
119
100
AcDbEntity
  8
0
  6
CONTINUOUS
 62
               7
100
AcDbCircle
 10
-4.6999999999999851
 20
0.3000000000000114
 30
0.0
 40
0.3
100
AcDbArc
 50
179.99999999999963
 51
269.99999999999937
  0
ARC
  5
11A
100
AcDbEntity
  8
0
  6
CONTINUOUS
 62
               7
100
AcDbCircle
 10
4.7000000000000242
 20
0.3000000000000114
 30
0.0
 40
0.3
100
AcDbArc
 50
269.99999999999937
 51
0.0
  0
LINE
  5
11B
100
AcDbEntity
  8
0
  6
CONTINUOUS
 62
               7
100
AcDbLine
 10
-5.0000000033237981
 20
17.5
 30
0.0
 11
4.9999999966762019
 21
17.5
 31
0.0
  0
LINE
  5
11C
100
AcDbEntity
  8
0
  6
CONTINUOUS
 62
               7
100
AcDbLine
 10
5.0999999999999996
 20
0.0
 30
0.0
 11
-5.0999999999999996
 21
0.0
 31
0.0
  0
CIRCLE
  5
11D
100
AcDbEntity
  8
0
  6
CONTINUOUS
 62
               7
100
AcDbCircle
 10
0.0000000000000071
 20
21.75
 30
0.0
 40
1.9000000000000001
  0
LINE
  5
11E
100
AcDbEntity
  8
0
  6
CONTINUOUS
 62
               7
100
AcDbLine
 10
-4.9999999999999964
 20
0.3000000000000114
 30
0.0
 11
-4.9999999999999929
 21
17.5
 31
0.0
  0
LINE
  5
11F
100
AcDbEntity
  8
0
  6
CENTER
 62
               2
100
AcDbLine
 10
-2.4999999999999929
 20
21.75
 30
0.0
 11
2.5000000000000071
 21
21.75
 31
0.0
  0
LINE
  5
120
100
AcDbEntity
  8
0
  6
CONTINUOUS
 62
               7
100
AcDbLine
 10
5.0000000000000071
 20
0.3000000000000114
 30
0.0
 11
5.0000000000000071
 21
17.5
 31
0.0
  0
ARC
  5
121
100
AcDbEntity
  8
0
  6
CONTINUOUS
 62
               7
100
AcDbCircle
 10
-3.4999999999999929
 20
23.5
 30
0.0
 40
1.6000000000000001
100
AcDbArc
 50
270.00000000000023
 51
89.999999999999801
  0
ARC
  5
122
100
AcDbEntity
  8
0
  6
CONTINUOUS
 62
               7
100
AcDbCircle
 10
3.5000000000000071
 20
23.5
 30
0.0
 40
1.6000000000000001
100
AcDbArc
 50
89.999999999999815
 51
269.99999999999937
  0
LINE
  5
123
100
AcDbEntity
  8
0
  6
CONTINUOUS
 62
               7
100
AcDbLine
 10
5.0000000000000071
 20
21.899999999999977
 30
0.0
 11
3.5000000000000071
 21
21.899999999999977
 31
0.0
  0
LINE
  5
124
100
AcDbEntity
  8
0
  6
CONTINUOUS
 62
               7
100
AcDbLine
 10
3.5000000000000071
 20
25.100000000000023
 30
0.0
 11
5.0000000000000071
 21
25.100000000000023
 31
0.0
  0
LINE
  5
125
100
AcDbEntity
  8
0
  6
CONTINUOUS
 62
               7
100
AcDbLine
 10
-4.9999999999999929
 20
25.100000000000023
 30
0.0
 11
-3.4999999999999929
 21
25.100000000000023
 31
0.0
  0
LINE
  5
126
100
AcDbEntity
  8
0
  6
CONTINUOUS
 62
               7
100
AcDbLine
 10
-3.4999999999999929
 20
21.899999999999977
 30
0.0
 11
-4.9999999999999929
 21
21.899999999999977
 31
0.0
  0
LINE
  5
127
100
AcDbEntity
  8
0
  6
CONTINUOUS
 62
               7
100
AcDbLine
 10
-4.9999999999999929
 20
17.600000000000023
 30
0.0
 11
5.0000000000000071
 21
17.600000000000023
 31
0.0
  0
LINE
  5
128
100
AcDbEntity
  8
0
  6
CONTINUOUS
 62
               7
100
AcDbLine
 10
5.0000000000000071
 20
18.098078436969899
 30
0.0
 11
-4.9999999999999929
 21
18.098078436969899
 31
0.0
  0
CIRCLE
  5
129
100
AcDbEntity
  8
0
  6
CONTINUOUS
 62
               7
100
AcDbCircle
 10
0.0000000000000071
 20
21.75
 30
0.0
 40
2.0500000000000003
  0
LINE
  5
12A
100
AcDbEntity
  8
0
  6
CONTINUOUS
 62
               7
100
AcDbLine
 10
2.6500000000000128
 20
25.599999999999994
 30
0.0
 11
5.0000000000000071
 21
25.599999999999994
 31
0.0
  0
LINE
  5
12B
100
AcDbEntity
  8
0
  6
CONTINUOUS
 62
               7
100
AcDbLine
 10
1.4000000000000128
 20
24.350000000000023
 30
0.0
 11
-1.3999999999999986
 21
24.350000000000023
 31
0.0
  0
LINE
  5
12C
100
AcDbEntity
  8
0
  6
CONTINUOUS
 62
               7
100
AcDbLine
 10
-2.6499999999999986
 20
25.599999999999994
 30
0.0
 11
-1.3999999999999986
 21
24.350000000000023
 31
0.0
  0
LINE
  5
12D
100
AcDbEntity
  8
0
  6
CONTINUOUS
 62
               7
100
AcDbLine
 10
-5.0000000000000213
 20
25.599999999999994
 30
0.0
 11
-2.6499999999999986
 21
25.599999999999994
 31
0.0
  0
LINE
  5
12E
100
AcDbEntity
  8
0
  6
CONTINUOUS
 62
               7
100
AcDbLine
 10
1.1443704061239046
 20
24.790817451771147
 30
0.0
 11
-1.1443704061238904
 21
24.790817451771147
 31
0.0
  0
LINE
  5
12F
100
AcDbEntity
  8
0
  6
CONTINUOUS
 62
               7
100
AcDbLine
 10
2.3943704061239046
 20
26.040817451771176
 30
0.0
 11
5.0000000000000071
 21
26.040817451771176
 31
0.0
  0
LINE
  5
130
100
AcDbEntity
  8
0
  6
CONTINUOUS
 62
               7
100
AcDbLine
 10
-4.9999999999999929
 20
26.040817451771147
 30
0.0
 11
-2.3943704061238904
 21
26.040817451771147
 31
0.0
  0
LINE
  5
131
100
AcDbEntity
  8
0
  6
CONTINUOUS
 62
               7
100
AcDbLine
 10
-1.1443704061238904
 20
24.790817451771147
 30
0.0
 11
-2.3943704061238904
 21
26.040817451771147
 31
0.0
  0
LINE
  5
132
100
AcDbEntity
  8
0
  6
CONTINUOUS
 62
               7
100
AcDbLine
 10
-4.9999999999999929
 20
18.909182548228841
 30
0.0
 11
5.0000000000000071
 21
18.909182548228841
 31
0.0
  0
LINE
  5
133
100
AcDbEntity
  8
0
  6
CONTINUOUS
 62
               7
100
AcDbLine
 10
-1.1443704061238904
 20
24.790817451771147
 30
0.0
 11
-1.3999999999999986
 21
24.350000000000023
 31
0.0
  0
LINE
  5
134
100
AcDbEntity
  8
0
  6
CONTINUOUS
 62
               7
100
AcDbLine
 10
1.1443704061239046
 20
24.790817451771147
 30
0.0
 11
2.3943704061239046
 21
26.040817451771176
 31
0.0
  0
LINE
  5
135
100
AcDbEntity
  8
0
  6
CONTINUOUS
 62
               7
100
AcDbLine
 10
2.6500000000000128
 20
25.599999999999994
 30
0.0
 11
1.4000000000000128
 21
24.350000000000023
 31
0.0
  0
LINE
  5
136
100
AcDbEntity
  8
0
  6
CONTINUOUS
 62
               7
100
AcDbLine
 10
1.1443704061239046
 20
24.790817451771147
 30
0.0
 11
1.4000000000000128
 21
24.350000000000023
 31
0.0
  0
LINE
  5
137
100
AcDbEntity
  8
0
  6
CONTINUOUS
 62
               7
100
AcDbLine
 10
-2.6499999999999986
 20
25.599999999999994
 30
0.0
 11
-2.3943704061238904
 21
26.040817451771147
 31
0.0
  0
LINE
  5
138
100
AcDbEntity
  8
0
  6
CONTINUOUS
 62
               7
100
AcDbLine
 10
2.3943704061239046
 20
26.040817451771176
 30
0.0
 11
2.6500000000000128
 21
25.599999999999994
 31
0.0
  0
LINE
  5
139
100
AcDbEntity
  8
0
  6
CENTER
 62
               2
100
AcDbLine
 10
0.0000000000000076
 20
74.044181962474809
 30
0.0
 11
0.0
 21
-2.1360529252351057
 31
0.0
  0
LINE
  5
13A
100
AcDbEntity
  8
0
  6
CONTINUOUS
 62
               7
100
AcDbLine
 10
5.0000000000000071
 20
55.0
 30
0.0
 11
5.1000000000000068
 21
55.0
 31
0.0
  0
LINE
  5
13B
100
AcDbEntity
  8
0
  6
CONTINUOUS
 62
               7
100
AcDbLine
 10
-4.9999999999999929
 20
55.0
 30
0.0
 11
-5.0999999999999943
 21
55.0
 31
0.0
  0
LINE
  5
13C
100
AcDbEntity
  8
0
  6
CONTINUOUS
 62
               7
100
AcDbLine
 10
1.8999999999999844
 20
68.544181962474809
 30
0.0
 11
1.8999999999999844
 21
66.499999999999886
 31
0.0
  0
LINE
  5
13D
100
AcDbEntity
  8
0
  6
CONTINUOUS
 62
               7
100
AcDbLine
 10
-3.1000000000000156
 20
68.544181962474809
 30
0.0
 11
-3.1000000000000156
 21
66.499999999999886
 31
0.0
  0
LINE
  5
13E
100
AcDbEntity
  8
0
  6
CONTINUOUS
 62
               7
100
AcDbLine
 10
1.8999999999999844
 20
68.544181962474809
 30
0.0
 11
-3.1000000000000156
 21
68.544181962474809
 31
0.0
  0
LINE
  5
13F
100
AcDbEntity
  8
0
  6
CONTINUOUS
 62
               7
100
AcDbLine
 10
-2.6000000000000156
 20
69.044181962474809
 30
0.0
 11
1.3999999999999844
 21
69.044181962474809
 31
0.0
  0
LINE
  5
140
100
AcDbEntity
  8
0
  6
CONTINUOUS
 62
               7
100
AcDbLine
 10
-3.1000000000000156
 20
68.544181962474809
 30
0.0
 11
-2.6000000000000156
 21
69.044181962474809
 31
0.0
  0
LINE
  5
141
100
AcDbEntity
  8
0
  6
CONTINUOUS
 62
               7
100
AcDbLine
 10
1.8999999999999844
 20
68.544181962474809
 30
0.0
 11
1.3999999999999844
 21
69.044181962474809
 31
0.0
  0
ENDBLK
  5
142
100
AcDbEntity
  8
0
100
AcDbBlockEnd
  0
BLOCK
  5
143
100
AcDbEntity
  8
0
100
AcDbBlockBegin
  2
MV030MAS-11-5
 70
               0
 10
0.0
 20
0.0
 30
0.0
  3
MV030MAS-11-5
  1

  0
LINE
  5
144
100
AcDbEntity
  8
0
  6
CENTER
 62
               2
100
AcDbLine
 10
0.0000000000000071
 20
69.136052925234992
 30
0.0
 11
0.0
 21
-2.1360529252351057
 31
0.0
  0
LINE
  5
145
100
AcDbEntity
  8
0
  6
CONTINUOUS
 62
               7
100
AcDbLine
 10
2.3943704061239046
 20
26.040817451771176
 30
0.0
 11
2.6500000000000128
 21
25.599999999999994
 31
0.0
  0
LINE
  5
146
100
AcDbEntity
  8
0
  6
CONTINUOUS
 62
               7
100
AcDbLine
 10
-2.6499999999999986
 20
25.599999999999994
 30
0.0
 11
-2.3943704061238904
 21
26.040817451771147
 31
0.0
  0
LINE
  5
147
100
AcDbEntity
  8
0
  6
CONTINUOUS
 62
               7
100
AcDbLine
 10
1.1443704061239046
 20
24.790817451771147
 30
0.0
 11
1.4000000000000128
 21
24.350000000000023
 31
0.0
  0
LINE
  5
148
100
AcDbEntity
  8
0
  6
CONTINUOUS
 62
               7
100
AcDbLine
 10
2.6500000000000128
 20
25.599999999999994
 30
0.0
 11
1.4000000000000128
 21
24.350000000000023
 31
0.0
  0
LINE
  5
149
100
AcDbEntity
  8
0
  6
CONTINUOUS
 62
               7
100
AcDbLine
 10
1.1443704061239046
 20
24.790817451771147
 30
0.0
 11
2.3943704061239046
 21
26.040817451771176
 31
0.0
  0
LINE
  5
14A
100
AcDbEntity
  8
0
  6
CONTINUOUS
 62
               7
100
AcDbLine
 10
-1.1443704061238904
 20
24.790817451771147
 30
0.0
 11
-1.3999999999999986
 21
24.350000000000023
 31
0.0
  0
LINE
  5
14B
100
AcDbEntity
  8
0
  6
CONTINUOUS
 62
               7
100
AcDbLine
 10
-4.9999999999999929
 20
18.909182548228841
 30
0.0
 11
5.0000000000000071
 21
18.909182548228841
 31
0.0
  0
LINE
  5
14C
100
AcDbEntity
  8
0
  6
CONTINUOUS
 62
               7
100
AcDbLine
 10
-1.1443704061238904
 20
24.790817451771147
 30
0.0
 11
-2.3943704061238904
 21
26.040817451771147
 31
0.0
  0
LINE
  5
14D
100
AcDbEntity
  8
0
  6
CONTINUOUS
 62
               7
100
AcDbLine
 10
-4.9999999999999929
 20
26.040817451771147
 30
0.0
 11
-2.3943704061238904
 21
26.040817451771147
 31
0.0
  0
LINE
  5
14E
100
AcDbEntity
  8
0
  6
CONTINUOUS
 62
               7
100
AcDbLine
 10
2.3943704061239046
 20
26.040817451771176
 30
0.0
 11
5.0000000000000071
 21
26.040817451771176
 31
0.0
  0
LINE
  5
14F
100
AcDbEntity
  8
0
  6
CONTINUOUS
 62
               7
100
AcDbLine
 10
1.1443704061239046
 20
24.790817451771147
 30
0.0
 11
-1.1443704061238904
 21
24.790817451771147
 31
0.0
  0
LINE
  5
150
100
AcDbEntity
  8
0
  6
CONTINUOUS
 62
               7
100
AcDbLine
 10
-5.0000000000000213
 20
25.599999999999994
 30
0.0
 11
-2.6499999999999986
 21
25.599999999999994
 31
0.0
  0
LINE
  5
151
100
AcDbEntity
  8
0
  6
CONTINUOUS
 62
               7
100
AcDbLine
 10
-2.6499999999999986
 20
25.599999999999994
 30
0.0
 11
-1.3999999999999986
 21
24.350000000000023
 31
0.0
  0
LINE
  5
152
100
AcDbEntity
  8
0
  6
CONTINUOUS
 62
               7
100
AcDbLine
 10
1.4000000000000128
 20
24.350000000000023
 30
0.0
 11
-1.3999999999999986
 21
24.350000000000023
 31
0.0
  0
LINE
  5
153
100
AcDbEntity
  8
0
  6
CONTINUOUS
 62
               7
100
AcDbLine
 10
2.6500000000000128
 20
25.599999999999994
 30
0.0
 11
5.0000000000000071
 21
25.599999999999994
 31
0.0
  0
CIRCLE
  5
154
100
AcDbEntity
  8
0
  6
CONTINUOUS
 62
               7
100
AcDbCircle
 10
0.0000000000000071
 20
21.75
 30
0.0
 40
2.0500000000000003
  0
LINE
  5
155
100
AcDbEntity
  8
0
  6
CONTINUOUS
 62
               7
100
AcDbLine
 10
5.0000000000000071
 20
18.098078436969899
 30
0.0
 11
-4.9999999999999929
 21
18.098078436969899
 31
0.0
  0
LINE
  5
156
100
AcDbEntity
  8
0
  6
CONTINUOUS
 62
               7
100
AcDbLine
 10
-4.9999999999999929
 20
17.600000000000023
 30
0.0
 11
5.0000000000000071
 21
17.600000000000023
 31
0.0
  0
LINE
  5
157
100
AcDbEntity
  8
0
  6
CONTINUOUS
 62
               7
100
AcDbLine
 10
-3.4999999999999929
 20
21.899999999999977
 30
0.0
 11
-4.9999999999999929
 21
21.899999999999977
 31
0.0
  0
LINE
  5
158
100
AcDbEntity
  8
0
  6
CONTINUOUS
 62
               7
100
AcDbLine
 10
-4.9999999999999929
 20
25.100000000000023
 30
0.0
 11
-3.4999999999999929
 21
25.100000000000023
 31
0.0
  0
LINE
  5
159
100
AcDbEntity
  8
0
  6
CONTINUOUS
 62
               7
100
AcDbLine
 10
3.5000000000000071
 20
25.100000000000023
 30
0.0
 11
5.0000000000000071
 21
25.100000000000023
 31
0.0
  0
LINE
  5
15A
100
AcDbEntity
  8
0
  6
CONTINUOUS
 62
               7
100
AcDbLine
 10
5.0000000000000071
 20
21.899999999999977
 30
0.0
 11
3.5000000000000071
 21
21.899999999999977
 31
0.0
  0
ARC
  5
15B
100
AcDbEntity
  8
0
  6
CONTINUOUS
 62
               7
100
AcDbCircle
 10
3.5000000000000071
 20
23.5
 30
0.0
 40
1.6000000000000001
100
AcDbArc
 50
89.999999999999815
 51
269.99999999999937
  0
ARC
  5
15C
100
AcDbEntity
  8
0
  6
CONTINUOUS
 62
               7
100
AcDbCircle
 10
-3.4999999999999929
 20
23.5
 30
0.0
 40
1.6000000000000001
100
AcDbArc
 50
270.00000000000023
 51
89.999999999999801
  0
LINE
  5
15D
100
AcDbEntity
  8
0
  6
CONTINUOUS
 62
               7
100
AcDbLine
 10
5.0000000000000071
 20
0.3000000000000114
 30
0.0
 11
5.0000000000000071
 21
17.5
 31
0.0
  0
LINE
  5
15E
100
AcDbEntity
  8
0
  6
CENTER
 62
               2
100
AcDbLine
 10
-2.4999999999999929
 20
21.75
 30
0.0
 11
2.5000000000000071
 21
21.75
 31
0.0
  0
LINE
  5
15F
100
AcDbEntity
  8
0
  6
CONTINUOUS
 62
               7
100
AcDbLine
 10
-4.9999999999999964
 20
0.3000000000000114
 30
0.0
 11
-4.9999999999999929
 21
17.5
 31
0.0
  0
CIRCLE
  5
160
100
AcDbEntity
  8
0
  6
CONTINUOUS
 62
               7
100
AcDbCircle
 10
0.0000000000000071
 20
21.75
 30
0.0
 40
1.9000000000000001
  0
LINE
  5
161
100
AcDbEntity
  8
0
  6
CONTINUOUS
 62
               7
100
AcDbLine
 10
5.0999999999999996
 20
0.0
 30
0.0
 11
-5.0999999999999996
 21
0.0
 31
0.0
  0
LINE
  5
162
100
AcDbEntity
  8
0
  6
CONTINUOUS
 62
               7
100
AcDbLine
 10
-5.0000000033237981
 20
17.5
 30
0.0
 11
4.9999999966762019
 21
17.5
 31
0.0
  0
ARC
  5
163
100
AcDbEntity
  8
0
  6
CONTINUOUS
 62
               7
100
AcDbCircle
 10
4.7000000000000242
 20
0.3000000000000114
 30
0.0
 40
0.3
100
AcDbArc
 50
269.99999999999937
 51
0.0
  0
ARC
  5
164
100
AcDbEntity
  8
0
  6
CONTINUOUS
 62
               7
100
AcDbCircle
 10
-4.6999999999999851
 20
0.3000000000000114
 30
0.0
 40
0.3
100
AcDbArc
 50
179.99999999999963
 51
269.99999999999937
  0
CIRCLE
  5
165
100
AcDbEntity
  8
0
  6
CONTINUOUS
 62
               7
100
AcDbCircle
 10
2.9000000000000128
 20
13.300000167936048
 30
0.0
 40
0.875
  0
CIRCLE
  5
166
100
AcDbEntity
  8
0
  6
CONTINUOUS
 62
               7
100
AcDbCircle
 10
-2.8999999999999879
 20
13.300000000000011
 30
0.0
 40
0.875
  0
LINE
  5
167
100
AcDbEntity
  8
0
  6
CONTINUOUS
 62
               7
100
AcDbLine
 10
-1.4999999999999964
 20
5.0
 30
0.0
 11
-1.4999999999999964
 21
0.0
 31
0.0
  0
LINE
  5
168
100
AcDbEntity
  8
0
  6
CONTINUOUS
 62
               7
100
AcDbLine
 10
1.5000000000000071
 20
5.0
 30
0.0
 11
1.5
 21
0.0
 31
0.0
  0
LINE
  5
169
100
AcDbEntity
  8
0
  6
CONTINUOUS
 62
               7
100
AcDbLine
 10
1.5000000000000071
 20
5.0
 30
0.0
 11
-1.4999999999999964
 21
5.0
 31
0.0
  0
ARC
  5
16A
100
AcDbEntity
  8
0
  6
CONTINUOUS
 62
               7
100
AcDbCircle
 10
-2.8999999999999879
 20
13.300000000000011
 30
0.0
 40
2.0000000881710069
100
AcDbArc
 50
89.999999999999815
 51
269.99999999999937
  0
ARC
  5
16B
100
AcDbEntity
  8
0
  6
CONTINUOUS
 62
               7
100
AcDbCircle
 10
2.9000000000000128
 20
13.300000000000011
 30
0.0
 40
2.0000000881710069
100
AcDbArc
 50
270.00000000000023
 51
89.999999999999801
  0
LINE
  5
16C
100
AcDbEntity
  8
0
  6
CONTINUOUS
 62
               7
100
AcDbLine
 10
-2.8999999999999879
 20
15.300000000000011
 30
0.0
 11
2.9000000000000128
 21
15.300000000000011
 31
0.0
  0
LINE
  5
16D
100
AcDbEntity
  8
0
  6
CONTINUOUS
 62
               7
100
AcDbLine
 10
-2.8999999999999879
 20
11.300000000000011
 30
0.0
 11
2.9000000000000128
 21
11.300000000000011
 31
0.0
  0
LINE
  5
16E
100
AcDbEntity
  8
0
  6
CONTINUOUS
 62
               7
100
AcDbLine
 10
-1.8255136263528655
 20
22.050000000000011
 30
0.0
 11
1.8255136263528797
 21
22.050000000000011
 31
0.0
  0
LINE
  5
16F
100
AcDbEntity
  8
0
  6
CONTINUOUS
 62
               7
100
AcDbLine
 10
-1.8255136263528584
 20
21.449999999999989
 30
0.0
 11
1.8255136263528797
 21
21.449999999999989
 31
0.0
  0
CIRCLE
  5
170
100
AcDbEntity
  8
0
  6
CONTINUOUS
 62
               7
100
AcDbCircle
 10
0.0000000000000071
 20
21.75
 30
0.0
 40
1.8500000000000001
  0
ARC
  5
171
100
AcDbEntity
  8
0
  6
CONTINUOUS
 62
               7
100
AcDbCircle
 10
0.0000000000000071
 20
21.75
 30
0.0
 40
0.8
100
AcDbArc
 50
202.02431283704175
 51
337.97568716295712
  0
ARC
  5
172
100
AcDbEntity
  8
0
  6
CONTINUOUS
 62
               7
100
AcDbCircle
 10
0.0000000000000071
 20
21.75
 30
0.0
 40
0.8
100
AcDbArc
 50
22.024312837042157
 51
157.97568716295754
  0
CIRCLE
  5
173
100
AcDbEntity
  8
0
  6
CONTINUOUS
 62
               7
100
AcDbCircle
 10
3.5000000000000071
 20
23.5
 30
0.0
 40
1.5
  0
LINE
  5
174
100
AcDbEntity
  8
0
  6
CONTINUOUS
 62
               7
100
AcDbLine
 10
4.2071067811865603
 20
24.207106781186553
 30
0.0
 11
2.7928932188134539
 21
22.792893218813447
 31
0.0
  0
LINE
  5
175
100
AcDbEntity
  8
0
  6
CONTINUOUS
 62
               7
100
AcDbLine
 10
4.2071067811865603
 20
22.792893218813447
 30
0.0
 11
2.7928932188134539
 21
24.207106781186553
 31
0.0
  0
LINE
  5
176
100
AcDbEntity
  8
0
  6
CONTINUOUS
 62
               7
100
AcDbLine
 10
-4.2071067811865461
 20
22.792893218813447
 30
0.0
 11
-2.7928932188134397
 21
24.207106781186553
 31
0.0
  0
LINE
  5
177
100
AcDbEntity
  8
0
  6
CONTINUOUS
 62
               7
100
AcDbLine
 10
-4.2071067811865461
 20
24.207106781186553
 30
0.0
 11
-2.7928932188134397
 21
22.792893218813447
 31
0.0
  0
CIRCLE
  5
178
100
AcDbEntity
  8
0
  6
CONTINUOUS
 62
               7
100
AcDbCircle
 10
-3.4999999999999929
 20
23.5
 30
0.0
 40
1.5
  0
LINE
  5
179
100
AcDbEntity
  8
0
  6
CONTINUOUS
 62
               7
100
AcDbLine
 10
-4.9999999999999929
 20
32.0
 30
0.0
 11
5.0000000000000071
 21
32.0
 31
0.0
  0
LINE
  5
17A
100
AcDbEntity
  8
0
  6
CONTINUOUS
 62
               7
100
AcDbLine
 10
5.0000000000000071
 20
17.5
 30
0.0
 11
5.0000000000000071
 21
32.0
 31
0.0
  0
LINE
  5
17B
100
AcDbEntity
  8
0
  6
CONTINUOUS
 62
               7
100
AcDbLine
 10
-4.9999999999999929
 20
17.5
 30
0.0
 11
-4.9999999999999929
 21
32.0
 31
0.0
  0
CIRCLE
  5
17C
100
AcDbEntity
  8
0
  6
CONTINUOUS
 62
               7
100
AcDbCircle
 10
-3.4999999999999929
 20
42.999999999999886
 30
0.0
 40
1.5
  0
LINE
  5
17D
100
AcDbEntity
  8
0
  6
CONTINUOUS
 62
               7
100
AcDbLine
 10
-4.2071067811865461
 20
42.292893218813333
 30
0.0
 11
-2.7928932188134397
 21
43.70710678118644
 31
0.0
  0
LINE
  5
17E
100
AcDbEntity
  8
0
  6
CONTINUOUS
 62
               7
100
AcDbLine
 10
-4.2071067811865461
 20
43.70710678118644
 30
0.0
 11
-2.7928932188134397
 21
42.292893218813333
 31
0.0
  0
LINE
  5
17F
100
AcDbEntity
  8
0
  6
CONTINUOUS
 62
               7
100
AcDbLine
 10
4.2071067811865603
 20
43.70710678118644
 30
0.0
 11
2.7928932188134539
 21
42.292893218813333
 31
0.0
  0
LINE
  5
180
100
AcDbEntity
  8
0
  6
CONTINUOUS
 62
               7
100
AcDbLine
 10
4.2071067811865603
 20
42.292893218813333
 30
0.0
 11
2.7928932188134539
 21
43.70710678118644
 31
0.0
  0
CIRCLE
  5
181
100
AcDbEntity
  8
0
  6
CONTINUOUS
 62
               7
100
AcDbCircle
 10
3.5000000000000071
 20
42.999999999999886
 30
0.0
 40
1.5
  0
LINE
  5
182
100
AcDbEntity
  8
0
  6
CONTINUOUS
 62
               7
100
AcDbLine
 10
5.0000000000000071
 20
34.499999999999886
 30
0.0
 11
-4.9999999999999929
 21
34.499999999999886
 31
0.0
  0
LINE
  5
183
100
AcDbEntity
  8
0
  6
CONTINUOUS
 62
               7
100
AcDbLine
 10
-4.9999999999999929
 20
47.999999999999943
 30
0.0
 11
-4.9999999999999929
 21
34.499999999999886
 31
0.0
  0
LINE
  5
184
100
AcDbEntity
  8
0
  6
CONTINUOUS
 62
               7
100
AcDbLine
 10
-3.4500000000000171
 20
66.000000000000171
 30
0.0
 11
3.4499999999999602
 21
66.000000000000171
 31
0.0
  0
LINE
  5
185
100
AcDbEntity
  8
0
  6
CONTINUOUS
 62
               7
100
AcDbLine
 10
4.9499999999999602
 20
58.300000000000125
 30
0.0
 11
4.9499999999999602
 21
64.500000000000171
 31
0.0
  0
LINE
  5
186
100
AcDbEntity
  8
0
  6
CONTINUOUS
 62
               7
100
AcDbLine
 10
-4.9500000000000171
 20
58.300000000000125
 30
0.0
 11
-4.9500000000000171
 21
64.500000000000171
 31
0.0
  0
LINE
  5
187
100
AcDbEntity
  8
0
  6
CONTINUOUS
 62
               7
100
AcDbLine
 10
4.9499999999999602
 20
58.300000000000125
 30
0.0
 11
4.6500000000000057
 21
58.000000000000171
 31
0.0
  0
LINE
  5
188
100
AcDbEntity
  8
0
  6
CONTINUOUS
 62
               7
100
AcDbLine
 10
-4.9500000000000171
 20
58.300000000000125
 30
0.0
 11
-4.6500000000000057
 21
58.000000000000171
 31
0.0
  0
ARC
  5
189
100
AcDbEntity
  8
0
  6
CONTINUOUS
 62
               7
100
AcDbCircle
 10
3.4499999999999602
 20
64.500000000000171
 30
0.0
 40
1.5
100
AcDbArc
 50
0.0
 51
89.999999999999815
  0
ARC
  5
18A
100
AcDbEntity
  8
0
  6
CONTINUOUS
 62
               7
100
AcDbCircle
 10
-3.4500000000000171
 20
64.500000000000171
 30
0.0
 40
1.5
100
AcDbArc
 50
89.999999999999815
 51
179.99999999999963
  0
LINE
  5
18B
100
AcDbEntity
  8
0
  6
CONTINUOUS
 62
               7
100
AcDbLine
 10
-5.0
 20
34.499999999999943
 30
0.0
 11
5.0
 21
34.499999999999943
 31
0.0
  0
LINE
  5
18C
100
AcDbEntity
  8
0
  6
CONTINUOUS
 62
               7
100
AcDbLine
 10
-5.0
 20
47.999999999999943
 30
0.0
 11
5.0000000000000036
 21
47.999999999999943
 31
0.0
  0
LINE
  5
18D
100
AcDbEntity
  8
0
  6
CONTINUOUS
 62
               7
100
AcDbLine
 10
5.0000000000000027
 20
47.999999999999943
 30
0.0
 11
5.0
 21
34.499999999999886
 31
0.0
  0
LINE
  5
18E
100
AcDbEntity
  8
0
  6
CONTINUOUS
 62
               7
100
AcDbLine
 10
-5.0999999999999943
 20
55.000000000000057
 30
0.0
 11
5.100000000000005
 21
55.000000000000057
 31
0.0
  0
LINE
  5
18F
100
AcDbEntity
  8
0
  6
CONTINUOUS
 62
               7
100
AcDbLine
 10
-2.25
 20
57.699999999999989
 30
0.0
 11
4.25
 21
57.699999999999989
 31
0.0
  0
LINE
  5
190
100
AcDbEntity
  8
0
  6
CONTINUOUS
 62
               7
100
AcDbLine
 10
-1.75
 20
58.199999999999989
 30
0.0
 11
3.7500000000000053
 21
58.199999999999989
 31
0.0
  0
LINE
  5
191
100
AcDbEntity
  8
0
  6
CONTINUOUS
 62
               7
100
AcDbLine
 10
4.2500000000000053
 20
57.699999999999989
 30
0.0
 11
4.2500000000000053
 21
55.000000000000057
 31
0.0
  0
LINE
  5
192
100
AcDbEntity
  8
0
  6
CONTINUOUS
 62
               7
100
AcDbLine
 10
-2.2499999999999942
 20
57.699999999999989
 30
0.0
 11
-2.2499999999999947
 21
55.000000000000057
 31
0.0
  0
LINE
  5
193
100
AcDbEntity
  8
0
  6
CONTINUOUS
 62
               7
100
AcDbLine
 10
-2.2499999999999942
 20
57.699999999999989
 30
0.0
 11
-1.7499999999999933
 21
58.199999999999989
 31
0.0
  0
LINE
  5
194
100
AcDbEntity
  8
0
  6
CONTINUOUS
 62
               7
100
AcDbLine
 10
4.2500000000000053
 20
57.699999999999989
 30
0.0
 11
3.7500000000000049
 21
58.199999999999989
 31
0.0
  0
LINE
  5
195
100
AcDbEntity
  8
0
  6
CENTER
 62
               2
100
AcDbLine
 10
1.000000000000006
 20
58.924796801798585
 30
0.0
 11
1.0000000000000053
 21
54.372740512375721
 31
0.0
  0
LINE
  5
196
100
AcDbEntity
  8
0
  6
CONTINUOUS
 62
               7
100
AcDbLine
 10
5.0
 20
58.000000000000171
 30
0.0
 11
3.9499999999998234
 21
58.000000000000171
 31
0.0
  0
LINE
  5
197
100
AcDbEntity
  8
0
  6
CONTINUOUS
 62
               7
100
AcDbLine
 10
-5.0
 20
55.000000000000057
 30
0.0
 11
-5.0
 21
58.000000000000171
 31
0.0
  0
LINE
  5
198
100
AcDbEntity
  8
0
  6
CONTINUOUS
 62
               7
100
AcDbLine
 10
5.0000000000000036
 20
55.000000000000057
 30
0.0
 11
5.0000000000000036
 21
58.000000000000171
 31
0.0
  0
LINE
  5
199
100
AcDbEntity
  8
0
  6
CONTINUOUS
 62
               7
100
AcDbLine
 10
-1.9499999999998128
 20
58.000000000000171
 30
0.0
 11
-5.0
 21
58.000000000000171
 31
0.0
  0
ENDBLK
  5
19A
100
AcDbEntity
  8
0
100
AcDbBlockEnd
  0
BLOCK
  5
19B
100
AcDbEntity
  8
0
100
AcDbBlockBegin
  2
MV030MAS-11-6
 70
               0
 10
0.0
 20
0.0
 30
0.0
  3
MV030MAS-11-6
  1

  0
LINE
  5
19C
100
AcDbEntity
  8
0
  6
CONTINUOUS
 62
               7
100
AcDbLine
 10
4.5
 20
66.499999999999943
 30
0.0
 11
4.5
 21
76.27059661432105
 31
0.0
  0
LINE
  5
19D
100
AcDbEntity
  8
0
  6
CONTINUOUS
 62
               7
100
AcDbLine
 10
-0.5
 20
69.044181962474866
 30
0.0
 11
-0.5
 21
78.162488506212924
 31
0.0
  0
LINE
  5
19E
100
AcDbEntity
  8
0
  6
CONTINUOUS
 62
               7
100
AcDbLine
 10
4.7000000000000455
 20
66.499999999999943
 30
0.0
 11
-4.6999999999999318
 21
66.499999999999943
 31
0.0
  0
LINE
  5
19F
100
AcDbEntity
  8
0
  6
CONTINUOUS
 62
               7
100
AcDbLine
 10
-5.0
 20
66.199999999999989
 30
0.0
 11
-5.0
 21
34.499999999999943
 31
0.0
  0
ARC
  5
1A0
100
AcDbEntity
  8
0
  6
CONTINUOUS
 62
               7
100
AcDbCircle
 10
-4.6999999999999318
 20
66.199999999999989
 30
0.0
 40
0.3
100
AcDbArc
 50
89.999999999999815
 51
179.99999999999963
  0
LINE
  5
1A1
100
AcDbEntity
  8
0
  6
CONTINUOUS
 62
               7
100
AcDbLine
 10
-1.5
 20
61.499999999999943
 30
0.0
 11
-1.5
 21
66.499999999999943
 31
0.0
  0
LINE
  5
1A2
100
AcDbEntity
  8
0
  6
CONTINUOUS
 62
               7
100
AcDbLine
 10
-1.5
 20
61.499999999999943
 30
0.0
 11
1.5
 21
61.499999999999943
 31
0.0
  0
LINE
  5
1A3
100
AcDbEntity
  8
0
  6
CONTINUOUS
 62
               7
100
AcDbLine
 10
1.5
 20
61.499999999999943
 30
0.0
 11
1.5
 21
66.499999999999943
 31
0.0
  0
LINE
  5
1A4
100
AcDbEntity
  8
0
  6
CONTINUOUS
 62
               2
100
AcDbLine
 10
-1.7519181748148185
 20
78.636187275061786
 30
0.0
 11
5.968683298765427
 21
75.714878609382765
 31
0.0
  0
LINE
  5
1A5
100
AcDbEntity
  8
0
  6
CONTINUOUS
 62
               7
100
AcDbLine
 10
0.8999999999999773
 20
91.500000000000057
 30
0.0
 11
0.1000000000000227
 21
91.500000000000057
 31
0.0
  0
LINE
  5
1A6
100
AcDbEntity
  8
0
  6
CONTINUOUS
 62
               7
100
AcDbLine
 10
1.8999999999999773
 20
91.500000000000057
 30
0.0
 11
1.1000000000000227
 21
91.500000000000057
 31
0.0
  0
LINE
  5
1A7
100
AcDbEntity
  8
0
  6
CONTINUOUS
 62
               7
100
AcDbLine
 10
2.8999999999999773
 20
91.500000000000057
 30
0.0
 11
2.1000000000000227
 21
91.500000000000057
 31
0.0
  0
LINE
  5
1A8
100
AcDbEntity
  8
0
  6
CONTINUOUS
 62
               7
100
AcDbLine
 10
3.8999999999999773
 20
91.500000000000057
 30
0.0
 11
3.1000000000000227
 21
91.500000000000057
 31
0.0
  0
LINE
  5
1A9
100
AcDbEntity
  8
0
  6
CONTINUOUS
 62
               7
100
AcDbLine
 10
-0.2150000000000318
 20
82.934434807572018
 30
0.0
 11
-0.2150000000000318
 21
86.500000000000057
 31
0.0
  0
LINE
  5
1AA
100
AcDbEntity
  8
0
  6
CONTINUOUS
 62
               7
100
AcDbLine
 10
0.7849999999999682
 20
82.934434807572018
 30
0.0
 11
0.7849999999999682
 21
86.500000000000057
 31
0.0
  0
LINE
  5
1AB
100
AcDbEntity
  8
0
  6
CONTINUOUS
 62
               7
100
AcDbLine
 10
1.7849999999999682
 20
82.934434807572018
 30
0.0
 11
1.7849999999999682
 21
86.500000000000057
 31
0.0
  0
LINE
  5
1AC
100
AcDbEntity
  8
0
  6
CONTINUOUS
 62
               7
100
AcDbLine
 10
2.7849999999999682
 20
82.934434807572018
 30
0.0
 11
2.7849999999999682
 21
86.500000000000057
 31
0.0
  0
LINE
  5
1AD
100
AcDbEntity
  8
0
  6
CONTINUOUS
 62
               7
100
AcDbLine
 10
4.2149999999999181
 20
82.934434807572018
 30
0.0
 11
4.2149999999999181
 21
86.500000000000057
 31
0.0
  0
LINE
  5
1AE
100
AcDbEntity
  8
0
  6
CONTINUOUS
 62
               7
100
AcDbLine
 10
4.2149999999999181
 20
86.500000000000057
 30
0.0
 11
-0.2150000000000318
 21
86.500000000000057
 31
0.0
  0
LINE
  5
1AF
100
AcDbEntity
  8
0
  6
CONTINUOUS
 62
               7
100
AcDbLine
 10
-0.5
 20
82.934434807572018
 30
0.0
 11
4.5
 21
82.934434807572018
 31
0.0
  0
LINE
  5
1B0
100
AcDbEntity
  8
0
  6
CONTINUOUS
 62
               7
100
AcDbLine
 10
3.8999999999999773
 20
86.500000000000057
 30
0.0
 11
3.8999999999999773
 21
91.500000000000057
 31
0.0
  0
LINE
  5
1B1
100
AcDbEntity
  8
0
  6
CONTINUOUS
 62
               7
100
AcDbLine
 10
3.1000000000000227
 20
86.500000000000057
 30
0.0
 11
3.1000000000000227
 21
91.500000000000057
 31
0.0
  0
LINE
  5
1B2
100
AcDbEntity
  8
0
  6
CONTINUOUS
 62
               7
100
AcDbLine
 10
2.8999999999999773
 20
86.500000000000057
 30
0.0
 11
2.8999999999999773
 21
91.500000000000057
 31
0.0
  0
LINE
  5
1B3
100
AcDbEntity
  8
0
  6
CONTINUOUS
 62
               7
100
AcDbLine
 10
2.1000000000000227
 20
86.500000000000057
 30
0.0
 11
2.1000000000000227
 21
91.500000000000057
 31
0.0
  0
LINE
  5
1B4
100
AcDbEntity
  8
0
  6
CONTINUOUS
 62
               7
100
AcDbLine
 10
1.8999999999999773
 20
86.500000000000057
 30
0.0
 11
1.8999999999999773
 21
91.500000000000057
 31
0.0
  0
LINE
  5
1B5
100
AcDbEntity
  8
0
  6
CONTINUOUS
 62
               7
100
AcDbLine
 10
1.1000000000000227
 20
86.500000000000057
 30
0.0
 11
1.1000000000000227
 21
91.500000000000057
 31
0.0
  0
LINE
  5
1B6
100
AcDbEntity
  8
0
  6
CONTINUOUS
 62
               7
100
AcDbLine
 10
0.8999999999999773
 20
86.500000000000057
 30
0.0
 11
0.8999999999999773
 21
91.500000000000057
 31
0.0
  0
LINE
  5
1B7
100
AcDbEntity
  8
0
  6
CONTINUOUS
 62
               7
100
AcDbLine
 10
0.1000000000000227
 20
86.500000000000057
 30
0.0
 11
0.1000000000000227
 21
91.500000000000057
 31
0.0
  0
LINE
  5
1B8
100
AcDbEntity
  8
0
  6
CONTINUOUS
 62
               2
100
AcDbLine
 10
-1.7519181748148185
 20
79.636187275061786
 30
0.0
 11
5.968683298765427
 21
76.714878609382765
 31
0.0
  0
LINE
  5
1B9
100
AcDbEntity
  8
0
  6
CONTINUOUS
 62
               7
100
AcDbLine
 10
-0.5
 20
82.934434807572018
 30
0.0
 11
-0.5
 21
79.162488506212924
 31
0.0
  0
LINE
  5
1BA
100
AcDbEntity
  8
0
  6
CONTINUOUS
 62
               7
100
AcDbLine
 10
4.5
 20
82.934434807572018
 30
0.0
 11
4.5
 21
77.27059661432105
 31
0.0
  0
LINE
  5
1BB
100
AcDbEntity
  8
0
  6
CONTINUOUS
 62
               7
100
AcDbLine
 10
2.5
 20
54.300000000000011
 30
0.0
 11
4.7000000000000455
 21
54.300000000000011
 31
0.0
  0
LINE
  5
1BC
100
AcDbEntity
  8
0
  6
CONTINUOUS
 62
               7
100
AcDbLine
 10
-4.6999999999999318
 20
48.500000000000057
 30
0.0
 11
4.7000000000000455
 21
48.500000000000057
 31
0.0
  0
LINE
  5
1BD
100
AcDbEntity
  8
0
  6
CONTINUOUS
 62
               7
100
AcDbLine
 10
-4.6999999999999318
 20
53.800000000000011
 30
0.0
 11
-3.6999999999999318
 21
53.800000000000011
 31
0.0
  0
LINE
  5
1BE
100
AcDbEntity
  8
0
  6
CONTINUOUS
 62
               7
100
AcDbLine
 10
4.7000000000000455
 20
53.800000000000011
 30
0.0
 11
3.7000000000000455
 21
53.800000000000011
 31
0.0
  0
LINE
  5
1BF
100
AcDbEntity
  8
0
  6
CONTINUOUS
 62
               7
100
AcDbLine
 10
-4.7000000000000455
 20
54.300000000000011
 30
0.0
 11
-2.5
 21
54.300000000000011
 31
0.0
  0
LINE
  5
1C0
100
AcDbEntity
  8
0
  6
CONTINUOUS
 62
               7
100
AcDbLine
 10
5.0
 20
47.590817451771102
 30
0.0
 11
-5.0
 21
47.590817451771102
 31
0.0
  0
LINE
  5
1C1
100
AcDbEntity
  8
0
  6
CONTINUOUS
 62
               7
100
AcDbLine
 10
5.0
 20
40.459182548228853
 30
0.0
 11
2.3943704061239259
 21
40.459182548228853
 31
0.0
  0
LINE
  5
1C2
100
AcDbEntity
  8
0
  6
CONTINUOUS
 62
               7
100
AcDbLine
 10
-2.3943704061239259
 20
40.459182548228853
 30
0.0
 11
-5.0
 21
40.459182548228853
 31
0.0
  0
LINE
  5
1C3
100
AcDbEntity
  8
0
  6
CONTINUOUS
 62
               7
100
AcDbLine
 10
5.0
 20
40.89999999999992
 30
0.0
 11
2.6499999999999773
 21
40.89999999999992
 31
0.0
  0
LINE
  5
1C4
100
AcDbEntity
  8
0
  6
CONTINUOUS
 62
               7
100
AcDbLine
 10
-2.6499999999999773
 20
40.89999999999992
 30
0.0
 11
-5.0
 21
40.89999999999992
 31
0.0
  0
LINE
  5
1C5
100
AcDbEntity
  8
0
  6
CONTINUOUS
 62
               7
100
AcDbLine
 10
-5.0
 20
48.401921563030044
 30
0.0
 11
5.0
 21
48.401921563030044
 31
0.0
  0
LINE
  5
1C6
100
AcDbEntity
  8
0
  6
CONTINUOUS
 62
               7
100
AcDbLine
 10
3.5
 20
44.599999999999966
 30
0.0
 11
5.0
 21
44.599999999999966
 31
0.0
  0
LINE
  5
1C7
100
AcDbEntity
  8
0
  6
CONTINUOUS
 62
               7
100
AcDbLine
 10
5.0
 20
41.39999999999992
 30
0.0
 11
3.5
 21
41.39999999999992
 31
0.0
  0
LINE
  5
1C8
100
AcDbEntity
  8
0
  6
CONTINUOUS
 62
               7
100
AcDbLine
 10
-3.5
 20
41.39999999999992
 30
0.0
 11
-5.0
 21
41.39999999999992
 31
0.0
  0
LINE
  5
1C9
100
AcDbEntity
  8
0
  6
CONTINUOUS
 62
               7
100
AcDbLine
 10
-5.0
 20
44.599999999999966
 30
0.0
 11
-3.5
 21
44.599999999999966
 31
0.0
  0
CIRCLE
  5
1CA
100
AcDbEntity
  8
0
  6
CONTINUOUS
 62
               7
100
AcDbCircle
 10
-3.5
 20
42.999999999999943
 30
0.0
 40
1.5
  0
LINE
  5
1CB
100
AcDbEntity
  8
0
  6
CONTINUOUS
 62
               7
100
AcDbLine
 10
4.2071067811865532
 20
43.707106781186496
 30
0.0
 11
2.7928932188134468
 21
42.29289321881339
 31
0.0
  0
LINE
  5
1CC
100
AcDbEntity
  8
0
  6
CONTINUOUS
 62
               7
100
AcDbLine
 10
4.2071067811865532
 20
42.29289321881339
 30
0.0
 11
2.7928932188134468
 21
43.707106781186496
 31
0.0
  0
CIRCLE
  5
1CD
100
AcDbEntity
  8
0
  6
CONTINUOUS
 62
               7
100
AcDbCircle
 10
3.5
 20
42.999999999999943
 30
0.0
 40
1.5
  0
LINE
  5
1CE
100
AcDbEntity
  8
0
  6
CONTINUOUS
 62
               7
100
AcDbLine
 10
5.0
 20
34.499999999999943
 30
0.0
 11
-5.0
 21
34.499999999999943
 31
0.0
  0
LINE
  5
1CF
100
AcDbEntity
  8
0
  6
CENTER
 62
               2
100
AcDbLine
 10
0.0
 20
74.044181962474866
 30
0.0
 11
0.0
 21
-2.5701803136998365
 31
0.0
  0
LINE
  5
1D0
100
AcDbEntity
  8
0
  6
CONTINUOUS
 62
               7
100
AcDbLine
 10
-4.2071067811865532
 20
43.707106781186496
 30
0.0
 11
-2.7928932188134468
 21
42.29289321881339
 31
0.0
  0
LINE
  5
1D1
100
AcDbEntity
  8
0
  6
CONTINUOUS
 62
               7
100
AcDbLine
 10
-4.2071067811865532
 20
42.29289321881339
 30
0.0
 11
-2.7928932188134468
 21
43.707106781186496
 31
0.0
  0
LINE
  5
1D2
100
AcDbEntity
  8
0
  6
CONTINUOUS
 62
               7
100
AcDbLine
 10
1.8255136263528584
 20
45.050000000000011
 30
0.0
 11
0.0
 21
45.050000000000011
 31
0.0
  0
ARC
  5
1D3
100
AcDbEntity
  8
0
  6
CONTINUOUS
 62
               7
100
AcDbCircle
 10
0.0
 20
44.749999999999943
 30
0.0
 40
0.8
100
AcDbArc
 50
202.02431283704175
 51
337.97568716295712
  0
ARC
  5
1D4
100
AcDbEntity
  8
0
  6
CONTINUOUS
 62
               7
100
AcDbCircle
 10
0.0
 20
44.749999999999943
 30
0.0
 40
0.8
100
AcDbArc
 50
22.024312837042132
 51
157.97568716295751
  0
CIRCLE
  5
1D5
100
AcDbEntity
  8
0
  6
CONTINUOUS
 62
               7
100
AcDbCircle
 10
0.0
 20
44.749999999999943
 30
0.0
 40
1.8500000000000001
  0
LINE
  5
1D6
100
AcDbEntity
  8
0
  6
CONTINUOUS
 62
               7
100
AcDbLine
 10
0.0
 20
45.050000000000011
 30
0.0
 11
-1.8255136263528584
 21
45.050000000000011
 31
0.0
  0
LINE
  5
1D7
100
AcDbEntity
  8
0
  6
CONTINUOUS
 62
               7
100
AcDbLine
 10
1.8255136263528584
 20
44.449999999999989
 30
0.0
 11
-1.8255136263528584
 21
44.449999999999989
 31
0.0
  0
CIRCLE
  5
1D8
100
AcDbEntity
  8
0
  6
CONTINUOUS
 62
               7
100
AcDbCircle
 10
0.0
 20
44.749999999999943
 30
0.0
 40
1.9000000000000001
  0
LINE
  5
1D9
100
AcDbEntity
  8
0
  6
CENTER
 62
               2
100
AcDbLine
 10
2.5
 20
44.749999999999943
 30
0.0
 11
-2.5
 21
44.749999999999943
 31
0.0
  0
ARC
  5
1DA
100
AcDbEntity
  8
0
  6
CONTINUOUS
 62
               7
100
AcDbCircle
 10
3.5
 20
42.999999999999943
 30
0.0
 40
1.6000000000000001
100
AcDbArc
 50
89.999999999999815
 51
269.99999999999937
  0
ARC
  5
1DB
100
AcDbEntity
  8
0
  6
CONTINUOUS
 62
               7
100
AcDbCircle
 10
-3.5
 20
42.999999999999943
 30
0.0
 40
1.6000000000000001
100
AcDbArc
 50
270.00000000000023
 51
89.999999999999844
  0
CIRCLE
  5
1DC
100
AcDbEntity
  8
0
  6
CONTINUOUS
 62
               7
100
AcDbCircle
 10
0.0
 20
44.749999999999943
 30
0.0
 40
2.0500000000000003
  0
LINE
  5
1DD
100
AcDbEntity
  8
0
  6
CONTINUOUS
 62
               7
100
AcDbLine
 10
-1.3999999999999773
 20
42.14999999999992
 30
0.0
 11
1.3999999999999773
 21
42.14999999999992
 31
0.0
  0
LINE
  5
1DE
100
AcDbEntity
  8
0
  6
CONTINUOUS
 62
               7
100
AcDbLine
 10
2.6499999999999773
 20
40.89999999999992
 30
0.0
 11
1.3999999999999773
 21
42.14999999999992
 31
0.0
  0
LINE
  5
1DF
100
AcDbEntity
  8
0
  6
CONTINUOUS
 62
               7
100
AcDbLine
 10
-1.1443704061239259
 20
41.709182548228853
 30
0.0
 11
1.1443704061239259
 21
41.709182548228853
 31
0.0
  0
LINE
  5
1E0
100
AcDbEntity
  8
0
  6
CONTINUOUS
 62
               7
100
AcDbLine
 10
1.1443704061239259
 20
41.709182548228853
 30
0.0
 11
2.3943704061239259
 21
40.459182548228853
 31
0.0
  0
LINE
  5
1E1
100
AcDbEntity
  8
0
  6
CONTINUOUS
 62
               7
100
AcDbLine
 10
1.1443704061239259
 20
41.709182548228853
 30
0.0
 11
1.3999999999999773
 21
42.14999999999992
 31
0.0
  0
LINE
  5
1E2
100
AcDbEntity
  8
0
  6
CONTINUOUS
 62
               7
100
AcDbLine
 10
-1.1443704061239259
 20
41.709182548228853
 30
0.0
 11
-2.3943704061239259
 21
40.459182548228853
 31
0.0
  0
LINE
  5
1E3
100
AcDbEntity
  8
0
  6
CONTINUOUS
 62
               7
100
AcDbLine
 10
-2.6499999999999773
 20
40.89999999999992
 30
0.0
 11
-1.3999999999999773
 21
42.14999999999992
 31
0.0
  0
LINE
  5
1E4
100
AcDbEntity
  8
0
  6
CONTINUOUS
 62
               7
100
AcDbLine
 10
-1.1443704061239259
 20
41.709182548228853
 30
0.0
 11
-1.3999999999999773
 21
42.14999999999992
 31
0.0
  0
LINE
  5
1E5
100
AcDbEntity
  8
0
  6
CONTINUOUS
 62
               7
100
AcDbLine
 10
2.6499999999999773
 20
40.89999999999992
 30
0.0
 11
2.3943704061239259
 21
40.459182548228853
 31
0.0
  0
LINE
  5
1E6
100
AcDbEntity
  8
0
  6
CONTINUOUS
 62
               7
100
AcDbLine
 10
-2.3943704061239259
 20
40.459182548228853
 30
0.0
 11
-2.6499999999999773
 21
40.89999999999992
 31
0.0
  0
LINE
  5
1E7
100
AcDbEntity
  8
0
  6
CONTINUOUS
 62
               7
100
AcDbLine
 10
-2.8999999999999773
 20
53.300000000000011
 30
0.0
 11
-2.5
 21
53.300000000000011
 31
0.0
  0
LINE
  5
1E8
100
AcDbEntity
  8
0
  6
CONTINUOUS
 62
               7
100
AcDbLine
 10
-2.8999999999999773
 20
53.300000000000011
 30
0.0
 11
-2.8999999999999773
 21
54.300000000000011
 31
0.0
  0
LINE
  5
1E9
100
AcDbEntity
  8
0
  6
CONTINUOUS
 62
               7
100
AcDbLine
 10
2.8999999999999773
 20
53.300000000000011
 30
0.0
 11
2.8999999999999773
 21
54.300000000000011
 31
0.0
  0
LINE
  5
1EA
100
AcDbEntity
  8
0
  6
CONTINUOUS
 62
               7
100
AcDbLine
 10
-2.8999999999999773
 20
53.800000000000011
 30
0.0
 11
2.8999999999999773
 21
53.800000000000011
 31
0.0
  0
LINE
  5
1EB
100
AcDbEntity
  8
0
  6
CONTINUOUS
 62
               7
100
AcDbLine
 10
2.5
 20
55.300000000000011
 30
0.0
 11
2.5
 21
52.800000000000011
 31
0.0
  0
LINE
  5
1EC
100
AcDbEntity
  8
0
  6
CONTINUOUS
 62
               7
100
AcDbLine
 10
-2.5
 20
55.300000000000011
 30
0.0
 11
-2.5
 21
52.800000000000011
 31
0.0
  0
LINE
  5
1ED
100
AcDbEntity
  8
0
  6
CONTINUOUS
 62
               7
100
AcDbLine
 10
3.4900000000000091
 20
52.300000000000011
 30
0.0
 11
3.6140000000000327
 21
50.411999999999978
 31
0.0
  0
ARC
  5
1EE
100
AcDbEntity
  8
0
  6
CONTINUOUS
 62
               7
100
AcDbCircle
 10
3.4147148526388946
 20
50.399665233359485
 30
0.0
 40
0.1996665130331531
100
AcDbArc
 50
269.79486732121239
 51
3.5418075753734648
  0
LINE
  5
1EF
100
AcDbEntity
  8
0
  6
CONTINUOUS
 62
               7
100
AcDbLine
 10
3.0900000000000318
 20
50.199999999999989
 30
0.0
 11
3.0900000000000318
 21
49.699999999999989
 31
0.0
  0
LINE
  5
1F0
100
AcDbEntity
  8
0
  6
CONTINUOUS
 62
               7
100
AcDbLine
 10
1.9900000000000091
 20
49.699999999999989
 30
0.0
 11
3.0900000000000318
 21
49.699999999999989
 31
0.0
  0
LINE
  5
1F1
100
AcDbEntity
  8
0
  6
CONTINUOUS
 62
               7
100
AcDbLine
 10
1.9900000000000091
 20
50.199999999999989
 30
0.0
 11
1.9900000000000091
 21
49.699999999999989
 31
0.0
  0
LINE
  5
1F2
100
AcDbEntity
  8
0
  6
CONTINUOUS
 62
               7
100
AcDbLine
 10
1.6639999999999873
 20
50.199999999999989
 30
0.0
 11
3.4139999999999873
 21
50.199999999999989
 31
0.0
  0
ARC
  5
1F3
100
AcDbEntity
  8
0
  6
CONTINUOUS
 62
               7
100
AcDbCircle
 10
1.6643441079743297
 20
50.400664252805939
 30
0.0
 40
0.2006645478515588
100
AcDbArc
 50
176.76157835491691
 51
269.90174674849533
  0
LINE
  5
1F4
100
AcDbEntity
  8
0
  6
CONTINUOUS
 62
               7
100
AcDbLine
 10
1.4640000000000555
 20
50.411999999999978
 30
0.0
 11
1.5900000000000318
 21
52.300000000000011
 31
0.0
  0
LINE
  5
1F5
100
AcDbEntity
  8
0
  6
CONTINUOUS
 62
               7
100
AcDbLine
 10
1.5900000000000318
 20
52.300000000000011
 30
0.0
 11
3.4900000000000091
 21
52.300000000000011
 31
0.0
  0
LINE
  5
1F6
100
AcDbEntity
  8
0
  6
CONTINUOUS
 62
               7
100
AcDbLine
 10
0.3999999999999773
 20
50.900000000000034
 30
0.0
 11
-0.3999999999999773
 21
50.900000000000034
 31
0.0
  0
LINE
  5
1F7
100
AcDbEntity
  8
0
  6
CONTINUOUS
 62
               7
100
AcDbLine
 10
0.3999999999999773
 20
51.699999999999989
 30
0.0
 11
0.3999999999999773
 21
50.900000000000034
 31
0.0
  0
LINE
  5
1F8
100
AcDbEntity
  8
0
  6
CONTINUOUS
 62
               7
100
AcDbLine
 10
0.3999999999999773
 20
51.699999999999989
 30
0.0
 11
-0.3999999999999773
 21
51.699999999999989
 31
0.0
  0
LINE
  5
1F9
100
AcDbEntity
  8
0
  6
CONTINUOUS
 62
               7
100
AcDbLine
 10
-0.3999999999999773
 20
51.699999999999989
 30
0.0
 11
-0.3999999999999773
 21
50.900000000000034
 31
0.0
  0
LINE
  5
1FA
100
AcDbEntity
  8
0
  6
CONTINUOUS
 62
               7
100
AcDbLine
 10
0.9500000000000455
 20
52.300000000000011
 30
0.0
 11
1.0740000000000691
 21
50.411999999999978
 31
0.0
  0
ARC
  5
1FB
100
AcDbEntity
  8
0
  6
CONTINUOUS
 62
               7
100
AcDbCircle
 10
0.874714852638931
 20
50.399665233359485
 30
0.0
 40
0.1996665130331531
100
AcDbArc
 50
269.79486732121239
 51
3.5418075753734648
  0
LINE
  5
1FC
100
AcDbEntity
  8
0
  6
CONTINUOUS
 62
               7
100
AcDbLine
 10
0.5500000000000682
 20
50.199999999999989
 30
0.0
 11
0.5500000000000682
 21
49.699999999999989
 31
0.0
  0
LINE
  5
1FD
100
AcDbEntity
  8
0
  6
CONTINUOUS
 62
               7
100
AcDbLine
 10
-0.5499999999999545
 20
49.699999999999989
 30
0.0
 11
0.5500000000000682
 21
49.699999999999989
 31
0.0
  0
LINE
  5
1FE
100
AcDbEntity
  8
0
  6
CONTINUOUS
 62
               7
100
AcDbLine
 10
-0.5499999999999545
 20
50.199999999999989
 30
0.0
 11
-0.5499999999999545
 21
49.699999999999989
 31
0.0
  0
LINE
  5
1FF
100
AcDbEntity
  8
0
  6
CONTINUOUS
 62
               7
100
AcDbLine
 10
-0.8759999999999764
 20
50.199999999999989
 30
0.0
 11
0.8740000000000237
 21
50.199999999999989
 31
0.0
  0
ARC
  5
200
100
AcDbEntity
  8
0
  6
CONTINUOUS
 62
               7
100
AcDbCircle
 10
-0.8756558920256339
 20
50.400664252805939
 30
0.0
 40
0.2006645478515588
100
AcDbArc
 50
176.76157835491691
 51
269.90174674849533
  0
LINE
  5
201
100
AcDbEntity
  8
0
  6
CONTINUOUS
 62
               7
100
AcDbLine
 10
-1.0760000000000218
 20
50.411999999999978
 30
0.0
 11
-0.9499999999999318
 21
52.300000000000011
 31
0.0
  0
LINE
  5
202
100
AcDbEntity
  8
0
  6
CONTINUOUS
 62
               7
100
AcDbLine
 10
-0.9499999999999318
 20
52.300000000000011
 30
0.0
 11
0.9500000000000455
 21
52.300000000000011
 31
0.0
  0
LINE
  5
203
100
AcDbEntity
  8
0
  6
CONTINUOUS
 62
               7
100
AcDbLine
 10
-3.6159999999999854
 20
50.411999999999978
 30
0.0
 11
-3.4900000000000091
 21
52.300000000000011
 31
0.0
  0
LINE
  5
204
100
AcDbEntity
  8
0
  6
CONTINUOUS
 62
               7
100
AcDbLine
 10
-1.5900000000000318
 20
52.300000000000011
 30
0.0
 11
-1.4660000000000082
 21
50.411999999999978
 31
0.0
  0
LINE
  5
205
100
AcDbEntity
  8
0
  6
CONTINUOUS
 62
               7
100
AcDbLine
 10
3.7000000000000455
 20
52.800000000000011
 30
0.0
 11
3.7000000000000455
 21
53.800000000000011
 31
0.0
  0
LINE
  5
206
100
AcDbEntity
  8
0
  6
CONTINUOUS
 62
               7
100
AcDbLine
 10
-3.6999999999999318
 20
52.800000000000011
 30
0.0
 11
-3.6999999999999318
 21
53.800000000000011
 31
0.0
  0
LINE
  5
207
100
AcDbEntity
  8
0
  6
CONTINUOUS
 62
               7
100
AcDbLine
 10
-1.25
 20
53.800000000000011
 30
0.0
 11
-1.25
 21
52.800000000000011
 31
0.0
  0
LINE
  5
208
100
AcDbEntity
  8
0
  6
CONTINUOUS
 62
               7
100
AcDbLine
 10
1.25
 20
53.800000000000011
 30
0.0
 11
1.25
 21
52.800000000000011
 31
0.0
  0
LINE
  5
209
100
AcDbEntity
  8
0
  6
CONTINUOUS
 62
               7
100
AcDbLine
 10
-3.0900000000000318
 20
49.699999999999989
 30
0.0
 11
-1.9900000000000091
 21
49.699999999999989
 31
0.0
  0
LINE
  5
20A
100
AcDbEntity
  8
0
  6
CONTINUOUS
 62
               7
100
AcDbLine
 10
-3.41599999999994
 20
50.199999999999989
 30
0.0
 11
-1.66599999999994
 21
50.199999999999989
 31
0.0
  0
LINE
  5
20B
100
AcDbEntity
  8
0
  6
CONTINUOUS
 62
               7
100
AcDbLine
 10
-3.4900000000000091
 20
52.300000000000011
 30
0.0
 11
-1.5900000000000318
 21
52.300000000000011
 31
0.0
  0
ARC
  5
20C
100
AcDbEntity
  8
0
  6
CONTINUOUS
 62
               7
100
AcDbCircle
 10
-1.6652851473611463
 20
50.399665233359485
 30
0.0
 40
0.1996665130331531
100
AcDbArc
 50
269.79486732121239
 51
3.5418075753734648
  0
LINE
  5
20D
100
AcDbEntity
  8
0
  6
CONTINUOUS
 62
               7
100
AcDbLine
 10
-1.9900000000000091
 20
50.199999999999989
 30
0.0
 11
-1.9900000000000091
 21
49.699999999999989
 31
0.0
  0
ARC
  5
20E
100
AcDbEntity
  8
0
  6
CONTINUOUS
 62
               7
100
AcDbCircle
 10
-3.4156558920257112
 20
50.400664252805939
 30
0.0
 40
0.2006645478515588
100
AcDbArc
 50
176.76157835491691
 51
269.90174674849533
  0
LINE
  5
20F
100
AcDbEntity
  8
0
  6
CONTINUOUS
 62
               7
100
AcDbLine
 10
-3.0900000000000318
 20
50.199999999999989
 30
0.0
 11
-3.0900000000000318
 21
49.699999999999989
 31
0.0
  0
LINE
  5
210
100
AcDbEntity
  8
0
  6
CONTINUOUS
 62
               7
100
AcDbLine
 10
-3.6999999999999318
 20
52.800000000000011
 30
0.0
 11
3.7000000000000455
 21
52.800000000000011
 31
0.0
  0
LINE
  5
211
100
AcDbEntity
  8
0
  6
CONTINUOUS
 62
               7
100
AcDbLine
 10
-2.5000000005766196
 20
55.300000000000011
 30
0.0
 11
2.4999999994233804
 21
55.300000000000011
 31
0.0
  0
LINE
  5
212
100
AcDbEntity
  8
0
  6
CONTINUOUS
 62
               7
100
AcDbLine
 10
-2.5
 20
54.099999999999966
 30
0.0
 11
2.5
 21
54.099999999999966
 31
0.0
  0
CIRCLE
  5
213
100
AcDbEntity
  8
0
  6
CONTINUOUS
 62
               7
100
AcDbCircle
 10
-2.5399999999999636
 20
51.300000000000011
 30
0.0
 40
0.75
  0
CIRCLE
  5
214
100
AcDbEntity
  8
0
  6
CONTINUOUS
 62
               7
100
AcDbCircle
 10
2.5399999999999636
 20
51.300000000000011
 30
0.0
 40
0.75
  0
LINE
  5
215
100
AcDbEntity
  8
0
  6
CONTINUOUS
 62
               7
100
AcDbLine
 10
2.5
 20
53.300000000000011
 30
0.0
 11
2.8999999999999773
 21
53.300000000000011
 31
0.0
  0
CIRCLE
  5
216
100
AcDbEntity
  8
0
  6
CONTINUOUS
 62
               7
100
AcDbCircle
 10
-3.5
 20
23.5
 30
0.0
 40
1.5
  0
LINE
  5
217
100
AcDbEntity
  8
0
  6
CONTINUOUS
 62
               7
100
AcDbLine
 10
-4.2071067811865532
 20
24.207106781186553
 30
0.0
 11
-2.7928932188134468
 21
22.792893218813504
 31
0.0
  0
LINE
  5
218
100
AcDbEntity
  8
0
  6
CONTINUOUS
 62
               7
100
AcDbLine
 10
-4.2071067811865532
 20
22.792893218813504
 30
0.0
 11
-2.7928932188134468
 21
24.207106781186553
 31
0.0
  0
CIRCLE
  5
219
100
AcDbEntity
  8
0
  6
CONTINUOUS
 62
               7
100
AcDbCircle
 10
3.5
 20
23.5
 30
0.0
 40
1.5
  0
CIRCLE
  5
21A
100
AcDbEntity
  8
0
  6
CONTINUOUS
 62
               7
100
AcDbCircle
 10
0.0
 20
21.75
 30
0.0
 40
1.8500000000000001
  0
CIRCLE
  5
21B
100
AcDbEntity
  8
0
  6
CONTINUOUS
 62
               7
100
AcDbCircle
 10
0.0
 20
21.75
 30
0.0
 40
1.9000000000000001
  0
LINE
  5
21C
100
AcDbEntity
  8
0
  6
CONTINUOUS
 62
               7
100
AcDbLine
 10
-5.0
 20
0.3000000000000114
 30
0.0
 11
-5.0
 21
32.000000000000057
 31
0.0
  0
ARC
  5
21D
100
AcDbEntity
  8
0
  6
CONTINUOUS
 62
               7
100
AcDbCircle
 10
-3.5
 20
23.5
 30
0.0
 40
1.6000000000000001
100
AcDbArc
 50
270.00000000000023
 51
89.999999999999801
  0
ARC
  5
21E
100
AcDbEntity
  8
0
  6
CONTINUOUS
 62
               7
100
AcDbCircle
 10
3.5
 20
23.5
 30
0.0
 40
1.6000000000000001
100
AcDbArc
 50
89.999999999999815
 51
269.99999999999937
  0
CIRCLE
  5
21F
100
AcDbEntity
  8
0
  6
CONTINUOUS
 62
               7
100
AcDbCircle
 10
0.0
 20
21.75
 30
0.0
 40
2.0500000000000003
  0
LINE
  5
220
100
AcDbEntity
  8
0
  6
CONTINUOUS
 62
               7
100
AcDbLine
 10
2.3943704061239259
 20
26.040817451771147
 30
0.0
 11
5.0
 21
26.040817451771147
 31
0.0
  0
LINE
  5
221
100
AcDbEntity
  8
0
  6
CONTINUOUS
 62
               7
100
AcDbLine
 10
2.6499999999999773
 20
25.600000000000023
 30
0.0
 11
1.3999999999999773
 21
24.350000000000023
 31
0.0
  0
LINE
  5
222
100
AcDbEntity
  8
0
  6
CONTINUOUS
 62
               7
100
AcDbLine
 10
2.3943704061239259
 20
26.040817451771147
 30
0.0
 11
2.6499999999999773
 21
25.600000000000023
 31
0.0
  0
LINE
  5
223
100
AcDbEntity
  8
0
  6
CONTINUOUS
 62
               7
100
AcDbLine
 10
5.0
 20
32.000000000000057
 30
0.0
 11
-5.0
 21
32.000000000000057
 31
0.0
  0
LINE
  5
224
100
AcDbEntity
  8
0
  6
CONTINUOUS
 62
               7
100
AcDbLine
 10
-2.6499999999999773
 20
25.600000000000023
 30
0.0
 11
-2.3943704061239259
 21
26.040817451771147
 31
0.0
  0
LINE
  5
225
100
AcDbEntity
  8
0
  6
CONTINUOUS
 62
               7
100
AcDbLine
 10
1.1443704061239259
 20
24.790817451771147
 30
0.0
 11
1.3999999999999773
 21
24.350000000000023
 31
0.0
  0
LINE
  5
226
100
AcDbEntity
  8
0
  6
CONTINUOUS
 62
               7
100
AcDbLine
 10
1.1443704061239259
 20
24.790817451771147
 30
0.0
 11
2.3943704061239259
 21
26.040817451771147
 31
0.0
  0
LINE
  5
227
100
AcDbEntity
  8
0
  6
CONTINUOUS
 62
               7
100
AcDbLine
 10
-1.1443704061239259
 20
24.790817451771147
 30
0.0
 11
-1.3999999999999773
 21
24.350000000000023
 31
0.0
  0
LINE
  5
228
100
AcDbEntity
  8
0
  6
CONTINUOUS
 62
               7
100
AcDbLine
 10
-1.1443704061239259
 20
24.790817451771147
 30
0.0
 11
-2.3943704061239259
 21
26.040817451771147
 31
0.0
  0
LINE
  5
229
100
AcDbEntity
  8
0
  6
CONTINUOUS
 62
               7
100
AcDbLine
 10
-5.0
 20
26.040817451771147
 30
0.0
 11
-2.3943704061239259
 21
26.040817451771147
 31
0.0
  0
LINE
  5
22A
100
AcDbEntity
  8
0
  6
CONTINUOUS
 62
               7
100
AcDbLine
 10
1.1443704061239259
 20
24.790817451771147
 30
0.0
 11
-1.1443704061239259
 21
24.790817451771147
 31
0.0
  0
LINE
  5
22B
100
AcDbEntity
  8
0
  6
CONTINUOUS
 62
               7
100
AcDbLine
 10
-5.0
 20
25.600000000000023
 30
0.0
 11
-2.6499999999999773
 21
25.600000000000023
 31
0.0
  0
LINE
  5
22C
100
AcDbEntity
  8
0
  6
CONTINUOUS
 62
               7
100
AcDbLine
 10
-2.6499999999999773
 20
25.600000000000023
 30
0.0
 11
-1.3999999999999773
 21
24.350000000000023
 31
0.0
  0
LINE
  5
22D
100
AcDbEntity
  8
0
  6
CONTINUOUS
 62
               7
100
AcDbLine
 10
1.3999999999999773
 20
24.350000000000023
 30
0.0
 11
-1.3999999999999773
 21
24.350000000000023
 31
0.0
  0
LINE
  5
22E
100
AcDbEntity
  8
0
  6
CONTINUOUS
 62
               7
100
AcDbLine
 10
-5.0
 20
25.100000000000023
 30
0.0
 11
-3.5
 21
25.100000000000023
 31
0.0
  0
LINE
  5
22F
100
AcDbEntity
  8
0
  6
CONTINUOUS
 62
               7
100
AcDbLine
 10
4.2071067811865532
 20
22.792893218813504
 30
0.0
 11
2.7928932188134468
 21
24.207106781186553
 31
0.0
  0
LINE
  5
230
100
AcDbEntity
  8
0
  6
CONTINUOUS
 62
               7
100
AcDbLine
 10
4.2071067811865532
 20
24.207106781186553
 30
0.0
 11
2.7928932188134468
 21
22.792893218813504
 31
0.0
  0
LINE
  5
231
100
AcDbEntity
  8
0
  6
CONTINUOUS
 62
               7
100
AcDbLine
 10
-3.5
 20
21.900000000000034
 30
0.0
 11
-5.0
 21
21.900000000000034
 31
0.0
  0
LINE
  5
232
100
AcDbEntity
  8
0
  6
CONTINUOUS
 62
               7
100
AcDbLine
 10
5.0
 20
18.098078436969899
 30
0.0
 11
-5.0
 21
18.098078436969899
 31
0.0
  0
LINE
  5
233
100
AcDbEntity
  8
0
  6
CONTINUOUS
 62
               7
100
AcDbLine
 10
2.6499999999999773
 20
25.600000000000023
 30
0.0
 11
5.0
 21
25.600000000000023
 31
0.0
  0
LINE
  5
234
100
AcDbEntity
  8
0
  6
CONTINUOUS
 62
               7
100
AcDbLine
 10
-5.0
 20
18.909182548228841
 30
0.0
 11
5.0
 21
18.909182548228841
 31
0.0
  0
LINE
  5
235
100
AcDbEntity
  8
0
  6
CONTINUOUS
 62
               7
100
AcDbLine
 10
1.5
 20
5.0
 30
0.0
 11
1.5
 21
0.0
 31
0.0
  0
LINE
  5
236
100
AcDbEntity
  8
0
  6
CONTINUOUS
 62
               7
100
AcDbLine
 10
-1.5
 20
5.0
 30
0.0
 11
-1.5
 21
0.0
 31
0.0
  0
LINE
  5
237
100
AcDbEntity
  8
0
  6
CONTINUOUS
 62
               7
100
AcDbLine
 10
4.7000000000000455
 20
12.199999999999989
 30
0.0
 11
2.5
 21
12.199999999999989
 31
0.0
  0
LINE
  5
238
100
AcDbEntity
  8
0
  6
CONTINUOUS
 62
               7
100
AcDbLine
 10
-4.6999999999999318
 20
12.699999999999989
 30
0.0
 11
-3.6999999999999318
 21
12.699999999999989
 31
0.0
  0
LINE
  5
239
100
AcDbEntity
  8
0
  6
CONTINUOUS
 62
               7
100
AcDbLine
 10
3.4900000000000091
 20
14.199999999999989
 30
0.0
 11
1.5900000000000318
 21
14.199999999999989
 31
0.0
  0
ARC
  5
23A
100
AcDbEntity
  8
0
  6
CONTINUOUS
 62
               7
100
AcDbCircle
 10
3.4156558920257112
 20
16.099335747194061
 30
0.0
 40
0.2006645478515588
100
AcDbArc
 50
356.76157835491654
 51
89.901746748495754
  0
LINE
  5
23B
100
AcDbEntity
  8
0
  6
CONTINUOUS
 62
               7
100
AcDbLine
 10
4.7000000000000455
 20
18.0
 30
0.0
 11
-4.7000000000000455
 21
18.0
 31
0.0
  0
LINE
  5
23C
100
AcDbEntity
  8
0
  6
CONTINUOUS
 62
               7
100
AcDbLine
 10
3.7000000000000455
 20
13.699999999999989
 30
0.0
 11
-3.6999999999999318
 21
13.699999999999989
 31
0.0
  0
LINE
  5
23D
100
AcDbEntity
  8
0
  6
CONTINUOUS
 62
               7
100
AcDbLine
 10
-2.5
 20
12.199999999999989
 30
0.0
 11
-4.6999999999999318
 21
12.199999999999989
 31
0.0
  0
LINE
  5
23E
100
AcDbEntity
  8
0
  6
CONTINUOUS
 62
               7
100
AcDbLine
 10
-2.5
 20
13.199999999999989
 30
0.0
 11
-2.8999999999999773
 21
13.199999999999989
 31
0.0
  0
CIRCLE
  5
23F
100
AcDbEntity
  8
0
  6
CONTINUOUS
 62
               7
100
AcDbCircle
 10
-2.5399999999999636
 20
15.199999999999989
 30
0.0
 40
0.75
  0
CIRCLE
  5
240
100
AcDbEntity
  8
0
  6
CONTINUOUS
 62
               7
100
AcDbCircle
 10
2.5399999999999636
 20
15.199999999999989
 30
0.0
 40
0.75
  0
LINE
  5
241
100
AcDbEntity
  8
0
  6
CONTINUOUS
 62
               7
100
AcDbLine
 10
2.5
 20
12.400000000000034
 30
0.0
 11
-2.5
 21
12.400000000000034
 31
0.0
  0
LINE
  5
242
100
AcDbEntity
  8
0
  6
CONTINUOUS
 62
               7
100
AcDbLine
 10
2.5000000005766196
 20
11.199999999999989
 30
0.0
 11
-2.4999999994233804
 21
11.199999999999989
 31
0.0
  0
LINE
  5
243
100
AcDbEntity
  8
0
  6
CONTINUOUS
 62
               7
100
AcDbLine
 10
3.0900000000000318
 20
16.300000000000011
 30
0.0
 11
3.0900000000000318
 21
16.800000000000011
 31
0.0
  0
LINE
  5
244
100
AcDbEntity
  8
0
  6
CONTINUOUS
 62
               7
100
AcDbLine
 10
1.9900000000000091
 20
16.300000000000011
 30
0.0
 11
1.9900000000000091
 21
16.800000000000011
 31
0.0
  0
ARC
  5
245
100
AcDbEntity
  8
0
  6
CONTINUOUS
 62
               7
100
AcDbCircle
 10
1.6652851473611463
 20
16.100334766640458
 30
0.0
 40
0.1996665130331531
100
AcDbArc
 50
89.79486732121282
 51
183.54180757537307
  0
LINE
  5
246
100
AcDbEntity
  8
0
  6
CONTINUOUS
 62
               7
100
AcDbLine
 10
3.4160000000000537
 20
16.300000000000011
 30
0.0
 11
1.6660000000000537
 21
16.300000000000011
 31
0.0
  0
LINE
  5
247
100
AcDbEntity
  8
0
  6
CONTINUOUS
 62
               7
100
AcDbLine
 10
3.0900000000000318
 20
16.800000000000011
 30
0.0
 11
1.9900000000000091
 21
16.800000000000011
 31
0.0
  0
LINE
  5
248
100
AcDbEntity
  8
0
  6
CONTINUOUS
 62
               7
100
AcDbLine
 10
-1.25
 20
12.699999999999989
 30
0.0
 11
-1.25
 21
13.699999999999989
 31
0.0
  0
LINE
  5
249
100
AcDbEntity
  8
0
  6
CONTINUOUS
 62
               7
100
AcDbLine
 10
1.25
 20
12.699999999999989
 30
0.0
 11
1.25
 21
13.699999999999989
 31
0.0
  0
LINE
  5
24A
100
AcDbEntity
  8
0
  6
CONTINUOUS
 62
               7
100
AcDbLine
 10
-3.6999999999999318
 20
13.699999999999989
 30
0.0
 11
-3.6999999999999318
 21
12.699999999999989
 31
0.0
  0
LINE
  5
24B
100
AcDbEntity
  8
0
  6
CONTINUOUS
 62
               7
100
AcDbLine
 10
1.5900000000000318
 20
14.199999999999989
 30
0.0
 11
1.4660000000000082
 21
16.088000000000022
 31
0.0
  0
LINE
  5
24C
100
AcDbEntity
  8
0
  6
CONTINUOUS
 62
               7
100
AcDbLine
 10
0.9500000000000455
 20
14.199999999999989
 30
0.0
 11
-0.9499999999999318
 21
14.199999999999989
 31
0.0
  0
LINE
  5
24D
100
AcDbEntity
  8
0
  6
CONTINUOUS
 62
               7
100
AcDbLine
 10
1.0760000000000218
 20
16.088000000000022
 30
0.0
 11
0.9500000000000455
 21
14.199999999999989
 31
0.0
  0
ARC
  5
24E
100
AcDbEntity
  8
0
  6
CONTINUOUS
 62
               7
100
AcDbCircle
 10
0.8756558920257476
 20
16.099335747194061
 30
0.0
 40
0.2006645478515588
100
AcDbArc
 50
356.76157835491654
 51
89.901746748495754
  0
LINE
  5
24F
100
AcDbEntity
  8
0
  6
CONTINUOUS
 62
               7
100
AcDbLine
 10
0.8759999999999764
 20
16.300000000000011
 30
0.0
 11
-0.8740000000000237
 21
16.300000000000011
 31
0.0
  0
LINE
  5
250
100
AcDbEntity
  8
0
  6
CONTINUOUS
 62
               7
100
AcDbLine
 10
0.5500000000000682
 20
16.300000000000011
 30
0.0
 11
0.5500000000000682
 21
16.800000000000011
 31
0.0
  0
LINE
  5
251
100
AcDbEntity
  8
0
  6
CONTINUOUS
 62
               7
100
AcDbLine
 10
0.5500000000000682
 20
16.800000000000011
 30
0.0
 11
-0.5499999999999545
 21
16.800000000000011
 31
0.0
  0
LINE
  5
252
100
AcDbEntity
  8
0
  6
CONTINUOUS
 62
               7
100
AcDbLine
 10
-0.5499999999999545
 20
16.300000000000011
 30
0.0
 11
-0.5499999999999545
 21
16.800000000000011
 31
0.0
  0
ARC
  5
253
100
AcDbEntity
  8
0
  6
CONTINUOUS
 62
               7
100
AcDbCircle
 10
-0.8747148526388173
 20
16.100334766640458
 30
0.0
 40
0.1996665130331531
100
AcDbArc
 50
89.79486732121282
 51
183.54180757537307
  0
LINE
  5
254
100
AcDbEntity
  8
0
  6
CONTINUOUS
 62
               7
100
AcDbLine
 10
-0.9499999999999318
 20
14.199999999999989
 30
0.0
 11
-1.0739999999999554
 21
16.088000000000022
 31
0.0
  0
LINE
  5
255
100
AcDbEntity
  8
0
  6
CONTINUOUS
 62
               7
100
AcDbLine
 10
0.3999999999999773
 20
14.800000000000011
 30
0.0
 11
0.3999999999999773
 21
15.599999999999966
 31
0.0
  0
LINE
  5
256
100
AcDbEntity
  8
0
  6
CONTINUOUS
 62
               7
100
AcDbLine
 10
-0.3999999999999773
 20
14.800000000000011
 30
0.0
 11
0.3999999999999773
 21
14.800000000000011
 31
0.0
  0
LINE
  5
257
100
AcDbEntity
  8
0
  6
CONTINUOUS
 62
               7
100
AcDbLine
 10
-0.3999999999999773
 20
14.800000000000011
 30
0.0
 11
-0.3999999999999773
 21
15.599999999999966
 31
0.0
  0
LINE
  5
258
100
AcDbEntity
  8
0
  6
CONTINUOUS
 62
               7
100
AcDbLine
 10
-0.3999999999999773
 20
15.599999999999966
 30
0.0
 11
0.3999999999999773
 21
15.599999999999966
 31
0.0
  0
LINE
  5
259
100
AcDbEntity
  8
0
  6
CONTINUOUS
 62
               7
100
AcDbLine
 10
-1.5900000000000318
 20
14.199999999999989
 30
0.0
 11
-3.4900000000000091
 21
14.199999999999989
 31
0.0
  0
LINE
  5
25A
100
AcDbEntity
  8
0
  6
CONTINUOUS
 62
               7
100
AcDbLine
 10
-1.4639999999999418
 20
16.088000000000022
 30
0.0
 11
-1.5900000000000318
 21
14.199999999999989
 31
0.0
  0
ARC
  5
25B
100
AcDbEntity
  8
0
  6
CONTINUOUS
 62
               7
100
AcDbCircle
 10
-1.6643441079743297
 20
16.099335747194061
 30
0.0
 40
0.2006645478515588
100
AcDbArc
 50
356.76157835491654
 51
89.901746748495754
  0
LINE
  5
25C
100
AcDbEntity
  8
0
  6
CONTINUOUS
 62
               7
100
AcDbLine
 10
-1.6639999999999873
 20
16.300000000000011
 30
0.0
 11
-3.4139999999999873
 21
16.300000000000011
 31
0.0
  0
LINE
  5
25D
100
AcDbEntity
  8
0
  6
CONTINUOUS
 62
               7
100
AcDbLine
 10
-1.9900000000000091
 20
16.300000000000011
 30
0.0
 11
-1.9900000000000091
 21
16.800000000000011
 31
0.0
  0
LINE
  5
25E
100
AcDbEntity
  8
0
  6
CONTINUOUS
 62
               7
100
AcDbLine
 10
-1.9900000000000091
 20
16.800000000000011
 30
0.0
 11
-3.0900000000000318
 21
16.800000000000011
 31
0.0
  0
LINE
  5
25F
100
AcDbEntity
  8
0
  6
CONTINUOUS
 62
               7
100
AcDbLine
 10
-3.0900000000000318
 20
16.300000000000011
 30
0.0
 11
-3.0900000000000318
 21
16.800000000000011
 31
0.0
  0
ARC
  5
260
100
AcDbEntity
  8
0
  6
CONTINUOUS
 62
               7
100
AcDbCircle
 10
-3.4147148526388946
 20
16.100334766640458
 30
0.0
 40
0.1996665130331531
100
AcDbArc
 50
89.79486732121282
 51
183.54180757537307
  0
LINE
  5
261
100
AcDbEntity
  8
0
  6
CONTINUOUS
 62
               7
100
AcDbLine
 10
-3.4900000000000091
 20
14.199999999999989
 30
0.0
 11
-3.6140000000000327
 21
16.088000000000022
 31
0.0
  0
LINE
  5
262
100
AcDbEntity
  8
0
  6
CONTINUOUS
 62
               7
100
AcDbLine
 10
2.5
 20
11.199999999999989
 30
0.0
 11
2.5
 21
13.699999999999989
 31
0.0
  0
LINE
  5
263
100
AcDbEntity
  8
0
  6
CONTINUOUS
 62
               7
100
AcDbLine
 10
-2.5
 20
11.199999999999989
 30
0.0
 11
-2.5
 21
13.699999999999989
 31
0.0
  0
LINE
  5
264
100
AcDbEntity
  8
0
  6
CONTINUOUS
 62
               7
100
AcDbLine
 10
2.9000000000000909
 20
12.699999999999989
 30
0.0
 11
-2.8999999999999773
 21
12.699999999999989
 31
0.0
  0
LINE
  5
265
100
AcDbEntity
  8
0
  6
CONTINUOUS
 62
               7
100
AcDbLine
 10
-2.8999999999999773
 20
13.199999999999989
 30
0.0
 11
-2.8999999999999773
 21
12.199999999999989
 31
0.0
  0
LINE
  5
266
100
AcDbEntity
  8
0
  6
CONTINUOUS
 62
               7
100
AcDbLine
 10
2.9000000000000909
 20
13.199999999999989
 30
0.0
 11
2.9000000000000909
 21
12.199999999999989
 31
0.0
  0
LINE
  5
267
100
AcDbEntity
  8
0
  6
CONTINUOUS
 62
               7
100
AcDbLine
 10
2.9000000000000909
 20
13.199999999999989
 30
0.0
 11
2.5
 21
13.199999999999989
 31
0.0
  0
LINE
  5
268
100
AcDbEntity
  8
0
  6
CONTINUOUS
 62
               7
100
AcDbLine
 10
1.5
 20
5.0
 30
0.0
 11
-1.5
 21
5.0
 31
0.0
  0
LINE
  5
269
100
AcDbEntity
  8
0
  6
CENTER
 62
               2
100
AcDbLine
 10
-2.5
 20
21.75
 30
0.0
 11
2.5
 21
21.75
 31
0.0
  0
LINE
  5
26A
100
AcDbEntity
  8
0
  6
CONTINUOUS
 62
               7
100
AcDbLine
 10
-1.8255136263528584
 20
22.050000000000011
 30
0.0
 11
1.8255136263528584
 21
22.050000000000011
 31
0.0
  0
LINE
  5
26B
100
AcDbEntity
  8
0
  6
CONTINUOUS
 62
               7
100
AcDbLine
 10
0.0
 20
21.449999999999989
 30
0.0
 11
1.8255136263528584
 21
21.449999999999989
 31
0.0
  0
ARC
  5
26C
100
AcDbEntity
  8
0
  6
CONTINUOUS
 62
               7
100
AcDbCircle
 10
0.0
 20
21.75
 30
0.0
 40
0.8
100
AcDbArc
 50
202.02431283704175
 51
337.97568716295712
  0
ARC
  5
26D
100
AcDbEntity
  8
0
  6
CONTINUOUS
 62
               7
100
AcDbCircle
 10
0.0
 20
21.75
 30
0.0
 40
0.8
100
AcDbArc
 50
22.024312837042157
 51
157.97568716295754
  0
LINE
  5
26E
100
AcDbEntity
  8
0
  6
CONTINUOUS
 62
               7
100
AcDbLine
 10
-1.8255136263528584
 20
21.449999999999989
 30
0.0
 11
0.0
 21
21.449999999999989
 31
0.0
  0
LINE
  5
26F
100
AcDbEntity
  8
0
  6
CONTINUOUS
 62
               7
100
AcDbLine
 10
5.0
 20
21.900000000000034
 30
0.0
 11
3.5
 21
21.900000000000034
 31
0.0
  0
LINE
  5
270
100
AcDbEntity
  8
0
  6
CONTINUOUS
 62
               7
100
AcDbLine
 10
3.5
 20
25.100000000000023
 30
0.0
 11
5.0
 21
25.100000000000023
 31
0.0
  0
LINE
  5
271
100
AcDbEntity
  8
0
  6
CONTINUOUS
 62
               7
100
AcDbLine
 10
5.0
 20
0.3000000000000114
 30
0.0
 11
5.0
 21
32.000000000000057
 31
0.0
  0
LINE
  5
272
100
AcDbEntity
  8
0
  6
CONTINUOUS
 62
               7
100
AcDbLine
 10
-5.0
 20
17.600000000000023
 30
0.0
 11
-4.7000000000000455
 21
17.600000000000023
 31
0.0
  0
ARC
  5
273
100
AcDbEntity
  8
0
  6
CONTINUOUS
 62
               7
100
AcDbCircle
 10
-4.6999999999999318
 20
12.5
 30
0.0
 40
0.3
100
AcDbArc
 50
179.99999999999963
 51
269.99999999999937
  0
LINE
  5
274
100
AcDbEntity
  8
0
  6
CONTINUOUS
 62
               7
100
AcDbLine
 10
-5.0
 20
17.5
 30
0.0
 11
-4.7000000000000455
 21
17.5
 31
0.0
  0
LINE
  5
275
100
AcDbEntity
  8
0
  6
CONTINUOUS
 62
               7
100
AcDbLine
 10
-4.7000000000000455
 20
18.0
 30
0.0
 11
-4.7000000000000455
 21
12.699999999999989
 31
0.0
  0
ARC
  5
276
100
AcDbEntity
  8
0
  6
CONTINUOUS
 62
               7
100
AcDbCircle
 10
4.7000000000000455
 20
12.5
 30
0.0
 40
0.3
100
AcDbArc
 50
269.99999999999937
 51
0.0
  0
LINE
  5
277
100
AcDbEntity
  8
0
  6
CONTINUOUS
 62
               7
100
AcDbLine
 10
4.7000000000000455
 20
17.600000000000023
 30
0.0
 11
5.0
 21
17.600000000000023
 31
0.0
  0
LINE
  5
278
100
AcDbEntity
  8
0
  6
CONTINUOUS
 62
               7
100
AcDbLine
 10
4.7000000000000455
 20
17.5
 30
0.0
 11
5.0
 21
17.5
 31
0.0
  0
LINE
  5
279
100
AcDbEntity
  8
0
  6
CONTINUOUS
 62
               7
100
AcDbLine
 10
4.7000000000000455
 20
18.0
 30
0.0
 11
4.7000000000000455
 21
12.699999999999989
 31
0.0
  0
LINE
  5
27A
100
AcDbEntity
  8
0
  6
CONTINUOUS
 62
               7
100
AcDbLine
 10
4.7000000000000455
 20
12.699999999999989
 30
0.0
 11
3.7000000000000455
 21
12.699999999999989
 31
0.0
  0
LINE
  5
27B
100
AcDbEntity
  8
0
  6
CONTINUOUS
 62
               7
100
AcDbLine
 10
3.7000000000000455
 20
13.699999999999989
 30
0.0
 11
3.7000000000000455
 21
12.699999999999989
 31
0.0
  0
LINE
  5
27C
100
AcDbEntity
  8
0
  6
CONTINUOUS
 62
               7
100
AcDbLine
 10
3.6159999999999854
 20
16.088000000000022
 30
0.0
 11
3.4900000000000091
 21
14.199999999999989
 31
0.0
  0
LINE
  5
27D
100
AcDbEntity
  8
0
  6
CONTINUOUS
 62
               7
100
AcDbLine
 10
-5.0999999999999996
 20
0.0
 30
0.0
 11
5.0999999999999996
 21
0.0
 31
0.0
  0
ARC
  5
27E
100
AcDbEntity
  8
0
  6
CONTINUOUS
 62
               7
100
AcDbCircle
 10
-4.6999999999999318
 20
0.3000000000000114
 30
0.0
 40
0.3
100
AcDbArc
 50
179.99999999999963
 51
269.99999999999937
  0
ARC
  5
27F
100
AcDbEntity
  8
0
  6
CONTINUOUS
 62
               7
100
AcDbCircle
 10
4.7000000000000455
 20
0.3000000000000114
 30
0.0
 40
0.3
100
AcDbArc
 50
270.00000000000023
 51
0.0
  0
LINE
  5
280
100
AcDbEntity
  8
0
  6
CONTINUOUS
 62
               7
100
AcDbLine
 10
-4.6999999999999318
 20
48.500000000000057
 30
0.0
 11
-4.6999999999999318
 21
53.800000000000011
 31
0.0
  0
ARC
  5
281
100
AcDbEntity
  8
0
  6
CONTINUOUS
 62
               7
100
AcDbCircle
 10
-4.7000000000000455
 20
54.000000000000057
 30
0.0
 40
0.3
100
AcDbArc
 50
89.999999999999815
 51
179.99999999999963
  0
LINE
  5
282
100
AcDbEntity
  8
0
  6
CONTINUOUS
 62
               7
100
AcDbLine
 10
-4.6999999999999318
 20
48.89999999999992
 30
0.0
 11
-5.0
 21
48.89999999999992
 31
0.0
  0
LINE
  5
283
100
AcDbEntity
  8
0
  6
CONTINUOUS
 62
               7
100
AcDbLine
 10
-4.6999999999999318
 20
49.000000000000057
 30
0.0
 11
-5.0
 21
49.000000000000057
 31
0.0
  0
LINE
  5
284
100
AcDbEntity
  8
0
  6
CONTINUOUS
 62
               7
100
AcDbLine
 10
5.0
 20
49.000000000000057
 30
0.0
 11
4.7000000000000455
 21
49.000000000000057
 31
0.0
  0
ARC
  5
285
100
AcDbEntity
  8
0
  6
CONTINUOUS
 62
               7
100
AcDbCircle
 10
4.7000000000000455
 20
54.000000000000057
 30
0.0
 40
0.3
100
AcDbArc
 50
0.0
 51
89.999999999999815
  0
LINE
  5
286
100
AcDbEntity
  8
0
  6
CONTINUOUS
 62
               7
100
AcDbLine
 10
5.0
 20
48.89999999999992
 30
0.0
 11
4.7000000000000455
 21
48.89999999999992
 31
0.0
  0
LINE
  5
287
100
AcDbEntity
  8
0
  6
CONTINUOUS
 62
               7
100
AcDbLine
 10
4.7000000000000455
 20
48.500000000000057
 30
0.0
 11
4.7000000000000455
 21
53.800000000000011
 31
0.0
  0
LINE
  5
288
100
AcDbEntity
  8
0
  6
CONTINUOUS
 62
               7
100
AcDbLine
 10
5.0
 20
66.199999999999989
 30
0.0
 11
5.0
 21
34.499999999999943
 31
0.0
  0
ARC
  5
289
100
AcDbEntity
  8
0
  6
CONTINUOUS
 62
               7
100
AcDbCircle
 10
4.7000000000000455
 20
66.199999999999989
 30
0.0
 40
0.3
100
AcDbArc
 50
0.0
 51
89.999999999999815
  0
LINE
  5
28A
100
AcDbEntity
  8
0
  6
CONTINUOUS
 62
               7
100
AcDbLine
 10
5.0999999999999996
 20
55.0
 30
0.0
 11
5.0
 21
55.0
 31
0.0
  0
LINE
  5
28B
100
AcDbEntity
  8
0
  6
CONTINUOUS
 62
               7
100
AcDbLine
 10
-5.0999999999999996
 20
55.0
 30
0.0
 11
-5.0
 21
55.0
 31
0.0
  0
LINE
  5
28C
100
AcDbEntity
  8
0
  6
CONTINUOUS
 62
               7
100
AcDbLine
 10
-3.1000000000000227
 20
68.544181962474866
 30
0.0
 11
-3.1000000000000227
 21
66.499999999999943
 31
0.0
  0
LINE
  5
28D
100
AcDbEntity
  8
0
  6
CONTINUOUS
 62
               7
100
AcDbLine
 10
1.8999999999999773
 20
68.544181962474866
 30
0.0
 11
-3.1000000000000227
 21
68.544181962474866
 31
0.0
  0
LINE
  5
28E
100
AcDbEntity
  8
0
  6
CONTINUOUS
 62
               7
100
AcDbLine
 10
-2.6000000000000227
 20
69.044181962474866
 30
0.0
 11
1.3999999999999773
 21
69.044181962474866
 31
0.0
  0
LINE
  5
28F
100
AcDbEntity
  8
0
  6
CONTINUOUS
 62
               7
100
AcDbLine
 10
-3.1000000000000227
 20
68.544181962474866
 30
0.0
 11
-2.6000000000000227
 21
69.044181962474866
 31
0.0
  0
LINE
  5
290
100
AcDbEntity
  8
0
  6
CONTINUOUS
 62
               7
100
AcDbLine
 10
1.8999999999999773
 20
68.544181962474866
 30
0.0
 11
1.8999999999999773
 21
66.499999999999943
 31
0.0
  0
LINE
  5
291
100
AcDbEntity
  8
0
  6
CONTINUOUS
 62
               7
100
AcDbLine
 10
1.8999999999999773
 20
68.544181962474866
 30
0.0
 11
1.3999999999999773
 21
69.044181962474866
 31
0.0
  0
ENDBLK
  5
292
100
AcDbEntity
  8
0
100
AcDbBlockEnd
  0
BLOCK
  5
293
100
AcDbEntity
  8
0
100
AcDbBlockBegin
  2
MV030MAS-11-7
 70
               0
 10
0.0
 20
0.0
 30
0.0
  3
MV030MAS-11-7
  1

  0
LINE
  5
294
100
AcDbEntity
  8
0
  6
CENTER
 62
               2
100
AcDbLine
 10
0.0000000000000076
 20
74.044181962474809
 30
0.0
 11
0.0
 21
-2.1360529252351057
 31
0.0
  0
LINE
  5
295
100
AcDbEntity
  8
0
  6
CONTINUOUS
 62
               7
100
AcDbLine
 10
2.3943704061239046
 20
26.040817451771176
 30
0.0
 11
2.6500000000000128
 21
25.599999999999994
 31
0.0
  0
LINE
  5
296
100
AcDbEntity
  8
0
  6
CONTINUOUS
 62
               7
100
AcDbLine
 10
-2.6499999999999986
 20
25.599999999999994
 30
0.0
 11
-2.3943704061238904
 21
26.040817451771147
 31
0.0
  0
LINE
  5
297
100
AcDbEntity
  8
0
  6
CONTINUOUS
 62
               7
100
AcDbLine
 10
1.1443704061239046
 20
24.790817451771147
 30
0.0
 11
1.4000000000000128
 21
24.350000000000023
 31
0.0
  0
LINE
  5
298
100
AcDbEntity
  8
0
  6
CONTINUOUS
 62
               7
100
AcDbLine
 10
2.6500000000000128
 20
25.599999999999994
 30
0.0
 11
1.4000000000000128
 21
24.350000000000023
 31
0.0
  0
LINE
  5
299
100
AcDbEntity
  8
0
  6
CONTINUOUS
 62
               7
100
AcDbLine
 10
1.1443704061239046
 20
24.790817451771147
 30
0.0
 11
2.3943704061239046
 21
26.040817451771176
 31
0.0
  0
LINE
  5
29A
100
AcDbEntity
  8
0
  6
CONTINUOUS
 62
               7
100
AcDbLine
 10
-1.1443704061238904
 20
24.790817451771147
 30
0.0
 11
-1.3999999999999986
 21
24.350000000000023
 31
0.0
  0
LINE
  5
29B
100
AcDbEntity
  8
0
  6
CONTINUOUS
 62
               7
100
AcDbLine
 10
-4.9999999999999929
 20
18.909182548228841
 30
0.0
 11
5.0000000000000071
 21
18.909182548228841
 31
0.0
  0
LINE
  5
29C
100
AcDbEntity
  8
0
  6
CONTINUOUS
 62
               7
100
AcDbLine
 10
-1.1443704061238904
 20
24.790817451771147
 30
0.0
 11
-2.3943704061238904
 21
26.040817451771147
 31
0.0
  0
LINE
  5
29D
100
AcDbEntity
  8
0
  6
CONTINUOUS
 62
               7
100
AcDbLine
 10
-4.9999999999999929
 20
26.040817451771147
 30
0.0
 11
-2.3943704061238904
 21
26.040817451771147
 31
0.0
  0
LINE
  5
29E
100
AcDbEntity
  8
0
  6
CONTINUOUS
 62
               7
100
AcDbLine
 10
2.3943704061239046
 20
26.040817451771176
 30
0.0
 11
5.0000000000000071
 21
26.040817451771176
 31
0.0
  0
LINE
  5
29F
100
AcDbEntity
  8
0
  6
CONTINUOUS
 62
               7
100
AcDbLine
 10
1.1443704061239046
 20
24.790817451771147
 30
0.0
 11
-1.1443704061238904
 21
24.790817451771147
 31
0.0
  0
LINE
  5
2A0
100
AcDbEntity
  8
0
  6
CONTINUOUS
 62
               7
100
AcDbLine
 10
-5.0000000000000213
 20
25.599999999999994
 30
0.0
 11
-2.6499999999999986
 21
25.599999999999994
 31
0.0
  0
LINE
  5
2A1
100
AcDbEntity
  8
0
  6
CONTINUOUS
 62
               7
100
AcDbLine
 10
-2.6499999999999986
 20
25.599999999999994
 30
0.0
 11
-1.3999999999999986
 21
24.350000000000023
 31
0.0
  0
LINE
  5
2A2
100
AcDbEntity
  8
0
  6
CONTINUOUS
 62
               7
100
AcDbLine
 10
1.4000000000000128
 20
24.350000000000023
 30
0.0
 11
-1.3999999999999986
 21
24.350000000000023
 31
0.0
  0
LINE
  5
2A3
100
AcDbEntity
  8
0
  6
CONTINUOUS
 62
               7
100
AcDbLine
 10
2.6500000000000128
 20
25.599999999999994
 30
0.0
 11
5.0000000000000071
 21
25.599999999999994
 31
0.0
  0
CIRCLE
  5
2A4
100
AcDbEntity
  8
0
  6
CONTINUOUS
 62
               7
100
AcDbCircle
 10
0.0000000000000071
 20
21.75
 30
0.0
 40
2.0500000000000003
  0
LINE
  5
2A5
100
AcDbEntity
  8
0
  6
CONTINUOUS
 62
               7
100
AcDbLine
 10
5.0000000000000071
 20
18.098078436969899
 30
0.0
 11
-4.9999999999999929
 21
18.098078436969899
 31
0.0
  0
LINE
  5
2A6
100
AcDbEntity
  8
0
  6
CONTINUOUS
 62
               7
100
AcDbLine
 10
-4.9999999999999929
 20
17.600000000000023
 30
0.0
 11
5.0000000000000071
 21
17.600000000000023
 31
0.0
  0
LINE
  5
2A7
100
AcDbEntity
  8
0
  6
CONTINUOUS
 62
               7
100
AcDbLine
 10
-3.4999999999999929
 20
21.899999999999977
 30
0.0
 11
-4.9999999999999929
 21
21.899999999999977
 31
0.0
  0
LINE
  5
2A8
100
AcDbEntity
  8
0
  6
CONTINUOUS
 62
               7
100
AcDbLine
 10
-4.9999999999999929
 20
25.100000000000023
 30
0.0
 11
-3.4999999999999929
 21
25.100000000000023
 31
0.0
  0
LINE
  5
2A9
100
AcDbEntity
  8
0
  6
CONTINUOUS
 62
               7
100
AcDbLine
 10
3.5000000000000071
 20
25.100000000000023
 30
0.0
 11
5.0000000000000071
 21
25.100000000000023
 31
0.0
  0
LINE
  5
2AA
100
AcDbEntity
  8
0
  6
CONTINUOUS
 62
               7
100
AcDbLine
 10
5.0000000000000071
 20
21.899999999999977
 30
0.0
 11
3.5000000000000071
 21
21.899999999999977
 31
0.0
  0
ARC
  5
2AB
100
AcDbEntity
  8
0
  6
CONTINUOUS
 62
               7
100
AcDbCircle
 10
3.5000000000000071
 20
23.5
 30
0.0
 40
1.6000000000000001
100
AcDbArc
 50
89.999999999999815
 51
269.99999999999937
  0
ARC
  5
2AC
100
AcDbEntity
  8
0
  6
CONTINUOUS
 62
               7
100
AcDbCircle
 10
-3.4999999999999929
 20
23.5
 30
0.0
 40
1.6000000000000001
100
AcDbArc
 50
270.00000000000023
 51
89.999999999999801
  0
LINE
  5
2AD
100
AcDbEntity
  8
0
  6
CONTINUOUS
 62
               7
100
AcDbLine
 10
5.0000000000000071
 20
0.3000000000000114
 30
0.0
 11
5.0000000000000071
 21
17.5
 31
0.0
  0
LINE
  5
2AE
100
AcDbEntity
  8
0
  6
CENTER
 62
               2
100
AcDbLine
 10
-2.4999999999999929
 20
21.75
 30
0.0
 11
2.5000000000000071
 21
21.75
 31
0.0
  0
LINE
  5
2AF
100
AcDbEntity
  8
0
  6
CONTINUOUS
 62
               7
100
AcDbLine
 10
-4.9999999999999964
 20
0.3000000000000114
 30
0.0
 11
-4.9999999999999929
 21
17.5
 31
0.0
  0
CIRCLE
  5
2B0
100
AcDbEntity
  8
0
  6
CONTINUOUS
 62
               7
100
AcDbCircle
 10
0.0000000000000071
 20
21.75
 30
0.0
 40
1.9000000000000001
  0
LINE
  5
2B1
100
AcDbEntity
  8
0
  6
CONTINUOUS
 62
               7
100
AcDbLine
 10
5.0999999999999996
 20
0.0
 30
0.0
 11
-5.0999999999999996
 21
0.0
 31
0.0
  0
LINE
  5
2B2
100
AcDbEntity
  8
0
  6
CONTINUOUS
 62
               7
100
AcDbLine
 10
-5.0000000033237981
 20
17.5
 30
0.0
 11
4.9999999966762019
 21
17.5
 31
0.0
  0
ARC
  5
2B3
100
AcDbEntity
  8
0
  6
CONTINUOUS
 62
               7
100
AcDbCircle
 10
4.7000000000000242
 20
0.3000000000000114
 30
0.0
 40
0.3
100
AcDbArc
 50
269.99999999999937
 51
0.0
  0
ARC
  5
2B4
100
AcDbEntity
  8
0
  6
CONTINUOUS
 62
               7
100
AcDbCircle
 10
-4.6999999999999851
 20
0.3000000000000114
 30
0.0
 40
0.3
100
AcDbArc
 50
179.99999999999963
 51
269.99999999999937
  0
CIRCLE
  5
2B5
100
AcDbEntity
  8
0
  6
CONTINUOUS
 62
               7
100
AcDbCircle
 10
2.9000000000000128
 20
13.300000167936048
 30
0.0
 40
0.875
  0
CIRCLE
  5
2B6
100
AcDbEntity
  8
0
  6
CONTINUOUS
 62
               7
100
AcDbCircle
 10
-2.8999999999999879
 20
13.300000000000011
 30
0.0
 40
0.875
  0
LINE
  5
2B7
100
AcDbEntity
  8
0
  6
CONTINUOUS
 62
               7
100
AcDbLine
 10
-1.4999999999999964
 20
5.0
 30
0.0
 11
-1.4999999999999964
 21
0.0
 31
0.0
  0
LINE
  5
2B8
100
AcDbEntity
  8
0
  6
CONTINUOUS
 62
               7
100
AcDbLine
 10
1.5000000000000071
 20
5.0
 30
0.0
 11
1.5
 21
0.0
 31
0.0
  0
LINE
  5
2B9
100
AcDbEntity
  8
0
  6
CONTINUOUS
 62
               7
100
AcDbLine
 10
1.5000000000000071
 20
5.0
 30
0.0
 11
-1.4999999999999964
 21
5.0
 31
0.0
  0
ARC
  5
2BA
100
AcDbEntity
  8
0
  6
CONTINUOUS
 62
               7
100
AcDbCircle
 10
-2.8999999999999879
 20
13.300000000000011
 30
0.0
 40
2.0000000881710069
100
AcDbArc
 50
89.999999999999815
 51
269.99999999999937
  0
ARC
  5
2BB
100
AcDbEntity
  8
0
  6
CONTINUOUS
 62
               7
100
AcDbCircle
 10
2.9000000000000128
 20
13.300000000000011
 30
0.0
 40
2.0000000881710069
100
AcDbArc
 50
270.00000000000023
 51
89.999999999999801
  0
LINE
  5
2BC
100
AcDbEntity
  8
0
  6
CONTINUOUS
 62
               7
100
AcDbLine
 10
-2.8999999999999879
 20
15.300000000000011
 30
0.0
 11
2.9000000000000128
 21
15.300000000000011
 31
0.0
  0
LINE
  5
2BD
100
AcDbEntity
  8
0
  6
CONTINUOUS
 62
               7
100
AcDbLine
 10
-2.8999999999999879
 20
11.300000000000011
 30
0.0
 11
2.9000000000000128
 21
11.300000000000011
 31
0.0
  0
LINE
  5
2BE
100
AcDbEntity
  8
0
  6
CONTINUOUS
 62
               7
100
AcDbLine
 10
-1.8255136263528655
 20
22.050000000000011
 30
0.0
 11
1.8255136263528797
 21
22.050000000000011
 31
0.0
  0
LINE
  5
2BF
100
AcDbEntity
  8
0
  6
CONTINUOUS
 62
               7
100
AcDbLine
 10
-1.8255136263528584
 20
21.449999999999989
 30
0.0
 11
1.8255136263528797
 21
21.449999999999989
 31
0.0
  0
CIRCLE
  5
2C0
100
AcDbEntity
  8
0
  6
CONTINUOUS
 62
               7
100
AcDbCircle
 10
0.0000000000000071
 20
21.75
 30
0.0
 40
1.8500000000000001
  0
ARC
  5
2C1
100
AcDbEntity
  8
0
  6
CONTINUOUS
 62
               7
100
AcDbCircle
 10
0.0000000000000071
 20
21.75
 30
0.0
 40
0.8
100
AcDbArc
 50
202.02431283704175
 51
337.97568716295712
  0
ARC
  5
2C2
100
AcDbEntity
  8
0
  6
CONTINUOUS
 62
               7
100
AcDbCircle
 10
0.0000000000000071
 20
21.75
 30
0.0
 40
0.8
100
AcDbArc
 50
22.024312837042157
 51
157.97568716295754
  0
CIRCLE
  5
2C3
100
AcDbEntity
  8
0
  6
CONTINUOUS
 62
               7
100
AcDbCircle
 10
3.5000000000000071
 20
23.5
 30
0.0
 40
1.5
  0
LINE
  5
2C4
100
AcDbEntity
  8
0
  6
CONTINUOUS
 62
               7
100
AcDbLine
 10
4.2071067811865603
 20
24.207106781186553
 30
0.0
 11
2.7928932188134539
 21
22.792893218813447
 31
0.0
  0
LINE
  5
2C5
100
AcDbEntity
  8
0
  6
CONTINUOUS
 62
               7
100
AcDbLine
 10
4.2071067811865603
 20
22.792893218813447
 30
0.0
 11
2.7928932188134539
 21
24.207106781186553
 31
0.0
  0
LINE
  5
2C6
100
AcDbEntity
  8
0
  6
CONTINUOUS
 62
               7
100
AcDbLine
 10
-4.2071067811865461
 20
22.792893218813447
 30
0.0
 11
-2.7928932188134397
 21
24.207106781186553
 31
0.0
  0
LINE
  5
2C7
100
AcDbEntity
  8
0
  6
CONTINUOUS
 62
               7
100
AcDbLine
 10
-4.2071067811865461
 20
24.207106781186553
 30
0.0
 11
-2.7928932188134397
 21
22.792893218813447
 31
0.0
  0
CIRCLE
  5
2C8
100
AcDbEntity
  8
0
  6
CONTINUOUS
 62
               7
100
AcDbCircle
 10
-3.4999999999999929
 20
23.5
 30
0.0
 40
1.5
  0
LINE
  5
2C9
100
AcDbEntity
  8
0
  6
CONTINUOUS
 62
               7
100
AcDbLine
 10
-4.9999999999999929
 20
32.0
 30
0.0
 11
5.0000000000000071
 21
32.0
 31
0.0
  0
LINE
  5
2CA
100
AcDbEntity
  8
0
  6
CONTINUOUS
 62
               7
100
AcDbLine
 10
5.0000000000000071
 20
17.5
 30
0.0
 11
5.0000000000000071
 21
32.0
 31
0.0
  0
LINE
  5
2CB
100
AcDbEntity
  8
0
  6
CONTINUOUS
 62
               7
100
AcDbLine
 10
-4.9999999999999929
 20
17.5
 30
0.0
 11
-4.9999999999999929
 21
32.0
 31
0.0
  0
LINE
  5
2CC
100
AcDbEntity
  8
0
  6
CONTINUOUS
 62
               7
100
AcDbLine
 10
-2.3943704061238904
 20
40.459182548228711
 30
0.0
 11
-2.6499999999999986
 21
40.899999999999892
 31
0.0
  0
LINE
  5
2CD
100
AcDbEntity
  8
0
  6
CONTINUOUS
 62
               7
100
AcDbLine
 10
2.6500000000000128
 20
40.899999999999892
 30
0.0
 11
2.3943704061239046
 21
40.459182548228739
 31
0.0
  0
LINE
  5
2CE
100
AcDbEntity
  8
0
  6
CONTINUOUS
 62
               7
100
AcDbLine
 10
-1.1443704061238904
 20
41.709182548228739
 30
0.0
 11
-1.3999999999999986
 21
42.149999999999864
 31
0.0
  0
LINE
  5
2CF
100
AcDbEntity
  8
0
  6
CONTINUOUS
 62
               7
100
AcDbLine
 10
-2.6499999999999986
 20
40.899999999999892
 30
0.0
 11
-1.3999999999999986
 21
42.149999999999864
 31
0.0
  0
LINE
  5
2D0
100
AcDbEntity
  8
0
  6
CONTINUOUS
 62
               7
100
AcDbLine
 10
-1.1443704061238904
 20
41.709182548228739
 30
0.0
 11
-2.3943704061238904
 21
40.459182548228711
 31
0.0
  0
LINE
  5
2D1
100
AcDbEntity
  8
0
  6
CONTINUOUS
 62
               7
100
AcDbLine
 10
1.1443704061239046
 20
41.709182548228739
 30
0.0
 11
1.4000000000000128
 21
42.149999999999864
 31
0.0
  0
LINE
  5
2D2
100
AcDbEntity
  8
0
  6
CONTINUOUS
 62
               7
100
AcDbLine
 10
5.0000000000000071
 20
47.590817451771045
 30
0.0
 11
-4.9999999999999929
 21
47.590817451771045
 31
0.0
  0
LINE
  5
2D3
100
AcDbEntity
  8
0
  6
CONTINUOUS
 62
               7
100
AcDbLine
 10
1.1443704061239046
 20
41.709182548228739
 30
0.0
 11
2.3943704061239046
 21
40.459182548228739
 31
0.0
  0
LINE
  5
2D4
100
AcDbEntity
  8
0
  6
CONTINUOUS
 62
               7
100
AcDbLine
 10
5.0000000000000071
 20
40.459182548228739
 30
0.0
 11
2.3943704061239046
 21
40.459182548228739
 31
0.0
  0
LINE
  5
2D5
100
AcDbEntity
  8
0
  6
CONTINUOUS
 62
               7
100
AcDbLine
 10
-2.3943704061238904
 20
40.459182548228711
 30
0.0
 11
-4.9999999999999929
 21
40.459182548228711
 31
0.0
  0
LINE
  5
2D6
100
AcDbEntity
  8
0
  6
CONTINUOUS
 62
               7
100
AcDbLine
 10
-1.1443704061238904
 20
41.709182548228739
 30
0.0
 11
1.1443704061239046
 21
41.709182548228739
 31
0.0
  0
LINE
  5
2D7
100
AcDbEntity
  8
0
  6
CONTINUOUS
 62
               7
100
AcDbLine
 10
5.0000000000000355
 20
40.899999999999892
 30
0.0
 11
2.6500000000000128
 21
40.899999999999892
 31
0.0
  0
LINE
  5
2D8
100
AcDbEntity
  8
0
  6
CONTINUOUS
 62
               7
100
AcDbLine
 10
2.6500000000000128
 20
40.899999999999892
 30
0.0
 11
1.4000000000000128
 21
42.149999999999864
 31
0.0
  0
LINE
  5
2D9
100
AcDbEntity
  8
0
  6
CONTINUOUS
 62
               7
100
AcDbLine
 10
-1.3999999999999986
 20
42.149999999999864
 30
0.0
 11
1.4000000000000128
 21
42.149999999999864
 31
0.0
  0
LINE
  5
2DA
100
AcDbEntity
  8
0
  6
CONTINUOUS
 62
               7
100
AcDbLine
 10
-2.6499999999999986
 20
40.899999999999892
 30
0.0
 11
-4.9999999999999929
 21
40.899999999999892
 31
0.0
  0
CIRCLE
  5
2DB
100
AcDbEntity
  8
0
  6
CONTINUOUS
 62
               7
100
AcDbCircle
 10
0.0000000000000071
 20
44.749999999999886
 30
0.0
 40
2.0500000000000003
  0
LINE
  5
2DC
100
AcDbEntity
  8
0
  6
CONTINUOUS
 62
               7
100
AcDbLine
 10
-4.9999999999999929
 20
48.401921563029987
 30
0.0
 11
5.0000000000000071
 21
48.401921563029987
 31
0.0
  0
LINE
  5
2DD
100
AcDbEntity
  8
0
  6
CONTINUOUS
 62
               7
100
AcDbLine
 10
5.0000000000000071
 20
48.899999999999864
 30
0.0
 11
-4.9999999999999929
 21
48.899999999999864
 31
0.0
  0
LINE
  5
2DE
100
AcDbEntity
  8
0
  6
CONTINUOUS
 62
               7
100
AcDbLine
 10
3.5000000000000071
 20
44.599999999999909
 30
0.0
 11
5.0000000000000071
 21
44.599999999999909
 31
0.0
  0
LINE
  5
2DF
100
AcDbEntity
  8
0
  6
CONTINUOUS
 62
               7
100
AcDbLine
 10
5.0000000000000071
 20
41.399999999999864
 30
0.0
 11
3.5000000000000071
 21
41.399999999999864
 31
0.0
  0
LINE
  5
2E0
100
AcDbEntity
  8
0
  6
CONTINUOUS
 62
               7
100
AcDbLine
 10
-3.4999999999999929
 20
41.399999999999864
 30
0.0
 11
-4.9999999999999929
 21
41.399999999999864
 31
0.0
  0
LINE
  5
2E1
100
AcDbEntity
  8
0
  6
CONTINUOUS
 62
               7
100
AcDbLine
 10
-4.9999999999999929
 20
44.599999999999909
 30
0.0
 11
-3.4999999999999929
 21
44.599999999999909
 31
0.0
  0
ARC
  5
2E2
100
AcDbEntity
  8
0
  6
CONTINUOUS
 62
               7
100
AcDbCircle
 10
-3.4999999999999929
 20
42.999999999999886
 30
0.0
 40
1.6000000000000001
100
AcDbArc
 50
270.00000000000023
 51
89.999999999999844
  0
ARC
  5
2E3
100
AcDbEntity
  8
0
  6
CONTINUOUS
 62
               7
100
AcDbCircle
 10
3.5000000000000071
 20
42.999999999999886
 30
0.0
 40
1.6000000000000001
100
AcDbArc
 50
89.999999999999815
 51
269.99999999999937
  0
LINE
  5
2E4
100
AcDbEntity
  8
0
  6
CONTINUOUS
 62
               7
100
AcDbLine
 10
-4.9999999999999929
 20
66.199999999999875
 30
0.0
 11
-4.9999999999999929
 21
48.999999999999886
 31
0.0
  0
LINE
  5
2E5
100
AcDbEntity
  8
0
  6
CENTER
 62
               2
100
AcDbLine
 10
2.5000000000000071
 20
44.749999999999886
 30
0.0
 11
-2.4999999999999929
 21
44.749999999999886
 31
0.0
  0
LINE
  5
2E6
100
AcDbEntity
  8
0
  6
CONTINUOUS
 62
               7
100
AcDbLine
 10
5.0000000000000071
 20
66.199999999999875
 30
0.0
 11
5.0000000000000071
 21
48.999999999999886
 31
0.0
  0
CIRCLE
  5
2E7
100
AcDbEntity
  8
0
  6
CONTINUOUS
 62
               7
100
AcDbCircle
 10
0.0000000000000071
 20
44.749999999999886
 30
0.0
 40
1.9000000000000001
  0
LINE
  5
2E8
100
AcDbEntity
  8
0
  6
CONTINUOUS
 62
               7
100
AcDbLine
 10
-4.7000000000000099
 20
66.499999999999886
 30
0.0
 11
4.6999999999999957
 21
66.499999999999886
 31
0.0
  0
LINE
  5
2E9
100
AcDbEntity
  8
0
  6
CONTINUOUS
 62
               7
100
AcDbLine
 10
5.0000000033238123
 20
48.999999999999886
 30
0.0
 11
-4.9999999966761877
 21
48.999999999999886
 31
0.0
  0
ARC
  5
2EA
100
AcDbEntity
  8
0
  6
CONTINUOUS
 62
               7
100
AcDbCircle
 10
-4.7000000000000099
 20
66.199999999999875
 30
0.0
 40
0.3
100
AcDbArc
 50
89.999999999999829
 51
179.99999999999963
  0
ARC
  5
2EB
100
AcDbEntity
  8
0
  6
CONTINUOUS
 62
               7
100
AcDbCircle
 10
4.6999999999999957
 20
66.199999999999875
 30
0.0
 40
0.3
100
AcDbArc
 50
0.0000000000000254
 51
89.999999999999829
  0
CIRCLE
  5
2EC
100
AcDbEntity
  8
0
  6
CONTINUOUS
 62
               7
100
AcDbCircle
 10
-2.8999999999999986
 20
53.199999832063838
 30
0.0
 40
0.875
  0
CIRCLE
  5
2ED
100
AcDbEntity
  8
0
  6
CONTINUOUS
 62
               7
100
AcDbCircle
 10
2.8999999999999986
 20
53.199999999999875
 30
0.0
 40
0.875
  0
LINE
  5
2EE
100
AcDbEntity
  8
0
  6
CONTINUOUS
 62
               7
100
AcDbLine
 10
1.5000000000000071
 20
61.499999999999886
 30
0.0
 11
1.5000000000000071
 21
66.499999999999886
 31
0.0
  0
LINE
  5
2EF
100
AcDbEntity
  8
0
  6
CONTINUOUS
 62
               7
100
AcDbLine
 10
-1.4999999999999929
 20
61.499999999999886
 30
0.0
 11
-1.4999999999999929
 21
66.499999999999886
 31
0.0
  0
LINE
  5
2F0
100
AcDbEntity
  8
0
  6
CONTINUOUS
 62
               7
100
AcDbLine
 10
-1.4999999999999929
 20
61.499999999999886
 30
0.0
 11
1.5000000000000071
 21
61.499999999999886
 31
0.0
  0
ARC
  5
2F1
100
AcDbEntity
  8
0
  6
CONTINUOUS
 62
               7
100
AcDbCircle
 10
2.8999999999999986
 20
53.199999999999875
 30
0.0
 40
2.0000000881710069
100
AcDbArc
 50
270.00000000000023
 51
89.999999999999844
  0
ARC
  5
2F2
100
AcDbEntity
  8
0
  6
CONTINUOUS
 62
               7
100
AcDbCircle
 10
-2.8999999999999986
 20
53.199999999999875
 30
0.0
 40
2.0000000881710069
100
AcDbArc
 50
89.999999999999815
 51
269.99999999999937
  0
LINE
  5
2F3
100
AcDbEntity
  8
0
  6
CONTINUOUS
 62
               7
100
AcDbLine
 10
2.8999999999999986
 20
51.199999999999875
 30
0.0
 11
-2.8999999999999986
 21
51.199999999999875
 31
0.0
  0
LINE
  5
2F4
100
AcDbEntity
  8
0
  6
CONTINUOUS
 62
               7
100
AcDbLine
 10
2.8999999999999986
 20
55.199999999999875
 30
0.0
 11
-2.8999999999999986
 21
55.199999999999875
 31
0.0
  0
LINE
  5
2F5
100
AcDbEntity
  8
0
  6
CONTINUOUS
 62
               7
100
AcDbLine
 10
1.8255136263528797
 20
44.449999999999875
 30
0.0
 11
-1.8255136263528655
 21
44.449999999999875
 31
0.0
  0
LINE
  5
2F6
100
AcDbEntity
  8
0
  6
CONTINUOUS
 62
               7
100
AcDbLine
 10
1.8255136263528726
 20
45.049999999999898
 30
0.0
 11
-1.8255136263528655
 21
45.049999999999898
 31
0.0
  0
CIRCLE
  5
2F7
100
AcDbEntity
  8
0
  6
CONTINUOUS
 62
               7
100
AcDbCircle
 10
0.0000000000000071
 20
44.749999999999886
 30
0.0
 40
1.8500000000000001
  0
ARC
  5
2F8
100
AcDbEntity
  8
0
  6
CONTINUOUS
 62
               7
100
AcDbCircle
 10
0.0000000000000071
 20
44.749999999999886
 30
0.0
 40
0.8
100
AcDbArc
 50
22.024312837042132
 51
157.97568716295751
  0
ARC
  5
2F9
100
AcDbEntity
  8
0
  6
CONTINUOUS
 62
               7
100
AcDbCircle
 10
0.0000000000000071
 20
44.749999999999886
 30
0.0
 40
0.8
100
AcDbArc
 50
202.02431283704175
 51
337.97568716295712
  0
CIRCLE
  5
2FA
100
AcDbEntity
  8
0
  6
CONTINUOUS
 62
               7
100
AcDbCircle
 10
-3.4999999999999929
 20
42.999999999999886
 30
0.0
 40
1.5
  0
LINE
  5
2FB
100
AcDbEntity
  8
0
  6
CONTINUOUS
 62
               7
100
AcDbLine
 10
-4.2071067811865461
 20
42.292893218813333
 30
0.0
 11
-2.7928932188134397
 21
43.70710678118644
 31
0.0
  0
LINE
  5
2FC
100
AcDbEntity
  8
0
  6
CONTINUOUS
 62
               7
100
AcDbLine
 10
-4.2071067811865461
 20
43.70710678118644
 30
0.0
 11
-2.7928932188134397
 21
42.292893218813333
 31
0.0
  0
LINE
  5
2FD
100
AcDbEntity
  8
0
  6
CONTINUOUS
 62
               7
100
AcDbLine
 10
4.2071067811865603
 20
43.70710678118644
 30
0.0
 11
2.7928932188134539
 21
42.292893218813333
 31
0.0
  0
LINE
  5
2FE
100
AcDbEntity
  8
0
  6
CONTINUOUS
 62
               7
100
AcDbLine
 10
4.2071067811865603
 20
42.292893218813333
 30
0.0
 11
2.7928932188134539
 21
43.70710678118644
 31
0.0
  0
CIRCLE
  5
2FF
100
AcDbEntity
  8
0
  6
CONTINUOUS
 62
               7
100
AcDbCircle
 10
3.5000000000000071
 20
42.999999999999886
 30
0.0
 40
1.5
  0
LINE
  5
300
100
AcDbEntity
  8
0
  6
CONTINUOUS
 62
               7
100
AcDbLine
 10
5.0000000000000071
 20
34.499999999999886
 30
0.0
 11
-4.9999999999999929
 21
34.499999999999886
 31
0.0
  0
LINE
  5
301
100
AcDbEntity
  8
0
  6
CONTINUOUS
 62
               7
100
AcDbLine
 10
-4.9999999999999929
 20
48.999999999999886
 30
0.0
 11
-4.9999999999999929
 21
34.499999999999886
 31
0.0
  0
LINE
  5
302
100
AcDbEntity
  8
0
  6
CONTINUOUS
 62
               7
100
AcDbLine
 10
5.0000000000000071
 20
48.999999999999886
 30
0.0
 11
5.0000000000000071
 21
34.499999999999886
 31
0.0
  0
LINE
  5
303
100
AcDbEntity
  8
0
  6
CONTINUOUS
 62
               7
100
AcDbLine
 10
4.5000000000000071
 20
66.499999999999886
 30
0.0
 11
4.5000000000000071
 21
76.270596614320993
 31
0.0
  0
LINE
  5
304
100
AcDbEntity
  8
0
  6
CONTINUOUS
 62
               7
100
AcDbLine
 10
-0.4999999999999931
 20
69.044181962474809
 30
0.0
 11
-0.4999999999999931
 21
78.162488506212867
 31
0.0
  0
LINE
  5
305
100
AcDbEntity
  8
0
  6
CONTINUOUS
 62
               7
100
AcDbLine
 10
4.5000000000000071
 20
82.934434807571961
 30
0.0
 11
4.5000000000000071
 21
77.270596614320993
 31
0.0
  0
LINE
  5
306
100
AcDbEntity
  8
0
  6
CONTINUOUS
 62
               7
100
AcDbLine
 10
-0.4999999999999931
 20
82.934434807571961
 30
0.0
 11
-0.4999999999999931
 21
79.162488506212867
 31
0.0
  0
LINE
  5
307
100
AcDbEntity
  8
0
  6
CONTINUOUS
 62
               2
100
AcDbLine
 10
-1.7519181748148116
 20
79.636187275061729
 30
0.0
 11
5.9686832987654341
 21
76.714878609382708
 31
0.0
  0
LINE
  5
308
100
AcDbEntity
  8
0
  6
CONTINUOUS
 62
               7
100
AcDbLine
 10
0.1000000000000296
 20
86.5
 30
0.0
 11
0.1000000000000296
 21
91.5
 31
0.0
  0
LINE
  5
309
100
AcDbEntity
  8
0
  6
CONTINUOUS
 62
               7
100
AcDbLine
 10
0.8999999999999842
 20
86.5
 30
0.0
 11
0.8999999999999842
 21
91.5
 31
0.0
  0
LINE
  5
30A
100
AcDbEntity
  8
0
  6
CONTINUOUS
 62
               7
100
AcDbLine
 10
1.1000000000000296
 20
86.5
 30
0.0
 11
1.1000000000000296
 21
91.5
 31
0.0
  0
LINE
  5
30B
100
AcDbEntity
  8
0
  6
CONTINUOUS
 62
               7
100
AcDbLine
 10
1.8999999999999841
 20
86.5
 30
0.0
 11
1.8999999999999841
 21
91.5
 31
0.0
  0
LINE
  5
30C
100
AcDbEntity
  8
0
  6
CONTINUOUS
 62
               7
100
AcDbLine
 10
2.1000000000000298
 20
86.5
 30
0.0
 11
2.1000000000000298
 21
91.5
 31
0.0
  0
LINE
  5
30D
100
AcDbEntity
  8
0
  6
CONTINUOUS
 62
               7
100
AcDbLine
 10
2.8999999999999844
 20
86.5
 30
0.0
 11
2.8999999999999844
 21
91.5
 31
0.0
  0
LINE
  5
30E
100
AcDbEntity
  8
0
  6
CONTINUOUS
 62
               7
100
AcDbLine
 10
3.1000000000000298
 20
86.5
 30
0.0
 11
3.1000000000000298
 21
91.5
 31
0.0
  0
LINE
  5
30F
100
AcDbEntity
  8
0
  6
CONTINUOUS
 62
               7
100
AcDbLine
 10
3.8999999999999844
 20
86.5
 30
0.0
 11
3.8999999999999844
 21
91.5
 31
0.0
  0
LINE
  5
310
100
AcDbEntity
  8
0
  6
CONTINUOUS
 62
               7
100
AcDbLine
 10
-0.4999999999999931
 20
82.934434807571961
 30
0.0
 11
4.5000000000000071
 21
82.934434807571961
 31
0.0
  0
LINE
  5
311
100
AcDbEntity
  8
0
  6
CONTINUOUS
 62
               7
100
AcDbLine
 10
4.2149999999999253
 20
86.5
 30
0.0
 11
-0.215000000000025
 21
86.5
 31
0.0
  0
LINE
  5
312
100
AcDbEntity
  8
0
  6
CONTINUOUS
 62
               7
100
AcDbLine
 10
4.2149999999999253
 20
82.934434807571961
 30
0.0
 11
4.2149999999999253
 21
86.5
 31
0.0
  0
LINE
  5
313
100
AcDbEntity
  8
0
  6
CONTINUOUS
 62
               7
100
AcDbLine
 10
2.7849999999999753
 20
82.934434807571961
 30
0.0
 11
2.7849999999999753
 21
86.5
 31
0.0
  0
LINE
  5
314
100
AcDbEntity
  8
0
  6
CONTINUOUS
 62
               7
100
AcDbLine
 10
1.7849999999999751
 20
82.934434807571961
 30
0.0
 11
1.7849999999999751
 21
86.5
 31
0.0
  0
LINE
  5
315
100
AcDbEntity
  8
0
  6
CONTINUOUS
 62
               7
100
AcDbLine
 10
0.7849999999999751
 20
82.934434807571961
 30
0.0
 11
0.7849999999999751
 21
86.5
 31
0.0
  0
LINE
  5
316
100
AcDbEntity
  8
0
  6
CONTINUOUS
 62
               7
100
AcDbLine
 10
-0.215000000000025
 20
82.934434807571961
 30
0.0
 11
-0.215000000000025
 21
86.5
 31
0.0
  0
LINE
  5
317
100
AcDbEntity
  8
0
  6
CONTINUOUS
 62
               7
100
AcDbLine
 10
3.8999999999999844
 20
91.5
 30
0.0
 11
3.1000000000000298
 21
91.5
 31
0.0
  0
LINE
  5
318
100
AcDbEntity
  8
0
  6
CONTINUOUS
 62
               7
100
AcDbLine
 10
2.8999999999999844
 20
91.5
 30
0.0
 11
2.1000000000000298
 21
91.5
 31
0.0
  0
LINE
  5
319
100
AcDbEntity
  8
0
  6
CONTINUOUS
 62
               7
100
AcDbLine
 10
1.8999999999999841
 20
91.5
 30
0.0
 11
1.1000000000000296
 21
91.5
 31
0.0
  0
LINE
  5
31A
100
AcDbEntity
  8
0
  6
CONTINUOUS
 62
               7
100
AcDbLine
 10
0.8999999999999842
 20
91.5
 30
0.0
 11
0.1000000000000296
 21
91.5
 31
0.0
  0
LINE
  5
31B
100
AcDbEntity
  8
0
  6
CONTINUOUS
 62
               2
100
AcDbLine
 10
-1.7519181748148116
 20
78.636187275061729
 30
0.0
 11
5.9686832987654341
 21
75.714878609382708
 31
0.0
  0
LINE
  5
31C
100
AcDbEntity
  8
0
  6
CONTINUOUS
 62
               7
100
AcDbLine
 10
-5.1000000238418579
 20
55.0
 30
0.0
 11
-4.9999999999999929
 21
55.0
 31
0.0
  0
LINE
  5
31D
100
AcDbEntity
  8
0
  6
CONTINUOUS
 62
               7
100
AcDbLine
 10
5.0000000000000071
 20
55.0
 30
0.0
 11
5.1000000238418579
 21
55.0
 31
0.0
  0
LINE
  5
31E
100
AcDbEntity
  8
0
  6
CONTINUOUS
 62
               7
100
AcDbLine
 10
-3.1000000000000156
 20
68.544181962474809
 30
0.0
 11
-3.1000000000000156
 21
66.499999999999886
 31
0.0
  0
LINE
  5
31F
100
AcDbEntity
  8
0
  6
CONTINUOUS
 62
               7
100
AcDbLine
 10
1.8999999999999841
 20
68.544181962474809
 30
0.0
 11
-3.1000000000000156
 21
68.544181962474809
 31
0.0
  0
LINE
  5
320
100
AcDbEntity
  8
0
  6
CONTINUOUS
 62
               7
100
AcDbLine
 10
-2.6000000000000156
 20
69.044181962474809
 30
0.0
 11
1.3999999999999841
 21
69.044181962474809
 31
0.0
  0
LINE
  5
321
100
AcDbEntity
  8
0
  6
CONTINUOUS
 62
               7
100
AcDbLine
 10
-3.1000000000000156
 20
68.544181962474809
 30
0.0
 11
-2.6000000000000156
 21
69.044181962474809
 31
0.0
  0
LINE
  5
322
100
AcDbEntity
  8
0
  6
CONTINUOUS
 62
               7
100
AcDbLine
 10
1.8999999999999841
 20
68.544181962474809
 30
0.0
 11
1.8999999999999841
 21
66.499999999999886
 31
0.0
  0
LINE
  5
323
100
AcDbEntity
  8
0
  6
CONTINUOUS
 62
               7
100
AcDbLine
 10
1.8999999999999841
 20
68.544181962474809
 30
0.0
 11
1.3999999999999841
 21
69.044181962474809
 31
0.0
  0
ENDBLK
  5
324
100
AcDbEntity
  8
0
100
AcDbBlockEnd
  0
BLOCK
  5
325
100
AcDbEntity
  8
0
100
AcDbBlockBegin
  2
MV030MAS-11-8
 70
               0
 10
0.0
 20
0.0
 30
0.0
  3
MV030MAS-11-8
  1

  0
LINE
  5
326
100
AcDbEntity
  8
0
  6
CONTINUOUS
 62
               7
100
AcDbLine
 10
20.5
 20
0.0
 30
0.0
 11
66.500000000000171
 21
0.0
 31
0.0
  0
LINE
  5
327
100
AcDbEntity
  8
0
  6
CONTINUOUS
 62
               7
100
AcDbLine
 10
4.5
 20
1.8000000000000114
 30
0.0
 11
4.5
 21
0.0
 31
0.0
  0
LINE
  5
328
100
AcDbEntity
  8
0
  6
CENTER
 62
             200
100
AcDbLine
 10
16.5
 20
2.3167404597447785
 30
0.0
 11
16.5
 21
9.437462670352943
 31
0.0
  0
LINE
  5
329
100
AcDbEntity
  8
0
  6
CENTER
 62
             200
100
AcDbLine
 10
13.036887094591918
 20
6.0
 30
0.0
 11
19.864403096527951
 21
6.0
 31
0.0
  0
LINE
  5
32A
100
AcDbEntity
  8
0
  6
CENTER
 62
             200
100
AcDbLine
 10
9.9372786029153986
 20
6.0
 30
0.0
 11
2.7327831898294903
 21
6.0
 31
0.0
  0
LINE
  5
32B
100
AcDbEntity
  8
0
  6
CENTER
 62
             200
100
AcDbLine
 10
6.5
 20
2.3167404597447785
 30
0.0
 11
6.5
 21
9.437462670352943
 31
0.0
  0
LINE
  5
32C
100
AcDbEntity
  8
0
  6
CENTER
 62
             200
100
AcDbLine
 10
0.0
 20
-1.6999999999999886
 30
0.0
 11
0.0
 21
3.3000000000000114
 31
0.0
  0
LINE
  5
32D
100
AcDbEntity
  8
0
  6
CONTINUOUS
 62
               4
100
AcDbLine
 10
6.5
 20
0.0
 30
0.0
 11
20.5
 21
0.0
 31
0.0
  0
CIRCLE
  5
32E
100
AcDbEntity
  8
0
  6
CONTINUOUS
 62
               4
100
AcDbCircle
 10
16.5
 20
6.0
 30
0.0
 40
2.450000000000002
  0
CIRCLE
  5
32F
100
AcDbEntity
  8
0
  6
CONTINUOUS
 62
               4
100
AcDbCircle
 10
16.5
 20
6.0
 30
0.0
 40
2.75
  0
LINE
  5
330
100
AcDbEntity
  8
0
  6
CONTINUOUS
 62
               4
100
AcDbLine
 10
15.25
 20
5.2783121466636658
 30
0.0
 11
15.25
 21
6.7216878533363342
 31
0.0
  0
LINE
  5
331
100
AcDbEntity
  8
0
  6
CONTINUOUS
 62
               4
100
AcDbLine
 10
17.75
 20
5.2783121466636658
 30
0.0
 11
17.75
 21
6.7216878257524399
 31
0.0
  0
LINE
  5
332
100
AcDbEntity
  8
0
  6
CONTINUOUS
 62
               4
100
AcDbLine
 10
17.749999989958724
 20
6.7216878235340118
 30
0.0
 11
16.499999960156401
 21
7.4433756768703461
 31
0.0
  0
LINE
  5
333
100
AcDbEntity
  8
0
  6
CONTINUOUS
 62
               4
100
AcDbLine
 10
16.499999930354079
 20
4.5566243529319763
 30
0.0
 11
15.250000019761046
 21
5.2783121466636658
 31
0.0
  0
LINE
  5
334
100
AcDbEntity
  8
0
  6
CONTINUOUS
 62
               4
100
AcDbLine
 10
16.499999930354079
 20
7.4433756470680237
 30
0.0
 11
15.25
 21
6.7216878507910565
 31
0.0
  0
LINE
  5
335
100
AcDbEntity
  8
0
  6
CONTINUOUS
 62
               4
100
AcDbLine
 10
17.750000019761046
 20
5.2783122062683105
 30
0.0
 11
16.499999900551757
 21
4.5566242933273315
 31
0.0
  0
CIRCLE
  5
336
100
AcDbEntity
  8
0
  6
CONTINUOUS
 62
               4
100
AcDbCircle
 10
6.5
 20
6.0
 30
0.0
 40
2.450000000000002
  0
CIRCLE
  5
337
100
AcDbEntity
  8
0
  6
CONTINUOUS
 62
               4
100
AcDbCircle
 10
6.5
 20
6.0
 30
0.0
 40
2.75
  0
LINE
  5
338
100
AcDbEntity
  8
0
  6
CONTINUOUS
 62
               4
100
AcDbLine
 10
5.25
 20
5.2783121466636658
 30
0.0
 11
5.25
 21
6.7216878533363342
 31
0.0
  0
LINE
  5
339
100
AcDbEntity
  8
0
  6
CONTINUOUS
 62
               4
100
AcDbLine
 10
7.75
 20
5.2783121466636658
 30
0.0
 11
7.75
 21
6.7216878257524399
 31
0.0
  0
LINE
  5
33A
100
AcDbEntity
  8
0
  6
CONTINUOUS
 62
               4
100
AcDbLine
 10
7.7499999899587237
 20
6.7216878235340118
 30
0.0
 11
6.4999999601564014
 21
7.4433756768703461
 31
0.0
  0
LINE
  5
33B
100
AcDbEntity
  8
0
  6
CONTINUOUS
 62
               4
100
AcDbLine
 10
6.499999930354079
 20
4.5566243529319763
 30
0.0
 11
5.2500000197610461
 21
5.2783121466636658
 31
0.0
  0
LINE
  5
33C
100
AcDbEntity
  8
0
  6
CONTINUOUS
 62
               4
100
AcDbLine
 10
6.499999930354079
 20
7.4433756470680237
 30
0.0
 11
5.25
 21
6.7216878507910565
 31
0.0
  0
LINE
  5
33D
100
AcDbEntity
  8
0
  6
CONTINUOUS
 62
               4
100
AcDbLine
 10
7.7500000197610461
 20
5.2783122062683105
 30
0.0
 11
6.4999999005517566
 21
4.5566242933273315
 31
0.0
  0
ARC
  5
33E
100
AcDbEntity
  8
0
  6
CONTINUOUS
 62
               4
100
AcDbCircle
 10
6.0
 20
1.3000000000000114
 30
0.0
 40
0.5
100
AcDbArc
 50
0.0
 51
89.999999999999815
  0
ARC
  5
33F
100
AcDbEntity
  8
0
  6
CONTINUOUS
 62
               4
100
AcDbCircle
 10
4.1999999999999886
 20
1.5999999999999659
 30
0.0
 40
0.2
100
AcDbArc
 50
89.999999999999815
 51
179.99999999999963
  0
LINE
  5
340
100
AcDbEntity
  8
0
  6
CONTINUOUS
 62
               4
100
AcDbLine
 10
4.1999999999999886
 20
1.8000000000000114
 30
0.0
 11
6.0
 21
1.8000000000000114
 31
0.0
  0
LINE
  5
341
100
AcDbEntity
  8
0
  6
CONTINUOUS
 62
               4
100
AcDbLine
 10
6.5
 20
1.3000000000000114
 30
0.0
 11
6.5
 21
0.0
 31
0.0
  0
LINE
  5
342
100
AcDbEntity
  8
0
  6
CONTINUOUS
 62
               4
100
AcDbLine
 10
4.0
 20
1.5999999999999659
 30
0.0
 11
4.0
 21
0.0
 31
0.0
  0
ARC
  5
343
100
AcDbEntity
  8
0
  6
CONTINUOUS
 62
               4
100
AcDbCircle
 10
-3.5
 20
0.5
 30
0.0
 40
0.5
100
AcDbArc
 50
179.99999999999963
 51
269.99999999999937
  0
ARC
  5
344
100
AcDbEntity
  8
0
  6
CONTINUOUS
 62
               4
100
AcDbCircle
 10
20.5
 20
0.5
 30
0.0
 40
0.5
100
AcDbArc
 50
269.99999999999937
 51
0.0
  0
ARC
  5
345
100
AcDbEntity
  8
0
  6
CONTINUOUS
 62
               4
100
AcDbCircle
 10
17.0
 20
6.0
 30
0.0
 40
4.0
100
AcDbArc
 50
0.0
 51
89.999999999999815
  0
ARC
  5
346
100
AcDbEntity
  8
0
  6
CONTINUOUS
 62
               4
100
AcDbCircle
 10
0.0
 20
6.0
 30
0.0
 40
4.0
100
AcDbArc
 50
89.999999999999815
 51
179.99999999999963
  0
LINE
  5
347
100
AcDbEntity
  8
0
  6
CONTINUOUS
 62
               4
100
AcDbLine
 10
21.0
 20
6.0
 30
0.0
 11
21.0
 21
0.5
 31
0.0
  0
LINE
  5
348
100
AcDbEntity
  8
0
  6
CONTINUOUS
 62
               4
100
AcDbLine
 10
-3.5
 20
0.0
 30
0.0
 11
4.0
 21
0.0
 31
0.0
  0
LINE
  5
349
100
AcDbEntity
  8
0
  6
CONTINUOUS
 62
               4
100
AcDbLine
 10
0.0
 20
10.0
 30
0.0
 11
17.0
 21
10.0
 31
0.0
  0
LINE
  5
34A
100
AcDbEntity
  8
0
  6
CONTINUOUS
 62
               4
100
AcDbLine
 10
-4.0
 20
6.0
 30
0.0
 11
-4.0
 21
0.5
 31
0.0
  0
LINE
  5
34B
100
AcDbEntity
  8
0
  6
CONTINUOUS
 62
               4
100
AcDbLine
 10
-3.5
 20
1.5999999999999659
 30
0.0
 11
4.0
 21
1.5999999999999659
 31
0.0
  0
ARC
  5
34C
100
AcDbEntity
  8
0
  6
CONTINUOUS
 62
               4
100
AcDbCircle
 10
-3.5
 20
1.0999999999999659
 30
0.0
 40
0.5
100
AcDbArc
 50
89.999999999999815
 51
179.99999999999963
  0
LINE
  5
34D
100
AcDbEntity
  8
0
  6
CONTINUOUS
 62
               7
100
AcDbLine
 10
18.500000000000057
 20
54.999999999999957
 30
0.0
 11
4.5
 21
54.999999999999957
 31
0.0
  0
LINE
  5
34E
100
AcDbEntity
  8
0
  6
CONTINUOUS
 62
               7
100
AcDbLine
 10
4.5
 20
66.499999999999957
 30
0.0
 11
4.5
 21
10.0
 31
0.0
  0
LINE
  5
34F
100
AcDbEntity
  8
0
  6
CONTINUOUS
 62
               7
100
AcDbLine
 10
18.500000000000057
 20
9.7080992435477924
 30
0.0
 11
18.500000000000057
 21
57.999999999999957
 31
0.0
  0
LINE
  5
350
100
AcDbEntity
  8
0
  6
CONTINUOUS
 62
               7
100
AcDbLine
 10
-16.299999999999955
 20
54.299999999999912
 30
0.0
 11
-17.166025403784374
 21
54.799999999999912
 31
0.0
  0
LINE
  5
351
100
AcDbEntity
  8
0
  6
CONTINUOUS
 62
               7
100
AcDbLine
 10
-15.099999999999909
 20
48.999999999999957
 30
0.0
 11
-15.099999999999909
 21
66.200000000000003
 31
0.0
  0
LINE
  5
352
100
AcDbEntity
  8
0
  6
CONTINUOUS
 62
               7
100
AcDbLine
 10
-20.599999999999909
 20
48.999999999999957
 30
0.0
 11
-20.599999999999909
 21
54.299999999999912
 31
0.0
  0
LINE
  5
353
100
AcDbEntity
  8
0
  6
CONTINUOUS
 62
               7
100
AcDbLine
 10
-20.699999999999932
 20
48.999999999999957
 30
0.0
 11
-24.699999999999932
 21
48.999999999999957
 31
0.0
  0
LINE
  5
354
100
AcDbEntity
  8
0
  6
CONTINUOUS
 62
               7
100
AcDbLine
 10
-24.699999999999932
 20
54.099755867204479
 30
0.0
 11
-24.699999999999932
 21
55.299999999999912
 31
0.0
  0
LINE
  5
355
100
AcDbEntity
  8
0
  6
CONTINUOUS
 62
               7
100
AcDbLine
 10
-20.699999999999932
 20
53.609302325581396
 30
0.0
 11
-20.699999999999932
 21
48.999999999999957
 31
0.0
  0
LINE
  5
356
100
AcDbEntity
  8
0
  6
CONTINUOUS
 62
               7
100
AcDbLine
 10
-24.299999999999955
 20
53.799999999999912
 30
0.0
 11
-25.699999999999932
 21
53.799999999999912
 31
0.0
  0
LINE
  5
357
100
AcDbEntity
  8
0
  6
CONTINUOUS
 62
               7
100
AcDbLine
 10
-24.699999999999932
 20
54.099755867204479
 30
0.0
 11
-23.283564090980796
 21
53.849999999999945
 31
0.0
  0
LINE
  5
358
100
AcDbEntity
  8
0
  6
CONTINUOUS
 62
               7
100
AcDbLine
 10
-25.699999999999932
 20
48.499999999999957
 30
0.0
 11
-25.699999999999932
 21
52.949999999999967
 31
0.0
  0
LINE
  5
359
100
AcDbEntity
  8
0
  6
CONTINUOUS
 62
               7
100
AcDbLine
 10
-20.599999999999909
 20
49.700000000000003
 30
0.0
 11
-20.699999999999932
 21
49.700000000000003
 31
0.0
  0
LINE
  5
35A
100
AcDbEntity
  8
0
  6
CONTINUOUS
 62
               7
100
AcDbLine
 10
-23.9886751345947
 20
55.299999999999912
 30
0.0
 11
-24.699999999999932
 21
55.299999999999912
 31
0.0
  0
LINE
  5
35B
100
AcDbEntity
  8
0
  6
CONTINUOUS
 62
               7
100
AcDbLine
 10
-23.699999999999932
 20
54.799999999999912
 30
0.0
 11
-23.9886751345947
 21
55.299999999999912
 31
0.0
  0
LINE
  5
35C
100
AcDbEntity
  8
0
  6
CONTINUOUS
 62
               7
100
AcDbLine
 10
-24.9886751345947
 20
48.499999999999957
 30
0.0
 11
-25.699999999999932
 21
48.499999999999957
 31
0.0
  0
LINE
  5
35D
100
AcDbEntity
  8
0
  6
CONTINUOUS
 62
               7
100
AcDbLine
 10
-24.699999999999932
 20
48.999999999999957
 30
0.0
 11
-24.9886751345947
 21
48.499999999999957
 31
0.0
  0
LINE
  5
35E
100
AcDbEntity
  8
0
  6
CONTINUOUS
 62
               7
100
AcDbLine
 10
-17.166025403784374
 20
54.799999999999912
 30
0.0
 11
-23.699999999999932
 21
54.799999999999912
 31
0.0
  0
LINE
  5
35F
100
AcDbEntity
  8
0
  6
CONTINUOUS
 62
               7
100
AcDbLine
 10
-20.599999999833585
 20
54.299999999999912
 30
0.0
 11
-16.099999999999937
 21
54.299999999999912
 31
0.0
  0
LINE
  5
360
100
AcDbEntity
  8
0
  6
CONTINUOUS
 62
               7
100
AcDbLine
 10
-20.599999999833585
 20
48.999999999999957
 30
0.0
 11
-9.1999999999999318
 21
48.999999999999957
 31
0.0
  0
ARC
  5
361
100
AcDbEntity
  8
0
  6
CONTINUOUS
 62
               7
100
AcDbCircle
 10
-9.5999999999999659
 20
42.000000000000014
 30
0.0
 40
0.5
100
AcDbArc
 50
179.99999999999963
 51
269.99999999999937
  0
ARC
  5
362
100
AcDbEntity
  8
0
  6
CONTINUOUS
 62
               7
100
AcDbCircle
 10
-9.5999999999999659
 20
43.999999999999957
 30
0.0
 40
0.5
100
AcDbArc
 50
89.999999999999815
 51
179.99999999999963
  0
LINE
  5
363
100
AcDbEntity
  8
0
  6
CONTINUOUS
 62
               7
100
AcDbLine
 10
-10.099999999999966
 20
42.000000000000014
 30
0.0
 11
-10.099999999999966
 21
43.999999999999957
 31
0.0
  0
LINE
  5
364
100
AcDbEntity
  8
0
  6
CONTINUOUS
 62
               7
100
AcDbLine
 10
-9.5999999999999659
 20
44.499999999999957
 30
0.0
 11
-9.5
 21
44.499999999999957
 31
0.0
  0
LINE
  5
365
100
AcDbEntity
  8
0
  6
CONTINUOUS
 62
               7
100
AcDbLine
 10
-9.5999999999999659
 20
41.500000000000014
 30
0.0
 11
-9.5
 21
41.500000000000014
 31
0.0
  0
LINE
  5
366
100
AcDbEntity
  8
0
  6
CONTINUOUS
 62
               7
100
AcDbLine
 10
-10.5
 20
41.399999999999991
 30
0.0
 11
-9.5
 21
41.399999999999991
 31
0.0
  0
LINE
  5
367
100
AcDbEntity
  8
0
  6
CONTINUOUS
 62
               7
100
AcDbLine
 10
-10.5
 20
44.600000000000094
 30
0.0
 11
-9.5
 21
44.600000000000094
 31
0.0
  0
LINE
  5
368
100
AcDbEntity
  8
0
  6
CONTINUOUS
 62
               7
100
AcDbLine
 10
-9.5
 20
41.399999999999991
 30
0.0
 11
-9.5
 21
44.600000000000094
 31
0.0
  0
ARC
  5
369
100
AcDbEntity
  8
0
  6
CONTINUOUS
 62
               7
100
AcDbCircle
 10
-14.799999999999955
 20
66.200000000000003
 30
0.0
 40
0.3
100
AcDbArc
 50
89.999999999999773
 51
179.99999999999957
  0
LINE
  5
36A
100
AcDbEntity
  8
0
  6
CONTINUOUS
 62
               7
100
AcDbLine
 10
3.3000000000000682
 20
66.499999999999957
 30
0.0
 11
-14.799999999999955
 21
66.499999999999957
 31
0.0
  0
LINE
  5
36B
100
AcDbEntity
  8
0
  6
CONTINUOUS
 62
               7
100
AcDbLine
 10
-9.1999999999999318
 20
64.999999999999957
 30
0.0
 11
-9.1999999999999886
 21
48.900000000000048
 31
0.0
  0
LINE
  5
36C
100
AcDbEntity
  8
0
  6
CONTINUOUS
 62
               7
100
AcDbLine
 10
3.3000000000000682
 20
66.499999999999957
 30
0.0
 11
3.3000000000000682
 21
64.999999999999957
 31
0.0
  0
LINE
  5
36D
100
AcDbEntity
  8
0
  6
CONTINUOUS
 62
               7
100
AcDbLine
 10
-10.5
 20
40.899999999999991
 30
0.0
 11
-10.5
 21
47.59081745177123
 31
0.0
  0
LINE
  5
36E
100
AcDbEntity
  8
0
  6
CONTINUOUS
 62
               7
100
AcDbLine
 10
-9.1999999999999886
 20
48.900000000000048
 30
0.0
 11
-15.099999999999966
 21
48.900000000000048
 31
0.0
  0
LINE
  5
36F
100
AcDbEntity
  8
0
  6
CONTINUOUS
 62
               7
100
AcDbLine
 10
-10.5
 20
47.59081745177123
 30
0.0
 11
-15.099999999999966
 21
48.401921563030058
 31
0.0
  0
LINE
  5
370
100
AcDbEntity
  8
0
  6
CONTINUOUS
 62
               7
100
AcDbLine
 10
-15.099999999999966
 20
48.401921563030058
 30
0.0
 11
-15.099999999999966
 21
48.900000000000048
 31
0.0
  0
LINE
  5
371
100
AcDbEntity
  8
0
  6
CONTINUOUS
 62
               7
100
AcDbLine
 10
-14.5
 20
48.999999999999957
 30
0.0
 11
-14.5
 21
48.900000000000048
 31
0.0
  0
LINE
  5
372
100
AcDbEntity
  8
0
  6
CONTINUOUS
 62
               7
100
AcDbLine
 10
3.6000000000000227
 20
66.499999999999957
 30
0.0
 11
3.3000000000000682
 21
66.200000000000003
 31
0.0
  0
LINE
  5
373
100
AcDbEntity
  8
0
  6
CONTINUOUS
 62
               7
100
AcDbLine
 10
-9.1999999999999318
 20
64.999999999999957
 30
0.0
 11
3.3000000000000682
 21
64.999999999999957
 31
0.0
  0
LINE
  5
374
100
AcDbEntity
  8
0
  6
CONTINUOUS
 62
               7
100
AcDbLine
 10
-7.0
 20
40.282855567520315
 30
0.0
 11
-10.5
 21
40.899999999999991
 31
0.0
  0
LINE
  5
375
100
AcDbEntity
  8
0
  6
CONTINUOUS
 62
               7
100
AcDbLine
 10
-7.0
 20
34.500000000000014
 30
0.0
 11
-7.0
 21
40.282855567520315
 31
0.0
  0
LINE
  5
376
100
AcDbEntity
  8
0
  6
CONTINUOUS
 62
               7
100
AcDbLine
 10
4.5
 20
66.499999999999957
 30
0.0
 11
3.6000000000000227
 21
66.499999999999957
 31
0.0
  0
LINE
  5
377
100
AcDbEntity
  8
0
  6
CONTINUOUS
 62
               7
100
AcDbLine
 10
4.5
 20
34.500000000000014
 30
0.0
 11
-7.0
 21
34.500000000000014
 31
0.0
  0
LINE
  5
378
100
AcDbEntity
  8
0
  6
CONTINUOUS
 62
               7
100
AcDbLine
 10
-6.2999999999999545
 20
36.000000000000014
 30
0.0
 11
-6.2999999999999545
 21
35.199999999999946
 31
0.0
  0
LINE
  5
379
100
AcDbEntity
  8
0
  6
CONTINUOUS
 62
               7
100
AcDbLine
 10
-6.2999999999999545
 20
36.000000000000014
 30
0.0
 11
0.5
 21
36.000000000000014
 31
0.0
  0
LINE
  5
37A
100
AcDbEntity
  8
0
  6
CONTINUOUS
 62
               7
100
AcDbLine
 10
-6.2999999999999545
 20
35.199999999999946
 30
0.0
 11
0.5
 21
35.199999999999946
 31
0.0
  0
LINE
  5
37B
100
AcDbEntity
  8
0
  6
CONTINUOUS
 62
               7
100
AcDbLine
 10
-6.2999999999999545
 20
31.300000000000082
 30
0.0
 11
1.3000000000000682
 21
31.300000000000082
 31
0.0
  0
LINE
  5
37C
100
AcDbEntity
  8
0
  6
CONTINUOUS
 62
               7
100
AcDbLine
 10
-6.2999999999999545
 20
30.500000000000014
 30
0.0
 11
1.3000000000000682
 21
30.500000000000014
 31
0.0
  0
LINE
  5
37D
100
AcDbEntity
  8
0
  6
CONTINUOUS
 62
               7
100
AcDbLine
 10
-6.2999999999999545
 20
30.500000000000014
 30
0.0
 11
-6.2999999999999545
 21
31.300000000000082
 31
0.0
  0
LINE
  5
37E
100
AcDbEntity
  8
0
  6
CONTINUOUS
 62
               7
100
AcDbLine
 10
1.3000000000000682
 20
31.300000000000082
 30
0.0
 11
1.3000000000000682
 21
30.500000000000014
 31
0.0
  0
LINE
  5
37F
100
AcDbEntity
  8
0
  6
CONTINUOUS
 62
               7
100
AcDbLine
 10
4.5
 20
32.000000000000014
 30
0.0
 11
-7.0
 21
32.000000000000014
 31
0.0
  0
LINE
  5
380
100
AcDbEntity
  8
0
  6
CONTINUOUS
 62
               7
100
AcDbLine
 10
4.5
 20
0.0
 30
0.0
 11
4.0
 21
0.0
 31
0.0
  0
LINE
  5
381
100
AcDbEntity
  8
0
  6
CONTINUOUS
 62
               7
100
AcDbLine
 10
-7.0
 20
32.000000000000014
 30
0.0
 11
-7.0
 21
26.217144432479714
 31
0.0
  0
LINE
  5
382
100
AcDbEntity
  8
0
  6
CONTINUOUS
 62
               7
100
AcDbLine
 10
-7.0
 20
26.217144432479714
 30
0.0
 11
-10.5
 21
25.600000000000037
 31
0.0
  0
LINE
  5
383
100
AcDbEntity
  8
0
  6
CONTINUOUS
 62
               7
100
AcDbLine
 10
-9.1999999999999318
 20
1.5
 30
0.0
 11
-4.0
 21
1.5
 31
0.0
  0
LINE
  5
384
100
AcDbEntity
  8
0
  6
CONTINUOUS
 62
               7
100
AcDbLine
 10
-14.5
 20
17.5
 30
0.0
 11
-14.5
 21
17.600000000000023
 31
0.0
  0
LINE
  5
385
100
AcDbEntity
  8
0
  6
CONTINUOUS
 62
               7
100
AcDbLine
 10
-15.099999999999966
 20
18.098078436969899
 30
0.0
 11
-15.099999999999966
 21
17.600000000000023
 31
0.0
  0
LINE
  5
386
100
AcDbEntity
  8
0
  6
CONTINUOUS
 62
               7
100
AcDbLine
 10
-10.5
 20
18.909182548228841
 30
0.0
 11
-15.099999999999966
 21
18.098078436969899
 31
0.0
  0
LINE
  5
387
100
AcDbEntity
  8
0
  6
CONTINUOUS
 62
               7
100
AcDbLine
 10
-9.1999999999999886
 20
17.600000000000023
 30
0.0
 11
-15.099999999999966
 21
17.600000000000023
 31
0.0
  0
LINE
  5
388
100
AcDbEntity
  8
0
  6
CONTINUOUS
 62
               7
100
AcDbLine
 10
-10.5
 20
25.600000000000037
 30
0.0
 11
-10.5
 21
18.909182548228841
 31
0.0
  0
LINE
  5
389
100
AcDbEntity
  8
0
  6
CONTINUOUS
 62
               7
100
AcDbLine
 10
-9.1999999999999318
 20
1.5
 30
0.0
 11
-9.1999999999999886
 21
17.600000000000023
 31
0.0
  0
LINE
  5
38A
100
AcDbEntity
  8
0
  6
CONTINUOUS
 62
               7
100
AcDbLine
 10
-3.5
 20
0.0
 30
0.0
 11
-14.799999999999955
 21
0.0
 31
0.0
  0
ARC
  5
38B
100
AcDbEntity
  8
0
  6
CONTINUOUS
 62
               7
100
AcDbCircle
 10
-14.799999999999955
 20
0.3000000000000682
 30
0.0
 40
0.3
100
AcDbArc
 50
179.99999999999963
 51
269.99999999999937
  0
LINE
  5
38C
100
AcDbEntity
  8
0
  6
CONTINUOUS
 62
               7
100
AcDbLine
 10
-9.5
 20
25.100000000000037
 30
0.0
 11
-9.5
 21
21.899999999999977
 31
0.0
  0
LINE
  5
38D
100
AcDbEntity
  8
0
  6
CONTINUOUS
 62
               7
100
AcDbLine
 10
-10.5
 20
21.899999999999977
 30
0.0
 11
-9.5
 21
21.899999999999977
 31
0.0
  0
LINE
  5
38E
100
AcDbEntity
  8
0
  6
CONTINUOUS
 62
               7
100
AcDbLine
 10
-10.5
 20
25.100000000000037
 30
0.0
 11
-9.5
 21
25.100000000000037
 31
0.0
  0
LINE
  5
38F
100
AcDbEntity
  8
0
  6
CONTINUOUS
 62
               7
100
AcDbLine
 10
-9.5999999999999659
 20
25.000000000000014
 30
0.0
 11
-9.5
 21
25.000000000000014
 31
0.0
  0
LINE
  5
390
100
AcDbEntity
  8
0
  6
CONTINUOUS
 62
               7
100
AcDbLine
 10
-9.5999999999999659
 20
22.0
 30
0.0
 11
-9.5
 21
22.0
 31
0.0
  0
LINE
  5
391
100
AcDbEntity
  8
0
  6
CONTINUOUS
 62
               7
100
AcDbLine
 10
-10.099999999999966
 20
24.500000000000014
 30
0.0
 11
-10.099999999999966
 21
22.500000000000014
 31
0.0
  0
ARC
  5
392
100
AcDbEntity
  8
0
  6
CONTINUOUS
 62
               7
100
AcDbCircle
 10
-9.5999999999999659
 20
22.500000000000014
 30
0.0
 40
0.5
100
AcDbArc
 50
179.99999999999963
 51
269.99999999999937
  0
ARC
  5
393
100
AcDbEntity
  8
0
  6
CONTINUOUS
 62
               7
100
AcDbCircle
 10
-9.5999999999999659
 20
24.500000000000014
 30
0.0
 40
0.5
100
AcDbArc
 50
89.999999999999815
 51
179.99999999999963
  0
LINE
  5
394
100
AcDbEntity
  8
0
  6
CONTINUOUS
 62
               7
100
AcDbLine
 10
-20.599999999833585
 20
17.5
 30
0.0
 11
-9.1999999999999318
 21
17.5
 31
0.0
  0
LINE
  5
395
100
AcDbEntity
  8
0
  6
CONTINUOUS
 62
               7
100
AcDbLine
 10
-20.599999999833585
 20
12.200000000000045
 30
0.0
 11
-16.099999999999937
 21
12.200000000000045
 31
0.0
  0
LINE
  5
396
100
AcDbEntity
  8
0
  6
CONTINUOUS
 62
               7
100
AcDbLine
 10
-17.166025403784374
 20
11.700000000000045
 30
0.0
 11
-23.699999999999932
 21
11.700000000000045
 31
0.0
  0
LINE
  5
397
100
AcDbEntity
  8
0
  6
CONTINUOUS
 62
               7
100
AcDbLine
 10
-24.699999999999932
 20
17.5
 30
0.0
 11
-24.9886751345947
 21
18.0
 31
0.0
  0
LINE
  5
398
100
AcDbEntity
  8
0
  6
CONTINUOUS
 62
               7
100
AcDbLine
 10
-24.9886751345947
 20
18.0
 30
0.0
 11
-25.699999999999932
 21
18.0
 31
0.0
  0
LINE
  5
399
100
AcDbEntity
  8
0
  6
CONTINUOUS
 62
               7
100
AcDbLine
 10
-23.699999999999932
 20
11.700000000000045
 30
0.0
 11
-23.9886751345947
 21
11.200000000000045
 31
0.0
  0
LINE
  5
39A
100
AcDbEntity
  8
0
  6
CONTINUOUS
 62
               7
100
AcDbLine
 10
-23.9886751345947
 20
11.200000000000045
 30
0.0
 11
-24.699999999999932
 21
11.200000000000045
 31
0.0
  0
LINE
  5
39B
100
AcDbEntity
  8
0
  6
CONTINUOUS
 62
               7
100
AcDbLine
 10
-20.599999999999909
 20
16.799999999999955
 30
0.0
 11
-20.699999999999932
 21
16.799999999999955
 31
0.0
  0
LINE
  5
39C
100
AcDbEntity
  8
0
  6
CONTINUOUS
 62
               7
100
AcDbLine
 10
-25.699999999999932
 20
18.0
 30
0.0
 11
-25.699999999999932
 21
13.549999999999983
 31
0.0
  0
LINE
  5
39D
100
AcDbEntity
  8
0
  6
CONTINUOUS
 62
               7
100
AcDbLine
 10
-24.699999999999932
 20
12.400244132795592
 30
0.0
 11
-23.283564090981105
 21
12.649999999999977
 31
0.0
  0
LINE
  5
39E
100
AcDbEntity
  8
0
  6
CONTINUOUS
 62
               7
100
AcDbLine
 10
-20.599999999999909
 20
12.700000000000045
 30
0.0
 11
-20.97124999999993
 21
12.700000000000045
 31
0.0
  0
LINE
  5
39F
100
AcDbEntity
  8
0
  6
CONTINUOUS
 62
               7
100
AcDbLine
 10
-20.699999999999932
 20
12.700000000000045
 30
0.0
 11
-20.699999999999932
 21
13.709302325581415
 31
0.0
  0
LINE
  5
3A0
100
AcDbEntity
  8
0
  6
CONTINUOUS
 62
               7
100
AcDbLine
 10
-24.699999999999932
 20
12.400244132795592
 30
0.0
 11
-24.699999999999932
 21
11.200000000000045
 31
0.0
  0
LINE
  5
3A1
100
AcDbEntity
  8
0
  6
CONTINUOUS
 62
               7
100
AcDbLine
 10
-20.699999999999932
 20
17.5
 30
0.0
 11
-24.699999999999932
 21
17.5
 31
0.0
  0
LINE
  5
3A2
100
AcDbEntity
  8
0
  6
CONTINUOUS
 62
               7
100
AcDbLine
 10
-20.599999999999909
 20
17.5
 30
0.0
 11
-20.599999999999909
 21
12.200000000000045
 31
0.0
  0
LINE
  5
3A3
100
AcDbEntity
  8
0
  6
CONTINUOUS
 62
               7
100
AcDbLine
 10
-15.099999999999909
 20
17.5
 30
0.0
 11
-15.099999999999909
 21
0.3000000000000682
 31
0.0
  0
LINE
  5
3A4
100
AcDbEntity
  8
0
  6
CONTINUOUS
 62
               7
100
AcDbLine
 10
-16.299999999999955
 20
12.200000000000045
 30
0.0
 11
-17.166025403784374
 21
11.700000000000045
 31
0.0
  0
LINE
  5
3A5
100
AcDbEntity
  8
0
  6
CONTINUOUS
 62
               7
100
AcDbLine
 10
66.500000000000171
 20
65.999999999999957
 30
0.0
 11
66.500000000000171
 21
0.0
 31
0.0
  0
LINE
  5
3A6
100
AcDbEntity
  8
0
  6
CONTINUOUS
 62
               7
100
AcDbLine
 10
4.5
 20
0.0
 30
0.0
 11
6.5
 21
0.0
 31
0.0
  0
ARC
  5
3A7
100
AcDbEntity
  8
0
  6
CONTINUOUS
 62
               7
100
AcDbCircle
 10
22.050000000000125
 20
64.500000000000185
 30
0.0
 40
1.5
100
AcDbArc
 50
89.999999999999815
 51
179.99999999999963
  0
ARC
  5
3A8
100
AcDbEntity
  8
0
  6
CONTINUOUS
 62
               7
100
AcDbCircle
 10
28.950000000000102
 20
64.500000000000185
 30
0.0
 40
1.5
100
AcDbArc
 50
0.0
 51
89.999999999999815
  0
LINE
  5
3A9
100
AcDbEntity
  8
0
  6
CONTINUOUS
 62
               7
100
AcDbLine
 10
20.550000000000125
 20
58.300000000000139
 30
0.0
 11
20.850000000000193
 21
58.000000000000185
 31
0.0
  0
LINE
  5
3AA
100
AcDbEntity
  8
0
  6
CONTINUOUS
 62
               7
100
AcDbLine
 10
30.450000000000102
 20
58.300000000000139
 30
0.0
 11
30.150000000000148
 21
58.000000000000185
 31
0.0
  0
LINE
  5
3AB
100
AcDbEntity
  8
0
  6
CONTINUOUS
 62
               7
100
AcDbLine
 10
20.550000000000125
 20
58.300000000000139
 30
0.0
 11
20.550000000000125
 21
64.500000000000185
 31
0.0
  0
LINE
  5
3AC
100
AcDbEntity
  8
0
  6
CONTINUOUS
 62
               7
100
AcDbLine
 10
30.450000000000102
 20
58.300000000000139
 30
0.0
 11
30.450000000000102
 21
64.500000000000185
 31
0.0
  0
LINE
  5
3AD
100
AcDbEntity
  8
0
  6
CONTINUOUS
 62
               7
100
AcDbLine
 10
18.500000000000171
 20
58.000000000000185
 30
0.0
 11
41.500000000000171
 21
58.000000000000185
 31
0.0
  0
LINE
  5
3AE
100
AcDbEntity
  8
0
  6
CONTINUOUS
 62
               7
100
AcDbLine
 10
51.500000000000171
 20
65.999999999999957
 30
0.0
 11
51.500000000000171
 21
66.499999999999957
 31
0.0
  0
LINE
  5
3AF
100
AcDbEntity
  8
0
  6
CONTINUOUS
 62
               7
100
AcDbLine
 10
41.500000000000171
 20
21.0
 30
0.0
 11
44.000000000000171
 21
21.0
 31
0.0
  0
LINE
  5
3B0
100
AcDbEntity
  8
0
  6
CONTINUOUS
 62
               7
100
AcDbLine
 10
45.500000000000171
 20
65.999999999999957
 30
0.0
 11
45.500000000000171
 21
66.499999999999957
 31
0.0
  0
LINE
  5
3B1
100
AcDbEntity
  8
0
  6
CONTINUOUS
 62
               7
100
AcDbLine
 10
51.500000000000171
 20
66.499999999999957
 30
0.0
 11
45.500000000000171
 21
66.499999999999957
 31
0.0
  0
LINE
  5
3B2
100
AcDbEntity
  8
0
  6
CONTINUOUS
 62
               7
100
AcDbLine
 10
66.500000000000171
 20
65.999999999999957
 30
0.0
 11
41.500000000000171
 21
65.999999999999957
 31
0.0
  0
LINE
  5
3B3
100
AcDbEntity
  8
0
  6
CONTINUOUS
 62
               7
100
AcDbLine
 10
41.500000000000171
 20
65.999999999999957
 30
0.0
 11
41.500000000000171
 21
14.0
 31
0.0
  0
LINE
  5
3B4
100
AcDbEntity
  8
0
  6
CONTINUOUS
 62
               7
100
AcDbLine
 10
18.500000000000057
 20
14.0
 30
0.0
 11
66.500000000000171
 21
14.0
 31
0.0
  0
LINE
  5
3B5
100
AcDbEntity
  8
0
  6
CONTINUOUS
 62
               7
100
AcDbLine
 10
-25.699999999999932
 20
52.015000000000057
 30
0.0
 11
-30.329999999999927
 21
52.015000000000057
 31
0.0
  0
LINE
  5
3B6
100
AcDbEntity
  8
0
  6
CONTINUOUS
 62
               7
100
AcDbLine
 10
-25.699999999999932
 20
50.584999999999994
 30
0.0
 11
-30.711333333333243
 21
50.584999999999994
 31
0.0
  0
LINE
  5
3B7
100
AcDbEntity
  8
0
  6
CONTINUOUS
 62
               2
100
AcDbLine
 10
-29.709999999999923
 20
54.340000000000103
 30
0.0
 11
-31.309999999999945
 21
48.340000000000103
 31
0.0
  0
LINE
  5
3B8
100
AcDbEntity
  8
0
  6
CONTINUOUS
 62
               2
100
AcDbLine
 10
-30.949999999999932
 20
54.340000000000103
 30
0.0
 11
-32.549999999999955
 21
48.340000000000103
 31
0.0
  0
LINE
  5
3B9
100
AcDbEntity
  8
0
  6
CONTINUOUS
 62
               7
100
AcDbLine
 10
-31.569999999999936
 20
52.015000000000057
 30
0.0
 11
-36.129999999999939
 21
52.015000000000057
 31
0.0
  0
LINE
  5
3BA
100
AcDbEntity
  8
0
  6
CONTINUOUS
 62
               7
100
AcDbLine
 10
-31.951333333333253
 20
50.584999999999994
 30
0.0
 11
-36.129999999999939
 21
50.584999999999994
 31
0.0
  0
LINE
  5
3BB
100
AcDbEntity
  8
0
  6
CONTINUOUS
 62
               7
100
AcDbLine
 10
-41.129999999999939
 20
50.900000000000048
 30
0.0
 11
-41.129999999999939
 21
51.700000000000003
 31
0.0
  0
LINE
  5
3BC
100
AcDbEntity
  8
0
  6
CONTINUOUS
 62
               7
100
AcDbLine
 10
-36.129999999999939
 20
50.584999999999994
 30
0.0
 11
-36.129999999999939
 21
52.015000000000057
 31
0.0
  0
LINE
  5
3BD
100
AcDbEntity
  8
0
  6
CONTINUOUS
 62
               7
100
AcDbLine
 10
-36.129999999999939
 20
51.700000000000003
 30
0.0
 11
-41.129999999999939
 21
51.700000000000003
 31
0.0
  0
LINE
  5
3BE
100
AcDbEntity
  8
0
  6
CONTINUOUS
 62
               7
100
AcDbLine
 10
-36.129999999999939
 20
50.900000000000048
 30
0.0
 11
-41.129999999999939
 21
50.900000000000048
 31
0.0
  0
LINE
  5
3BF
100
AcDbEntity
  8
0
  6
CONTINUOUS
 62
               7
100
AcDbLine
 10
-25.699999999999932
 20
16.215000000000032
 30
0.0
 11
-30.329999999999927
 21
16.215000000000032
 31
0.0
  0
LINE
  5
3C0
100
AcDbEntity
  8
0
  6
CONTINUOUS
 62
               7
100
AcDbLine
 10
-25.699999999999932
 20
14.784999999999968
 30
0.0
 11
-30.711333333333243
 21
14.784999999999968
 31
0.0
  0
LINE
  5
3C1
100
AcDbEntity
  8
0
  6
CONTINUOUS
 62
               2
100
AcDbLine
 10
-29.709999999999923
 20
18.540000000000077
 30
0.0
 11
-31.309999999999945
 21
12.540000000000077
 31
0.0
  0
LINE
  5
3C2
100
AcDbEntity
  8
0
  6
CONTINUOUS
 62
               7
100
AcDbLine
 10
-41.129999999999939
 20
15.100000000000023
 30
0.0
 11
-41.129999999999939
 21
15.899999999999977
 31
0.0
  0
LINE
  5
3C3
100
AcDbEntity
  8
0
  6
CONTINUOUS
 62
               7
100
AcDbLine
 10
-36.129999999999939
 20
14.784999999999968
 30
0.0
 11
-36.129999999999939
 21
16.215000000000032
 31
0.0
  0
LINE
  5
3C4
100
AcDbEntity
  8
0
  6
CONTINUOUS
 62
               7
100
AcDbLine
 10
-36.129999999999939
 20
15.899999999999977
 30
0.0
 11
-41.129999999999939
 21
15.899999999999977
 31
0.0
  0
LINE
  5
3C5
100
AcDbEntity
  8
0
  6
CONTINUOUS
 62
               7
100
AcDbLine
 10
-36.129999999999939
 20
15.100000000000023
 30
0.0
 11
-41.129999999999939
 21
15.100000000000023
 31
0.0
  0
LINE
  5
3C6
100
AcDbEntity
  8
0
  6
CONTINUOUS
 62
               7
100
AcDbLine
 10
-31.951333333333253
 20
14.784999999999968
 30
0.0
 11
-36.129999999999939
 21
14.784999999999968
 31
0.0
  0
LINE
  5
3C7
100
AcDbEntity
  8
0
  6
CONTINUOUS
 62
               2
100
AcDbLine
 10
-30.949999999999932
 20
18.540000000000077
 30
0.0
 11
-32.549999999999955
 21
12.540000000000077
 31
0.0
  0
LINE
  5
3C8
100
AcDbEntity
  8
0
  6
CONTINUOUS
 62
               7
100
AcDbLine
 10
-31.569999999999936
 20
16.215000000000032
 30
0.0
 11
-36.129999999999939
 21
16.215000000000032
 31
0.0
  0
LINE
  5
3C9
100
AcDbEntity
  8
0
  6
CONTINUOUS
 62
               7
100
AcDbLine
 10
46.600000000000193
 20
86.499999999999957
 30
0.0
 11
46.600000000000193
 21
91.499999999999957
 31
0.0
  0
LINE
  5
3CA
100
AcDbEntity
  8
0
  6
CONTINUOUS
 62
               7
100
AcDbLine
 10
47.400000000000148
 20
86.499999999999957
 30
0.0
 11
47.400000000000148
 21
91.499999999999957
 31
0.0
  0
LINE
  5
3CB
100
AcDbEntity
  8
0
  6
CONTINUOUS
 62
               7
100
AcDbLine
 10
47.600000000000193
 20
86.499999999999957
 30
0.0
 11
47.600000000000193
 21
91.499999999999957
 31
0.0
  0
LINE
  5
3CC
100
AcDbEntity
  8
0
  6
CONTINUOUS
 62
               7
100
AcDbLine
 10
48.400000000000148
 20
86.499999999999957
 30
0.0
 11
48.400000000000148
 21
91.499999999999957
 31
0.0
  0
LINE
  5
3CD
100
AcDbEntity
  8
0
  6
CONTINUOUS
 62
               7
100
AcDbLine
 10
48.600000000000193
 20
86.499999999999957
 30
0.0
 11
48.600000000000193
 21
91.499999999999957
 31
0.0
  0
LINE
  5
3CE
100
AcDbEntity
  8
0
  6
CONTINUOUS
 62
               7
100
AcDbLine
 10
49.400000000000148
 20
86.499999999999957
 30
0.0
 11
49.400000000000148
 21
91.499999999999957
 31
0.0
  0
LINE
  5
3CF
100
AcDbEntity
  8
0
  6
CONTINUOUS
 62
               7
100
AcDbLine
 10
49.600000000000193
 20
86.499999999999957
 30
0.0
 11
49.600000000000193
 21
91.499999999999957
 31
0.0
  0
LINE
  5
3D0
100
AcDbEntity
  8
0
  6
CONTINUOUS
 62
               7
100
AcDbLine
 10
50.400000000000148
 20
86.499999999999957
 30
0.0
 11
50.400000000000148
 21
91.499999999999957
 31
0.0
  0
LINE
  5
3D1
100
AcDbEntity
  8
0
  6
CONTINUOUS
 62
               7
100
AcDbLine
 10
46.000000000000171
 20
82.934434807571918
 30
0.0
 11
46.000000000000171
 21
79.162488506212824
 31
0.0
  0
LINE
  5
3D2
100
AcDbEntity
  8
0
  6
CONTINUOUS
 62
               7
100
AcDbLine
 10
51.000000000000171
 20
82.934434807571918
 30
0.0
 11
51.000000000000171
 21
77.270596614320951
 31
0.0
  0
LINE
  5
3D3
100
AcDbEntity
  8
0
  6
CONTINUOUS
 62
               2
100
AcDbLine
 10
44.748081825185352
 20
78.636187275061687
 30
0.0
 11
52.468683298765598
 21
75.714878609382779
 31
0.0
  0
LINE
  5
3D4
100
AcDbEntity
  8
0
  6
CONTINUOUS
 62
               2
100
AcDbLine
 10
44.748081825185352
 20
79.636187275061687
 30
0.0
 11
52.468683298765598
 21
76.714878609382779
 31
0.0
  0
LINE
  5
3D5
100
AcDbEntity
  8
0
  6
CONTINUOUS
 62
               7
100
AcDbLine
 10
46.000000000000171
 20
82.934434807571918
 30
0.0
 11
51.000000000000171
 21
82.934434807571918
 31
0.0
  0
LINE
  5
3D6
100
AcDbEntity
  8
0
  6
CONTINUOUS
 62
               7
100
AcDbLine
 10
50.715000000000089
 20
86.499999999999957
 30
0.0
 11
46.285000000000139
 21
86.499999999999957
 31
0.0
  0
LINE
  5
3D7
100
AcDbEntity
  8
0
  6
CONTINUOUS
 62
               7
100
AcDbLine
 10
50.715000000000089
 20
82.934434807571918
 30
0.0
 11
50.715000000000089
 21
86.499999999999957
 31
0.0
  0
LINE
  5
3D8
100
AcDbEntity
  8
0
  6
CONTINUOUS
 62
               7
100
AcDbLine
 10
49.285000000000139
 20
82.934434807571918
 30
0.0
 11
49.285000000000139
 21
86.499999999999957
 31
0.0
  0
LINE
  5
3D9
100
AcDbEntity
  8
0
  6
CONTINUOUS
 62
               7
100
AcDbLine
 10
48.285000000000139
 20
82.934434807571918
 30
0.0
 11
48.285000000000139
 21
86.499999999999957
 31
0.0
  0
LINE
  5
3DA
100
AcDbEntity
  8
0
  6
CONTINUOUS
 62
               7
100
AcDbLine
 10
47.285000000000139
 20
82.934434807571918
 30
0.0
 11
47.285000000000139
 21
86.499999999999957
 31
0.0
  0
LINE
  5
3DB
100
AcDbEntity
  8
0
  6
CONTINUOUS
 62
               7
100
AcDbLine
 10
46.285000000000139
 20
82.934434807571918
 30
0.0
 11
46.285000000000139
 21
86.499999999999957
 31
0.0
  0
LINE
  5
3DC
100
AcDbEntity
  8
0
  6
CONTINUOUS
 62
               7
100
AcDbLine
 10
50.400000000000148
 20
91.499999999999957
 30
0.0
 11
49.600000000000193
 21
91.499999999999957
 31
0.0
  0
LINE
  5
3DD
100
AcDbEntity
  8
0
  6
CONTINUOUS
 62
               7
100
AcDbLine
 10
49.400000000000148
 20
91.499999999999957
 30
0.0
 11
48.600000000000193
 21
91.499999999999957
 31
0.0
  0
LINE
  5
3DE
100
AcDbEntity
  8
0
  6
CONTINUOUS
 62
               7
100
AcDbLine
 10
48.400000000000148
 20
91.499999999999957
 30
0.0
 11
47.600000000000193
 21
91.499999999999957
 31
0.0
  0
LINE
  5
3DF
100
AcDbEntity
  8
0
  6
CONTINUOUS
 62
               7
100
AcDbLine
 10
47.400000000000148
 20
91.499999999999957
 30
0.0
 11
46.600000000000193
 21
91.499999999999957
 31
0.0
  0
LINE
  5
3E0
100
AcDbEntity
  8
0
  6
CONTINUOUS
 62
               7
100
AcDbLine
 10
51.000000000000171
 20
66.499999999999957
 30
0.0
 11
51.000000000000171
 21
76.270596614320951
 31
0.0
  0
LINE
  5
3E1
100
AcDbEntity
  8
0
  6
CONTINUOUS
 62
               7
100
AcDbLine
 10
46.000000000000171
 20
66.499999999999957
 30
0.0
 11
46.000000000000171
 21
78.162488506212824
 31
0.0
  0
LINE
  5
3E2
100
AcDbEntity
  8
0
  6
CENTER
 62
               2
100
AcDbLine
 10
10.500000000000057
 20
21.160822798280833
 30
0.0
 11
10.500000000000057
 21
13.004025079014468
 31
0.0
  0
LINE
  5
3E3
100
AcDbEntity
  8
0
  6
CENTER
 62
               2
100
AcDbLine
 10
8.5
 20
50.095178376038533
 30
0.0
 11
8.5
 21
44.255323625957502
 31
0.0
  0
CIRCLE
  5
3E4
100
AcDbEntity
  8
0
  6
CONTINUOUS
 62
               7
100
AcDbCircle
 10
8.5
 20
47.499999999999957
 30
0.0
 40
2.1000000000000001
  0
CIRCLE
  5
3E5
100
AcDbEntity
  8
0
  6
CONTINUOUS
 62
               2
100
AcDbCircle
 10
8.5
 20
47.499999999999957
 30
0.0
 40
2.5
  0
LINE
  5
3E6
100
AcDbEntity
  8
0
  6
CENTER
 62
               2
100
AcDbLine
 10
11.500000000000057
 20
47.499999999999957
 30
0.0
 11
5.5
 21
47.499999999999957
 31
0.0
  0
CIRCLE
  5
3E7
100
AcDbEntity
  8
0
  6
CONTINUOUS
 62
               7
100
AcDbCircle
 10
10.500000000000057
 20
17.0
 30
0.0
 40
2.1000000000000001
  0
CIRCLE
  5
3E8
100
AcDbEntity
  8
0
  6
CONTINUOUS
 62
               2
100
AcDbCircle
 10
10.500000000000057
 20
17.0
 30
0.0
 40
2.5
  0
LINE
  5
3E9
100
AcDbEntity
  8
0
  6
CENTER
 62
               2
100
AcDbLine
 10
13.500000000000057
 20
17.0
 30
0.0
 11
7.5
 21
17.0
 31
0.0
  0
CIRCLE
  5
3EA
100
AcDbEntity
  8
0
  6
CONTINUOUS
 62
               7
100
AcDbCircle
 10
10.500000000000057
 20
30.000000000000014
 30
0.0
 40
4.25
  0
CIRCLE
  5
3EB
100
AcDbEntity
  8
0
  6
CONTINUOUS
 62
               2
100
AcDbCircle
 10
10.500000000000057
 20
30.000000000000014
 30
0.0
 40
5.0
  0
LINE
  5
3EC
100
AcDbEntity
  8
0
  6
CENTER
 62
               2
100
AcDbLine
 10
4.9170550153717159
 20
30.000000000000014
 30
0.0
 11
16.09075052121608
 21
30.000000000000014
 31
0.0
  0
LINE
  5
3ED
100
AcDbEntity
  8
0
  6
CENTER
 62
               2
100
AcDbLine
 10
10.500000000000057
 20
23.619035809566654
 30
0.0
 11
10.500000000000057
 21
36.133574776112269
 31
0.0
  0
LINE
  5
3EE
100
AcDbEntity
  8
0
  6
CENTER
 62
               2
100
AcDbLine
 10
13.500000000000057
 20
54.106536674243856
 30
0.0
 11
13.500000000000057
 21
69.747389519582114
 31
0.0
  0
LINE
  5
3EF
100
AcDbEntity
  8
0
  6
CONTINUOUS
 62
               7
100
AcDbLine
 10
12.250000000000057
 20
58.839181962474825
 30
0.0
 11
12.250000000000057
 21
58.200000000000003
 31
0.0
  0
LINE
  5
3F0
100
AcDbEntity
  8
0
  6
CONTINUOUS
 62
               2
100
AcDbLine
 10
12.425000000000011
 20
58.839181962474825
 30
0.0
 11
12.425000000000011
 21
58.200000000000003
 31
0.0
  0
LINE
  5
3F1
100
AcDbEntity
  8
0
  6
CONTINUOUS
 62
               7
100
AcDbLine
 10
10.250000000000057
 20
57.700000000000003
 30
0.0
 11
10.750000000000057
 21
58.200000000000003
 31
0.0
  0
LINE
  5
3F2
100
AcDbEntity
  8
0
  6
CONTINUOUS
 62
               7
100
AcDbLine
 10
16.250000000000057
 20
58.200000000000003
 30
0.0
 11
10.750000000000057
 21
58.200000000000003
 31
0.0
  0
LINE
  5
3F3
100
AcDbEntity
  8
0
  6
CONTINUOUS
 62
               7
100
AcDbLine
 10
16.750000000000057
 20
57.700000000000003
 30
0.0
 11
16.250000000000057
 21
58.200000000000003
 31
0.0
  0
LINE
  5
3F4
100
AcDbEntity
  8
0
  6
CONTINUOUS
 62
               7
100
AcDbLine
 10
16.000000000000057
 20
68.544181962474752
 30
0.0
 11
16.000000000000057
 21
63.544181962474752
 31
0.0
  0
LINE
  5
3F5
100
AcDbEntity
  8
0
  6
CONTINUOUS
 62
               7
100
AcDbLine
 10
11.000000000000057
 20
68.544181962474752
 30
0.0
 11
11.000000000000057
 21
63.544181962474752
 31
0.0
  0
LINE
  5
3F6
100
AcDbEntity
  8
0
  6
CONTINUOUS
 62
               7
100
AcDbLine
 10
10.500000000000057
 20
59.339181962474825
 30
0.0
 11
10.500000000000057
 21
61.339181962474825
 31
0.0
  0
LINE
  5
3F7
100
AcDbEntity
  8
0
  6
CONTINUOUS
 62
               7
100
AcDbLine
 10
11.500000000000057
 20
63.044181962474752
 30
0.0
 11
15.500000000000057
 21
63.044181962474752
 31
0.0
  0
LINE
  5
3F8
100
AcDbEntity
  8
0
  6
CONTINUOUS
 62
               7
100
AcDbLine
 10
16.000000000000057
 20
63.544181962474752
 30
0.0
 11
15.500000000000057
 21
63.044181962474752
 31
0.0
  0
LINE
  5
3F9
100
AcDbEntity
  8
0
  6
CONTINUOUS
 62
               7
100
AcDbLine
 10
11.500000000000057
 20
63.044181962474752
 30
0.0
 11
11.000000000000057
 21
63.544181962474752
 31
0.0
  0
LINE
  5
3FA
100
AcDbEntity
  8
0
  6
CONTINUOUS
 62
               7
100
AcDbLine
 10
16.000000000000057
 20
61.839181962474825
 30
0.0
 11
11.000000000000057
 21
61.839181962474825
 31
0.0
  0
LINE
  5
3FB
100
AcDbEntity
  8
0
  6
CONTINUOUS
 62
               7
100
AcDbLine
 10
10.500000000000057
 20
61.339181962474825
 30
0.0
 11
11.000000000000057
 21
61.839181962474825
 31
0.0
  0
LINE
  5
3FC
100
AcDbEntity
  8
0
  6
CONTINUOUS
 62
               7
100
AcDbLine
 10
10.500000000000057
 20
59.339181962474825
 30
0.0
 11
11.000000000000057
 21
58.839181962474825
 31
0.0
  0
LINE
  5
3FD
100
AcDbEntity
  8
0
  6
CONTINUOUS
 62
               7
100
AcDbLine
 10
16.500000000000057
 20
61.339181962474825
 30
0.0
 11
16.000000000000057
 21
61.839181962474825
 31
0.0
  0
LINE
  5
3FE
100
AcDbEntity
  8
0
  6
CONTINUOUS
 62
               7
100
AcDbLine
 10
16.500000000000057
 20
59.339181962474825
 30
0.0
 11
16.000000000000057
 21
58.839181962474825
 31
0.0
  0
LINE
  5
3FF
100
AcDbEntity
  8
0
  6
CONTINUOUS
 62
               7
100
AcDbLine
 10
16.500000000000057
 20
59.339181962474825
 30
0.0
 11
16.500000000000057
 21
61.339181962474825
 31
0.0
  0
LINE
  5
400
100
AcDbEntity
  8
0
  6
CONTINUOUS
 62
               7
100
AcDbLine
 10
16.000000000000057
 20
58.839181962474825
 30
0.0
 11
11.000000000000057
 21
58.839181962474825
 31
0.0
  0
LINE
  5
401
100
AcDbEntity
  8
0
  6
CONTINUOUS
 62
               2
100
AcDbLine
 10
12.425000000000011
 20
63.044181962474752
 30
0.0
 11
12.425000000000011
 21
61.839181962474825
 31
0.0
  0
LINE
  5
402
100
AcDbEntity
  8
0
  6
CONTINUOUS
 62
               7
100
AcDbLine
 10
12.250000000000057
 20
63.044181962474752
 30
0.0
 11
12.250000000000057
 21
61.839181962474825
 31
0.0
  0
LINE
  5
403
100
AcDbEntity
  8
0
  6
CONTINUOUS
 62
               2
100
AcDbLine
 10
14.574999999999989
 20
63.044181962474752
 30
0.0
 11
14.574999999999989
 21
61.839181962474825
 31
0.0
  0
LINE
  5
404
100
AcDbEntity
  8
0
  6
CONTINUOUS
 62
               7
100
AcDbLine
 10
14.750000000000057
 20
63.044181962474752
 30
0.0
 11
14.750000000000057
 21
61.839181962474825
 31
0.0
  0
LINE
  5
405
100
AcDbEntity
  8
0
  6
CONTINUOUS
 62
               7
100
AcDbLine
 10
13.000000000000057
 20
69.044181962474752
 30
0.0
 11
11.500000000000057
 21
69.044181962474752
 31
0.0
  0
LINE
  5
406
100
AcDbEntity
  8
0
  6
CONTINUOUS
 62
               7
100
AcDbLine
 10
16.000000000000057
 20
68.544181962474752
 30
0.0
 11
15.500000000000057
 21
69.044181962474752
 31
0.0
  0
LINE
  5
407
100
AcDbEntity
  8
0
  6
CONTINUOUS
 62
               7
100
AcDbLine
 10
11.000000000000057
 20
68.544181962474752
 30
0.0
 11
11.500000000000057
 21
69.044181962474752
 31
0.0
  0
LINE
  5
408
100
AcDbEntity
  8
0
  6
CONTINUOUS
 62
               7
100
AcDbLine
 10
14.750000000000057
 20
58.839181962474825
 30
0.0
 11
14.750000000000057
 21
58.200000000000003
 31
0.0
  0
LINE
  5
409
100
AcDbEntity
  8
0
  6
CONTINUOUS
 62
               2
100
AcDbLine
 10
14.574999999999989
 20
58.839181962474825
 30
0.0
 11
14.574999999999989
 21
58.200000000000003
 31
0.0
  0
LINE
  5
40A
100
AcDbEntity
  8
0
  6
CONTINUOUS
 62
               7
100
AcDbLine
 10
11.000000000000057
 20
68.544181962474752
 30
0.0
 11
13.000000000000057
 21
68.544181962474752
 31
0.0
  0
LINE
  5
40B
100
AcDbEntity
  8
0
  6
CONTINUOUS
 62
               7
100
AcDbLine
 10
11.000000000000057
 20
63.544181962474752
 30
0.0
 11
16.000000000000057
 21
63.544181962474752
 31
0.0
  0
LINE
  5
40C
100
AcDbEntity
  8
0
  6
CONTINUOUS
 62
               7
100
AcDbLine
 10
10.500000000000057
 20
61.339181962474825
 30
0.0
 11
16.500000000000057
 21
61.339181962474825
 31
0.0
  0
LINE
  5
40D
100
AcDbEntity
  8
0
  6
CONTINUOUS
 62
               7
100
AcDbLine
 10
10.500000000000057
 20
59.339181962474825
 30
0.0
 11
16.500000000000057
 21
59.339181962474825
 31
0.0
  0
LINE
  5
40E
100
AcDbEntity
  8
0
  6
CONTINUOUS
 62
               7
100
AcDbLine
 10
10.250000000000057
 20
57.700000000000003
 30
0.0
 11
16.750000000000057
 21
57.700000000000003
 31
0.0
  0
LINE
  5
40F
100
AcDbEntity
  8
0
  6
CONTINUOUS
 62
               7
100
AcDbLine
 10
16.750000000000057
 20
54.999999999999957
 30
0.0
 11
16.750000000000057
 21
57.700000000000003
 31
0.0
  0
LINE
  5
410
100
AcDbEntity
  8
0
  6
CONTINUOUS
 62
               7
100
AcDbLine
 10
10.250000000000057
 20
54.999999999999957
 30
0.0
 11
10.250000000000057
 21
57.700000000000003
 31
0.0
  0
LINE
  5
411
100
AcDbEntity
  8
0
  6
CONTINUOUS
 62
               7
100
AcDbLine
 10
13.000000000000057
 20
69.044181962474752
 30
0.0
 11
13.000000000000057
 21
68.044181962474752
 31
0.0
  0
LINE
  5
412
100
AcDbEntity
  8
0
  6
CONTINUOUS
 62
               7
100
AcDbLine
 10
14.000000000000057
 20
69.044181962474752
 30
0.0
 11
14.000000000000057
 21
68.044181962474752
 31
0.0
  0
LINE
  5
413
100
AcDbEntity
  8
0
  6
CONTINUOUS
 62
               7
100
AcDbLine
 10
13.000000000000057
 20
68.044181962474752
 30
0.0
 11
14.000000000000057
 21
68.044181962474752
 31
0.0
  0
LINE
  5
414
100
AcDbEntity
  8
0
  6
CONTINUOUS
 62
               7
100
AcDbLine
 10
14.000000000000057
 20
69.044181962474752
 30
0.0
 11
15.500000000000057
 21
69.044181962474752
 31
0.0
  0
LINE
  5
415
100
AcDbEntity
  8
0
  6
CONTINUOUS
 62
               7
100
AcDbLine
 10
16.000000000000057
 20
68.544181962474752
 30
0.0
 11
14.000000000000057
 21
68.544181962474752
 31
0.0
  0
LINE
  5
416
100
AcDbEntity
  8
0
  6
CONTINUOUS
 62
               7
100
AcDbLine
 10
28.950000000000102
 20
66.000000000000185
 30
0.0
 11
26.000000000000171
 21
66.000000000000185
 31
0.0
  0
LINE
  5
417
100
AcDbEntity
  8
0
  6
CONTINUOUS
 62
               7
100
AcDbLine
 10
25.000000000000171
 20
66.000000000000185
 30
0.0
 11
25.000000000000171
 21
65.000000000000185
 31
0.0
  0
LINE
  5
418
100
AcDbEntity
  8
0
  6
CONTINUOUS
 62
               7
100
AcDbLine
 10
26.000000000000171
 20
66.000000000000185
 30
0.0
 11
26.000000000000171
 21
65.000000000000185
 31
0.0
  0
LINE
  5
419
100
AcDbEntity
  8
0
  6
CONTINUOUS
 62
               7
100
AcDbLine
 10
25.000000000000171
 20
65.000000000000185
 30
0.0
 11
26.000000000000171
 21
65.000000000000185
 31
0.0
  0
LINE
  5
41A
100
AcDbEntity
  8
0
  6
CONTINUOUS
 62
               7
100
AcDbLine
 10
25.000000000000171
 20
66.000000000000185
 30
0.0
 11
22.050000000000125
 21
66.000000000000185
 31
0.0
  0
LINE
  5
41B
100
AcDbEntity
  8
0
  6
CONTINUOUS
 62
               7
100
AcDbLine
 10
4.5
 20
47.999999999999957
 30
0.0
 11
0.5
 21
47.999999999999957
 31
0.0
  0
ARC
  5
41C
100
AcDbEntity
  8
0
  6
CONTINUOUS
 62
               7
100
AcDbCircle
 10
2.3999999999999773
 20
41.999999999999957
 30
0.0
 40
0.5
100
AcDbArc
 50
179.99999999999963
 51
269.99999999999937
  0
ARC
  5
41D
100
AcDbEntity
  8
0
  6
CONTINUOUS
 62
               7
100
AcDbCircle
 10
2.3999999999999773
 20
43.999999999999957
 30
0.0
 40
0.5
100
AcDbArc
 50
89.999999999999815
 51
179.99999999999963
  0
LINE
  5
41E
100
AcDbEntity
  8
0
  6
CONTINUOUS
 62
               7
100
AcDbLine
 10
1.8999999999999773
 20
41.999999999999957
 30
0.0
 11
1.8999999999999773
 21
43.999999999999957
 31
0.0
  0
LINE
  5
41F
100
AcDbEntity
  8
0
  6
CONTINUOUS
 62
               7
100
AcDbLine
 10
2.3999999999999773
 20
44.499999999999957
 30
0.0
 11
2.5
 21
44.499999999999957
 31
0.0
  0
LINE
  5
420
100
AcDbEntity
  8
0
  6
CONTINUOUS
 62
               7
100
AcDbLine
 10
2.3999999999999773
 20
41.499999999999957
 30
0.0
 11
2.5
 21
41.499999999999957
 31
0.0
  0
LINE
  5
421
100
AcDbEntity
  8
0
  6
CONTINUOUS
 62
               7
100
AcDbLine
 10
2.5
 20
44.59999999999998
 30
0.0
 11
2.5
 21
41.399999999999935
 31
0.0
  0
LINE
  5
422
100
AcDbEntity
  8
0
  6
CONTINUOUS
 62
               7
100
AcDbLine
 10
0.5
 20
41.399999999999935
 30
0.0
 11
2.5
 21
41.399999999999935
 31
0.0
  0
LINE
  5
423
100
AcDbEntity
  8
0
  6
CONTINUOUS
 62
               7
100
AcDbLine
 10
0.5
 20
44.59999999999998
 30
0.0
 11
2.5
 21
44.59999999999998
 31
0.0
  0
LINE
  5
424
100
AcDbEntity
  8
0
  6
CONTINUOUS
 62
               7
100
AcDbLine
 10
0.5
 20
34.499999999999957
 30
0.0
 11
0.5
 21
47.999999999999957
 31
0.0
  0
LINE
  5
425
100
AcDbEntity
  8
0
  6
CONTINUOUS
 62
               7
100
AcDbLine
 10
44.000000000000171
 20
22.500000000000014
 30
0.0
 11
64.000000000000171
 21
22.500000000000014
 31
0.0
  0
LINE
  5
426
100
AcDbEntity
  8
0
  6
CONTINUOUS
 62
               7
100
AcDbLine
 10
64.000000000000171
 20
22.500000000000014
 30
0.0
 11
64.000000000000171
 21
14.0
 31
0.0
  0
LINE
  5
427
100
AcDbEntity
  8
0
  6
CONTINUOUS
 62
               7
100
AcDbLine
 10
44.000000000000171
 20
22.500000000000014
 30
0.0
 11
44.000000000000171
 21
14.0
 31
0.0
  0
LINE
  5
428
100
AcDbEntity
  8
0
  6
CONTINUOUS
 62
               7
100
AcDbLine
 10
64.000000000000171
 20
21.0
 30
0.0
 11
66.500000000000171
 21
21.0
 31
0.0
  0
LINE
  5
429
100
AcDbEntity
  8
0
  6
CONTINUOUS
 62
               7
100
AcDbLine
 10
-15.899999999999949
 20
55.199999999999967
 30
0.0
 11
-15.099999999999937
 21
55.199999999999967
 31
0.0
  0
LINE
  5
42A
100
AcDbEntity
  8
0
  6
CONTINUOUS
 62
               7
100
AcDbLine
 10
-15.899999999999949
 20
51.19999999999996
 30
0.0
 11
-15.099999999999937
 21
51.19999999999996
 31
0.0
  0
LINE
  5
42B
100
AcDbEntity
  8
0
  6
CONTINUOUS
 62
               7
100
AcDbLine
 10
-15.899999999999949
 20
15.299999999999983
 30
0.0
 11
-15.099999999999937
 21
15.299999999999983
 31
0.0
  0
LINE
  5
42C
100
AcDbEntity
  8
0
  6
CONTINUOUS
 62
               7
100
AcDbLine
 10
-15.899999999999949
 20
11.299999999999983
 30
0.0
 11
-15.099999999999937
 21
11.299999999999983
 31
0.0
  0
LINE
  5
42D
100
AcDbEntity
  8
0
  6
CONTINUOUS
 62
               7
100
AcDbLine
 10
-20.989999999999952
 20
12.649999999999977
 30
0.0
 11
-24.299999999999955
 21
12.649999999999977
 31
0.0
  0
LINE
  5
42E
100
AcDbEntity
  8
0
  6
CONTINUOUS
 62
               7
100
AcDbLine
 10
-20.63999999999993
 20
13.949999999999974
 30
0.0
 11
-24.299999999999955
 21
13.949999999999974
 31
0.0
  0
LINE
  5
42F
100
AcDbEntity
  8
0
  6
CONTINUOUS
 62
               7
100
AcDbLine
 10
-24.299999999999955
 20
13.549999999999983
 30
0.0
 11
-28.299999999999955
 21
13.549999999999983
 31
0.0
  0
LINE
  5
430
100
AcDbEntity
  8
0
  6
CONTINUOUS
 62
               7
100
AcDbLine
 10
-24.299999999999955
 20
13.049999999999983
 30
0.0
 11
-28.299999999999955
 21
13.049999999999983
 31
0.0
  0
LINE
  5
431
100
AcDbEntity
  8
0
  6
CONTINUOUS
 62
               7
100
AcDbLine
 10
-24.299999999999955
 20
12.649999999999977
 30
0.0
 11
-24.299999999999955
 21
13.949999999999974
 31
0.0
  0
LINE
  5
432
100
AcDbEntity
  8
0
  6
CONTINUOUS
 62
               7
100
AcDbLine
 10
-28.299999999999955
 20
13.049999999999983
 30
0.0
 11
-28.299999999999955
 21
13.549999999999983
 31
0.0
  0
LINE
  5
433
100
AcDbEntity
  8
0
  6
CONTINUOUS
 62
               2
100
AcDbLine
 10
-19.349999999999937
 20
14.899999999999977
 30
0.0
 11
-20.209999999999923
 21
11.699999999999974
 31
0.0
  0
LINE
  5
434
100
AcDbEntity
  8
0
  6
CONTINUOUS
 62
               2
100
AcDbLine
 10
-20.379999999999939
 20
14.899999999999977
 30
0.0
 11
-21.239999999999952
 21
11.699999999999974
 31
0.0
  0
LINE
  5
435
100
AcDbEntity
  8
0
  6
CONTINUOUS
 62
               7
100
AcDbLine
 10
-16.099999999999937
 20
12.649999999999977
 30
0.0
 11
-19.949999999999932
 21
12.649999999999977
 31
0.0
  0
LINE
  5
436
100
AcDbEntity
  8
0
  6
CONTINUOUS
 62
               7
100
AcDbLine
 10
-16.099999999999937
 20
13.949999999999974
 30
0.0
 11
-19.599999999999937
 21
13.949999999999974
 31
0.0
  0
ARC
  5
437
100
AcDbEntity
  8
0
  6
CONTINUOUS
 62
               7
100
AcDbCircle
 10
-15.900711437663688
 20
11.499288562336218
 30
0.0
 40
0.1992898322082596
100
AcDbArc
 50
179.79546140589503
 51
270.20453859410389
  0
LINE
  5
438
100
AcDbEntity
  8
0
  6
CONTINUOUS
 62
               7
100
AcDbLine
 10
-16.099999999999937
 20
15.09999999999998
 30
0.0
 11
-16.099999999999937
 21
11.499999999999986
 31
0.0
  0
ARC
  5
439
100
AcDbEntity
  8
0
  6
CONTINUOUS
 62
               7
100
AcDbCircle
 10
-15.900711437663688
 20
15.100711437663747
 30
0.0
 40
0.1992898322082596
100
AcDbArc
 50
89.795461405895423
 51
180.20453859410404
  0
ARC
  5
43A
100
AcDbEntity
  8
0
  6
CONTINUOUS
 62
               7
100
AcDbCircle
 10
-15.900711437663688
 20
51.399288562336196
 30
0.0
 40
0.1992898322082596
100
AcDbArc
 50
179.79546140589517
 51
270.20453859410378
  0
LINE
  5
43B
100
AcDbEntity
  8
0
  6
CONTINUOUS
 62
               7
100
AcDbLine
 10
-16.099999999999937
 20
51.399999999999963
 30
0.0
 11
-16.099999999999937
 21
54.99999999999995
 31
0.0
  0
ARC
  5
43C
100
AcDbEntity
  8
0
  6
CONTINUOUS
 62
               7
100
AcDbCircle
 10
-15.900711437663688
 20
55.000711437663718
 30
0.0
 40
0.1992898322082596
100
AcDbArc
 50
89.795461405895352
 51
180.20453859410424
  0
LINE
  5
43D
100
AcDbEntity
  8
0
  6
CONTINUOUS
 62
               7
100
AcDbLine
 10
-16.099999999999937
 20
53.849999999999945
 30
0.0
 11
-19.599999999999937
 21
53.849999999999945
 31
0.0
  0
LINE
  5
43E
100
AcDbEntity
  8
0
  6
CONTINUOUS
 62
               7
100
AcDbLine
 10
-16.099999999999937
 20
52.549999999999962
 30
0.0
 11
-19.949999999999932
 21
52.549999999999962
 31
0.0
  0
LINE
  5
43F
100
AcDbEntity
  8
0
  6
CONTINUOUS
 62
               2
100
AcDbLine
 10
-20.379999999999939
 20
54.799999999999962
 30
0.0
 11
-21.239999999999952
 21
51.599999999999952
 31
0.0
  0
LINE
  5
440
100
AcDbEntity
  8
0
  6
CONTINUOUS
 62
               2
100
AcDbLine
 10
-19.349999999999937
 20
54.799999999999962
 30
0.0
 11
-20.209999999999923
 21
51.599999999999952
 31
0.0
  0
LINE
  5
441
100
AcDbEntity
  8
0
  6
CONTINUOUS
 62
               7
100
AcDbLine
 10
-28.299999999999955
 20
53.449999999999967
 30
0.0
 11
-28.299999999999955
 21
52.949999999999967
 31
0.0
  0
LINE
  5
442
100
AcDbEntity
  8
0
  6
CONTINUOUS
 62
               7
100
AcDbLine
 10
-24.299999999999955
 20
53.849999999999945
 30
0.0
 11
-24.299999999999955
 21
52.549999999999962
 31
0.0
  0
LINE
  5
443
100
AcDbEntity
  8
0
  6
CONTINUOUS
 62
               7
100
AcDbLine
 10
-24.299999999999955
 20
53.449999999999967
 30
0.0
 11
-28.299999999999955
 21
53.449999999999967
 31
0.0
  0
LINE
  5
444
100
AcDbEntity
  8
0
  6
CONTINUOUS
 62
               7
100
AcDbLine
 10
-24.299999999999955
 20
52.949999999999967
 30
0.0
 11
-28.299999999999955
 21
52.949999999999967
 31
0.0
  0
LINE
  5
445
100
AcDbEntity
  8
0
  6
CONTINUOUS
 62
               7
100
AcDbLine
 10
-20.63999999999993
 20
53.849999999999945
 30
0.0
 11
-24.299999999999955
 21
53.849999999999945
 31
0.0
  0
LINE
  5
446
100
AcDbEntity
  8
0
  6
CONTINUOUS
 62
               7
100
AcDbLine
 10
-20.989999999999952
 20
52.549999999999962
 30
0.0
 11
-24.299999999999955
 21
52.549999999999962
 31
0.0
  0
LINE
  5
447
100
AcDbEntity
  8
0
  6
CONTINUOUS
 62
               7
100
AcDbLine
 10
-25.699999999999932
 20
13.049999999999983
 30
0.0
 11
-25.699999999999932
 21
12.700000000000045
 31
0.0
  0
LINE
  5
448
100
AcDbEntity
  8
0
  6
CONTINUOUS
 62
               7
100
AcDbLine
 10
-24.299999999999955
 20
12.700000000000045
 30
0.0
 11
-25.699999999999932
 21
12.700000000000045
 31
0.0
  0
LINE
  5
449
100
AcDbEntity
  8
0
  6
CONTINUOUS
 62
               7
100
AcDbLine
 10
-20.699999999999932
 20
13.949999999999974
 30
0.0
 11
-20.699999999999932
 21
17.5
 31
0.0
  0
LINE
  5
44A
100
AcDbEntity
  8
0
  6
CONTINUOUS
 62
               7
100
AcDbLine
 10
-25.699999999999932
 20
53.449999999999967
 30
0.0
 11
-25.699999999999932
 21
53.799999999999912
 31
0.0
  0
ENDBLK
  5
44B
100
AcDbEntity
  8
0
100
AcDbBlockEnd
  0
BLOCK
  5
44C
100
AcDbEntity
  8
0
100
AcDbBlockBegin
  2
MV030MAS-11-9
 70
               0
 10
0.0
 20
0.0
 30
0.0
  3
MV030MAS-11-9
  1

  0
INSERT
  5
44D
100
AcDbEntity
  8
0
  6
ByBlock
100
AcDbBlockReference
  2
MV030MAS-11-2
 10
58.799999999999955
 20
-4.5
 30
0.0
  0
INSERT
  5
44E
100
AcDbEntity
  8
0
  6
ByBlock
100
AcDbBlockReference
  2
MV030MAS-11-2
 10
69.0
 20
-4.5
 30
0.0
  0
INSERT
  5
44F
100
AcDbEntity
  8
0
  6
ByBlock
100
AcDbBlockReference
  2
MV030MAS-11-2
 10
79.199999999999989
 20
-4.5
 30
0.0
  0
INSERT
  5
450
100
AcDbEntity
  8
0
  6
ByBlock
100
AcDbBlockReference
  2
MV030MAS-11-2
 10
89.399999999999977
 20
-4.5
 30
0.0
  0
INSERT
  5
451
100
AcDbEntity
  8
0
  6
ByBlock
100
AcDbBlockReference
  2
MV030MAS-11-13
 10
48.600000000000023
 20
-4.5
 30
0.0
  0
INSERT
  5
452
100
AcDbEntity
  8
0
  6
ByBlock
100
AcDbBlockReference
  2
MV030MAS-11-14
 10
38.399999999999977
 20
-4.5
 30
0.0
  0
INSERT
  5
453
100
AcDbEntity
  8
0
  6
ByBlock
100
AcDbBlockReference
  2
MV030MAS-11-14
 10
28.199999999999989
 20
-4.5
 30
0.0
  0
INSERT
  5
454
100
AcDbEntity
  8
0
  6
ByBlock
100
AcDbBlockReference
  2
MV030MAS-11-15
 10
18.0
 20
-4.5
 30
0.0
  0
LINE
  5
455
100
AcDbEntity
  8
0
  6
CENTER
 62
             200
100
AcDbLine
 10
104.39999999999981
 20
-20.471124524314746
 30
0.0
 11
104.39999999999981
 21
-25.5
 31
0.0
  0
LINE
  5
456
100
AcDbEntity
  8
0
  6
CENTER
 62
             200
100
AcDbLine
 10
101.89999999999981
 20
-23.0
 30
0.0
 11
106.89999999999981
 21
-23.0
 31
0.0
  0
LINE
  5
457
100
AcDbEntity
  8
0
  6
CENTER
 62
             200
100
AcDbLine
 10
117.39999999999981
 20
-20.471124524314746
 30
0.0
 11
117.39999999999981
 21
-25.5
 31
0.0
  0
LINE
  5
458
100
AcDbEntity
  8
0
  6
CENTER
 62
             200
100
AcDbLine
 10
111.95740968675079
 20
-23.0
 30
0.0
 11
119.89999999999981
 21
-23.0
 31
0.0
  0
LINE
  5
459
100
AcDbEntity
  8
0
  6
CENTER
 62
             200
100
AcDbLine
 10
114.39999999999981
 20
-20.471124524314746
 30
0.0
 11
114.39999999999981
 21
-25.5
 31
0.0
  0
LINE
  5
45A
100
AcDbEntity
  8
0
  6
CENTER
 62
             200
100
AcDbLine
 10
104.40533723752901
 20
-6.5
 30
0.0
 11
96.699999999999818
 21
-6.5
 31
0.0
  0
LINE
  5
45B
100
AcDbEntity
  8
0
  6
CENTER
 62
             200
100
AcDbLine
 10
104.40533723752901
 20
-16.5
 30
0.0
 11
96.699999999999818
 21
-16.5
 31
0.0
  0
LINE
  5
45C
100
AcDbEntity
  8
0
  6
CENTER
 62
             200
100
AcDbLine
 10
0.2319170511998721
 20
-16.5
 30
0.0
 11
7.6999999999999886
 21
-16.5
 31
0.0
  0
LINE
  5
45D
100
AcDbEntity
  8
0
  6
CENTER
 62
             200
100
AcDbLine
 10
-0.0056298598844648
 20
-6.5
 30
0.0
 11
7.6999999999999886
 21
-6.5
 31
0.0
  0
LINE
  5
45E
100
AcDbEntity
  8
0
  6
CENTER
 62
             200
100
AcDbLine
 10
0.0
 20
-2.5288754756850267
 30
0.0
 11
0.0
 21
2.5
 31
0.0
  0
LINE
  5
45F
100
AcDbEntity
  8
0
  6
CENTER
 62
             200
100
AcDbLine
 10
2.5
 20
0.0
 30
0.0
 11
-2.5
 21
0.0
 31
0.0
  0
LINE
  5
460
100
AcDbEntity
  8
0
  6
CENTER
 62
             200
100
AcDbLine
 10
-13.0
 20
-2.5288754756850267
 30
0.0
 11
-13.0
 21
2.5
 31
0.0
  0
LINE
  5
461
100
AcDbEntity
  8
0
  6
CENTER
 62
             200
100
AcDbLine
 10
-7.5574096867509866
 20
0.0
 30
0.0
 11
-15.5
 21
0.0
 31
0.0
  0
LINE
  5
462
100
AcDbEntity
  8
0
  6
CENTER
 62
             200
100
AcDbLine
 10
-10.0
 20
-2.5288754756850267
 30
0.0
 11
-10.0
 21
2.5
 31
0.0
  0
ARC
  5
463
100
AcDbEntity
  8
0
  6
CONTINUOUS
 62
               4
100
AcDbCircle
 10
98.899999999999807
 20
-2.5
 30
0.0
 40
0.5
100
AcDbArc
 50
89.999999999999815
 51
179.99999999999963
  0
LINE
  5
464
100
AcDbEntity
  8
0
  6
CONTINUOUS
 62
               4
100
AcDbLine
 10
98.399999999999807
 20
-4.5
 30
0.0
 11
98.399999999999807
 21
-2.5
 31
0.0
  0
ARC
  5
465
100
AcDbEntity
  8
0
  6
CONTINUOUS
 62
               4
100
AcDbCircle
 10
98.899999999999807
 20
-26.5
 30
0.0
 40
0.5
100
AcDbArc
 50
179.99999999999963
 51
269.99999999999937
  0
LINE
  5
466
100
AcDbEntity
  8
0
  6
CONTINUOUS
 62
               4
100
AcDbLine
 10
98.399999999999807
 20
-26.5
 30
0.0
 11
98.399999999999807
 21
-18.5
 31
0.0
  0
LINE
  5
467
100
AcDbEntity
  8
0
  6
CONTINUOUS
 62
               4
100
AcDbLine
 10
102.69999999999982
 20
-19.25
 30
0.0
 11
102.69999999999982
 21
-13.75
 31
0.0
  0
LINE
  5
468
100
AcDbEntity
  8
0
  6
CONTINUOUS
 62
               4
100
AcDbLine
 10
102.69999999999982
 20
-19.25
 30
0.0
 11
102.99999999999977
 21
-18.949999999999818
 31
0.0
  0
LINE
  5
469
100
AcDbEntity
  8
0
  6
CONTINUOUS
 62
               4
100
AcDbLine
 10
102.99999999999977
 20
-14.049999999999955
 30
0.0
 11
102.69999999999982
 21
-13.75
 31
0.0
  0
LINE
  5
46A
100
AcDbEntity
  8
0
  6
CONTINUOUS
 62
               4
100
AcDbLine
 10
102.99999999999977
 20
-14.049999999999955
 30
0.0
 11
102.99999999999977
 21
-18.949999999999818
 31
0.0
  0
LINE
  5
46B
100
AcDbEntity
  8
0
  6
CONTINUOUS
 62
               4
100
AcDbLine
 10
102.69999999999982
 20
-13.75
 30
0.0
 11
100.00000000085038
 21
-13.75
 31
0.0
  0
LINE
  5
46C
100
AcDbEntity
  8
0
  6
CONTINUOUS
 62
               4
100
AcDbLine
 10
102.69999999999982
 20
-19.25
 30
0.0
 11
100.00000000085038
 21
-19.25
 31
0.0
  0
LINE
  5
46D
100
AcDbEntity
  8
0
  6
CONTINUOUS
 62
               4
100
AcDbLine
 10
102.69999999999982
 20
-9.25
 30
0.0
 11
102.69999999999982
 21
-3.75
 31
0.0
  0
LINE
  5
46E
100
AcDbEntity
  8
0
  6
CONTINUOUS
 62
               4
100
AcDbLine
 10
102.69999999999982
 20
-9.25
 30
0.0
 11
102.99999999999977
 21
-8.9499999999998181
 31
0.0
  0
LINE
  5
46F
100
AcDbEntity
  8
0
  6
CONTINUOUS
 62
               4
100
AcDbLine
 10
102.99999999999977
 20
-4.0499999999999545
 30
0.0
 11
102.69999999999982
 21
-3.75
 31
0.0
  0
LINE
  5
470
100
AcDbEntity
  8
0
  6
CONTINUOUS
 62
               4
100
AcDbLine
 10
102.99999999999977
 20
-4.0499999999999545
 30
0.0
 11
102.99999999999977
 21
-8.9499999999998181
 31
0.0
  0
LINE
  5
471
100
AcDbEntity
  8
0
  6
CONTINUOUS
 62
               4
100
AcDbLine
 10
102.69999999999982
 20
-3.75
 30
0.0
 11
100.00000000085038
 21
-3.75
 31
0.0
  0
LINE
  5
472
100
AcDbEntity
  8
0
  6
CONTINUOUS
 62
               4
100
AcDbLine
 10
102.69999999999982
 20
-9.25
 30
0.0
 11
100.00000000085038
 21
-9.25
 31
0.0
  0
ARC
  5
473
100
AcDbEntity
  8
0
  6
CONTINUOUS
 62
               4
100
AcDbCircle
 10
117.39999999999981
 20
-23.0
 30
0.0
 40
1.8
100
AcDbArc
 50
231.05755873101808
 51
127.86364636173013
  0
CIRCLE
  5
474
100
AcDbEntity
  8
0
  6
CONTINUOUS
 62
               4
100
AcDbCircle
 10
104.39999999999981
 20
-23.0
 30
0.0
 40
1.8
  0
ARC
  5
475
100
AcDbEntity
  8
0
  6
CONTINUOUS
 62
               4
100
AcDbCircle
 10
117.39999999999981
 20
-23.0
 30
0.0
 40
4.0
100
AcDbArc
 50
269.99999999999937
 51
89.999999999999801
  0
LINE
  5
476
100
AcDbEntity
  8
0
  6
CONTINUOUS
 62
               4
100
AcDbLine
 10
117.39999999999981
 20
-19.0
 30
0.0
 11
102.94999999999982
 21
-19.0
 31
0.0
  0
LINE
  5
477
100
AcDbEntity
  8
0
  6
CONTINUOUS
 62
               4
100
AcDbLine
 10
99.999999999999773
 20
-27.0
 30
0.0
 11
99.999999999999773
 21
-2.5
 31
0.0
  0
ARC
  5
478
100
AcDbEntity
  8
0
  6
CONTINUOUS
 62
               4
100
AcDbCircle
 10
99.499999999999773
 20
-2.5
 30
0.0
 40
0.5
100
AcDbArc
 50
0.0
 51
89.999999999999815
  0
ARC
  5
479
100
AcDbEntity
  8
0
  6
CONTINUOUS
 62
               4
100
AcDbCircle
 10
114.39999999999981
 20
-23.0
 30
0.0
 40
1.3999999999999999
100
AcDbArc
 50
89.999999999999815
 51
269.99999999999937
  0
LINE
  5
47A
100
AcDbEntity
  8
0
  6
CONTINUOUS
 62
               4
100
AcDbLine
 10
114.39999999999981
 20
-24.399999999999864
 30
0.0
 11
116.26862915010133
 21
-24.399999999999864
 31
0.0
  0
LINE
  5
47B
100
AcDbEntity
  8
0
  6
CONTINUOUS
 62
               4
100
AcDbLine
 10
114.39999999999981
 20
-21.599999999999909
 30
0.0
 11
116.23380962103073
 21
-21.599999999999909
 31
0.0
  0
ARC
  5
47C
100
AcDbEntity
  8
0
  6
CONTINUOUS
 62
               4
100
AcDbCircle
 10
116.23380962103073
 20
-21.5
 30
0.0
 40
0.1
100
AcDbArc
 50
269.99999999999937
 51
307.86364636172885
  0
LINE
  5
47D
100
AcDbEntity
  8
0
  6
CONTINUOUS
 62
               4
100
AcDbLine
 10
99.499999999999773
 20
-2.0
 30
0.0
 11
98.899999999999807
 21
-2.0
 31
0.0
  0
LINE
  5
47E
100
AcDbEntity
  8
0
  6
CONTINUOUS
 62
               4
100
AcDbLine
 10
117.39999999999981
 20
-27.0
 30
0.0
 11
98.899999999999807
 21
-27.0
 31
0.0
  0
ARC
  5
47F
100
AcDbEntity
  8
0
  6
CONTINUOUS
 62
               4
100
AcDbCircle
 10
5.5
 20
-20.5
 30
0.0
 40
0.5
100
AcDbArc
 50
269.99999999999937
 51
0.0
  0
LINE
  5
480
100
AcDbEntity
  8
0
  6
CONTINUOUS
 62
               4
100
AcDbLine
 10
6.0
 20
-18.5
 30
0.0
 11
6.0
 21
-20.5
 31
0.0
  0
LINE
  5
481
100
AcDbEntity
  8
0
  6
CONTINUOUS
 62
               4
100
AcDbLine
 10
1.6999999999999886
 20
-13.75
 30
0.0
 11
1.6999999999999886
 21
-19.25
 31
0.0
  0
LINE
  5
482
100
AcDbEntity
  8
0
  6
CONTINUOUS
 62
               4
100
AcDbLine
 10
1.6999999999999886
 20
-13.75
 30
0.0
 11
1.4000000000000057
 21
-14.049999999999955
 31
0.0
  0
LINE
  5
483
100
AcDbEntity
  8
0
  6
CONTINUOUS
 62
               4
100
AcDbLine
 10
1.4000000000000057
 20
-18.950000000000045
 30
0.0
 11
1.6999999999999886
 21
-19.25
 31
0.0
  0
LINE
  5
484
100
AcDbEntity
  8
0
  6
CONTINUOUS
 62
               4
100
AcDbLine
 10
1.4000000000000057
 20
-18.950000000000045
 30
0.0
 11
1.4000000000000057
 21
-14.049999999999955
 31
0.0
  0
LINE
  5
485
100
AcDbEntity
  8
0
  6
CONTINUOUS
 62
               4
100
AcDbLine
 10
1.6999999999999886
 20
-19.25
 30
0.0
 11
4.3999999991494292
 21
-19.25
 31
0.0
  0
LINE
  5
486
100
AcDbEntity
  8
0
  6
CONTINUOUS
 62
               4
100
AcDbLine
 10
1.6999999999999886
 20
-13.75
 30
0.0
 11
4.3999999991494292
 21
-13.75
 31
0.0
  0
LINE
  5
487
100
AcDbEntity
  8
0
  6
CONTINUOUS
 62
               4
100
AcDbLine
 10
1.4000000000000057
 20
-8.9500000000000455
 30
0.0
 11
1.6999999999999886
 21
-9.25
 31
0.0
  0
LINE
  5
488
100
AcDbEntity
  8
0
  6
CONTINUOUS
 62
               4
100
AcDbLine
 10
1.4000000000000057
 20
-8.9500000000000455
 30
0.0
 11
1.4000000000000057
 21
-4.0499999999999545
 31
0.0
  0
LINE
  5
489
100
AcDbEntity
  8
0
  6
CONTINUOUS
 62
               4
100
AcDbLine
 10
1.6999999999999886
 20
-9.25
 30
0.0
 11
4.3999999991494292
 21
-9.25
 31
0.0
  0
LINE
  5
48A
100
AcDbEntity
  8
0
  6
CONTINUOUS
 62
               4
100
AcDbLine
 10
-13.0
 20
-4.0
 30
0.0
 11
1.4499999999999886
 21
-4.0
 31
0.0
  0
ARC
  5
48B
100
AcDbEntity
  8
0
  6
CONTINUOUS
 62
               4
100
AcDbCircle
 10
4.9000000000000057
 20
-20.5
 30
0.0
 40
0.5
100
AcDbArc
 50
179.99999999999963
 51
269.99999999999937
  0
LINE
  5
48C
100
AcDbEntity
  8
0
  6
CONTINUOUS
 62
               4
100
AcDbLine
 10
4.9000000000000057
 20
-21.0
 30
0.0
 11
5.5
 21
-21.0
 31
0.0
  0
LINE
  5
48D
100
AcDbEntity
  8
0
  6
CONTINUOUS
 62
               4
100
AcDbLine
 10
1.6999999999999886
 20
-3.75
 30
0.0
 11
4.3999999991494292
 21
-3.75
 31
0.0
  0
ARC
  5
48E
100
AcDbEntity
  8
0
  6
CONTINUOUS
 62
               4
100
AcDbCircle
 10
-13.0
 20
0.0
 30
0.0
 40
1.8
100
AcDbArc
 50
51.057558731018446
 51
307.86364636172982
  0
CIRCLE
  5
48F
100
AcDbEntity
  8
0
  6
CONTINUOUS
 62
               4
100
AcDbCircle
 10
0.0
 20
0.0
 30
0.0
 40
1.8
  0
LINE
  5
490
100
AcDbEntity
  8
0
  6
CONTINUOUS
 62
               4
100
AcDbLine
 10
-13.0
 20
4.0
 30
0.0
 11
5.5
 21
4.0
 31
0.0
  0
ARC
  5
491
100
AcDbEntity
  8
0
  6
CONTINUOUS
 62
               4
100
AcDbCircle
 10
5.5
 20
3.5
 30
0.0
 40
0.5
100
AcDbArc
 50
0.0
 51
89.999999999999815
  0
ARC
  5
492
100
AcDbEntity
  8
0
  6
CONTINUOUS
 62
               4
100
AcDbCircle
 10
-10.0
 20
0.0
 30
0.0
 40
1.3999999999999999
100
AcDbArc
 50
269.99999999999937
 51
89.999999999999801
  0
LINE
  5
493
100
AcDbEntity
  8
0
  6
CONTINUOUS
 62
               4
100
AcDbLine
 10
-10.0
 20
1.4000000000000909
 30
0.0
 11
-11.868629150101526
 21
1.4000000000000909
 31
0.0
  0
LINE
  5
494
100
AcDbEntity
  8
0
  6
CONTINUOUS
 62
               4
100
AcDbLine
 10
-10.0
 20
-1.3999999999998636
 30
0.0
 11
-11.833809621030923
 21
-1.3999999999998636
 31
0.0
  0
ARC
  5
495
100
AcDbEntity
  8
0
  6
CONTINUOUS
 62
               4
100
AcDbCircle
 10
-11.833809621030923
 20
-1.5
 30
0.0
 40
0.1
100
AcDbArc
 50
89.999999999999815
 51
127.86364636172927
  0
LINE
  5
496
100
AcDbEntity
  8
0
  6
CONTINUOUS
 62
               4
100
AcDbLine
 10
4.4000000000000057
 20
4.0
 30
0.0
 11
4.4000000000000057
 21
-20.5
 31
0.0
  0
LINE
  5
497
100
AcDbEntity
  8
0
  6
CONTINUOUS
 62
               4
100
AcDbLine
 10
6.0
 20
3.5
 30
0.0
 11
6.0
 21
-4.5
 31
0.0
  0
ARC
  5
498
100
AcDbEntity
  8
0
  6
CONTINUOUS
 62
               4
100
AcDbCircle
 10
-13.0
 20
0.0
 30
0.0
 40
4.0
100
AcDbArc
 50
89.999999999999815
 51
269.99999999999937
  0
LINE
  5
499
100
AcDbEntity
  8
0
  6
CONTINUOUS
 62
               4
100
AcDbLine
 10
1.6999999999999886
 20
-3.75
 30
0.0
 11
1.4000000000000057
 21
-4.0499999999999545
 31
0.0
  0
LINE
  5
49A
100
AcDbEntity
  8
0
  6
CONTINUOUS
 62
               4
100
AcDbLine
 10
1.6999999999999886
 20
-3.75
 30
0.0
 11
1.6999999999999886
 21
-9.25
 31
0.0
  0
LINE
  5
49B
100
AcDbEntity
  8
0
  6
CONTINUOUS
 62
               7
100
AcDbLine
 10
98.399999999999864
 20
-4.5
 30
0.0
 11
6.0
 21
-4.5
 31
0.0
  0
LINE
  5
49C
100
AcDbEntity
  8
0
  6
CONTINUOUS
 62
               7
100
AcDbLine
 10
98.399999999999864
 20
-18.5
 30
0.0
 11
6.0
 21
-18.5
 31
0.0
  0
LINE
  5
49D
100
AcDbEntity
  8
0
  6
CONTINUOUS
 62
               7
100
AcDbLine
 10
6.0
 20
-4.5
 30
0.0
 11
6.0
 21
-18.5
 31
0.0
  0
LINE
  5
49E
100
AcDbEntity
  8
0
  6
CONTINUOUS
 62
               7
100
AcDbLine
 10
98.399999999999864
 20
-4.5
 30
0.0
 11
98.399999999999864
 21
-18.5
 31
0.0
  0
LINE
  5
49F
100
AcDbEntity
  8
0
  6
CENTER
 62
               2
100
AcDbLine
 10
22.818634804236581
 20
-13.5
 30
0.0
 11
14.174806184707506
 21
-13.5
 31
0.0
  0
LINE
  5
4A0
100
AcDbEntity
  8
0
  6
CENTER
 62
               2
100
AcDbLine
 10
18.600000000000023
 20
-17.532416678574918
 30
0.0
 11
18.600000000000023
 21
-9.4710478221570611
 31
0.0
  0
CIRCLE
  5
4A1
100
AcDbEntity
  8
0
  6
CONTINUOUS
 62
               7
100
AcDbCircle
 10
18.600000000000023
 20
-13.5
 30
0.0
 40
3.25
  0
CIRCLE
  5
4A2
100
AcDbEntity
  8
0
  6
CONTINUOUS
 62
               7
100
AcDbCircle
 10
18.600000000000023
 20
-13.5
 30
0.0
 40
3.0
  0
LINE
  5
4A3
100
AcDbEntity
  8
0
  6
CENTER
 62
               2
100
AcDbLine
 10
33.018634804236626
 20
-13.5
 30
0.0
 11
24.374806184707495
 21
-13.5
 31
0.0
  0
LINE
  5
4A4
100
AcDbEntity
  8
0
  6
CONTINUOUS
 62
               7
100
AcDbLine
 10
26.350510257216833
 20
-14.0
 30
0.0
 11
31.24948974278319
 21
-14.0
 31
0.0
  0
LINE
  5
4A5
100
AcDbEntity
  8
0
  6
CONTINUOUS
 62
               7
100
AcDbLine
 10
26.350510257216833
 20
-13.0
 30
0.0
 11
31.24948974278319
 21
-13.0
 31
0.0
  0
LINE
  5
4A6
100
AcDbEntity
  8
0
  6
CENTER
 62
               2
100
AcDbLine
 10
28.800000000000011
 20
-17.532416678574918
 30
0.0
 11
28.800000000000011
 21
-9.4710478221570611
 31
0.0
  0
CIRCLE
  5
4A7
100
AcDbEntity
  8
0
  6
CONTINUOUS
 62
               7
100
AcDbCircle
 10
28.800000000000011
 20
-13.5
 30
0.0
 40
3.25
  0
CIRCLE
  5
4A8
100
AcDbEntity
  8
0
  6
CONTINUOUS
 62
               7
100
AcDbCircle
 10
28.800000000000011
 20
-13.5
 30
0.0
 40
3.0
  0
CIRCLE
  5
4A9
100
AcDbEntity
  8
0
  6
CONTINUOUS
 62
               7
100
AcDbCircle
 10
28.800000000000011
 20
-13.5
 30
0.0
 40
2.5
  0
LINE
  5
4AA
100
AcDbEntity
  8
0
  6
CENTER
 62
               2
100
AcDbLine
 10
43.218634804236558
 20
-13.5
 30
0.0
 11
34.574806184707484
 21
-13.5
 31
0.0
  0
LINE
  5
4AB
100
AcDbEntity
  8
0
  6
CONTINUOUS
 62
               7
100
AcDbLine
 10
36.550510257216821
 20
-14.0
 30
0.0
 11
41.449489742783179
 21
-14.0
 31
0.0
  0
LINE
  5
4AC
100
AcDbEntity
  8
0
  6
CONTINUOUS
 62
               7
100
AcDbLine
 10
36.550510257216821
 20
-13.0
 30
0.0
 11
41.449489742783179
 21
-13.0
 31
0.0
  0
LINE
  5
4AD
100
AcDbEntity
  8
0
  6
CENTER
 62
               2
100
AcDbLine
 10
39.0
 20
-17.532416678574918
 30
0.0
 11
39.0
 21
-9.4710478221570611
 31
0.0
  0
CIRCLE
  5
4AE
100
AcDbEntity
  8
0
  6
CONTINUOUS
 62
               7
100
AcDbCircle
 10
39.0
 20
-13.5
 30
0.0
 40
3.25
  0
CIRCLE
  5
4AF
100
AcDbEntity
  8
0
  6
CONTINUOUS
 62
               7
100
AcDbCircle
 10
39.0
 20
-13.5
 30
0.0
 40
3.0
  0
CIRCLE
  5
4B0
100
AcDbEntity
  8
0
  6
CONTINUOUS
 62
               7
100
AcDbCircle
 10
39.0
 20
-13.5
 30
0.0
 40
2.5
  0
LINE
  5
4B1
100
AcDbEntity
  8
0
  6
CENTER
 62
               2
100
AcDbLine
 10
53.418634804236603
 20
-13.5
 30
0.0
 11
44.774806184707472
 21
-13.5
 31
0.0
  0
LINE
  5
4B2
100
AcDbEntity
  8
0
  6
CONTINUOUS
 62
               7
100
AcDbLine
 10
46.750510257216867
 20
-14.0
 30
0.0
 11
51.649489742783224
 21
-14.0
 31
0.0
  0
LINE
  5
4B3
100
AcDbEntity
  8
0
  6
CONTINUOUS
 62
               7
100
AcDbLine
 10
46.750510257216867
 20
-13.0
 30
0.0
 11
51.649489742783224
 21
-13.0
 31
0.0
  0
LINE
  5
4B4
100
AcDbEntity
  8
0
  6
CENTER
 62
               2
100
AcDbLine
 10
49.200000000000045
 20
-17.532416678574918
 30
0.0
 11
49.200000000000045
 21
-9.4710478221570611
 31
0.0
  0
CIRCLE
  5
4B5
100
AcDbEntity
  8
0
  6
CONTINUOUS
 62
               7
100
AcDbCircle
 10
49.200000000000045
 20
-13.5
 30
0.0
 40
3.25
  0
CIRCLE
  5
4B6
100
AcDbEntity
  8
0
  6
CONTINUOUS
 62
               7
100
AcDbCircle
 10
49.200000000000045
 20
-13.5
 30
0.0
 40
3.0
  0
CIRCLE
  5
4B7
100
AcDbEntity
  8
0
  6
CONTINUOUS
 62
               7
100
AcDbCircle
 10
49.200000000000045
 20
-13.5
 30
0.0
 40
2.5
  0
LINE
  5
4B8
100
AcDbEntity
  8
0
  6
CENTER
 62
               2
100
AcDbLine
 10
63.618634804236592
 20
-13.5
 30
0.0
 11
54.974806184707518
 21
-13.5
 31
0.0
  0
LINE
  5
4B9
100
AcDbEntity
  8
0
  6
CONTINUOUS
 62
               7
100
AcDbLine
 10
56.950510257216855
 20
-14.0
 30
0.0
 11
61.849489742783213
 21
-14.0
 31
0.0
  0
LINE
  5
4BA
100
AcDbEntity
  8
0
  6
CONTINUOUS
 62
               7
100
AcDbLine
 10
56.950510257216855
 20
-13.0
 30
0.0
 11
61.849489742783213
 21
-13.0
 31
0.0
  0
LINE
  5
4BB
100
AcDbEntity
  8
0
  6
CENTER
 62
               2
100
AcDbLine
 10
59.400000000000034
 20
-17.532416678574918
 30
0.0
 11
59.400000000000034
 21
-9.4710478221570611
 31
0.0
  0
CIRCLE
  5
4BC
100
AcDbEntity
  8
0
  6
CONTINUOUS
 62
               7
100
AcDbCircle
 10
59.400000000000034
 20
-13.5
 30
0.0
 40
3.25
  0
CIRCLE
  5
4BD
100
AcDbEntity
  8
0
  6
CONTINUOUS
 62
               7
100
AcDbCircle
 10
59.400000000000034
 20
-13.5
 30
0.0
 40
3.0
  0
CIRCLE
  5
4BE
100
AcDbEntity
  8
0
  6
CONTINUOUS
 62
               7
100
AcDbCircle
 10
59.400000000000034
 20
-13.5
 30
0.0
 40
2.5
  0
LINE
  5
4BF
100
AcDbEntity
  8
0
  6
CENTER
 62
               2
100
AcDbLine
 10
73.818634804236581
 20
-13.5
 30
0.0
 11
65.174806184707506
 21
-13.5
 31
0.0
  0
LINE
  5
4C0
100
AcDbEntity
  8
0
  6
CONTINUOUS
 62
               7
100
AcDbLine
 10
67.150510257216851
 20
-14.0
 30
0.0
 11
72.049489742783194
 21
-14.0
 31
0.0
  0
LINE
  5
4C1
100
AcDbEntity
  8
0
  6
CONTINUOUS
 62
               7
100
AcDbLine
 10
67.150510257216851
 20
-13.0
 30
0.0
 11
72.049489742783194
 21
-13.0
 31
0.0
  0
LINE
  5
4C2
100
AcDbEntity
  8
0
  6
CENTER
 62
               2
100
AcDbLine
 10
69.600000000000023
 20
-17.532416678574918
 30
0.0
 11
69.600000000000023
 21
-9.4710478221570611
 31
0.0
  0
CIRCLE
  5
4C3
100
AcDbEntity
  8
0
  6
CONTINUOUS
 62
               7
100
AcDbCircle
 10
69.600000000000023
 20
-13.5
 30
0.0
 40
3.25
  0
CIRCLE
  5
4C4
100
AcDbEntity
  8
0
  6
CONTINUOUS
 62
               7
100
AcDbCircle
 10
69.600000000000023
 20
-13.5
 30
0.0
 40
3.0
  0
CIRCLE
  5
4C5
100
AcDbEntity
  8
0
  6
CONTINUOUS
 62
               7
100
AcDbCircle
 10
69.600000000000023
 20
-13.5
 30
0.0
 40
2.5
  0
LINE
  5
4C6
100
AcDbEntity
  8
0
  6
CENTER
 62
               2
100
AcDbLine
 10
84.018634804236626
 20
-13.5
 30
0.0
 11
75.374806184707495
 21
-13.5
 31
0.0
  0
LINE
  5
4C7
100
AcDbEntity
  8
0
  6
CONTINUOUS
 62
               7
100
AcDbLine
 10
77.35051025721684
 20
-14.0
 30
0.0
 11
82.249489742783183
 21
-14.0
 31
0.0
  0
LINE
  5
4C8
100
AcDbEntity
  8
0
  6
CONTINUOUS
 62
               7
100
AcDbLine
 10
77.35051025721684
 20
-13.0
 30
0.0
 11
82.249489742783183
 21
-13.0
 31
0.0
  0
LINE
  5
4C9
100
AcDbEntity
  8
0
  6
CENTER
 62
               2
100
AcDbLine
 10
79.800000000000011
 20
-17.532416678574918
 30
0.0
 11
79.800000000000011
 21
-9.4710478221570611
 31
0.0
  0
CIRCLE
  5
4CA
100
AcDbEntity
  8
0
  6
CONTINUOUS
 62
               7
100
AcDbCircle
 10
79.800000000000011
 20
-13.5
 30
0.0
 40
3.25
  0
CIRCLE
  5
4CB
100
AcDbEntity
  8
0
  6
CONTINUOUS
 62
               7
100
AcDbCircle
 10
79.800000000000011
 20
-13.5
 30
0.0
 40
3.0
  0
CIRCLE
  5
4CC
100
AcDbEntity
  8
0
  6
CONTINUOUS
 62
               7
100
AcDbCircle
 10
79.800000000000011
 20
-13.5
 30
0.0
 40
2.5
  0
LINE
  5
4CD
100
AcDbEntity
  8
0
  6
CENTER
 62
               2
100
AcDbLine
 10
94.218634804236615
 20
-13.5
 30
0.0
 11
85.574806184707541
 21
-13.5
 31
0.0
  0
LINE
  5
4CE
100
AcDbEntity
  8
0
  6
CONTINUOUS
 62
               7
100
AcDbLine
 10
87.550510257216828
 20
-14.0
 30
0.0
 11
92.449489742783172
 21
-14.0
 31
0.0
  0
LINE
  5
4CF
100
AcDbEntity
  8
0
  6
CONTINUOUS
 62
               7
100
AcDbLine
 10
87.550510257216828
 20
-13.0
 30
0.0
 11
92.449489742783172
 21
-13.0
 31
0.0
  0
LINE
  5
4D0
100
AcDbEntity
  8
0
  6
CENTER
 62
               2
100
AcDbLine
 10
90.0
 20
-17.532416678574918
 30
0.0
 11
90.0
 21
-9.4710478221570611
 31
0.0
  0
CIRCLE
  5
4D1
100
AcDbEntity
  8
0
  6
CONTINUOUS
 62
               7
100
AcDbCircle
 10
90.0
 20
-13.5
 30
0.0
 40
3.25
  0
CIRCLE
  5
4D2
100
AcDbEntity
  8
0
  6
CONTINUOUS
 62
               7
100
AcDbCircle
 10
90.0
 20
-13.5
 30
0.0
 40
3.0
  0
CIRCLE
  5
4D3
100
AcDbEntity
  8
0
  6
CONTINUOUS
 62
               7
100
AcDbCircle
 10
90.0
 20
-13.5
 30
0.0
 40
2.5
  0
ENDBLK
  5
4D4
100
AcDbEntity
  8
0
100
AcDbBlockEnd
  0
BLOCK
  5
4D5
100
AcDbEntity
  8
0
100
AcDbBlockBegin
  2
MV030MAS-11-10
 70
               0
 10
0.0
 20
0.0
 30
0.0
  3
MV030MAS-11-10
  1

  0
INSERT
  5
4D6
100
AcDbEntity
  8
0
  6
ByBlock
100
AcDbBlockReference
  2
MV030MAS-11-6
 10
-86.399999999999977
 20
0.0
 30
0.0
  0
INSERT
  5
4D7
100
AcDbEntity
  8
0
  6
ByBlock
100
AcDbBlockReference
  2
MV030MAS-11-6
 10
-76.199999999999932
 20
0.0
 30
0.0
  0
INSERT
  5
4D8
100
AcDbEntity
  8
0
  6
ByBlock
100
AcDbBlockReference
  2
MV030MAS-11-6
 10
-65.999999999999886
 20
0.0
 30
0.0
  0
INSERT
  5
4D9
100
AcDbEntity
  8
0
  6
ByBlock
100
AcDbBlockReference
  2
MV030MAS-11-6
 10
-55.799999999999841
 20
0.0
 30
0.0
  0
INSERT
  5
4DA
100
AcDbEntity
  8
0
  6
ByBlock
100
AcDbBlockReference
  2
MV030MAS-11-7
 10
-45.599999999999795
 20
0.0
 30
0.0
  0
INSERT
  5
4DB
100
AcDbEntity
  8
0
  6
ByBlock
100
AcDbBlockReference
  2
MV030MAS-11-4
 10
-35.39999999999975
 20
0.0
 30
0.0
  0
INSERT
  5
4DC
100
AcDbEntity
  8
0
  6
ByBlock
100
AcDbBlockReference
  2
MV030MAS-11-4
 10
-25.199999999999704
 20
0.0
 30
0.0
  0
INSERT
  5
4DD
100
AcDbEntity
  8
0
  6
ByBlock
100
AcDbBlockReference
  2
MV030MAS-11-5
 10
-14.999999999999659
 20
0.0
 30
0.0
 50
359.99999999999903
  0
LINE
  5
4DE
100
AcDbEntity
  8
0
  6
CONTINUOUS
 62
               4
100
AcDbLine
 10
-1.6999999999999886
 20
8.75
 30
0.0
 11
-4.3999999991494292
 21
8.75
 31
0.0
  0
LINE
  5
4DF
100
AcDbEntity
  8
0
  6
CONTINUOUS
 62
               4
100
AcDbLine
 10
-1.6999999999999886
 20
3.25
 30
0.0
 11
-4.3999999991494292
 21
3.25
 31
0.0
  0
LINE
  5
4E0
100
AcDbEntity
  8
0
  6
CONTINUOUS
 62
               4
100
AcDbLine
 10
-1.4000000000000057
 20
3.5500000000000114
 30
0.0
 11
-1.4000000000000057
 21
8.4499999999999886
 31
0.0
  0
LINE
  5
4E1
100
AcDbEntity
  8
0
  6
CONTINUOUS
 62
               4
100
AcDbLine
 10
-1.4000000000000057
 20
3.5500000000000114
 30
0.0
 11
-1.6999999999999886
 21
3.25
 31
0.0
  0
LINE
  5
4E2
100
AcDbEntity
  8
0
  6
CONTINUOUS
 62
               4
100
AcDbLine
 10
-1.6999999999999886
 20
8.75
 30
0.0
 11
-1.4000000000000057
 21
8.4499999999999886
 31
0.0
  0
LINE
  5
4E3
100
AcDbEntity
  8
0
  6
CONTINUOUS
 62
               4
100
AcDbLine
 10
-1.6999999999999886
 20
8.75
 30
0.0
 11
-1.6999999999999886
 21
3.25
 31
0.0
  0
LINE
  5
4E4
100
AcDbEntity
  8
0
  6
CONTINUOUS
 62
               4
100
AcDbLine
 10
-4.9000000000000057
 20
10.0
 30
0.0
 11
-5.5
 21
10.0
 31
0.0
  0
LINE
  5
4E5
100
AcDbEntity
  8
0
  6
CONTINUOUS
 62
               4
100
AcDbLine
 10
16.5
 20
0.0
 30
0.0
 11
-5.5
 21
0.0
 31
0.0
  0
LINE
  5
4E6
100
AcDbEntity
  8
0
  6
CONTINUOUS
 62
               4
100
AcDbLine
 10
16.5
 20
1.6000000000000227
 30
0.0
 11
-4.0
 21
1.6000000000000227
 31
0.0
  0
LINE
  5
4E7
100
AcDbEntity
  8
0
  6
CONTINUOUS
 62
               4
100
AcDbLine
 10
-4.4000000000000057
 20
9.5
 30
0.0
 11
-4.4000000000000057
 21
0.040408205773474
 31
0.0
  0
LINE
  5
4E8
100
AcDbEntity
  8
0
  6
CONTINUOUS
 62
               4
100
AcDbLine
 10
17.0
 20
0.5
 30
0.0
 11
17.0
 21
1.1000000000000227
 31
0.0
  0
ARC
  5
4E9
100
AcDbEntity
  8
0
  6
CONTINUOUS
 62
               4
100
AcDbCircle
 10
16.5
 20
0.5
 30
0.0
 40
0.5
100
AcDbArc
 50
269.99999999999937
 51
0.0
  0
ARC
  5
4EA
100
AcDbEntity
  8
0
  6
CONTINUOUS
 62
               4
100
AcDbCircle
 10
16.5
 20
1.1000000000000227
 30
0.0
 40
0.5
100
AcDbArc
 50
0.0
 51
89.999999999999815
  0
ARC
  5
4EB
100
AcDbEntity
  8
0
  6
CONTINUOUS
 62
               4
100
AcDbCircle
 10
-4.9000000000000057
 20
9.5
 30
0.0
 40
0.5
100
AcDbArc
 50
0.0
 51
89.999999999999815
  0
ARC
  5
4EC
100
AcDbEntity
  8
0
  6
CONTINUOUS
 62
               4
100
AcDbCircle
 10
-4.0
 20
2.0
 30
0.0
 40
0.4
100
AcDbArc
 50
179.99999999999963
 51
269.99999999999937
  0
LINE
  5
4ED
100
AcDbEntity
  8
0
  6
CENTER
 62
             200
100
AcDbLine
 10
13.0
 20
-1.6999999999999886
 30
0.0
 11
13.0
 21
3.3000000000000114
 31
0.0
  0
LINE
  5
4EE
100
AcDbEntity
  8
0
  6
CENTER
 62
             200
100
AcDbLine
 10
10.0
 20
-1.6999999999999886
 30
0.0
 11
10.0
 21
3.3000000000000114
 31
0.0
  0
LINE
  5
4EF
100
AcDbEntity
  8
0
  6
CENTER
 62
             200
100
AcDbLine
 10
0.0
 20
-1.6999999999999886
 30
0.0
 11
0.0
 21
3.3000000000000114
 31
0.0
  0
ARC
  5
4F0
100
AcDbEntity
  8
0
  6
CONTINUOUS
 62
               4
100
AcDbCircle
 10
-5.5
 20
9.5
 30
0.0
 40
0.5
100
AcDbArc
 50
89.999999999999815
 51
179.99999999999963
  0
ARC
  5
4F1
100
AcDbEntity
  8
0
  6
CENTER
 62
             200
100
AcDbCircle
 10
-4.0
 20
2.0
 30
0.0
 40
2.0
100
AcDbArc
 50
179.99999999999963
 51
269.99999999999937
  0
ARC
  5
4F2
100
AcDbEntity
  8
0
  6
CONTINUOUS
 62
               4
100
AcDbCircle
 10
-5.5
 20
0.5
 30
0.0
 40
0.5
100
AcDbArc
 50
179.99999999999963
 51
269.99999999999937
  0
LINE
  5
4F3
100
AcDbEntity
  8
0
  6
CENTER
 62
             200
100
AcDbLine
 10
-0.3486132506550916
 20
6.0
 30
0.0
 11
-7.6999999999999886
 21
6.0
 31
0.0
  0
LINE
  5
4F4
100
AcDbEntity
  8
0
  6
CONTINUOUS
 62
               4
100
AcDbLine
 10
-102.69999999999999
 20
3.25
 30
0.0
 11
-102.69999999999999
 21
8.75
 31
0.0
  0
LINE
  5
4F5
100
AcDbEntity
  8
0
  6
CONTINUOUS
 62
               4
100
AcDbLine
 10
-102.69999999999999
 20
3.25
 30
0.0
 11
-102.99999999999994
 21
3.5500000000000114
 31
0.0
  0
LINE
  5
4F6
100
AcDbEntity
  8
0
  6
CONTINUOUS
 62
               4
100
AcDbLine
 10
-102.99999999999994
 20
8.4499999999999886
 30
0.0
 11
-102.69999999999999
 21
8.75
 31
0.0
  0
LINE
  5
4F7
100
AcDbEntity
  8
0
  6
CONTINUOUS
 62
               4
100
AcDbLine
 10
-102.99999999999994
 20
8.4499999999999886
 30
0.0
 11
-102.99999999999994
 21
3.5500000000000114
 31
0.0
  0
LINE
  5
4F8
100
AcDbEntity
  8
0
  6
CONTINUOUS
 62
               4
100
AcDbLine
 10
-102.69999999999999
 20
8.75
 30
0.0
 11
-100.00000000085055
 21
8.75
 31
0.0
  0
LINE
  5
4F9
100
AcDbEntity
  8
0
  6
CONTINUOUS
 62
               4
100
AcDbLine
 10
-102.69999999999999
 20
3.25
 30
0.0
 11
-100.00000000085055
 21
3.25
 31
0.0
  0
LINE
  5
4FA
100
AcDbEntity
  8
0
  6
CENTER
 62
             200
100
AcDbLine
 10
-104.39999999999992
 20
-1.6999999999999886
 30
0.0
 11
-104.39999999999992
 21
3.3000000000000114
 31
0.0
  0
LINE
  5
4FB
100
AcDbEntity
  8
0
  6
CENTER
 62
             200
100
AcDbLine
 10
-114.39999999999992
 20
-1.6999999999999886
 30
0.0
 11
-114.39999999999992
 21
3.3000000000000114
 31
0.0
  0
LINE
  5
4FC
100
AcDbEntity
  8
0
  6
CENTER
 62
             200
100
AcDbLine
 10
-117.39999999999992
 20
-1.6999999999999886
 30
0.0
 11
-117.39999999999992
 21
3.3000000000000114
 31
0.0
  0
ARC
  5
4FD
100
AcDbEntity
  8
0
  6
CONTINUOUS
 62
               4
100
AcDbCircle
 10
-100.39999999999992
 20
2.0
 30
0.0
 40
0.4
100
AcDbArc
 50
270.00000000000023
 51
0.0
  0
ARC
  5
4FE
100
AcDbEntity
  8
0
  6
CONTINUOUS
 62
               4
100
AcDbCircle
 10
-99.499999999999943
 20
9.5
 30
0.0
 40
0.5
100
AcDbArc
 50
89.999999999999815
 51
179.99999999999963
  0
ARC
  5
4FF
100
AcDbEntity
  8
0
  6
CONTINUOUS
 62
               4
100
AcDbCircle
 10
-120.89999999999992
 20
1.1000000000000227
 30
0.0
 40
0.5
100
AcDbArc
 50
89.999999999999815
 51
179.99999999999963
  0
ARC
  5
500
100
AcDbEntity
  8
0
  6
CONTINUOUS
 62
               4
100
AcDbCircle
 10
-120.89999999999992
 20
0.5
 30
0.0
 40
0.5
100
AcDbArc
 50
179.99999999999963
 51
269.99999999999937
  0
LINE
  5
501
100
AcDbEntity
  8
0
  6
CONTINUOUS
 62
               4
100
AcDbLine
 10
-121.39999999999992
 20
0.5
 30
0.0
 11
-121.39999999999992
 21
1.1000000000000227
 31
0.0
  0
LINE
  5
502
100
AcDbEntity
  8
0
  6
CONTINUOUS
 62
               4
100
AcDbLine
 10
-99.999999999999943
 20
9.5
 30
0.0
 11
-99.999999999999943
 21
2.0
 31
0.0
  0
LINE
  5
503
100
AcDbEntity
  8
0
  6
CONTINUOUS
 62
               4
100
AcDbLine
 10
-120.89999999999992
 20
1.6000000000000227
 30
0.0
 11
-100.39999999999992
 21
1.6000000000000227
 31
0.0
  0
LINE
  5
504
100
AcDbEntity
  8
0
  6
CONTINUOUS
 62
               4
100
AcDbLine
 10
-120.89999999999992
 20
0.0
 30
0.0
 11
-98.89999999999992
 21
0.0
 31
0.0
  0
LINE
  5
505
100
AcDbEntity
  8
0
  6
CONTINUOUS
 62
               4
100
AcDbLine
 10
-99.499999999999943
 20
10.0
 30
0.0
 11
-98.89999999999992
 21
10.0
 31
0.0
  0
LINE
  5
506
100
AcDbEntity
  8
0
  6
CENTER
 62
             200
100
AcDbLine
 10
-104.12039957811413
 20
6.0
 30
0.0
 11
-96.699999999999989
 21
6.0
 31
0.0
  0
ARC
  5
507
100
AcDbEntity
  8
0
  6
CONTINUOUS
 62
               4
100
AcDbCircle
 10
-98.89999999999992
 20
0.5
 30
0.0
 40
0.5
100
AcDbArc
 50
270.00000000000023
 51
0.0
  0
ARC
  5
508
100
AcDbEntity
  8
0
  6
CONTINUOUS
 62
               4
100
AcDbCircle
 10
-100.39999999999992
 20
2.0
 30
0.0
 40
2.0
100
AcDbArc
 50
270.00000000000023
 51
0.0
  0
ARC
  5
509
100
AcDbEntity
  8
0
  6
CONTINUOUS
 62
               4
100
AcDbCircle
 10
-98.89999999999992
 20
9.5
 30
0.0
 40
0.5
100
AcDbArc
 50
0.0
 51
89.999999999999815
  0
LINE
  5
50A
100
AcDbEntity
  8
0
  6
CONTINUOUS
 62
               7
100
AcDbLine
 10
-98.399999999999977
 20
54.999999999999943
 30
0.0
 11
-98.399999999999977
 21
0.0
 31
0.0
  0
LINE
  5
50B
100
AcDbEntity
  8
0
  6
CONTINUOUS
 62
               7
100
AcDbLine
 10
-6.0
 20
0.0
 30
0.0
 11
-10.0
 21
0.0
 31
0.0
  0
LINE
  5
50C
100
AcDbEntity
  8
0
  6
CONTINUOUS
 62
               7
100
AcDbLine
 10
-5.9999999999999432
 20
54.999999999999943
 30
0.0
 11
-5.9999999999999432
 21
0.0
 31
0.0
  0
LINE
  5
50D
100
AcDbEntity
  8
0
  6
CONTINUOUS
 62
               7
100
AcDbLine
 10
-98.399999999999977
 20
54.999999999999943
 30
0.0
 11
-91.399999999999977
 21
54.999999999999943
 31
0.0
  0
LINE
  5
50E
100
AcDbEntity
  8
0
  6
CONTINUOUS
 62
               7
100
AcDbLine
 10
-6.0
 20
54.999999999999943
 30
0.0
 11
-10.0
 21
54.999999999999943
 31
0.0
  0
LINE
  5
50F
100
AcDbEntity
  8
0
  6
CONTINUOUS
 62
               7
100
AcDbLine
 10
-91.399999999999977
 20
0.0
 30
0.0
 11
-98.399999999999977
 21
0.0
 31
0.0
  0
ENDBLK
  5
510
100
AcDbEntity
  8
0
100
AcDbBlockEnd
  0
BLOCK
  5
511
100
AcDbEntity
  8
0
100
AcDbBlockBegin
  2
MV030MAS-11-11
 70
               0
 10
0.0
 20
0.0
 30
0.0
  3
MV030MAS-11-11
  1

  0
LINE
  5
512
100
AcDbEntity
  8
0
  6
CONTINUOUS
 62
               7
100
AcDbLine
 10
-5.0
 20
22.5
 30
0.0
 11
5.0
 21
22.5
 31
0.0
  0
LINE
  5
513
100
AcDbEntity
  8
0
  6
CONTINUOUS
 62
               7
100
AcDbLine
 10
-5.0
 20
0.0
 30
0.0
 11
-5.0
 21
58.000000000000114
 31
0.0
  0
LINE
  5
514
100
AcDbEntity
  8
0
  6
CENTER
 62
               2
100
AcDbLine
 10
-3.0
 20
5.5
 30
0.0
 11
3.0
 21
5.5
 31
0.0
  0
LINE
  5
515
100
AcDbEntity
  8
0
  6
CONTINUOUS
 62
               7
100
AcDbLine
 10
-5.0
 20
14.0
 30
0.0
 11
5.0
 21
14.0
 31
0.0
  0
CIRCLE
  5
516
100
AcDbEntity
  8
0
  6
CONTINUOUS
 62
               2
100
AcDbCircle
 10
0.0
 20
5.5
 30
0.0
 40
2.5
  0
CIRCLE
  5
517
100
AcDbEntity
  8
0
  6
CONTINUOUS
 62
               7
100
AcDbCircle
 10
0.0
 20
5.5
 30
0.0
 40
2.1000000000000001
  0
LINE
  5
518
100
AcDbEntity
  8
0
  6
CONTINUOUS
 62
               7
100
AcDbLine
 10
5.0
 20
58.000000000000114
 30
0.0
 11
-5.0
 21
58.000000000000114
 31
0.0
  0
ARC
  5
519
100
AcDbEntity
  8
0
  6
CONTINUOUS
 62
               7
100
AcDbCircle
 10
-3.4500000000000455
 20
64.500000000000114
 30
0.0
 40
1.5
100
AcDbArc
 50
89.999999999999815
 51
179.99999999999963
  0
ARC
  5
51A
100
AcDbEntity
  8
0
  6
CONTINUOUS
 62
               7
100
AcDbCircle
 10
3.4499999999999886
 20
64.500000000000114
 30
0.0
 40
1.5
100
AcDbArc
 50
0.0
 51
89.999999999999815
  0
LINE
  5
51B
100
AcDbEntity
  8
0
  6
CONTINUOUS
 62
               7
100
AcDbLine
 10
-4.9500000000000455
 20
58.300000000000125
 30
0.0
 11
-4.6500000000000341
 21
58.000000000000114
 31
0.0
  0
LINE
  5
51C
100
AcDbEntity
  8
0
  6
CONTINUOUS
 62
               7
100
AcDbLine
 10
4.9499999999999886
 20
58.300000000000125
 30
0.0
 11
4.6499999999999773
 21
58.000000000000114
 31
0.0
  0
LINE
  5
51D
100
AcDbEntity
  8
0
  6
CONTINUOUS
 62
               7
100
AcDbLine
 10
3.4499999999999886
 20
66.000000000000114
 30
0.0
 11
-3.4500000000000455
 21
66.000000000000114
 31
0.0
  0
LINE
  5
51E
100
AcDbEntity
  8
0
  6
CONTINUOUS
 62
               7
100
AcDbLine
 10
-4.9500000000000455
 20
58.300000000000125
 30
0.0
 11
-4.9500000000000455
 21
64.500000000000114
 31
0.0
  0
LINE
  5
51F
100
AcDbEntity
  8
0
  6
CONTINUOUS
 62
               7
100
AcDbLine
 10
4.9499999999999886
 20
58.300000000000125
 30
0.0
 11
4.9499999999999886
 21
64.500000000000114
 31
0.0
  0
LINE
  5
520
100
AcDbEntity
  8
0
  6
CONTINUOUS
 62
               7
100
AcDbLine
 10
4.9999999999999929
 20
58.000000000000114
 30
0.0
 11
4.9999999999999929
 21
0.0
 31
0.0
  0
LINE
  5
521
100
AcDbEntity
  8
0
  6
CONTINUOUS
 62
               7
100
AcDbLine
 10
-5.0
 20
0.0
 30
0.0
 11
4.9999999999999929
 21
0.0
 31
0.0
  0
LINE
  5
522
100
AcDbEntity
  8
0
  6
CENTER
 62
               2
100
AcDbLine
 10
0.0
 20
69.089506285714293
 30
0.0
 11
0.0
 21
-1.6200000000000045
 31
0.0
  0
ENDBLK
  5
523
100
AcDbEntity
  8
0
100
AcDbBlockEnd
  0
BLOCK
  5
524
100
AcDbEntity
  8
0
100
AcDbBlockBegin
  2
MV030MAS-11-12
 70
               0
 10
0.0
 20
0.0
 30
0.0
  3
MV030MAS-11-12
  1

  0
LINE
  5
525
100
AcDbEntity
  8
0
  6
CONTINUOUS
 62
               7
100
AcDbLine
 10
5.0
 20
66.499999999999943
 30
0.0
 11
5.0
 21
0.0
 31
0.0
  0
LINE
  5
526
100
AcDbEntity
  8
0
  6
CONTINUOUS
 62
               7
100
AcDbLine
 10
5.0
 20
54.999999999999943
 30
0.0
 11
5.2000000000000455
 21
54.999999999999943
 31
0.0
  0
LINE
  5
527
100
AcDbEntity
  8
0
  6
CONTINUOUS
 62
               7
100
AcDbLine
 10
3.1000000000000227
 20
68.544181962474738
 30
0.0
 11
3.1000000000000227
 21
65.999999999999943
 31
0.0
  0
LINE
  5
528
100
AcDbEntity
  8
0
  6
CONTINUOUS
 62
               7
100
AcDbLine
 10
3.1000000000000227
 20
68.544181962474738
 30
0.0
 11
2.6000000000000227
 21
69.044181962474738
 31
0.0
  0
LINE
  5
529
100
AcDbEntity
  8
0
  6
CONTINUOUS
 62
               7
100
AcDbLine
 10
-2.5806156454067377
 20
33.474540409051883
 30
0.0
 11
-2.5806156454067377
 21
36.435524245807642
 31
0.0
  0
LINE
  5
52A
100
AcDbEntity
  8
0
  6
CONTINUOUS
 62
               7
100
AcDbLine
 10
-2.5461441498785007
 20
38.570932251943532
 30
0.0
 11
-2.5461441498785007
 21
41.531916086746492
 31
0.0
  0
LINE
  5
52B
100
AcDbEntity
  8
0
  6
CONTINUOUS
 62
               7
100
AcDbLine
 10
4.5
 20
63.999999999999943
 30
0.0
 11
4.5
 21
23.0
 31
0.0
  0
LINE
  5
52C
100
AcDbEntity
  8
0
  6
CONTINUOUS
 62
               7
100
AcDbLine
 10
-2.2161156292472697
 20
36.00112989354966
 30
0.0
 11
-2.2161156292472697
 21
33.780391675097576
 31
0.0
  0
LINE
  5
52D
100
AcDbEntity
  8
0
  6
CONTINUOUS
 62
               7
100
AcDbLine
 10
-2.1816441337190895
 20
41.097522463488531
 30
0.0
 11
-2.1816441337190895
 21
38.876784245036333
 31
0.0
  0
LINE
  5
52E
100
AcDbEntity
  8
0
  6
CONTINUOUS
 62
               7
100
AcDbLine
 10
-0.1477777835515326
 20
40.738896729589555
 30
0.0
 11
0.0344722245282014
 21
41.076884472573511
 31
0.0
  0
LINE
  5
52F
100
AcDbEntity
  8
0
  6
CONTINUOUS
 62
               7
100
AcDbLine
 10
0.2167222326079354
 20
40.674625899740249
 30
0.0
 11
0.0344722245282014
 21
41.076884472573511
 31
0.0
  0
LINE
  5
530
100
AcDbEntity
  8
0
  6
CONTINUOUS
 62
               7
100
AcDbLine
 10
0.2167222326079354
 20
40.674625899740249
 30
0.0
 11
0.477535116170543
 21
40.628636932701397
 31
0.0
  0
LINE
  5
531
100
AcDbEntity
  8
0
  6
CONTINUOUS
 62
               7
100
AcDbLine
 10
2.2903978165404055
 20
40.308980624530022
 30
0.0
 11
2.6548978326997599
 21
40.614832588089371
 31
0.0
  0
LINE
  5
532
100
AcDbEntity
  8
0
  6
CONTINUOUS
 62
               7
100
AcDbLine
 10
0.5408298149766324
 20
40.9875994646153
 30
0.0
 11
2.6548978326997599
 21
40.614832588089371
 31
0.0
  0
LINE
  5
533
100
AcDbEntity
  8
0
  6
CONTINUOUS
 62
               7
100
AcDbLine
 10
0.477535116170543
 20
40.628636932701397
 30
0.0
 11
2.2903978165404055
 21
40.308980624530022
 31
0.0
  0
LINE
  5
534
100
AcDbEntity
  8
0
  6
CONTINUOUS
 62
               7
100
AcDbLine
 10
0.1822500080796772
 20
35.578233329801378
 30
0.0
 11
0.443063620642306
 21
35.532245091762547
 31
0.0
  0
LINE
  5
535
100
AcDbEntity
  8
0
  6
CONTINUOUS
 62
               7
100
AcDbLine
 10
0.1822500080796772
 20
33.357495111349181
 30
0.0
 11
0.1822500080796772
 21
35.578233329801378
 31
0.0
  0
LINE
  5
536
100
AcDbEntity
  8
0
  6
CONTINUOUS
 62
               7
100
AcDbLine
 10
-0.1822500080797909
 20
33.421766670198508
 30
0.0
 11
-0.1822500080797909
 21
35.642504888650706
 31
0.0
  0
LINE
  5
537
100
AcDbEntity
  8
0
  6
CONTINUOUS
 62
               7
100
AcDbLine
 10
0.1822500080796772
 20
35.578233329801378
 30
0.0
 11
0.0
 21
35.980491902634753
 31
0.0
  0
LINE
  5
538
100
AcDbEntity
  8
0
  6
CONTINUOUS
 62
               7
100
AcDbLine
 10
-0.1822500080797909
 20
35.642504888650706
 30
0.0
 11
0.0
 21
35.980491902634753
 31
0.0
  0
LINE
  5
539
100
AcDbEntity
  8
0
  6
CONTINUOUS
 62
               7
100
AcDbLine
 10
0.0
 20
33.019508097365133
 30
0.0
 11
0.1822500080796772
 21
33.357495111349181
 31
0.0
  0
LINE
  5
53A
100
AcDbEntity
  8
0
  6
CONTINUOUS
 62
               7
100
AcDbLine
 10
0.0
 20
33.019508097365133
 30
0.0
 11
-0.1822500080797909
 21
33.421766670198508
 31
0.0
  0
LINE
  5
53B
100
AcDbEntity
  8
0
  6
CONTINUOUS
 62
               7
100
AcDbLine
 10
0.0344722245282014
 20
38.115899938303983
 30
0.0
 11
-0.1477777835515326
 21
38.518158511137358
 31
0.0
  0
LINE
  5
53C
100
AcDbEntity
  8
0
  6
CONTINUOUS
 62
               7
100
AcDbLine
 10
0.0344722245282014
 20
38.115899938303983
 30
0.0
 11
0.2167222326079354
 21
38.453887681288052
 31
0.0
  0
LINE
  5
53D
100
AcDbEntity
  8
0
  6
CONTINUOUS
 62
               7
100
AcDbLine
 10
2.2559255920121473
 20
32.991850565138975
 30
0.0
 11
2.2559255920121473
 21
35.212588783591173
 31
0.0
  0
LINE
  5
53E
100
AcDbEntity
  8
0
  6
CONTINUOUS
 62
               7
100
AcDbLine
 10
2.2559255920121473
 20
35.212588783591173
 30
0.0
 11
2.6204256081715585
 21
35.5184400181505
 31
0.0
  0
LINE
  5
53F
100
AcDbEntity
  8
0
  6
CONTINUOUS
 62
               7
100
AcDbLine
 10
2.2559255920121473
 20
32.991850565138975
 30
0.0
 11
2.6204256081715585
 21
32.551697841625696
 31
0.0
  0
LINE
  5
540
100
AcDbEntity
  8
0
  6
CONTINUOUS
 62
               7
100
AcDbLine
 10
2.6204256081715585
 20
32.551697841625696
 30
0.0
 11
2.6204256081715585
 21
35.5184400181505
 31
0.0
  0
LINE
  5
541
100
AcDbEntity
  8
0
  6
CONTINUOUS
 62
               7
100
AcDbLine
 10
2.2903978165404055
 20
38.088242406077825
 30
0.0
 11
2.6548978326997599
 21
37.648089682564432
 31
0.0
  0
LINE
  5
542
100
AcDbEntity
  8
0
  6
CONTINUOUS
 62
               7
100
AcDbLine
 10
0.1822500080796772
 20
33.357495111349181
 30
0.0
 11
2.2559255920121473
 21
32.991850565138975
 31
0.0
  0
LINE
  5
543
100
AcDbEntity
  8
0
  6
CONTINUOUS
 62
               7
100
AcDbLine
 10
0.443063620642306
 20
35.532245091762547
 30
0.0
 11
2.2559255920121473
 21
35.212588783591173
 31
0.0
  0
LINE
  5
544
100
AcDbEntity
  8
0
  6
CONTINUOUS
 62
               7
100
AcDbLine
 10
0.5063583194483954
 20
35.891207623676451
 30
0.0
 11
2.6204256081715585
 21
35.5184400181505
 31
0.0
  0
LINE
  5
545
100
AcDbEntity
  8
0
  6
CONTINUOUS
 62
               7
100
AcDbLine
 10
0.0
 20
33.019508097365133
 30
0.0
 11
2.6204256081715585
 21
32.557456212880993
 31
0.0
  0
LINE
  5
546
100
AcDbEntity
  8
0
  6
CONTINUOUS
 62
               7
100
AcDbLine
 10
0.2167222326079354
 20
38.453887681288052
 30
0.0
 11
2.2903978165404055
 21
38.088242406077825
 31
0.0
  0
LINE
  5
547
100
AcDbEntity
  8
0
  6
CONTINUOUS
 62
               7
100
AcDbLine
 10
0.0344722245282014
 20
38.115899938303983
 30
0.0
 11
2.6548978326997599
 21
37.653848053819729
 31
0.0
  0
LINE
  5
548
100
AcDbEntity
  8
0
  6
CONTINUOUS
 62
               7
100
AcDbLine
 10
2.2903978165404055
 20
38.088242406077825
 30
0.0
 11
2.2903978165404055
 21
40.308980624530022
 31
0.0
  0
LINE
  5
549
100
AcDbEntity
  8
0
  6
CONTINUOUS
 62
               7
100
AcDbLine
 10
-0.1477777835515326
 20
38.518158511137358
 30
0.0
 11
-0.1477777835515326
 21
40.738896729589555
 31
0.0
  0
LINE
  5
54A
100
AcDbEntity
  8
0
  6
CONTINUOUS
 62
               7
100
AcDbLine
 10
0.2167222326079354
 20
38.453887681288052
 30
0.0
 11
0.2167222326079354
 21
40.674625899740249
 31
0.0
  0
LINE
  5
54B
100
AcDbEntity
  8
0
  6
CONTINUOUS
 62
               7
100
AcDbLine
 10
2.6548978326997599
 20
37.648089682564432
 30
0.0
 11
2.6548978326997599
 21
40.614832588089371
 31
0.0
  0
LINE
  5
54C
100
AcDbEntity
  8
0
  6
CONTINUOUS
 62
               7
100
AcDbLine
 10
0.1927133455435524
 20
27.901125970451517
 30
0.0
 11
0.1927133455435524
 21
30.121864188903601
 31
0.0
  0
LINE
  5
54D
100
AcDbEntity
  8
0
  6
CONTINUOUS
 62
               7
100
AcDbLine
 10
-0.1717866706159157
 20
27.965396800300823
 30
0.0
 11
-0.1717866706159157
 21
30.186135018752907
 31
0.0
  0
LINE
  5
54E
100
AcDbEntity
  8
0
  6
CONTINUOUS
 62
               7
100
AcDbLine
 10
0.0104633374638752
 20
27.563138227467448
 30
0.0
 11
0.1927133455435524
 21
27.901125970451517
 31
0.0
  0
LINE
  5
54F
100
AcDbEntity
  8
0
  6
CONTINUOUS
 62
               7
100
AcDbLine
 10
0.0104633374638752
 20
27.563138227467448
 30
0.0
 11
-0.1717866706159157
 21
27.965396800300823
 31
0.0
  0
LINE
  5
550
100
AcDbEntity
  8
0
  6
CONTINUOUS
 62
               7
100
AcDbLine
 10
-0.1717866706159157
 20
30.186135018752907
 30
0.0
 11
0.0104633374638752
 21
30.524122761736976
 31
0.0
  0
LINE
  5
551
100
AcDbEntity
  8
0
  6
CONTINUOUS
 62
               7
100
AcDbLine
 10
0.1927133455435524
 20
30.121864188903601
 30
0.0
 11
0.0104633374638752
 21
30.524122761736976
 31
0.0
  0
LINE
  5
552
100
AcDbEntity
  8
0
  6
CONTINUOUS
 62
               7
100
AcDbLine
 10
-0.5700983566090372
 20
49.637439318958229
 30
0.0
 11
0.9165085181227823
 21
47.062560681041703
 31
0.0
  0
LINE
  5
553
100
AcDbEntity
  8
0
  6
CONTINUOUS
 62
               7
100
AcDbLine
 10
-0.916508518122896
 20
49.437439318958411
 30
0.0
 11
0.5700983566090372
 21
46.862560681041657
 31
0.0
  0
CIRCLE
  5
554
100
AcDbEntity
  8
0
  6
CONTINUOUS
 62
               7
100
AcDbCircle
 10
0.0
 20
48.249999999999943
 30
0.0
 40
1.5
  0
LINE
  5
555
100
AcDbEntity
  8
0
  6
CONTINUOUS
 62
               7
100
AcDbLine
 10
-0.5700983566090372
 20
54.887439318958229
 30
0.0
 11
0.9165085181227823
 21
52.312560681041703
 31
0.0
  0
LINE
  5
556
100
AcDbEntity
  8
0
  6
CONTINUOUS
 62
               7
100
AcDbLine
 10
-0.916508518122896
 20
54.687439318958411
 30
0.0
 11
0.5700983566090372
 21
52.112560681041657
 31
0.0
  0
CIRCLE
  5
557
100
AcDbEntity
  8
0
  6
CONTINUOUS
 62
               7
100
AcDbCircle
 10
0.0
 20
53.499999999999943
 30
0.0
 40
1.5
  0
LINE
  5
558
100
AcDbEntity
  8
0
  6
CONTINUOUS
 62
               7
100
AcDbLine
 10
-2.1816441337190895
 20
38.876784245036333
 30
0.0
 11
-0.1477777835515326
 21
38.518158511137358
 31
0.0
  0
LINE
  5
559
100
AcDbEntity
  8
0
  6
CONTINUOUS
 62
               7
100
AcDbLine
 10
-2.2161156292472697
 20
33.780391675097576
 30
0.0
 11
-0.1822500080797909
 21
33.421766670198508
 31
0.0
  0
LINE
  5
55A
100
AcDbEntity
  8
0
  6
CONTINUOUS
 62
               7
100
AcDbLine
 10
-2.2161156292472697
 20
36.00112989354966
 30
0.0
 11
-0.1822500080797909
 21
35.642504888650706
 31
0.0
  0
LINE
  5
55B
100
AcDbEntity
  8
0
  6
CONTINUOUS
 62
               7
100
AcDbLine
 10
-2.1816441337190895
 20
41.097522463488531
 30
0.0
 11
-0.1477777835515326
 21
40.738896729589555
 31
0.0
  0
CIRCLE
  5
55C
100
AcDbEntity
  8
0
  6
CONTINUOUS
 62
               2
100
AcDbCircle
 10
0.0
 20
5.5
 30
0.0
 40
2.5
  0
CIRCLE
  5
55D
100
AcDbEntity
  8
0
  6
CONTINUOUS
 62
               7
100
AcDbCircle
 10
0.0
 20
5.5
 30
0.0
 40
2.1000000000000001
  0
LINE
  5
55E
100
AcDbEntity
  8
0
  6
CONTINUOUS
 62
               7
100
AcDbLine
 10
5.2000000000000455
 20
0.0
 30
0.0
 11
-5.0
 21
0.0
 31
0.0
  0
LINE
  5
55F
100
AcDbEntity
  8
0
  6
CENTER
 62
               2
100
AcDbLine
 10
-3.0
 20
5.5
 30
0.0
 11
3.0
 21
5.5
 31
0.0
  0
LINE
  5
560
100
AcDbEntity
  8
0
  6
CONTINUOUS
 62
               7
100
AcDbLine
 10
-2.5461441498785007
 20
41.531916086746492
 30
0.0
 11
0.5408298149766324
 21
40.9875994646153
 31
0.0
  0
LINE
  5
561
100
AcDbEntity
  8
0
  6
CONTINUOUS
 62
               7
100
AcDbLine
 10
-2.5806156454067377
 20
36.435524245807642
 30
0.0
 11
0.5063583194483954
 21
35.891207623676451
 31
0.0
  0
LINE
  5
562
100
AcDbEntity
  8
0
  6
CONTINUOUS
 62
               7
100
AcDbLine
 10
-2.5806156454067377
 20
33.474540409051883
 30
0.0
 11
0.0
 21
33.019508097365133
 31
0.0
  0
LINE
  5
563
100
AcDbEntity
  8
0
  6
CONTINUOUS
 62
               7
100
AcDbLine
 10
-2.5461441498785007
 20
38.570932251943532
 30
0.0
 11
0.0344722245282014
 21
38.115899938303983
 31
0.0
  0
LINE
  5
564
100
AcDbEntity
  8
0
  6
CONTINUOUS
 62
               7
100
AcDbLine
 10
-4.5
 20
42.999999999999943
 30
0.0
 11
4.5
 21
42.999999999999943
 31
0.0
  0
LINE
  5
565
100
AcDbEntity
  8
0
  6
CONTINUOUS
 62
               7
100
AcDbLine
 10
-4.5
 20
26.0
 30
0.0
 11
4.5
 21
26.0
 31
0.0
  0
LINE
  5
566
100
AcDbEntity
  8
0
  6
CONTINUOUS
 62
               7
100
AcDbLine
 10
-4.5
 20
23.0
 30
0.0
 11
4.5
 21
23.0
 31
0.0
  0
LINE
  5
567
100
AcDbEntity
  8
0
  6
CONTINUOUS
 62
               7
100
AcDbLine
 10
5.0
 20
21.0
 30
0.0
 11
-5.0
 21
21.0
 31
0.0
  0
LINE
  5
568
100
AcDbEntity
  8
0
  6
CONTINUOUS
 62
               7
100
AcDbLine
 10
-5.0
 20
14.0
 30
0.0
 11
5.0
 21
14.0
 31
0.0
  0
LINE
  5
569
100
AcDbEntity
  8
0
  6
CONTINUOUS
 62
               7
100
AcDbLine
 10
-2.5461441498785007
 20
41.531916086746492
 30
0.0
 11
-2.1816441337190895
 21
41.097522463488531
 31
0.0
  0
LINE
  5
56A
100
AcDbEntity
  8
0
  6
CONTINUOUS
 62
               7
100
AcDbLine
 10
-2.5461441498785007
 20
38.570932251943532
 30
0.0
 11
-2.1816441337190895
 21
38.876784245036333
 31
0.0
  0
LINE
  5
56B
100
AcDbEntity
  8
0
  6
CONTINUOUS
 62
               7
100
AcDbLine
 10
-2.5806156454067377
 20
36.435524245807642
 30
0.0
 11
-2.2161156292472697
 21
36.00112989354966
 31
0.0
  0
LINE
  5
56C
100
AcDbEntity
  8
0
  6
CONTINUOUS
 62
               7
100
AcDbLine
 10
-2.5806156454067377
 20
33.474540409051883
 30
0.0
 11
-2.2161156292472697
 21
33.780391675097576
 31
0.0
  0
LINE
  5
56D
100
AcDbEntity
  8
0
  6
CONTINUOUS
 62
               7
100
AcDbLine
 10
-3.8999999999999773
 20
86.499999999999943
 30
0.0
 11
-3.8999999999999773
 21
91.499999999999943
 31
0.0
  0
LINE
  5
56E
100
AcDbEntity
  8
0
  6
CONTINUOUS
 62
               7
100
AcDbLine
 10
-3.1000000000000227
 20
86.499999999999943
 30
0.0
 11
-3.1000000000000227
 21
91.499999999999943
 31
0.0
  0
LINE
  5
56F
100
AcDbEntity
  8
0
  6
CONTINUOUS
 62
               7
100
AcDbLine
 10
-2.8999999999999773
 20
86.499999999999943
 30
0.0
 11
-2.8999999999999773
 21
91.499999999999943
 31
0.0
  0
LINE
  5
570
100
AcDbEntity
  8
0
  6
CONTINUOUS
 62
               7
100
AcDbLine
 10
-2.1000000000000227
 20
86.499999999999943
 30
0.0
 11
-2.1000000000000227
 21
91.499999999999943
 31
0.0
  0
LINE
  5
571
100
AcDbEntity
  8
0
  6
CONTINUOUS
 62
               7
100
AcDbLine
 10
-1.8999999999999773
 20
86.499999999999943
 30
0.0
 11
-1.8999999999999773
 21
91.499999999999943
 31
0.0
  0
LINE
  5
572
100
AcDbEntity
  8
0
  6
CONTINUOUS
 62
               7
100
AcDbLine
 10
-1.1000000000000227
 20
86.499999999999943
 30
0.0
 11
-1.1000000000000227
 21
91.499999999999943
 31
0.0
  0
LINE
  5
573
100
AcDbEntity
  8
0
  6
CONTINUOUS
 62
               7
100
AcDbLine
 10
-0.8999999999999773
 20
86.499999999999943
 30
0.0
 11
-0.8999999999999773
 21
91.499999999999943
 31
0.0
  0
LINE
  5
574
100
AcDbEntity
  8
0
  6
CONTINUOUS
 62
               7
100
AcDbLine
 10
-0.1000000000000227
 20
86.499999999999943
 30
0.0
 11
-0.1000000000000227
 21
91.499999999999943
 31
0.0
  0
LINE
  5
575
100
AcDbEntity
  8
0
  6
CONTINUOUS
 62
               7
100
AcDbLine
 10
-4.5
 20
82.934434807571904
 30
0.0
 11
-4.5
 21
79.16248850621281
 31
0.0
  0
LINE
  5
576
100
AcDbEntity
  8
0
  6
CONTINUOUS
 62
               7
100
AcDbLine
 10
0.5
 20
82.934434807571904
 30
0.0
 11
0.5
 21
77.270596614320937
 31
0.0
  0
LINE
  5
577
100
AcDbEntity
  8
0
  6
CONTINUOUS
 62
               7
100
AcDbLine
 10
-4.5
 20
82.934434807571904
 30
0.0
 11
0.5
 21
82.934434807571904
 31
0.0
  0
LINE
  5
578
100
AcDbEntity
  8
0
  6
CONTINUOUS
 62
               7
100
AcDbLine
 10
0.2149999999999182
 20
86.499999999999943
 30
0.0
 11
-4.2150000000000318
 21
86.499999999999943
 31
0.0
  0
LINE
  5
579
100
AcDbEntity
  8
0
  6
CONTINUOUS
 62
               7
100
AcDbLine
 10
0.2149999999999182
 20
82.934434807571904
 30
0.0
 11
0.2149999999999182
 21
86.499999999999943
 31
0.0
  0
LINE
  5
57A
100
AcDbEntity
  8
0
  6
CONTINUOUS
 62
               7
100
AcDbLine
 10
-1.2150000000000318
 20
82.934434807571904
 30
0.0
 11
-1.2150000000000318
 21
86.499999999999943
 31
0.0
  0
LINE
  5
57B
100
AcDbEntity
  8
0
  6
CONTINUOUS
 62
               7
100
AcDbLine
 10
-2.2150000000000318
 20
82.934434807571904
 30
0.0
 11
-2.2150000000000318
 21
86.499999999999943
 31
0.0
  0
LINE
  5
57C
100
AcDbEntity
  8
0
  6
CONTINUOUS
 62
               7
100
AcDbLine
 10
-3.2150000000000318
 20
82.934434807571904
 30
0.0
 11
-3.2150000000000318
 21
86.499999999999943
 31
0.0
  0
LINE
  5
57D
100
AcDbEntity
  8
0
  6
CONTINUOUS
 62
               7
100
AcDbLine
 10
-4.2150000000000318
 20
82.934434807571904
 30
0.0
 11
-4.2150000000000318
 21
86.499999999999943
 31
0.0
  0
LINE
  5
57E
100
AcDbEntity
  8
0
  6
CONTINUOUS
 62
               7
100
AcDbLine
 10
-0.1000000000000227
 20
91.499999999999943
 30
0.0
 11
-0.8999999999999773
 21
91.499999999999943
 31
0.0
  0
LINE
  5
57F
100
AcDbEntity
  8
0
  6
CONTINUOUS
 62
               7
100
AcDbLine
 10
-1.1000000000000227
 20
91.499999999999943
 30
0.0
 11
-1.8999999999999773
 21
91.499999999999943
 31
0.0
  0
LINE
  5
580
100
AcDbEntity
  8
0
  6
CONTINUOUS
 62
               7
100
AcDbLine
 10
-2.1000000000000227
 20
91.499999999999943
 30
0.0
 11
-2.8999999999999773
 21
91.499999999999943
 31
0.0
  0
LINE
  5
581
100
AcDbEntity
  8
0
  6
CONTINUOUS
 62
               7
100
AcDbLine
 10
-3.1000000000000227
 20
91.499999999999943
 30
0.0
 11
-3.8999999999999773
 21
91.499999999999943
 31
0.0
  0
LINE
  5
582
100
AcDbEntity
  8
0
  6
CONTINUOUS
 62
               7
100
AcDbLine
 10
0.5
 20
66.499999999999943
 30
0.0
 11
0.5
 21
76.270596614320937
 31
0.0
  0
LINE
  5
583
100
AcDbEntity
  8
0
  6
CONTINUOUS
 62
               7
100
AcDbLine
 10
-4.5
 20
66.499999999999943
 30
0.0
 11
-4.5
 21
78.16248850621281
 31
0.0
  0
LINE
  5
584
100
AcDbEntity
  8
0
  6
CONTINUOUS
 62
               7
100
AcDbLine
 10
-5.0
 20
66.499999999999943
 30
0.0
 11
1.0
 21
66.499999999999943
 31
0.0
  0
LINE
  5
585
100
AcDbEntity
  8
0
  6
CONTINUOUS
 62
               7
100
AcDbLine
 10
1.0
 20
65.999999999999943
 30
0.0
 11
1.0
 21
66.499999999999943
 31
0.0
  0
LINE
  5
586
100
AcDbEntity
  8
0
  6
CONTINUOUS
 62
               7
100
AcDbLine
 10
-0.5700983566090372
 20
60.137439318958229
 30
0.0
 11
0.9165085181227823
 21
57.562560681041703
 31
0.0
  0
LINE
  5
587
100
AcDbEntity
  8
0
  6
CONTINUOUS
 62
               7
100
AcDbLine
 10
-0.916508518122896
 20
59.937439318958411
 30
0.0
 11
0.5700983566090372
 21
57.362560681041657
 31
0.0
  0
CIRCLE
  5
588
100
AcDbEntity
  8
0
  6
CONTINUOUS
 62
               7
100
AcDbCircle
 10
0.0
 20
58.749999999999943
 30
0.0
 40
1.5
  0
LINE
  5
589
100
AcDbEntity
  8
0
  6
CENTER
 62
               2
100
AcDbLine
 10
0.0
 20
-1.7404082057735195
 30
0.0
 11
0.0
 21
80.312366224666164
 31
0.0
  0
LINE
  5
58A
100
AcDbEntity
  8
0
  6
CONTINUOUS
 62
               7
100
AcDbLine
 10
-5.0
 20
66.499999999999943
 30
0.0
 11
-5.0
 21
0.0
 31
0.0
  0
LINE
  5
58B
100
AcDbEntity
  8
0
  6
CONTINUOUS
 62
               7
100
AcDbLine
 10
-4.5
 20
63.999999999999943
 30
0.0
 11
-4.5
 21
23.0
 31
0.0
  0
LINE
  5
58C
100
AcDbEntity
  8
0
  6
CONTINUOUS
 62
               7
100
AcDbLine
 10
-5.0
 20
65.999999999999943
 30
0.0
 11
5.0
 21
65.999999999999943
 31
0.0
  0
LINE
  5
58D
100
AcDbEntity
  8
0
  6
CONTINUOUS
 62
               7
100
AcDbLine
 10
-4.5
 20
63.999999999999943
 30
0.0
 11
4.5
 21
63.999999999999943
 31
0.0
  0
LINE
  5
58E
100
AcDbEntity
  8
0
  6
CONTINUOUS
 62
               7
100
AcDbLine
 10
2.6000000000000227
 20
69.044181962474738
 30
0.0
 11
0.5
 21
69.044181962474738
 31
0.0
  0
LINE
  5
58F
100
AcDbEntity
  8
0
  6
CONTINUOUS
 62
               7
100
AcDbLine
 10
0.5
 20
68.544181962474738
 30
0.0
 11
3.1000000000000227
 21
68.544181962474738
 31
0.0
  0
LINE
  5
590
100
AcDbEntity
  8
0
  6
CONTINUOUS
 62
               2
100
AcDbLine
 10
-5.7519181748148185
 20
79.636187275061673
 30
0.0
 11
1.968683298765427
 21
76.714878609382765
 31
0.0
  0
LINE
  5
591
100
AcDbEntity
  8
0
  6
CONTINUOUS
 62
               2
100
AcDbLine
 10
-5.7519181748148185
 20
78.636187275061673
 30
0.0
 11
1.968683298765427
 21
75.714878609382765
 31
0.0
  0
LINE
  5
592
100
AcDbEntity
  8
0
  6
CONTINUOUS
 62
               7
100
AcDbLine
 10
5.0
 20
66.499999999999943
 30
0.0
 11
3.1000000000000227
 21
66.499999999999943
 31
0.0
  0
ENDBLK
  5
593
100
AcDbEntity
  8
0
100
AcDbBlockEnd
  0
BLOCK
  5
594
100
AcDbEntity
  8
0
100
AcDbBlockBegin
  2
MV030MAS-11-13
 70
               0
 10
0.0
 20
0.0
 30
0.0
  3
MV030MAS-11-13
  1

  0
LINE
  5
595
100
AcDbEntity
  8
0
  6
CONTINUOUS
 62
               2
100
AcDbLine
 10
1.3000000000000136
 20
24.879999999999995
 30
0.0
 11
4.5000000000000027
 21
25.739999999999995
 31
0.0
  0
LINE
  5
596
100
AcDbEntity
  8
0
  6
CONTINUOUS
 62
               2
100
AcDbLine
 10
1.3000000000000134
 20
23.849999999999994
 30
0.0
 11
4.5000000000000018
 21
24.70999999999998
 31
0.0
  0
LINE
  5
597
100
AcDbEntity
  8
0
  6
CONTINUOUS
 62
               7
100
AcDbLine
 10
-3.1500000000000039
 20
32.799999999999983
 30
0.0
 11
-2.6500000000000039
 21
32.799999999999983
 31
0.0
  0
LINE
  5
598
100
AcDbEntity
  8
0
  6
CONTINUOUS
 62
               7
100
AcDbLine
 10
-3.5500000000000096
 20
28.799999999999983
 30
0.0
 11
-2.2499999999999982
 21
28.799999999999983
 31
0.0
  0
LINE
  5
599
100
AcDbEntity
  8
0
  6
CONTINUOUS
 62
               7
100
AcDbLine
 10
-3.1500000000000039
 20
28.799999999999983
 30
0.0
 11
-3.1500000000000039
 21
32.799999999999983
 31
0.0
  0
LINE
  5
59A
100
AcDbEntity
  8
0
  6
CONTINUOUS
 62
               7
100
AcDbLine
 10
-2.6500000000000039
 20
28.799999999999983
 30
0.0
 11
-2.6500000000000039
 21
32.799999999999983
 31
0.0
  0
LINE
  5
59B
100
AcDbEntity
  8
0
  6
CONTINUOUS
 62
               7
100
AcDbLine
 10
2.2500000000000022
 20
25.139999999999986
 30
0.0
 11
2.2500000000000031
 21
28.799999999999983
 31
0.0
  0
LINE
  5
59C
100
AcDbEntity
  8
0
  6
CONTINUOUS
 62
               7
100
AcDbLine
 10
3.5500000000000136
 20
25.489999999999995
 30
0.0
 11
3.5500000000000145
 21
28.799999999999983
 31
0.0
  0
LINE
  5
59D
100
AcDbEntity
  8
0
  6
CONTINUOUS
 62
               7
100
AcDbLine
 10
3.5500000000000127
 20
20.599999999999994
 30
0.0
 11
3.5500000000000136
 21
24.449999999999989
 31
0.0
  0
LINE
  5
59E
100
AcDbEntity
  8
0
  6
CONTINUOUS
 62
               7
100
AcDbLine
 10
2.2500000000000013
 20
20.599999999999994
 30
0.0
 11
2.2500000000000022
 21
24.099999999999994
 31
0.0
  0
LINE
  5
59F
100
AcDbEntity
  8
0
  6
CONTINUOUS
 62
               2
100
AcDbLine
 10
-4.4999999999999831
 20
24.879999999999995
 30
0.0
 11
-1.2999999999999805
 21
25.739999999999995
 31
0.0
  0
LINE
  5
5A0
100
AcDbEntity
  8
0
  6
CONTINUOUS
 62
               2
100
AcDbLine
 10
-4.499999999999984
 20
23.849999999999994
 30
0.0
 11
-1.2999999999999807
 21
24.70999999999998
 31
0.0
  0
LINE
  5
5A1
100
AcDbEntity
  8
0
  6
CONTINUOUS
 62
               7
100
AcDbLine
 10
2.6499999999999932
 20
32.799999999999983
 30
0.0
 11
3.1499999999999937
 21
32.799999999999983
 31
0.0
  0
LINE
  5
5A2
100
AcDbEntity
  8
0
  6
CONTINUOUS
 62
               7
100
AcDbLine
 10
2.2499999999999876
 20
28.799999999999983
 30
0.0
 11
3.5499999999999847
 21
28.799999999999983
 31
0.0
  0
LINE
  5
5A3
100
AcDbEntity
  8
0
  6
CONTINUOUS
 62
               7
100
AcDbLine
 10
2.6499999999999932
 20
28.799999999999983
 30
0.0
 11
2.6499999999999932
 21
32.799999999999983
 31
0.0
  0
LINE
  5
5A4
100
AcDbEntity
  8
0
  6
CONTINUOUS
 62
               7
100
AcDbLine
 10
3.1499999999999932
 20
28.799999999999983
 30
0.0
 11
3.1499999999999937
 21
32.799999999999983
 31
0.0
  0
LINE
  5
5A5
100
AcDbEntity
  8
0
  6
CONTINUOUS
 62
               7
100
AcDbLine
 10
-3.5499999999999803
 20
25.139999999999986
 30
0.0
 11
-3.5499999999999798
 21
28.799999999999983
 31
0.0
  0
LINE
  5
5A6
100
AcDbEntity
  8
0
  6
CONTINUOUS
 62
               7
100
AcDbLine
 10
-2.2499999999999836
 20
25.489999999999995
 30
0.0
 11
-2.2499999999999827
 21
28.799999999999983
 31
0.0
  0
LINE
  5
5A7
100
AcDbEntity
  8
0
  6
CONTINUOUS
 62
               7
100
AcDbLine
 10
-2.2499999999999845
 20
20.599999999999994
 30
0.0
 11
-2.2499999999999836
 21
24.449999999999989
 31
0.0
  0
LINE
  5
5A8
100
AcDbEntity
  8
0
  6
CONTINUOUS
 62
               7
100
AcDbLine
 10
-3.5499999999999812
 20
20.599999999999994
 30
0.0
 11
-3.5499999999999803
 21
24.099999999999994
 31
0.0
  0
LINE
  5
5A9
100
AcDbEntity
  8
0
  6
CONTINUOUS
 62
               7
100
AcDbLine
 10
5.0
 20
0.9000000000000057
 30
0.0
 11
-5.0
 21
0.9000000000000057
 31
0.0
  0
LINE
  5
5AA
100
AcDbEntity
  8
0
  6
CONTINUOUS
 62
               7
100
AcDbLine
 10
4.7000000000000037
 20
19.599999999999994
 30
0.0
 11
-4.7000000000000028
 21
19.599999999999994
 31
0.0
  0
LINE
  5
5AB
100
AcDbEntity
  8
0
  6
CONTINUOUS
 62
               7
100
AcDbLine
 10
5.0
 20
1.1999999999999886
 30
0.0
 11
-5.0
 21
1.1999999999999886
 31
0.0
  0
LINE
  5
5AC
100
AcDbEntity
  8
0
  6
CONTINUOUS
 62
               7
100
AcDbLine
 10
5.0
 20
0.0
 30
0.0
 11
5.0000000000000009
 21
19.299999999999997
 31
0.0
  0
LINE
  5
5AD
100
AcDbEntity
  8
0
  6
CONTINUOUS
 62
               7
100
AcDbLine
 10
-5.0
 20
0.0
 30
0.0
 11
-5.0
 21
19.299999999999983
 31
0.0
  0
LINE
  5
5AE
100
AcDbEntity
  8
0
  6
CONTINUOUS
 62
               7
100
AcDbLine
 10
4.7000000000000037
 20
20.599999999999994
 30
0.0
 11
-4.7000000000000028
 21
20.59999999999998
 31
0.0
  0
ARC
  5
5AF
100
AcDbEntity
  8
0
  6
CONTINUOUS
 62
               7
100
AcDbCircle
 10
-4.700711437663756
 20
20.40071143766373
 30
0.0
 40
0.1992898322082596
100
AcDbArc
 50
89.795461405895423
 51
180.20453859410404
  0
LINE
  5
5B0
100
AcDbEntity
  8
0
  6
CONTINUOUS
 62
               7
100
AcDbLine
 10
-4.9000000000000057
 20
20.399999999999991
 30
0.0
 11
-4.9000000000000057
 21
19.523606797749963
 31
0.0
  0
LINE
  5
5B1
100
AcDbEntity
  8
0
  6
CONTINUOUS
 62
               7
100
AcDbLine
 10
4.9000000000000066
 20
20.399999999999991
 30
0.0
 11
4.9000000000000066
 21
19.523606797749977
 31
0.0
  0
ARC
  5
5B2
100
AcDbEntity
  8
0
  6
CONTINUOUS
 62
               7
100
AcDbCircle
 10
4.7007114376637569
 20
20.40071143766373
 30
0.0
 40
0.1992898322082596
100
AcDbArc
 50
359.79546140589559
 51
90.204538594104179
  0
LINE
  5
5B3
100
AcDbEntity
  8
0
  6
CONTINUOUS
 62
               7
100
AcDbLine
 10
1.5000000000000009
 20
16.599999999999994
 30
0.0
 11
0.0000000000000009
 21
16.599999999999994
 31
0.0
  0
LINE
  5
5B4
100
AcDbEntity
  8
0
  6
CONTINUOUS
 62
               7
100
AcDbLine
 10
1.5000000000000009
 20
16.599999999999994
 30
0.0
 11
1.5000000000000009
 21
19.599999999999994
 31
0.0
  0
LINE
  5
5B5
100
AcDbEntity
  8
0
  6
CONTINUOUS
 62
               7
100
AcDbLine
 10
-1.4999999999999982
 20
16.599999999999994
 30
0.0
 11
0.0000000000000009
 21
16.599999999999994
 31
0.0
  0
LINE
  5
5B6
100
AcDbEntity
  8
0
  6
CONTINUOUS
 62
               7
100
AcDbLine
 10
-1.4999999999999982
 20
16.599999999999994
 30
0.0
 11
-1.4999999999999982
 21
19.599999999999994
 31
0.0
  0
ARC
  5
5B7
100
AcDbEntity
  8
0
  6
CONTINUOUS
 62
               7
100
AcDbCircle
 10
-4.7000000000000028
 20
19.299999999999997
 30
0.0
 40
0.3
100
AcDbArc
 50
89.999999999999815
 51
179.99999999999963
  0
ARC
  5
5B8
100
AcDbEntity
  8
0
  6
CONTINUOUS
 62
               7
100
AcDbCircle
 10
4.7000000000000037
 20
19.299999999999997
 30
0.0
 40
0.3
100
AcDbArc
 50
0.0
 51
89.999999999999815
  0
LINE
  5
5B9
100
AcDbEntity
  8
0
  6
CENTER
 62
               2
100
AcDbLine
 10
0.0
 20
-64.229515893108413
 30
0.0
 11
0.0
 21
33.381003626860945
 31
0.0
  0
CIRCLE
  5
5BA
100
AcDbEntity
  8
0
  6
CONTINUOUS
 62
               7
100
AcDbCircle
 10
0.0000000000000284
 20
-21.000000000000114
 30
0.0
 40
5.0
  0
LINE
  5
5BB
100
AcDbEntity
  8
0
  6
CONTINUOUS
 62
               7
100
AcDbLine
 10
-4.9999999999999716
 20
-37.000000000000142
 30
0.0
 11
5.0000000000000568
 21
-37.000000000000142
 31
0.0
  0
LINE
  5
5BC
100
AcDbEntity
  8
0
  6
CONTINUOUS
 62
               7
100
AcDbLine
 10
-5.0
 20
-14.0
 30
0.0
 11
-4.9999999999999716
 21
-62.000000000000114
 31
0.0
  0
LINE
  5
5BD
100
AcDbEntity
  8
0
  6
CONTINUOUS
 62
               7
100
AcDbLine
 10
5.0000000000000568
 20
-62.000000000000114
 30
0.0
 11
-4.9999999999999716
 21
-62.000000000000114
 31
0.0
  0
LINE
  5
5BE
100
AcDbEntity
  8
0
  6
CONTINUOUS
 62
               7
100
AcDbLine
 10
-4.9749371855330935
 20
-21.500000000000114
 30
0.0
 11
4.9749371855330651
 21
-21.500000000000114
 31
0.0
  0
LINE
  5
5BF
100
AcDbEntity
  8
0
  6
CONTINUOUS
 62
               7
100
AcDbLine
 10
-4.9749371855330935
 20
-20.500000000000114
 30
0.0
 11
4.9749371855330651
 21
-20.500000000000114
 31
0.0
  0
CIRCLE
  5
5C0
100
AcDbEntity
  8
0
  6
CONTINUOUS
 62
               7
100
AcDbCircle
 10
-0.7182872358884254
 20
-44.597672477460407
 30
0.0
 40
1.0
  0
CIRCLE
  5
5C1
100
AcDbEntity
  8
0
  6
CONTINUOUS
 62
               7
100
AcDbCircle
 10
-0.7182872358884254
 20
-44.597672477460407
 30
0.0
 40
0.6
  0
CIRCLE
  5
5C2
100
AcDbEntity
  8
0
  6
CONTINUOUS
 62
               7
100
AcDbCircle
 10
-2.597672477460236
 20
-45.281712764111745
 30
0.0
 40
1.0
  0
CIRCLE
  5
5C3
100
AcDbEntity
  8
0
  6
CONTINUOUS
 62
               7
100
AcDbCircle
 10
-2.597672477460236
 20
-45.281712764111745
 30
0.0
 40
0.6
  0
CIRCLE
  5
5C4
100
AcDbEntity
  8
0
  6
CONTINUOUS
 62
               7
100
AcDbCircle
 10
-3.2817127641115746
 20
-43.402327522539906
 30
0.0
 40
0.6
  0
CIRCLE
  5
5C5
100
AcDbEntity
  8
0
  6
CONTINUOUS
 62
               7
100
AcDbCircle
 10
-1.402327522539764
 20
-42.718287235888596
 30
0.0
 40
0.6
  0
CIRCLE
  5
5C6
100
AcDbEntity
  8
0
  6
CONTINUOUS
 62
               7
100
AcDbCircle
 10
-1.402327522539764
 20
-42.718287235888596
 30
0.0
 40
1.0
  0
CIRCLE
  5
5C7
100
AcDbEntity
  8
0
  6
CONTINUOUS
 62
               7
100
AcDbCircle
 10
-3.2817127641115746
 20
-43.402327522539906
 30
0.0
 40
1.0
  0
CIRCLE
  5
5C8
100
AcDbEntity
  8
0
  6
CONTINUOUS
 62
               7
100
AcDbCircle
 10
-1.9999999999999716
 20
-44.000000000000142
 30
0.0
 40
3.0
  0
CIRCLE
  5
5C9
100
AcDbEntity
  8
0
  6
CONTINUOUS
 62
               7
100
AcDbCircle
 10
-1.9999999999999716
 20
-44.000000000000142
 30
0.0
 40
2.5
  0
LINE
  5
5CA
100
AcDbEntity
  8
0
  6
CONTINUOUS
 62
               7
100
AcDbLine
 10
5.0
 20
-14.0
 30
0.0
 11
5.0000000000000568
 21
-62.000000000000114
 31
0.0
  0
ENDBLK
  5
5CB
100
AcDbEntity
  8
0
100
AcDbBlockEnd
  0
BLOCK
  5
5CC
100
AcDbEntity
  8
0
100
AcDbBlockBegin
  2
MV030MAS-11-14
 70
               0
 10
0.0
 20
0.0
 30
0.0
  3
MV030MAS-11-14
  1

  0
LINE
  5
5CD
100
AcDbEntity
  8
0
  6
CONTINUOUS
 62
               7
100
AcDbLine
 10
5.0
 20
-59.500000000000114
 30
0.0
 11
-5.0000000000000284
 21
-59.500000000000114
 31
0.0
  0
LINE
  5
5CE
100
AcDbEntity
  8
0
  6
CONTINUOUS
 62
               7
100
AcDbLine
 10
-5.0
 20
-39.500000000000114
 30
0.0
 11
5.0
 21
-39.500000000000114
 31
0.0
  0
LINE
  5
5CF
100
AcDbEntity
  8
0
  6
CONTINUOUS
 62
               2
100
AcDbLine
 10
1.3000000000000136
 20
24.879999999999995
 30
0.0
 11
4.5000000000000027
 21
25.739999999999995
 31
0.0
  0
LINE
  5
5D0
100
AcDbEntity
  8
0
  6
CONTINUOUS
 62
               2
100
AcDbLine
 10
1.3000000000000134
 20
23.849999999999994
 30
0.0
 11
4.5000000000000018
 21
24.70999999999998
 31
0.0
  0
LINE
  5
5D1
100
AcDbEntity
  8
0
  6
CONTINUOUS
 62
               7
100
AcDbLine
 10
-3.1500000000000039
 20
32.799999999999983
 30
0.0
 11
-2.6500000000000039
 21
32.799999999999983
 31
0.0
  0
LINE
  5
5D2
100
AcDbEntity
  8
0
  6
CONTINUOUS
 62
               7
100
AcDbLine
 10
-3.5500000000000096
 20
28.799999999999983
 30
0.0
 11
-2.2499999999999982
 21
28.799999999999983
 31
0.0
  0
LINE
  5
5D3
100
AcDbEntity
  8
0
  6
CONTINUOUS
 62
               7
100
AcDbLine
 10
-3.1500000000000039
 20
28.799999999999983
 30
0.0
 11
-3.1500000000000039
 21
32.799999999999983
 31
0.0
  0
LINE
  5
5D4
100
AcDbEntity
  8
0
  6
CONTINUOUS
 62
               7
100
AcDbLine
 10
-2.6500000000000039
 20
28.799999999999983
 30
0.0
 11
-2.6500000000000039
 21
32.799999999999983
 31
0.0
  0
LINE
  5
5D5
100
AcDbEntity
  8
0
  6
CONTINUOUS
 62
               7
100
AcDbLine
 10
2.2500000000000022
 20
25.139999999999986
 30
0.0
 11
2.2500000000000031
 21
28.799999999999983
 31
0.0
  0
LINE
  5
5D6
100
AcDbEntity
  8
0
  6
CONTINUOUS
 62
               7
100
AcDbLine
 10
3.5500000000000136
 20
25.489999999999995
 30
0.0
 11
3.5500000000000145
 21
28.799999999999983
 31
0.0
  0
LINE
  5
5D7
100
AcDbEntity
  8
0
  6
CONTINUOUS
 62
               7
100
AcDbLine
 10
3.5500000000000127
 20
20.599999999999994
 30
0.0
 11
3.5500000000000136
 21
24.449999999999989
 31
0.0
  0
LINE
  5
5D8
100
AcDbEntity
  8
0
  6
CONTINUOUS
 62
               7
100
AcDbLine
 10
2.2500000000000013
 20
20.599999999999994
 30
0.0
 11
2.2500000000000022
 21
24.099999999999994
 31
0.0
  0
LINE
  5
5D9
100
AcDbEntity
  8
0
  6
CONTINUOUS
 62
               2
100
AcDbLine
 10
-4.4999999999999831
 20
24.879999999999995
 30
0.0
 11
-1.2999999999999805
 21
25.739999999999995
 31
0.0
  0
LINE
  5
5DA
100
AcDbEntity
  8
0
  6
CONTINUOUS
 62
               2
100
AcDbLine
 10
-4.499999999999984
 20
23.849999999999994
 30
0.0
 11
-1.2999999999999807
 21
24.70999999999998
 31
0.0
  0
LINE
  5
5DB
100
AcDbEntity
  8
0
  6
CONTINUOUS
 62
               7
100
AcDbLine
 10
2.6499999999999932
 20
32.799999999999983
 30
0.0
 11
3.1499999999999937
 21
32.799999999999983
 31
0.0
  0
LINE
  5
5DC
100
AcDbEntity
  8
0
  6
CONTINUOUS
 62
               7
100
AcDbLine
 10
2.2499999999999876
 20
28.799999999999983
 30
0.0
 11
3.5499999999999847
 21
28.799999999999983
 31
0.0
  0
LINE
  5
5DD
100
AcDbEntity
  8
0
  6
CONTINUOUS
 62
               7
100
AcDbLine
 10
2.6499999999999932
 20
28.799999999999983
 30
0.0
 11
2.6499999999999932
 21
32.799999999999983
 31
0.0
  0
LINE
  5
5DE
100
AcDbEntity
  8
0
  6
CONTINUOUS
 62
               7
100
AcDbLine
 10
3.1499999999999932
 20
28.799999999999983
 30
0.0
 11
3.1499999999999937
 21
32.799999999999983
 31
0.0
  0
LINE
  5
5DF
100
AcDbEntity
  8
0
  6
CONTINUOUS
 62
               7
100
AcDbLine
 10
-3.5499999999999803
 20
25.139999999999986
 30
0.0
 11
-3.5499999999999798
 21
28.799999999999983
 31
0.0
  0
LINE
  5
5E0
100
AcDbEntity
  8
0
  6
CONTINUOUS
 62
               7
100
AcDbLine
 10
-2.2499999999999836
 20
25.489999999999995
 30
0.0
 11
-2.2499999999999827
 21
28.799999999999983
 31
0.0
  0
LINE
  5
5E1
100
AcDbEntity
  8
0
  6
CONTINUOUS
 62
               7
100
AcDbLine
 10
-2.2499999999999845
 20
20.599999999999994
 30
0.0
 11
-2.2499999999999836
 21
24.449999999999989
 31
0.0
  0
LINE
  5
5E2
100
AcDbEntity
  8
0
  6
CONTINUOUS
 62
               7
100
AcDbLine
 10
-3.5499999999999812
 20
20.599999999999994
 30
0.0
 11
-3.5499999999999803
 21
24.099999999999994
 31
0.0
  0
LINE
  5
5E3
100
AcDbEntity
  8
0
  6
CONTINUOUS
 62
               7
100
AcDbLine
 10
5.0
 20
0.9000000000000057
 30
0.0
 11
-5.0
 21
0.9000000000000057
 31
0.0
  0
LINE
  5
5E4
100
AcDbEntity
  8
0
  6
CONTINUOUS
 62
               7
100
AcDbLine
 10
4.7000000000000037
 20
19.599999999999994
 30
0.0
 11
-4.7000000000000028
 21
19.599999999999994
 31
0.0
  0
LINE
  5
5E5
100
AcDbEntity
  8
0
  6
CONTINUOUS
 62
               7
100
AcDbLine
 10
5.0
 20
1.1999999999999886
 30
0.0
 11
-5.0
 21
1.1999999999999886
 31
0.0
  0
LINE
  5
5E6
100
AcDbEntity
  8
0
  6
CONTINUOUS
 62
               7
100
AcDbLine
 10
5.0
 20
0.0
 30
0.0
 11
5.0000000000000009
 21
19.299999999999997
 31
0.0
  0
LINE
  5
5E7
100
AcDbEntity
  8
0
  6
CONTINUOUS
 62
               7
100
AcDbLine
 10
-5.0
 20
0.0
 30
0.0
 11
-5.0
 21
19.299999999999983
 31
0.0
  0
LINE
  5
5E8
100
AcDbEntity
  8
0
  6
CONTINUOUS
 62
               7
100
AcDbLine
 10
4.7000000000000037
 20
20.599999999999994
 30
0.0
 11
-4.7000000000000028
 21
20.59999999999998
 31
0.0
  0
ARC
  5
5E9
100
AcDbEntity
  8
0
  6
CONTINUOUS
 62
               7
100
AcDbCircle
 10
-4.700711437663756
 20
20.40071143766373
 30
0.0
 40
0.1992898322082596
100
AcDbArc
 50
89.795461405895423
 51
180.20453859410404
  0
LINE
  5
5EA
100
AcDbEntity
  8
0
  6
CONTINUOUS
 62
               7
100
AcDbLine
 10
-4.9000000000000057
 20
20.399999999999991
 30
0.0
 11
-4.9000000000000057
 21
19.523606797749963
 31
0.0
  0
LINE
  5
5EB
100
AcDbEntity
  8
0
  6
CONTINUOUS
 62
               7
100
AcDbLine
 10
4.9000000000000066
 20
20.399999999999991
 30
0.0
 11
4.9000000000000066
 21
19.523606797749977
 31
0.0
  0
ARC
  5
5EC
100
AcDbEntity
  8
0
  6
CONTINUOUS
 62
               7
100
AcDbCircle
 10
4.7007114376637569
 20
20.40071143766373
 30
0.0
 40
0.1992898322082596
100
AcDbArc
 50
359.79546140589559
 51
90.204538594104179
  0
LINE
  5
5ED
100
AcDbEntity
  8
0
  6
CONTINUOUS
 62
               7
100
AcDbLine
 10
1.5000000000000009
 20
16.599999999999994
 30
0.0
 11
0.0000000000000009
 21
16.599999999999994
 31
0.0
  0
LINE
  5
5EE
100
AcDbEntity
  8
0
  6
CONTINUOUS
 62
               7
100
AcDbLine
 10
1.5000000000000009
 20
16.599999999999994
 30
0.0
 11
1.5000000000000009
 21
19.599999999999994
 31
0.0
  0
LINE
  5
5EF
100
AcDbEntity
  8
0
  6
CONTINUOUS
 62
               7
100
AcDbLine
 10
-1.4999999999999982
 20
16.599999999999994
 30
0.0
 11
0.0000000000000009
 21
16.599999999999994
 31
0.0
  0
LINE
  5
5F0
100
AcDbEntity
  8
0
  6
CONTINUOUS
 62
               7
100
AcDbLine
 10
-1.4999999999999982
 20
16.599999999999994
 30
0.0
 11
-1.4999999999999982
 21
19.599999999999994
 31
0.0
  0
ARC
  5
5F1
100
AcDbEntity
  8
0
  6
CONTINUOUS
 62
               7
100
AcDbCircle
 10
-4.7000000000000028
 20
19.299999999999997
 30
0.0
 40
0.3
100
AcDbArc
 50
89.999999999999815
 51
179.99999999999963
  0
ARC
  5
5F2
100
AcDbEntity
  8
0
  6
CONTINUOUS
 62
               7
100
AcDbCircle
 10
4.7000000000000037
 20
19.299999999999997
 30
0.0
 40
0.3
100
AcDbArc
 50
0.0
 51
89.999999999999815
  0
LINE
  5
5F3
100
AcDbEntity
  8
0
  6
CENTER
 62
               2
100
AcDbLine
 10
0.0
 20
-64.343615699658855
 30
0.0
 11
0.0
 21
33.381003626861002
 31
0.0
  0
CIRCLE
  5
5F4
100
AcDbEntity
  8
0
  6
CONTINUOUS
 62
               7
100
AcDbCircle
 10
0.0
 20
-21.000000000000114
 30
0.0
 40
5.0
  0
LINE
  5
5F5
100
AcDbEntity
  8
0
  6
CONTINUOUS
 62
               7
100
AcDbLine
 10
-5.0
 20
-14.0
 30
0.0
 11
-5.0000000000000284
 21
-62.000000000000114
 31
0.0
  0
LINE
  5
5F6
100
AcDbEntity
  8
0
  6
CONTINUOUS
 62
               7
100
AcDbLine
 10
-4.9749371855330935
 20
-21.500000000000114
 30
0.0
 11
4.9749371855330935
 21
-21.500000000000114
 31
0.0
  0
LINE
  5
5F7
100
AcDbEntity
  8
0
  6
CONTINUOUS
 62
               7
100
AcDbLine
 10
-4.9749371855330935
 20
-20.500000000000114
 30
0.0
 11
4.9749371855330935
 21
-20.500000000000114
 31
0.0
  0
LINE
  5
5F8
100
AcDbEntity
  8
0
  6
CONTINUOUS
 62
               7
100
AcDbLine
 10
-5.0
 20
-37.000000000000114
 30
0.0
 11
5.0
 21
-37.000000000000114
 31
0.0
  0
LINE
  5
5F9
100
AcDbEntity
  8
0
  6
CONTINUOUS
 62
               7
100
AcDbLine
 10
5.0
 20
-62.000000000000114
 30
0.0
 11
-5.0000000000000284
 21
-62.000000000000114
 31
0.0
  0
LINE
  5
5FA
100
AcDbEntity
  8
0
  6
CONTINUOUS
 62
               7
100
AcDbLine
 10
5.0
 20
-14.0
 30
0.0
 11
5.0
 21
-62.000000000000114
 31
0.0
  0
ENDBLK
  5
5FB
100
AcDbEntity
  8
0
100
AcDbBlockEnd
  0
BLOCK
  5
5FC
100
AcDbEntity
  8
0
100
AcDbBlockBegin
  2
MV030MAS-11-15
 70
               0
 10
0.0
 20
0.0
 30
0.0
  3
MV030MAS-11-15
  1

  0
LINE
  5
5FD
100
AcDbEntity
  8
0
  6
CONTINUOUS
 62
               7
100
AcDbLine
 10
5.0
 20
-13.999999999999986
 30
0.0
 11
5.0
 21
-62.000000000000099
 31
0.0
  0
LINE
  5
5FE
100
AcDbEntity
  8
0
  6
CONTINUOUS
 62
               7
100
AcDbLine
 10
5.0
 20
-62.000000000000099
 30
0.0
 11
-5.0000000000000284
 21
-62.000000000000099
 31
0.0
  0
LINE
  5
5FF
100
AcDbEntity
  8
0
  6
CONTINUOUS
 62
               7
100
AcDbLine
 10
-5.0
 20
-37.000000000000099
 30
0.0
 11
5.0
 21
-37.000000000000099
 31
0.0
  0
LINE
  5
600
100
AcDbEntity
  8
0
  6
CONTINUOUS
 62
               7
100
AcDbLine
 10
-4.9749371855330935
 20
-20.500000000000099
 30
0.0
 11
4.9749371855330935
 21
-20.500000000000099
 31
0.0
  0
LINE
  5
601
100
AcDbEntity
  8
0
  6
CONTINUOUS
 62
               7
100
AcDbLine
 10
-4.9749371855330935
 20
-21.500000000000099
 30
0.0
 11
4.9749371855330935
 21
-21.500000000000099
 31
0.0
  0
LINE
  5
602
100
AcDbEntity
  8
0
  6
CONTINUOUS
 62
               7
100
AcDbLine
 10
-5.0
 20
-13.999999999999986
 30
0.0
 11
-5.0000000000000284
 21
-62.000000000000099
 31
0.0
  0
CIRCLE
  5
603
100
AcDbEntity
  8
0
  6
CONTINUOUS
 62
               7
100
AcDbCircle
 10
0.0
 20
-21.000000000000099
 30
0.0
 40
5.0
  0
LINE
  5
604
100
AcDbEntity
  8
0
  6
CONTINUOUS
 62
               7
100
AcDbLine
 10
-5.0
 20
-39.500000000000099
 30
0.0
 11
5.0
 21
-39.500000000000099
 31
0.0
  0
LINE
  5
605
100
AcDbEntity
  8
0
  6
CONTINUOUS
 62
               7
100
AcDbLine
 10
5.0
 20
-59.500000000000099
 30
0.0
 11
-5.0000000000000284
 21
-59.500000000000099
 31
0.0
  0
LINE
  5
606
100
AcDbEntity
  8
0
  6
CENTER
 62
               2
100
AcDbLine
 10
0.0
 20
-64.343615699658841
 30
0.0
 11
0.0
 21
33.381003626861016
 31
0.0
  0
LINE
  5
607
100
AcDbEntity
  8
0
  6
CONTINUOUS
 62
               7
100
AcDbLine
 10
-5.0
 20
15.0
 30
0.0
 11
5.0
 21
15.0
 31
0.0
  0
LINE
  5
608
100
AcDbEntity
  8
0
  6
CONTINUOUS
 62
               7
100
AcDbLine
 10
-5.0
 20
11.5
 30
0.0
 11
5.0
 21
11.5
 31
0.0
  0
LINE
  5
609
100
AcDbEntity
  8
0
  6
CONTINUOUS
 62
               7
100
AcDbLine
 10
-2.25
 20
25.490000000000009
 30
0.0
 11
-2.25
 21
28.799999999999997
 31
0.0
  0
LINE
  5
60A
100
AcDbEntity
  8
0
  6
CONTINUOUS
 62
               7
100
AcDbLine
 10
-3.5500000000000114
 20
25.140000000000001
 30
0.0
 11
-3.5500000000000114
 21
28.799999999999997
 31
0.0
  0
LINE
  5
60B
100
AcDbEntity
  8
0
  6
CONTINUOUS
 62
               7
100
AcDbLine
 10
-2.25
 20
28.799999999999997
 30
0.0
 11
-3.5500000000000114
 21
28.799999999999997
 31
0.0
  0
LINE
  5
60C
100
AcDbEntity
  8
0
  6
CONTINUOUS
 62
               7
100
AcDbLine
 10
-2.6500000000000057
 20
32.799999999999997
 30
0.0
 11
-3.1500000000000057
 21
32.799999999999997
 31
0.0
  0
LINE
  5
60D
100
AcDbEntity
  8
0
  6
CONTINUOUS
 62
               7
100
AcDbLine
 10
-2.6500000000000057
 20
28.799999999999997
 30
0.0
 11
-2.6500000000000057
 21
32.799999999999997
 31
0.0
  0
LINE
  5
60E
100
AcDbEntity
  8
0
  6
CONTINUOUS
 62
               7
100
AcDbLine
 10
-3.1500000000000057
 20
28.799999999999997
 30
0.0
 11
-3.1500000000000057
 21
32.799999999999997
 31
0.0
  0
LINE
  5
60F
100
AcDbEntity
  8
0
  6
CONTINUOUS
 62
               7
100
AcDbLine
 10
-3.5500000000000114
 20
20.599999999999994
 30
0.0
 11
-3.5500000000000114
 21
24.099999999999994
 31
0.0
  0
LINE
  5
610
100
AcDbEntity
  8
0
  6
CONTINUOUS
 62
               7
100
AcDbLine
 10
-2.25
 20
20.599999999999994
 30
0.0
 11
-2.25
 21
24.450000000000003
 31
0.0
  0
LINE
  5
611
100
AcDbEntity
  8
0
  6
CONTINUOUS
 62
               2
100
AcDbLine
 10
-4.5
 20
23.849999999999994
 30
0.0
 11
-1.3000000000000114
 21
24.709999999999994
 31
0.0
  0
LINE
  5
612
100
AcDbEntity
  8
0
  6
CONTINUOUS
 62
               2
100
AcDbLine
 10
-4.5
 20
24.879999999999995
 30
0.0
 11
-1.3000000000000114
 21
25.740000000000009
 31
0.0
  0
LINE
  5
613
100
AcDbEntity
  8
0
  6
CONTINUOUS
 62
               7
100
AcDbLine
 10
2.25
 20
20.599999999999994
 30
0.0
 11
2.25
 21
24.099999999999994
 31
0.0
  0
LINE
  5
614
100
AcDbEntity
  8
0
  6
CONTINUOUS
 62
               7
100
AcDbLine
 10
3.5500000000000114
 20
20.599999999999994
 30
0.0
 11
3.5500000000000114
 21
24.450000000000003
 31
0.0
  0
LINE
  5
615
100
AcDbEntity
  8
0
  6
CONTINUOUS
 62
               2
100
AcDbLine
 10
1.3000000000000114
 20
23.849999999999994
 30
0.0
 11
4.5
 21
24.709999999999994
 31
0.0
  0
LINE
  5
616
100
AcDbEntity
  8
0
  6
CONTINUOUS
 62
               2
100
AcDbLine
 10
1.3000000000000114
 20
24.879999999999995
 30
0.0
 11
4.5
 21
25.740000000000009
 31
0.0
  0
LINE
  5
617
100
AcDbEntity
  8
0
  6
CONTINUOUS
 62
               7
100
AcDbLine
 10
2.6500000000000057
 20
28.799999999999997
 30
0.0
 11
2.6500000000000057
 21
32.799999999999997
 31
0.0
  0
LINE
  5
618
100
AcDbEntity
  8
0
  6
CONTINUOUS
 62
               7
100
AcDbLine
 10
3.1500000000000057
 20
28.799999999999997
 30
0.0
 11
3.1500000000000057
 21
32.799999999999997
 31
0.0
  0
LINE
  5
619
100
AcDbEntity
  8
0
  6
CONTINUOUS
 62
               7
100
AcDbLine
 10
3.1500000000000057
 20
32.799999999999997
 30
0.0
 11
2.6500000000000057
 21
32.799999999999997
 31
0.0
  0
LINE
  5
61A
100
AcDbEntity
  8
0
  6
CONTINUOUS
 62
               7
100
AcDbLine
 10
3.5500000000000114
 20
28.799999999999997
 30
0.0
 11
2.25
 21
28.799999999999997
 31
0.0
  0
LINE
  5
61B
100
AcDbEntity
  8
0
  6
CONTINUOUS
 62
               7
100
AcDbLine
 10
2.25
 20
25.140000000000001
 30
0.0
 11
2.25
 21
28.799999999999997
 31
0.0
  0
LINE
  5
61C
100
AcDbEntity
  8
0
  6
CONTINUOUS
 62
               7
100
AcDbLine
 10
3.5500000000000114
 20
25.490000000000009
 30
0.0
 11
3.5500000000000114
 21
28.799999999999997
 31
0.0
  0
LINE
  5
61D
100
AcDbEntity
  8
0
  6
CONTINUOUS
 62
               7
100
AcDbLine
 10
-5.0
 20
20.599999999999994
 30
0.0
 11
5.0
 21
20.599999999999994
 31
0.0
  0
LINE
  5
61E
100
AcDbEntity
  8
0
  6
CONTINUOUS
 62
               7
100
AcDbLine
 10
-5.0
 20
19.599999999999994
 30
0.0
 11
5.0
 21
19.599999999999994
 31
0.0
  0
LINE
  5
61F
100
AcDbEntity
  8
0
  6
CONTINUOUS
 62
               7
100
AcDbLine
 10
5.0
 20
0.0
 30
0.0
 11
5.0
 21
20.599999999999994
 31
0.0
  0
LINE
  5
620
100
AcDbEntity
  8
0
  6
CONTINUOUS
 62
               7
100
AcDbLine
 10
-5.0
 20
0.0
 30
0.0
 11
-5.0
 21
20.599999999999994
 31
0.0
  0
LINE
  5
621
100
AcDbEntity
  8
0
  6
CONTINUOUS
 62
               7
100
AcDbLine
 10
-5.0
 20
0.0
 30
0.0
 11
5.0
 21
0.0
 31
0.0
  0
LINE
  5
622
100
AcDbEntity
  8
0
  6
CENTER
 62
               2
100
AcDbLine
 10
-5.8548750255476989
 20
7.0
 30
0.0
 11
5.8933983654744679
 21
7.0
 31
0.0
  0
CIRCLE
  5
623
100
AcDbEntity
  8
0
  6
CONTINUOUS
 62
               7
100
AcDbCircle
 10
0.0
 20
6.9999999959363635
 30
0.0
 40
2.6500000000000004
  0
ARC
  5
624
100
AcDbEntity
  8
0
  6
CONTINUOUS
 62
               7
100
AcDbCircle
 10
0.0
 20
6.9999999959363635
 30
0.0
 40
3.1500000000000004
100
AcDbArc
 50
287.75279040435811
 51
252.24720959564061
  0
ARC
  5
625
100
AcDbEntity
  8
0
  6
CONTINUOUS
 62
               7
100
AcDbCircle
 10
0.0
 20
7.0
 30
0.0
 40
3.4500000000000002
100
AcDbArc
 50
299.59184579395003
 51
240.40815420604878
  0
CIRCLE
  5
626
100
AcDbEntity
  8
0
  6
CONTINUOUS
 62
               7
100
AcDbCircle
 10
0.0
 20
6.9999999959363635
 30
0.0
 40
0.3
  0
CIRCLE
  5
627
100
AcDbEntity
  8
0
  6
CONTINUOUS
 62
               7
100
AcDbCircle
 10
-0.0000000017638513
 20
7.0
 30
0.0
 40
0.576795
  0
CIRCLE
  5
628
100
AcDbEntity
  8
0
  6
CONTINUOUS
 62
               7
100
AcDbCircle
 10
0.0
 20
6.9999999959363635
 30
0.0
 40
0.75
  0
LINE
  5
629
100
AcDbEntity
  8
0
  6
CONTINUOUS
 62
               7
100
AcDbLine
 10
-5.0
 20
4.0
 30
0.0
 11
5.0
 21
4.0
 31
0.0
  0
ENDBLK
  5
62A
100
AcDbEntity
  8
0
100
AcDbBlockEnd
  0
BLOCK
  5
644
100
AcDbEntity
  8
0
  6
ByBlock
 62
               0
100
AcDbBlockBegin
  2
*D15
 70
               1
 10
0.0
 20
0.0
 30
0.0
  3
*D15
  1

  0
LINE
  5
645
100
AcDbEntity
  8
0
  6
CONTINUOUS
 62
               2
100
AcDbLine
 10
135.06479678416602
 20
-23.773400310941241
 30
0.0
 11
128.0647967841654
 21
-23.773400310941241
 31
0.0
  0
LINE
  5
646
100
AcDbEntity
  8
0
  6
CONTINUOUS
 62
               2
100
AcDbLine
 10
128.0647967841654
 20
-23.773400310941241
 30
0.0
 11
118.84298882747046
 21
-23.773400310941241
 31
0.0
  0
INSERT
  5
64D
100
AcDbEntity
  8
0
  6
CONTINUOUS
 62
               2
100
AcDbBlockReference
  2
_OPEN30
 10
135.06479678416602
 20
-23.773400310941241
 30
0.0
 41
2.77
 42
2.77
 43
2.77
  0
INSERT
  5
64E
100
AcDbEntity
  8
0
  6
CONTINUOUS
 62
               2
100
AcDbBlockReference
  2
_OPEN30
 10
128.0647967841654
 20
-23.773400310941241
 30
0.0
 41
2.77
 42
2.77
 43
2.77
 50
180.0
  0
MTEXT
  5
64F
100
AcDbEntity
  8
0
  6
CONTINUOUS
 62
               2
100
AcDbMText
 10
121.9929889228379
 20
-19.62340021557381
 30
0.0
 40
6.3000001907348633
 41
0.0
 71
               5
 72
               1
  1
\A1;7
 11
1.0
 21
-0.0000000000000001
 31
0.0
  0
POINT
  5
650
100
AcDbEntity
  8
DEFPOINTS
  6
CONTINUOUS
 62
               0
100
AcDbPoint
 10
135.06479678416602
 20
-10.377921108670733
 30
0.0
  0
POINT
  5
651
100
AcDbEntity
  8
DEFPOINTS
  6
CONTINUOUS
 62
               0
100
AcDbPoint
 10
128.0647967841654
 20
-3.2999048275428038
 30
0.0
  0
POINT
  5
652
100
AcDbEntity
  8
DEFPOINTS
  6
CONTINUOUS
 62
               0
100
AcDbPoint
 10
128.0647967841654
 20
-23.773400310941241
 30
0.0
  0
ENDBLK
  5
653
100
AcDbEntity
  8
0
  6
ByBlock
 62
               0
100
AcDbBlockEnd
  0
BLOCK
  5
648
100
AcDbEntity
  8
0
  6
ByBlock
 62
               0
100
AcDbBlockBegin
  2
_OPEN30
 70
               2
 10
0.0
 20
0.0
 30
0.0
  3
_OPEN30
  1

  0
LINE
  5
649
100
AcDbEntity
  8
0
  6
ByBlock
 62
               0
100
AcDbLine
 10
-1.0
 20
0.267949
 30
0.0
 11
0.0
 21
0.0
 31
0.0
  0
LINE
  5
64A
100
AcDbEntity
  8
0
  6
ByBlock
 62
               0
100
AcDbLine
 10
0.0
 20
0.0
 30
0.0
 11
-1.0
 21
-0.267949
 31
0.0
  0
LINE
  5
64B
100
AcDbEntity
  8
0
  6
ByBlock
 62
               0
100
AcDbLine
 10
0.0
 20
0.0
 30
0.0
 11
-1.0
 21
0.0
 31
0.0
  0
ENDBLK
  5
64C
100
AcDbEntity
  8
0
  6
ByBlock
 62
               0
100
AcDbBlockEnd
  0
BLOCK
  5
656
100
AcDbEntity
  8
0
  6
ByBlock
 62
               0
100
AcDbBlockBegin
  2
*D17
 70
               1
 10
0.0
 20
0.0
 30
0.0
  3
*D17
  1

  0
LINE
  5
657
100
AcDbEntity
  8
0
  6
CONTINUOUS
 62
               2
100
AcDbLine
 10
220.46479678416532
 20
-23.773400310941241
 30
0.0
 11
216.46479678416597
 21
-23.773400310941241
 31
0.0
  0
LINE
  5
658
100
AcDbEntity
  8
0
  6
CONTINUOUS
 62
               2
100
AcDbLine
 10
240.04719972873013
 20
-23.773400310941241
 30
0.0
 11
220.46479678416532
 21
-23.773400310941241
 31
0.0
  0
LINE
  5
659
100
AcDbEntity
  8
0
  6
CONTINUOUS
 62
               2
100
AcDbLine
 10
220.46479678416532
 20
-23.773400310941241
 30
0.0
 11
224.02079677844327
 21
-23.773400310941241
 31
0.0
  0
LINE
  5
65A
100
AcDbEntity
  8
0
  6
CONTINUOUS
 62
               2
100
AcDbLine
 10
216.46479678416597
 20
-23.773400310941241
 30
0.0
 11
212.90879678988802
 21
-23.773400310941241
 31
0.0
  0
INSERT
  5
65B
100
AcDbEntity
  8
0
  6
CONTINUOUS
 62
               2
100
AcDbBlockReference
  2
_OPEN30
 10
220.46479678416532
 20
-23.773400310941241
 30
0.0
 41
2.77
 42
2.77
 43
2.77
 50
180.0
  0
INSERT
  5
65C
100
AcDbEntity
  8
0
  6
CONTINUOUS
 62
               2
100
AcDbBlockReference
  2
_OPEN30
 10
216.46479678416597
 20
-23.773400310941241
 30
0.0
 41
2.77
 42
2.77
 43
2.77
  0
MTEXT
  5
65D
100
AcDbEntity
  8
0
  6
CONTINUOUS
 62
               2
100
AcDbMText
 10
232.69719958567899
 20
-19.62340021557381
 30
0.0
 40
6.3000001907348633
 41
0.0
 71
               5
 72
               1
  1
\A1;(4)
 11
1.0
 21
-0.0000000000000001
 31
0.0
  0
POINT
  5
65E
100
AcDbEntity
  8
DEFPOINTS
  6
CONTINUOUS
 62
               0
100
AcDbPoint
 10
220.46479678416532
 20
-3.2999048275428038
 30
0.0
  0
POINT
  5
65F
100
AcDbEntity
  8
DEFPOINTS
  6
CONTINUOUS
 62
               0
100
AcDbPoint
 10
216.46479678416597
 20
-10.377921108670733
 30
0.0
  0
POINT
  5
660
100
AcDbEntity
  8
DEFPOINTS
  6
CONTINUOUS
 62
               0
100
AcDbPoint
 10
216.46479678416597
 20
-23.773400310941241
 30
0.0
  0
ENDBLK
  5
661
100
AcDbEntity
  8
0
  6
ByBlock
 62
               0
100
AcDbBlockEnd
  0
BLOCK
  5
664
100
AcDbEntity
  8
0
  6
ByBlock
 62
               0
100
AcDbBlockBegin
  2
*D18
 70
               1
 10
0.0
 20
0.0
 30
0.0
  3
*D18
  1

  0
LINE
  5
665
100
AcDbEntity
  8
0
  6
CONTINUOUS
 62
               2
100
AcDbLine
 10
135.06479678416602
 20
-23.773400310941241
 30
0.0
 11
216.46479678416597
 21
-23.773400310941241
 31
0.0
  0
LINE
  5
666
100
AcDbEntity
  8
0
  6
CONTINUOUS
 62
               2
100
AcDbLine
 10
135.06479678416602
 20
-57.273400310941241
 30
0.0
 11
135.06479678416602
 21
-22.273400310941241
 31
0.0
  0
LINE
  5
667
100
AcDbEntity
  8
0
  6
CONTINUOUS
 62
               2
100
AcDbLine
 10
216.46479678416597
 20
-57.773400310941241
 30
0.0
 11
216.46479678416597
 21
-22.273400310941241
 31
0.0
  0
INSERT
  5
668
100
AcDbEntity
  8
0
  6
CONTINUOUS
 62
               2
100
AcDbBlockReference
  2
_OPEN30
 10
135.06479678416602
 20
-23.773400310941241
 30
0.0
 41
2.77
 42
2.77
 43
2.77
 50
180.0
  0
INSERT
  5
669
100
AcDbEntity
  8
0
  6
CONTINUOUS
 62
               2
100
AcDbBlockReference
  2
_OPEN30
 10
216.46479678416597
 20
-23.773400310941241
 30
0.0
 41
2.77
 42
2.77
 43
2.77
  0
MTEXT
  5
66A
100
AcDbEntity
  8
0
  6
CONTINUOUS
 62
               2
100
AcDbMText
 10
175.76479754710547
 20
-19.62340021557381
 30
0.0
 40
6.3000001907348633
 41
0.0
 71
               5
 72
               1
  1
\A1;L
  0
POINT
  5
66B
100
AcDbEntity
  8
DEFPOINTS
  6
CONTINUOUS
 62
               0
100
AcDbPoint
 10
135.06479678416602
 20
-58.773400310941241
 30
0.0
  0
POINT
  5
66C
100
AcDbEntity
  8
DEFPOINTS
  6
CONTINUOUS
 62
               0
100
AcDbPoint
 10
216.46479678416597
 20
-59.273400310941241
 30
0.0
  0
POINT
  5
66D
100
AcDbEntity
  8
DEFPOINTS
  6
CONTINUOUS
 62
               0
100
AcDbPoint
 10
216.46479678416597
 20
-23.773400310941241
 30
0.0
  0
ENDBLK
  5
66E
100
AcDbEntity
  8
0
  6
ByBlock
 62
               0
100
AcDbBlockEnd
  0
BLOCK
  5
671
100
AcDbEntity
  8
0
  6
ByBlock
 62
               0
100
AcDbBlockBegin
  2
*D19
 70
               1
 10
0.0
 20
0.0
 30
0.0
  3
*D19
  1

  0
LINE
  5
672
100
AcDbEntity
  8
0
  6
CONTINUOUS
 62
               2
100
AcDbLine
 10
128.0647967841654
 20
-8.7734003109412413
 30
0.0
 11
220.46479678416532
 21
-8.7734003109412413
 31
0.0
  0
LINE
  5
673
100
AcDbEntity
  8
0
  6
CONTINUOUS
 62
               2
100
AcDbLine
 10
128.0647967841654
 20
-68.773400310941241
 30
0.0
 11
128.0647967841654
 21
-7.2734003109412413
 31
0.0
  0
LINE
  5
674
100
AcDbEntity
  8
0
  6
CONTINUOUS
 62
               2
100
AcDbLine
 10
220.46479678416532
 20
-68.773400310941241
 30
0.0
 11
220.46479678416532
 21
-7.2734003109412413
 31
0.0
  0
INSERT
  5
675
100
AcDbEntity
  8
0
  6
CONTINUOUS
 62
               2
100
AcDbBlockReference
  2
_OPEN30
 10
128.0647967841654
 20
-8.7734003109412413
 30
0.0
 41
2.77
 42
2.77
 43
2.77
 50
180.0
  0
INSERT
  5
676
100
AcDbEntity
  8
0
  6
CONTINUOUS
 62
               2
100
AcDbBlockReference
  2
_OPEN30
 10
220.46479678416532
 20
-8.7734003109412413
 30
0.0
 41
2.77
 42
2.77
 43
2.77
  0
MTEXT
  5
677
100
AcDbEntity
  8
0
  6
CONTINUOUS
 62
               2
100
AcDbMText
 10
174.26479754710485
 20
-4.6234002155738096
 30
0.0
 40
6.3000001907348633
 41
0.0
 71
               5
 72
               1
  1
\A1;P
  0
POINT
  5
678
100
AcDbEntity
  8
DEFPOINTS
  6
CONTINUOUS
 62
               0
100
AcDbPoint
 10
128.0647967841654
 20
-70.273400310941241
 30
0.0
  0
POINT
  5
679
100
AcDbEntity
  8
DEFPOINTS
  6
CONTINUOUS
 62
               0
100
AcDbPoint
 10
220.46479678416532
 20
-70.273400310941241
 30
0.0
  0
POINT
  5
67A
100
AcDbEntity
  8
DEFPOINTS
  6
CONTINUOUS
 62
               0
100
AcDbPoint
 10
220.46479678416532
 20
-8.7734003109412413
 30
0.0
  0
ENDBLK
  5
67B
100
AcDbEntity
  8
0
  6
ByBlock
 62
               0
100
AcDbBlockEnd
  0
ENDSEC
  0
SECTION
  2
ENTITIES
  0
INSERT
  5
62B
100
AcDbEntity
  8
0
  6
ByBlock
100
AcDbBlockReference
  2
MV030MAS-11-8
 10
-28.435203215837817
 20
-125.31380851670967
 30
0.0
  0
INSERT
  5
62C
100
AcDbEntity
  8
0
  6
ByBlock
100
AcDbBlockReference
  2
MV030MAS-11-9
 10
122.0647967841623
 20
113.65014391977417
 30
0.0
  0
INSERT
  5
62D
100
AcDbEntity
  8
0
  6
ByBlock
100
AcDbBlockReference
  2
MV030MAS-11-1
 10
122.0647967841623
 20
-125.31380851670967
 30
0.0
  0
INSERT
  5
62E
100
AcDbEntity
  8
0
  6
ByBlock
100
AcDbBlockReference
  2
MV030MAS-11-10
 10
-137.93592238426208
 20
-125.31380851670967
 30
0.0
  0
MTEXT
  5
62F
100
AcDbEntity
  8
0
  6
CONTINUOUS
 62
               7
100
AcDbMText
 10
-268.26600011285547
 20
160.5
 30
0.0
 40
6.3000001907348633
 41
0.0
 71
               4
 72
               1
  1
\W1.080;\A1;MODEL:MV030M8AS-11
  0
LINE
  5
630
100
AcDbEntity
  8
0
  6
CONTINUOUS
 62
               7
100
AcDbLine
 10
-281.25
 20
-195.0
 30
0.0
 11
282.099853515625
 21
-195.0
 31
0.0
  0
LINE
  5
631
100
AcDbEntity
  8
0
  6
CONTINUOUS
 62
               7
100
AcDbLine
 10
-281.25
 20
195.5
 30
0.0
 11
-281.25
 21
-195.0
 31
0.0
  0
LINE
  5
632
100
AcDbEntity
  8
0
  6
CONTINUOUS
 62
               7
100
AcDbLine
 10
-281.25
 20
195.5
 30
0.0
 11
282.099853515625
 21
195.5
 31
0.0
  0
LINE
  5
633
100
AcDbEntity
  8
0
  6
CONTINUOUS
 62
               7
100
AcDbLine
 10
282.099853515625
 20
195.5
 30
0.0
 11
282.099853515625
 21
-195.0
 31
0.0
  0
LINE
  5
634
100
AcDbEntity
  8
0
  6
CONTINUOUS
 62
               7
100
AcDbLine
 10
162.0999755859375
 20
195.5
 30
0.0
 11
162.0999755859375
 21
175.5
 31
0.0
  0
LINE
  5
635
100
AcDbEntity
  8
0
  6
CONTINUOUS
 62
               7
100
AcDbLine
 10
162.0999755859375
 20
175.5
 30
0.0
 11
282.099853515625
 21
175.5
 31
0.0
  0
MTEXT
  5
636
100
AcDbEntity
  8
0
  6
CONTINUOUS
 62
               7
100
AcDbMText
 10
198.31570519064027
 20
185.5
 30
0.0
 40
6.3000001907348633
 41
0.0
 71
               4
 72
               1
  1
\W1.348;\A1;Ver. 1.1
  0
MTEXT
  5
637
100
AcDbEntity
  8
0
  6
CONTINUOUS
 62
               7
100
AcDbMText
 10
170.28099805280428
 20
-185.0
 30
0.0
 40
9.0
 41
0.0
 71
               4
 72
               1
  1
\W1.121;\A1;KOGANEI CORP.
  0
LINE
  5
638
100
AcDbEntity
  8
0
  6
CONTINUOUS
 62
               7
100
AcDbLine
 10
162.0999755859375
 20
-175.0
 30
0.0
 11
282.099853515625
 21
-175.0
 31
0.0
  0
LINE
  5
639
100
AcDbEntity
  8
0
  6
CONTINUOUS
 62
               7
100
AcDbLine
 10
162.0999755859375
 20
-175.0
 30
0.0
 11
162.0999755859375
 21
-195.0
 31
0.0
  0
LINE
  5
63A
100
AcDbEntity
  8
0
  6
CONTINUOUS
 62
               7
100
AcDbLine
 10
-161.25
 20
195.5
 30
0.0
 11
-161.25
 21
175.5
 31
0.0
  0
LINE
  5
63B
100
AcDbEntity
  8
0
  6
CONTINUOUS
 62
               7
100
AcDbLine
 10
-281.25
 20
175.5
 30
0.0
 11
-161.25
 21
175.5
 31
0.0
  0
MTEXT
  5
63C
100
AcDbEntity
  8
0
  6
CONTINUOUS
 62
               7
100
AcDbMText
 10
-273.74170118739892
 20
185.5
 30
0.0
 40
6.3000001907348633
 41
0.0
 71
               4
 72
               1
  1
\W1.008;\A1;VACUUM VALVE UNIT
  0
MTEXT
  5
63D
100
AcDbEntity
  8
0
  6
CONTINUOUS
 62
               7
100
AcDbMText
 10
-230.38105228425613
 20
150.5
 30
0.0
 40
6.3000001907348633
 41
0.0
 71
               4
 72
               1
  1
\W1.161;\A1;STN.1  :AMV030-06-F
  0
MTEXT
  5
63E
100
AcDbEntity
  8
0
  6
CONTINUOUS
 62
               7
100
AcDbMText
 10
-230.40538239998656
 20
140.5
 30
0.0
 40
6.3000001907348633
 41
0.0
 71
               4
 72
               1
  1
\W1.138;\A1;STN.2  :AMV030-02-F
  0
MTEXT
  5
63F
100
AcDbEntity
  8
0
  6
CONTINUOUS
 62
               7
100
AcDbMText
 10
-230.40538239998656
 20
130.5
 30
0.0
 40
6.3000001907348633
 41
0.0
 71
               4
 72
               1
  1
\W1.138;\A1;STN.3  :AMV030-04-F
  0
MTEXT
  5
640
100
AcDbEntity
  8
0
  6
CONTINUOUS
 62
               7
100
AcDbMText
 10
-230.42084882759812
 20
120.5
 30
0.0
 40
6.3000001907348633
 41
0.0
 71
               4
 72
               1
  1
\W1.123;\A1;STN.4  :AMV030-04-D-F
  0
MTEXT
  5
641
100
AcDbEntity
  8
0
  6
CONTINUOUS
 62
               7
100
AcDbMText
 10
-230.45868881483148
 20
110.5
 30
0.0
 40
6.3000001907348633
 41
0.0
 71
               4
 72
               1
  1
\W1.087;\A1;STN.5,6:AMV030-02-DA-F-PL
  0
MTEXT
  5
642
100
AcDbEntity
  8
0
  6
CONTINUOUS
 62
               7
100
AcDbMText
 10
-230.45868881483148
 20
100.5
 30
0.0
 40
6.3000001907348633
 41
0.0
 71
               4
 72
               1
  1
\W1.087;\A1;STN.7,8:AMV030-04-DA-F-PL
  0
DIMENSION
  5
654
100
AcDbEntity
  8
0
  6
CONTINUOUS
 62
               2
100
AcDbDimension
  2
*D15
 10
128.0647967841654
 20
-23.773400310941241
 30
0.0
 11
121.9929889228379
 21
-23.773400310941241
 31
0.0
 70
             128
  1
<>
  3
MXDIMSTYLE
100
AcDbAlignedDimension
 13
135.06479678416602
 23
-10.377921108670733
 33
0.0
 14
128.0647967841654
 24
-3.2999048275428038
 34
0.0
100
AcDbRotatedDimension
1001
ACAD
1000
DSTYLE
1002
{
1070
               6
1000
_OPEN30
1070
               7
1000
_OPEN30
1070
              41
1040
2.77
1070
              75
1070
               1
1070
              76
1070
               1
1070
             140
1040
6.3000001907348633
1070
             173
1070
               1
1070
             271
1070
               2
1070
             284
1070
               8
1070
             341
1005
647
1002
}
  0
DIMENSION
  5
662
100
AcDbEntity
  8
0
  6
CONTINUOUS
 62
               2
100
AcDbDimension
  2
*D17
 10
216.46479678416597
 20
-23.773400310941241
 30
0.0
 11
232.69719958567899
 21
-23.773400310941241
 31
0.0
 70
             128
  1
(<>)
  3
MXDIMSTYLE
100
AcDbAlignedDimension
 13
220.46479678416532
 23
-3.2999048275428038
 33
0.0
 14
216.46479678416597
 24
-10.377921108670733
 34
0.0
100
AcDbRotatedDimension
1001
ACAD
1000
DSTYLE
1002
{
1070
               6
1000
_OPEN30
1070
               7
1000
_OPEN30
1070
              41
1040
2.77
1070
              75
1070
               1
1070
              76
1070
               1
1070
             140
1040
6.3000001907348633
1070
             173
1070
               1
1070
             271
1070
               2
1070
             284
1070
               8
1070
             341
1005
647
1002
}
  0
DIMENSION
  5
66F
100
AcDbEntity
  8
0
  6
CONTINUOUS
 62
               2
100
AcDbDimension
  2
*D18
 10
216.46479678416597
 20
-23.773400310941241
 30
0.0
 11
175.76479754710547
 21
-23.773400310941241
 31
0.0
 70
             128
  1
L
  3
MXDIMSTYLE
100
AcDbAlignedDimension
 13
135.06479678416602
 23
-58.773400310941241
 33
0.0
 14
216.46479678416597
 24
-59.273400310941241
 34
0.0
100
AcDbRotatedDimension
1001
ACAD
1000
DSTYLE
1002
{
1070
               6
1000
_OPEN30
1070
               7
1000
_OPEN30
1070
              41
1040
2.77
1070
             140
1040
6.3000001907348633
1070
             173
1070
               1
1070
             271
1070
               2
1070
             341
1005
647
1002
}
  0
DIMENSION
  5
67C
100
AcDbEntity
  8
0
  6
CONTINUOUS
 62
               2
100
AcDbDimension
  2
*D19
 10
220.46479678416532
 20
-8.7734003109412413
 30
0.0
 11
174.26479754710485
 21
-8.7734003109412413
 31
0.0
 70
             128
  1
P
  3
MXDIMSTYLE
100
AcDbAlignedDimension
 13
128.0647967841654
 23
-70.273400310941241
 33
0.0
 14
220.46479678416532
 24
-70.273400310941241
 34
0.0
100
AcDbRotatedDimension
1001
ACAD
1000
DSTYLE
1002
{
1070
               6
1000
_OPEN30
1070
               7
1000
_OPEN30
1070
              41
1040
2.77
1070
             140
1040
6.3000001907348633
1070
             173
1070
               1
1070
             271
1070
               2
1070
             341
1005
647
1002
}
  0
LINE
  5
67D
100
AcDbEntity
  8
0
  6
CONTINUOUS
 62
               7
100
AcDbLine
 10
-261.25
 20
1.5
 30
0.0
 11
-157.75
 21
1.5
 31
0.0
  0
LINE
  5
67E
100
AcDbEntity
  8
0
  6
CONTINUOUS
 62
               7
100
AcDbLine
 10
-261.25
 20
9.5
 30
0.0
 11
-157.75
 21
9.5
 31
0.0
  0
LINE
  5
67F
100
AcDbEntity
  8
0
  6
CONTINUOUS
 62
               7
100
AcDbLine
 10
-261.25
 20
17.5
 30
0.0
 11
-157.75
 21
17.5
 31
0.0
  0
LINE
  5
680
100
AcDbEntity
  8
0
  6
CONTINUOUS
 62
               7
100
AcDbLine
 10
-261.25
 20
25.5
 30
0.0
 11
-157.75
 21
25.5
 31
0.0
  0
LINE
  5
681
100
AcDbEntity
  8
0
  6
CONTINUOUS
 62
               7
100
AcDbLine
 10
-261.25
 20
33.5
 30
0.0
 11
-157.75
 21
33.5
 31
0.0
  0
LINE
  5
682
100
AcDbEntity
  8
0
  6
CONTINUOUS
 62
               7
100
AcDbLine
 10
-261.25
 20
41.5
 30
0.0
 11
-157.75
 21
41.5
 31
0.0
  0
LINE
  5
683
100
AcDbEntity
  8
0
  6
CONTINUOUS
 62
               7
100
AcDbLine
 10
-261.25
 20
49.5
 30
0.0
 11
-157.75
 21
49.5
 31
0.0
  0
LINE
  5
684
100
AcDbEntity
  8
0
  6
CONTINUOUS
 62
               7
100
AcDbLine
 10
-261.25
 20
57.5
 30
0.0
 11
-157.75
 21
57.5
 31
0.0
  0
LINE
  5
685
100
AcDbEntity
  8
0
  6
CONTINUOUS
 62
               7
100
AcDbLine
 10
-261.25
 20
65.5
 30
0.0
 11
-157.75
 21
65.5
 31
0.0
  0
LINE
  5
686
100
AcDbEntity
  8
0
  6
CONTINUOUS
 62
               7
100
AcDbLine
 10
-157.75
 20
65.5
 30
0.0
 11
-157.75
 21
1.5
 31
0.0
  0
LINE
  5
687
100
AcDbEntity
  8
0
  6
CONTINUOUS
 62
               7
100
AcDbLine
 10
-180.25
 20
65.5
 30
0.0
 11
-180.25
 21
1.5
 31
0.0
  0
LINE
  5
688
100
AcDbEntity
  8
0
  6
CONTINUOUS
 62
               7
100
AcDbLine
 10
-202.75
 20
65.5
 30
0.0
 11
-202.75
 21
1.5
 31
0.0
  0
MTEXT
  5
689
100
AcDbEntity
  8
0
  6
CONTINUOUS
 62
               7
100
AcDbMText
 10
-177.1000000411272
 20
5.5
 30
0.0
 40
4.5
 41
0.0
 71
               4
 72
               1
  1
\W1.200;\A1;92.4
  0
MTEXT
  5
68A
100
AcDbEntity
  8
0
  6
CONTINUOUS
 62
               7
100
AcDbMText
 10
-177.1000000411272
 20
13.5
 30
0.0
 40
4.5
 41
0.0
 71
               4
 72
               1
  1
\W1.200;\A1;82.2
  0
MTEXT
  5
68B
100
AcDbEntity
  8
0
  6
CONTINUOUS
 62
               7
100
AcDbMText
 10
-177.05263161692301
 20
21.5
 30
0.0
 40
4.5
 41
0.0
 71
               4
 72
               1
  1
\W1.263;\A1;72.0
  0
MTEXT
  5
68C
100
AcDbEntity
  8
0
  6
CONTINUOUS
 62
               7
100
AcDbMText
 10
-177.0000000529794
 20
29.5
 30
0.0
 40
4.5
 41
0.0
 71
               4
 72
               1
  1
\W1.333;\A1;61.8
  0
MTEXT
  5
68D
100
AcDbEntity
  8
0
  6
CONTINUOUS
 62
               7
100
AcDbMText
 10
-177.0000000529794
 20
37.5
 30
0.0
 40
4.5
 41
0.0
 71
               4
 72
               1
  1
\W1.333;\A1;51.6
  0
MTEXT
  5
68E
100
AcDbEntity
  8
0
  6
CONTINUOUS
 62
               7
100
AcDbMText
 10
-199.5000000529794
 20
5.5
 30
0.0
 40
4.5
 41
0.0
 71
               4
 72
               1
  1
\W1.333;\A1;81.4
  0
MTEXT
  5
68F
100
AcDbEntity
  8
0
  6
CONTINUOUS
 62
               7
100
AcDbMText
 10
-199.5000000529794
 20
13.5
 30
0.0
 40
4.5
 41
0.0
 71
               4
 72
               1
  1
\W1.333;\A1;71.2
  0
MTEXT
  5
690
100
AcDbEntity
  8
0
  6
CONTINUOUS
 62
               7
100
AcDbMText
 10
-199.44117641840901
 20
21.5
 30
0.0
 40
4.5
 41
0.0
 71
               4
 72
               1
  1
\W1.412;\A1;61.0
  0
MTEXT
  5
691
100
AcDbEntity
  8
0
  6
CONTINUOUS
 62
               7
100
AcDbMText
 10
-199.55263161692301
 20
29.5
 30
0.0
 40
4.5
 41
0.0
 71
               4
 72
               1
  1
\W1.263;\A1;50.8
  0
MTEXT
  5
692
100
AcDbEntity
  8
0
  6
CONTINUOUS
 62
               7
100
AcDbMText
 10
-199.55263161692301
 20
37.5
 30
0.0
 40
4.5
 41
0.0
 71
               4
 72
               1
  1
\W1.263;\A1;40.6
  0
MTEXT
  5
693
100
AcDbEntity
  8
0
  6
CONTINUOUS
 62
               7
100
AcDbMText
 10
-177.0000000529794
 20
45.5
 30
0.0
 40
4.5
 41
0.0
 71
               4
 72
               1
  1
\W1.333;\A1;41.4
  0
MTEXT
  5
694
100
AcDbEntity
  8
0
  6
CONTINUOUS
 62
               7
100
AcDbMText
 10
-199.55263161692301
 20
45.5
 30
0.0
 40
4.5
 41
0.0
 71
               4
 72
               1
  1
\W1.263;\A1;30.4
  0
MTEXT
  5
695
100
AcDbEntity
  8
0
  6
CONTINUOUS
 62
               7
100
AcDbMText
 10
-177.0000000529794
 20
53.5
 30
0.0
 40
4.5
 41
0.0
 71
               4
 72
               1
  1
\W1.333;\A1;31.2
  0
MTEXT
  5
696
100
AcDbEntity
  8
0
  6
CONTINUOUS
 62
               7
100
AcDbMText
 10
-199.55263161692301
 20
53.5
 30
0.0
 40
4.5
 41
0.0
 71
               4
 72
               1
  1
\W1.263;\A1;20.2
  0
MTEXT
  5
697
100
AcDbEntity
  8
0
  6
CONTINUOUS
 62
               7
100
AcDbMText
 10
-170.5
 20
61.5
 30
0.0
 40
4.5
 41
0.0
 71
               4
 72
               1
  1
\A1;P
  0
MTEXT
  5
698
100
AcDbEntity
  8
0
  6
CONTINUOUS
 62
               7
100
AcDbMText
 10
-193.0
 20
61.5
 30
0.0
 40
4.5
 41
0.0
 71
               4
 72
               1
  1
\A1;L
  0
MTEXT
  5
699
100
AcDbEntity
  8
0
  6
CONTINUOUS
 62
               7
100
AcDbMText
 10
-240.25
 20
61.5
 30
0.0
 40
4.5
 41
0.0
 71
               4
 72
               1
  1
\A1;TYPE
  0
MTEXT
  5
69A
100
AcDbEntity
  8
0
  6
CONTINUOUS
 62
               7
100
AcDbMText
 10
-258.20588235851022
 20
53.5
 30
0.0
 40
4.5
 41
0.0
 71
               4
 72
               1
  1
\W1.059;\A1;MV030M2AS-11
  0
MTEXT
  5
69B
100
AcDbEntity
  8
0
  6
CONTINUOUS
 62
               7
100
AcDbMText
 10
-258.20588235851022
 20
45.5
 30
0.0
 40
4.5
 41
0.0
 71
               4
 72
               1
  1
\W1.059;\A1;MV030M3AS-11
  0
MTEXT
  5
69C
100
AcDbEntity
  8
0
  6
CONTINUOUS
 62
               7
100
AcDbMText
 10
-258.20588235851022
 20
37.5
 30
0.0
 40
4.5
 41
0.0
 71
               4
 72
               1
  1
\W1.059;\A1;MV030M4AS-11
  0
MTEXT
  5
69D
100
AcDbEntity
  8
0
  6
CONTINUOUS
 62
               7
100
AcDbMText
 10
-258.20588235851022
 20
29.5
 30
0.0
 40
4.5
 41
0.0
 71
               4
 72
               1
  1
\W1.059;\A1;MV030M5AS-11
  0
MTEXT
  5
69E
100
AcDbEntity
  8
0
  6
CONTINUOUS
 62
               7
100
AcDbMText
 10
-258.20588235851022
 20
21.5
 30
0.0
 40
4.5
 41
0.0
 71
               4
 72
               1
  1
\W1.059;\A1;MV030M6AS-11
  0
MTEXT
  5
69F
100
AcDbEntity
  8
0
  6
CONTINUOUS
 62
               7
100
AcDbMText
 10
-258.20588235851022
 20
13.5
 30
0.0
 40
4.5
 41
0.0
 71
               4
 72
               1
  1
\W1.059;\A1;MV030M7AS-11
  0
MTEXT
  5
6A0
100
AcDbEntity
  8
0
  6
CONTINUOUS
 62
               7
100
AcDbMText
 10
-258.20588235851022
 20
5.5
 30
0.0
 40
4.5
 41
0.0
 71
               4
 72
               1
  1
\W1.059;\A1;MV030M8AS-11
  0
MTEXT
  5
6A1
100
AcDbEntity
  8
0
  6
CONTINUOUS
 62
               7
100
AcDbMText
 10
-233.41666665578606
 20
69.5
 30
0.0
 40
4.5
 41
0.0
 71
               4
 72
               1
  1
\W1.111;\A1;DIMENSION LIST
  0
LINE
  5
6A2
100
AcDbEntity
  8
0
  6
CONTINUOUS
 62
               7
100
AcDbLine
 10
-261.25
 20
65.5
 30
0.0
 11
-261.25
 21
1.5
 31
0.0
  0
ENDSEC
  0
SECTION
  2
OBJECTS
  0
DICTIONARY
  5
19
100
AcDbDictionary
  3
ACAD_GROUP
350
1A
  3
ACAD_MLINESTYLE
350
1B
  0
DICTIONARY
  5
1A
102
{ACAD_REACTORS
330
19
102
}
100
AcDbDictionary
  0
DICTIONARY
  5
1B
102
{ACAD_REACTORS
330
19
102
}
100
AcDbDictionary
  3
STANDARD
350
1C
  0
MLINESTYLE
  5
1C
102
{ACAD_REACTORS
330
1B
102
}
100
AcDbMlineStyle
  2
Standard
 70
               0
  3

 62
               0
 51
90.0
 52
90.0
 71
               2
 49
0.5
 62
             256
  6
ByLayer
 49
-0.5
 62
             256
  6
ByLayer
  0
ENDSEC
  0
EOF
