  0
SECTION
  2
HEADER
  9
$ACADVER
  1
AC1003
  9
$EXTMIN
 10
-3.99250000E+02
 20
-2.76750000E+02
  9
$EXTMAX
 10
3.99799805E+02
 20
2.76250000E+02
  9
$LIMMIN
 10
-3.99251000E+02
 20
-2.76751000E+02
  9
$LIMMAX
 10
3.99800805E+02
 20
2.76251000E+02
  9
$SNAPUNIT
 10
1
 20
1
  9
$SNAPBASE
 10
0
 20
0
  9
$GRIDMODE
 70
0
  9
$GRIDUNIT
 10
0
 20
0
  9
$LTSCALE
 40
1.33174967E+01
  9
$TEXTSIZE
 40
3.2
  9
$DIMTAD
 70
0
  9
$LUNITS
 70
2
  9
$LUPREC
 70
4
  9
$FILLETRAD
 40
0
  9
$AUNITS
 70
0
  9
$AUPREC
 70
0
  0
ENDSEC
  0
SECTION
  2
TABLES
  0
TABLE
  2
LTYPE
 70
2
  0
LTYPE
  2
CONTINUOUS
 70
64
  3
Solid-Line
 72
65
 73
0
 40
0
  0
LTYPE
  2
DASHED
 70
64
  3
DASHED
 72
65
 73
2
 40
.75
 49
.5
 49
-.25
  0
LTYPE
  2
HIDDEN
 70
64
  3
HIDDEN
 72
65
 73
2
 40
.375
 49
.25
 49
-.125
  0
LTYPE
  2
CENTER
 70
64
  3
CENTER
 72
65
 73
4
 40
2
 49
1.25
 49
-.25
 49
.25
 49
-.25
  0
LTYPE
  2
PHANTOM
 70
64
  3
PHANTOM
 72
65
 73
6
 40
2.5
 49
1.25
 49
-.25
 49
.25
 49
-.25
 49
.25
 49
-.25
  0
ENDTAB
  0
TABLE
  2
LAYER
 70
1
  0
LAYER
  2
1
 70
0
 62
7
  6
CONTINUOUS
 0
ENDTAB
  0
TABLE
  2
STYLE
 70
2
  0
STYLE
  2
MONOTXT
 70
0
 40
0
 41
1
 50
0
 71
0
 42
.2
  3
monotxt
  0
STYLE
  2
BIGFONT
 70
0
 40
0
 41
1
 50
0
 71
0
 42
.2
  3
txt
  4
bigfont
  0
ENDTAB
  0
ENDSEC
  0
SECTION
  2
BLOCKS
  0
BLOCK
  8
0
  2
ARROW
 70
10
 10
0
 20
0
  0
POLYLINE
  8
0
  6
CONTINUOUS
 62
0
 66
1
  0
VERTEX
  8
0
  6
CONTINUOUS
 62
0
 10
4.50534132E+00
 20
1.20720257E+00
  0
VERTEX
  8
0
  6
CONTINUOUS
 62
0
 10
0.0
 20
0.0
  0
VERTEX
  8
0
  6
CONTINUOUS
 62
0
 10
4.50534132E+00
 20
-1.20720257E+00
  0
SEQEND
  8
0
  0
ENDBLK
  8
0
  0
BLOCK
  8
0
  2
*D1
 70
1
 10
0.0
 20
0.0
  0
LINE
  8
0
 62
2
 10
-1.22860184E+02
 20
1.81766968E+01
 11
-1.27860184E+02
 21
1.81766968E+01
  0
LINE
  8
0
 62
2
 10
-1.22860184E+02
 20
5.18340416E+01
 11
-1.22860184E+02
 21
1.66766968E+01
  0
LINE
  8
0
 62
2
 10
-1.27860184E+02
 20
5.76340408E+01
 11
-1.27860184E+02
 21
1.66766968E+01
  0
INSERT
  8
0
  2
ARROW
  6
BYBLOCK
 62
2
 10
-1.22860184E+02
 20
1.81766968E+01
 41
1.00000000E+00
 42
1.00000000E+00
 50
0.00000000E+00
  0
INSERT
  8
0
  2
ARROW
  6
BYBLOCK
 62
2
 10
-1.27860184E+02
 20
1.81766968E+01
 41
1.00000000E+00
 42
1.00000000E+00
 50
1.80000000E+02
  0
TEXT
  8
0
 62
2
 10
-1.18318450E+02
 20
2.07516968E+01
 40
6.30000019E+00
  1
5
 41
1.00000000E+00
  7
MONOTXT
  0
POINT
  8
0
 62
2
 10
-1.22860184E+02
 20
5.18340416E+01
  0
POINT
  8
0
 62
2
 10
-1.27860184E+02
 20
5.76340408E+01
  0
POINT
  8
0
 62
2
 10
-1.27860184E+02
 20
1.81766968E+01
  0
LINE
  8
0
 62
2
 10
-1.22860184E+02
 20
1.81766968E+01
 11
-1.12707513E+02
 21
1.81766968E+01
  0
LINE
  8
0
 62
2
 10
-1.27860184E+02
 20
1.81766968E+01
 11
-1.28360184E+02
 21
1.81766968E+01
  0
ENDBLK
  8
0
  0
BLOCK
  8
0
  2
*D2
 70
1
 10
0.0
 20
0.0
  0
LINE
  8
0
 62
2
 10
-2.21860184E+02
 20
1.81766968E+01
 11
-2.26860184E+02
 21
1.81766968E+01
  0
LINE
  8
0
 62
2
 10
-2.21860184E+02
 20
5.76340408E+01
 11
-2.21860184E+02
 21
1.66766968E+01
  0
LINE
  8
0
 62
2
 10
-2.26860184E+02
 20
5.18340416E+01
 11
-2.26860184E+02
 21
1.66766968E+01
  0
INSERT
  8
0
  2
ARROW
  6
BYBLOCK
 62
2
 10
-2.21860184E+02
 20
1.81766968E+01
 41
1.00000000E+00
 42
1.00000000E+00
 50
0.00000000E+00
  0
INSERT
  8
0
  2
ARROW
  6
BYBLOCK
 62
2
 10
-2.26860184E+02
 20
1.81766968E+01
 41
1.00000000E+00
 42
1.00000000E+00
 50
1.80000000E+02
  0
TEXT
  8
0
 62
2
 10
-2.45102521E+02
 20
2.07516968E+01
 40
6.30000019E+00
  1
(5)
 41
1.00000000E+00
  7
MONOTXT
  0
POINT
  8
0
 62
2
 10
-2.21860184E+02
 20
5.76340408E+01
  0
POINT
  8
0
 62
2
 10
-2.26860184E+02
 20
5.18340416E+01
  0
POINT
  8
0
 62
2
 10
-2.26860184E+02
 20
1.81766968E+01
  0
LINE
  8
0
 62
2
 10
-2.45791584E+02
 20
1.81766968E+01
 11
-2.26860184E+02
 21
1.81766968E+01
  0
LINE
  8
0
 62
2
 10
-2.21860184E+02
 20
1.81766968E+01
 11
-2.21360184E+02
 21
1.81766968E+01
  0
ENDBLK
  8
0
  0
BLOCK
  8
0
  2
*D3
 70
1
 10
0.0
 20
0.0
  0
LINE
  8
0
 62
2
 10
-2.26860184E+02
 20
-4.20582428E+01
 11
-2.11360184E+02
 21
-4.20582428E+01
  0
LINE
  8
0
 62
2
 10
-2.26860184E+02
 20
-6.88659592E+01
 11
-2.26860184E+02
 21
-4.05582428E+01
  0
LINE
  8
0
 62
2
 10
-2.11360184E+02
 20
-6.88659592E+01
 11
-2.11360184E+02
 21
-4.05582428E+01
  0
INSERT
  8
0
  2
ARROW
  6
BYBLOCK
 62
2
 10
-2.26860184E+02
 20
-4.20582428E+01
 41
1.00000000E+00
 42
1.00000000E+00
 50
0.00000000E+00
  0
INSERT
  8
0
  2
ARROW
  6
BYBLOCK
 62
2
 10
-2.11360184E+02
 20
-4.20582428E+01
 41
1.00000000E+00
 42
1.00000000E+00
 50
1.80000000E+02
  0
TEXT
  8
0
 62
2
 10
-2.55525120E+02
 20
-3.94832428E+01
 40
6.30000019E+00
  1
15.5
 41
1.00000000E+00
  7
MONOTXT
  0
POINT
  8
0
 62
2
 10
-2.26860184E+02
 20
-6.88659592E+01
  0
POINT
  8
0
 62
2
 10
-2.11360184E+02
 20
-6.88659592E+01
  0
POINT
  8
0
 62
2
 10
-2.11360184E+02
 20
-4.20582428E+01
  0
LINE
  8
0
 62
2
 10
-2.26860184E+02
 20
-4.20582428E+01
 11
-2.56214182E+02
 21
-4.20582428E+01
  0
ENDBLK
  8
0
  0
BLOCK
  8
0
  2
*D4
 70
1
 10
0.0
 20
0.0
  0
LINE
  8
0
 62
2
 10
-2.11360184E+02
 20
-4.20582428E+01
 11
-1.89360184E+02
 21
-4.20582428E+01
  0
LINE
  8
0
 62
2
 10
-2.11360184E+02
 20
-6.88659592E+01
 11
-2.11360184E+02
 21
-4.05582428E+01
  0
LINE
  8
0
 62
2
 10
-1.89360184E+02
 20
-7.88686981E+01
 11
-1.89360184E+02
 21
-4.05582428E+01
  0
INSERT
  8
0
  2
ARROW
  6
BYBLOCK
 62
2
 10
-2.11360184E+02
 20
-4.20582428E+01
 41
1.00000000E+00
 42
1.00000000E+00
 50
0.00000000E+00
  0
INSERT
  8
0
  2
ARROW
  6
BYBLOCK
 62
2
 10
-1.89360184E+02
 20
-4.20582428E+01
 41
1.00000000E+00
 42
1.00000000E+00
 50
1.80000000E+02
  0
TEXT
  8
0
 62
2
 10
-2.02821122E+02
 20
-3.94832428E+01
 40
6.30000019E+00
  1
L
 41
1.00000000E+00
  7
MONOTXT
  0
TEXT
  8
0
 62
2
 10
-1.96521121E+02
 20
-4.04676175E+01
 40
3.15000010E+00
  1
1
 41
1.00000000E+00
  7
MONOTXT
  0
POINT
  8
0
 62
2
 10
-2.11360184E+02
 20
-6.88659592E+01
  0
POINT
  8
0
 62
2
 10
-1.89360184E+02
 20
-7.88686981E+01
  0
POINT
  8
0
 62
2
 10
-1.89360184E+02
 20
-4.20582428E+01
  0
ENDBLK
  8
0
  0
BLOCK
  8
0
  2
*D5
 70
1
 10
0.0
 20
0.0
  0
LINE
  8
0
 62
2
 10
-1.89360184E+02
 20
-4.20582428E+01
 11
-1.57360184E+02
 21
-4.20582428E+01
  0
LINE
  8
0
 62
2
 10
-1.89360184E+02
 20
-7.88686981E+01
 11
-1.89360184E+02
 21
-4.05582428E+01
  0
LINE
  8
0
 62
2
 10
-1.57360184E+02
 20
-7.88686981E+01
 11
-1.57360184E+02
 21
-4.05582428E+01
  0
INSERT
  8
0
  2
ARROW
  6
BYBLOCK
 62
2
 10
-1.89360184E+02
 20
-4.20582428E+01
 41
1.00000000E+00
 42
1.00000000E+00
 50
0.00000000E+00
  0
INSERT
  8
0
  2
ARROW
  6
BYBLOCK
 62
2
 10
-1.57360184E+02
 20
-4.20582428E+01
 41
1.00000000E+00
 42
1.00000000E+00
 50
1.80000000E+02
  0
TEXT
  8
0
 62
2
 10
-1.75821122E+02
 20
-3.94832428E+01
 40
6.30000019E+00
  1
L
 41
1.00000000E+00
  7
MONOTXT
  0
TEXT
  8
0
 62
2
 10
-1.69521121E+02
 20
-4.04676175E+01
 40
3.15000010E+00
  1
2
 41
1.00000000E+00
  7
MONOTXT
  0
POINT
  8
0
 62
2
 10
-1.89360184E+02
 20
-7.88686981E+01
  0
POINT
  8
0
 62
2
 10
-1.57360184E+02
 20
-7.88686981E+01
  0
POINT
  8
0
 62
2
 10
-1.57360184E+02
 20
-4.20582428E+01
  0
ENDBLK
  8
0
  0
BLOCK
  8
0
  2
*D6
 70
1
 10
0.0
 20
0.0
  0
LINE
  8
0
 62
2
 10
-1.57360184E+02
 20
-4.20582428E+01
 11
-1.38360184E+02
 21
-4.20582428E+01
  0
LINE
  8
0
 62
2
 10
-1.57360184E+02
 20
-7.88686981E+01
 11
-1.57360184E+02
 21
-4.05582428E+01
  0
LINE
  8
0
 62
2
 10
-1.38360184E+02
 20
-6.88632202E+01
 11
-1.38360184E+02
 21
-4.05582428E+01
  0
INSERT
  8
0
  2
ARROW
  6
BYBLOCK
 62
2
 10
-1.57360184E+02
 20
-4.20582428E+01
 41
1.00000000E+00
 42
1.00000000E+00
 50
0.00000000E+00
  0
INSERT
  8
0
  2
ARROW
  6
BYBLOCK
 62
2
 10
-1.38360184E+02
 20
-4.20582428E+01
 41
1.00000000E+00
 42
1.00000000E+00
 50
1.80000000E+02
  0
TEXT
  8
0
 62
2
 10
-1.50321122E+02
 20
-3.94832428E+01
 40
6.30000019E+00
  1
L
 41
1.00000000E+00
  7
MONOTXT
  0
TEXT
  8
0
 62
2
 10
-1.44021121E+02
 20
-4.04676175E+01
 40
3.15000010E+00
  1
3
 41
1.00000000E+00
  7
MONOTXT
  0
POINT
  8
0
 62
2
 10
-1.57360184E+02
 20
-7.88686981E+01
  0
POINT
  8
0
 62
2
 10
-1.38360184E+02
 20
-6.88632202E+01
  0
POINT
  8
0
 62
2
 10
-1.38360184E+02
 20
-4.20582428E+01
  0
ENDBLK
  8
0
  0
BLOCK
  8
0
  2
*D7
 70
1
 10
0.0
 20
0.0
  0
LINE
  8
0
 62
2
 10
-1.38360184E+02
 20
-4.20582428E+01
 11
-1.22860184E+02
 21
-4.20582428E+01
  0
LINE
  8
0
 62
2
 10
-1.38360184E+02
 20
-6.88632202E+01
 11
-1.38360184E+02
 21
-4.05582428E+01
  0
LINE
  8
0
 62
2
 10
-1.22860184E+02
 20
-6.88632202E+01
 11
-1.22860184E+02
 21
-4.05582428E+01
  0
INSERT
  8
0
  2
ARROW
  6
BYBLOCK
 62
2
 10
-1.38360184E+02
 20
-4.20582428E+01
 41
1.00000000E+00
 42
1.00000000E+00
 50
0.00000000E+00
  0
INSERT
  8
0
  2
ARROW
  6
BYBLOCK
 62
2
 10
-1.22860184E+02
 20
-4.20582428E+01
 41
1.00000000E+00
 42
1.00000000E+00
 50
1.80000000E+02
  0
TEXT
  8
0
 62
2
 10
-1.21716350E+02
 20
-3.94832428E+01
 40
6.30000019E+00
  1
15.5
 41
1.00000000E+00
  7
MONOTXT
  0
POINT
  8
0
 62
2
 10
-1.38360184E+02
 20
-6.88632202E+01
  0
POINT
  8
0
 62
2
 10
-1.22860184E+02
 20
-6.88632202E+01
  0
POINT
  8
0
 62
2
 10
-1.22860184E+02
 20
-4.20582428E+01
  0
LINE
  8
0
 62
2
 10
-9.72054119E+01
 20
-4.20582428E+01
 11
-1.22860184E+02
 21
-4.20582428E+01
  0
ENDBLK
  8
0
  0
ENDSEC
  0
SECTION
  2
ENTITIES
  0
LINE
  8
0
 62
7
 10
2.41639816E+02
 20
-1.97368707E+02
 11
2.41639816E+02
 21
-7.03687057E+01
  0
LINE
  8
0
 62
7
 10
1.68639816E+02
 20
-1.37671448E+02
 11
1.68889816E+02
 21
-1.37671448E+02
  0
LINE
  8
0
 62
7
 10
1.68639816E+02
 20
-9.66714478E+01
 11
1.68889816E+02
 21
-9.66714478E+01
  0
LINE
  8
0
 62
7
 10
1.68639816E+02
 20
-9.13714447E+01
 11
1.68889816E+02
 21
-9.13714447E+01
  0
LINE
  8
0
 62
7
 10
1.68639816E+02
 20
-8.03714447E+01
 11
1.68889816E+02
 21
-8.03714447E+01
  0
LINE
  8
0
 62
7
 10
2.56139816E+02
 20
-9.44687042E+01
 11
2.56139816E+02
 21
-1.21268707E+02
  0
LINE
  8
0
 62
7
 10
2.56139816E+02
 20
-9.44687042E+01
 11
2.58139816E+02
 21
-9.44687042E+01
  0
LINE
  8
0
 62
7
 10
2.56139816E+02
 20
-1.21268707E+02
 11
2.58139816E+02
 21
-1.21268707E+02
  0
LINE
  8
0
 62
7
 10
2.66139816E+02
 20
-9.78687057E+01
 11
2.66139816E+02
 21
-1.17868706E+02
  0
LINE
  8
0
 62
7
 10
2.66139818E+02
 20
-9.78687044E+01
 11
2.58139818E+02
 21
-9.49569425E+01
  0
LINE
  8
0
 62
7
 10
2.66139815E+02
 20
-1.17868710E+02
 11
2.58139817E+02
 21
-1.20780471E+02
  0
LINE
  8
0
 62
7
 10
2.58139816E+02
 20
-1.21268707E+02
 11
2.58139816E+02
 21
-9.44687042E+01
  0
LINE
  8
0
 62
7
 10
2.48139816E+02
 20
-1.97365967E+02
 11
2.48139816E+02
 21
-1.88365967E+02
  0
LINE
  8
0
 62
7
 10
1.68639816E+02
 20
-7.03659668E+01
 11
1.68639816E+02
 21
-1.97365967E+02
  0
LINE
  8
0
 62
7
 10
2.57139816E+02
 20
-1.97365967E+02
 11
2.41639816E+02
 21
-1.97365967E+02
  0
LINE
  8
0
 62
7
 10
2.57139816E+02
 20
-1.88365967E+02
 11
2.48139816E+02
 21
-1.88365967E+02
  0
LINE
  8
0
 62
7
 10
2.57139816E+02
 20
-7.03659668E+01
 11
2.41639816E+02
 21
-7.03659668E+01
  0
LINE
  8
0
 62
7
 10
2.57139816E+02
 20
-7.03659668E+01
 11
2.57139816E+02
 21
-9.45659637E+01
  0
LINE
  8
0
 62
7
 10
2.57139816E+02
 20
-1.21268707E+02
 11
2.57139816E+02
 21
-1.97365967E+02
  0
LINE
  8
0
 62
7
 10
1.53139816E+02
 20
-7.03687057E+01
 11
1.53139816E+02
 21
-9.45687103E+01
  0
LINE
  8
0
 62
7
 10
1.52539818E+02
 20
-9.45687103E+01
 11
1.54139816E+02
 21
-9.45687103E+01
  0
LINE
  8
0
 62
7
 10
1.53139816E+02
 20
-7.03687057E+01
 11
1.68639816E+02
 21
-7.03687057E+01
  0
LINE
  8
0
  6
CENTER
 62
2
 10
2.57540261E+02
 20
-1.07868706E+02
 11
2.61779938E+02
 21
-1.07868706E+02
  0
LINE
  8
0
 62
7
 10
2.61139816E+02
 20
-1.05118706E+02
 11
2.61139816E+02
 21
-1.10618706E+02
  0
LINE
  8
0
 62
7
 10
2.58139816E+02
 20
-1.05118706E+02
 11
2.61139816E+02
 21
-1.05118706E+02
  0
LINE
  8
0
 62
7
 10
2.58139816E+02
 20
-1.10618706E+02
 11
2.61139816E+02
 21
-1.10618706E+02
  0
LINE
  8
0
 62
7
 10
2.41639816E+02
 20
-9.75714493E+01
 11
2.41389816E+02
 21
-9.75714493E+01
  0
LINE
  8
0
  6
CENTER
 62
2
 10
1.53139374E+02
 20
-9.88687057E+01
 11
1.48899696E+02
 21
-9.88687057E+01
  0
LINE
  8
0
 62
7
 10
1.49539818E+02
 20
-9.61187057E+01
 11
1.49539818E+02
 21
-1.01618706E+02
  0
LINE
  8
0
 62
7
 10
1.52539818E+02
 20
-9.61187057E+01
 11
1.49539818E+02
 21
-9.61187057E+01
  0
LINE
  8
0
 62
7
 10
1.49539818E+02
 20
-1.05118706E+02
 11
1.49539818E+02
 21
-1.10618706E+02
  0
LINE
  8
0
 62
7
 10
1.49539818E+02
 20
-1.14118706E+02
 11
1.49539818E+02
 21
-1.19618706E+02
  0
LINE
  8
0
 62
7
 10
1.62139816E+02
 20
-1.97368707E+02
 11
1.62139816E+02
 21
-1.88368707E+02
  0
LINE
  8
0
 62
7
 10
1.52539818E+02
 20
-1.20568710E+02
 11
1.54139816E+02
 21
-1.20568710E+02
  0
LINE
  8
0
 62
7
 10
1.53139816E+02
 20
-1.20568710E+02
 11
1.53139816E+02
 21
-1.97368707E+02
  0
LINE
  8
0
 62
7
 10
1.53139816E+02
 20
-1.88368707E+02
 11
1.62139816E+02
 21
-1.88368707E+02
  0
LINE
  8
0
 62
7
 10
1.52539818E+02
 20
-1.19618706E+02
 11
1.49539818E+02
 21
-1.19618706E+02
  0
LINE
  8
0
 62
7
 10
1.52539818E+02
 20
-1.14118706E+02
 11
1.49539818E+02
 21
-1.14118706E+02
  0
LINE
  8
0
  6
CENTER
 62
2
 10
1.53139374E+02
 20
-1.16868706E+02
 11
1.48899696E+02
 21
-1.16868706E+02
  0
LINE
  8
0
 62
7
 10
1.52539818E+02
 20
-1.10618706E+02
 11
1.49539818E+02
 21
-1.10618706E+02
  0
LINE
  8
0
 62
7
 10
1.52539818E+02
 20
-1.05118706E+02
 11
1.49539818E+02
 21
-1.05118706E+02
  0
LINE
  8
0
  6
CENTER
 62
2
 10
1.53139374E+02
 20
-1.07868706E+02
 11
1.48899696E+02
 21
-1.07868706E+02
  0
LINE
  8
0
 62
7
 10
1.52539818E+02
 20
-1.01618706E+02
 11
1.49539818E+02
 21
-1.01618706E+02
  0
LINE
  8
0
 62
7
 10
1.53139816E+02
 20
-1.97368707E+02
 11
1.68639816E+02
 21
-1.97368707E+02
  0
LINE
  8
0
 62
7
 10
1.52539818E+02
 20
-9.45687103E+01
 11
1.52539818E+02
 21
-1.20568710E+02
  0
LINE
  8
0
 62
7
 10
1.54139816E+02
 20
-9.45687103E+01
 11
1.54139816E+02
 21
-1.20568710E+02
  0
LINE
  8
0
 62
6
 10
1.74839813E+02
 20
-1.31476501E+02
 11
1.84839813E+02
 21
-1.31476501E+02
  0
LINE
  8
0
 62
6
 10
1.84839813E+02
 20
-1.30978424E+02
 11
1.74839813E+02
 21
-1.30978424E+02
  0
LINE
  8
0
 62
6
 10
1.84839813E+02
 20
-1.30878426E+02
 11
1.74839813E+02
 21
-1.30878426E+02
  0
LINE
  8
0
 62
6
 10
1.84839813E+02
 20
-1.32287605E+02
 11
1.74839813E+02
 21
-1.32287605E+02
  0
LINE
  8
0
 62
6
 10
1.82739815E+02
 20
-1.24678421E+02
 11
1.76939819E+02
 21
-1.24678421E+02
  0
LINE
  8
0
 62
6
 10
1.82739815E+02
 20
-1.28678421E+02
 11
1.76939819E+02
 21
-1.28678421E+02
  0
LINE
  8
0
 62
6
 10
1.71439819E+02
 20
-7.48784256E+01
 11
1.81439819E+02
 21
-7.48784256E+01
  0
LINE
  8
0
 62
6
 10
1.71439819E+02
 20
-7.47784195E+01
 11
1.81439819E+02
 21
-7.47784195E+01
  0
LINE
  8
0
 62
6
 10
1.71439819E+02
 20
-7.42803421E+01
 11
1.81439819E+02
 21
-7.42803421E+01
  0
LINE
  8
0
 62
6
 10
1.73539818E+02
 20
-8.10784225E+01
 11
1.79339813E+02
 21
-8.10784225E+01
  0
LINE
  8
0
 62
6
 10
1.73539818E+02
 20
-7.70784225E+01
 11
1.79339813E+02
 21
-7.70784225E+01
  0
LINE
  8
0
 62
7
 10
1.71439819E+02
 20
-7.38784256E+01
 11
1.69139816E+02
 21
-7.38784256E+01
  0
LINE
  8
0
 62
7
 10
1.87139816E+02
 20
-7.38784256E+01
 11
1.81439819E+02
 21
-7.38784256E+01
  0
LINE
  8
0
 62
7
 10
1.72738747E+02
 20
-1.44599049E+02
 11
1.72738747E+02
 21
-1.45378422E+02
  0
LINE
  8
0
 62
7
 10
1.69444817E+02
 20
-1.44378422E+02
 11
1.69444817E+02
 21
-1.44878422E+02
  0
LINE
  8
0
  6
CENTER
 62
2
 10
1.70939819E+02
 20
-1.42362434E+02
 11
1.70939819E+02
 21
-1.46664204E+02
  0
LINE
  8
0
 62
7
 10
1.72539818E+02
 20
-1.44378422E+02
 11
1.69139816E+02
 21
-1.44378422E+02
  0
LINE
  8
0
 62
7
 10
1.70579157E+02
 20
-9.13177651E+01
 11
1.72700477E+02
 21
-9.34390854E+01
  0
LINE
  8
0
 62
7
 10
1.70579158E+02
 20
-9.34390847E+01
 11
1.71639817E+02
 21
-9.23784252E+01
  0
LINE
  8
0
 62
6
 10
1.77939819E+02
 20
-8.73784256E+01
 11
1.77939819E+02
 21
-9.23784256E+01
  0
LINE
  8
0
 62
6
 10
1.74939819E+02
 20
-8.73784256E+01
 11
1.74939819E+02
 21
-9.23784256E+01
  0
LINE
  8
0
 62
6
 10
1.74939819E+02
 20
-8.73784256E+01
 11
1.77939819E+02
 21
-8.73784256E+01
  0
LINE
  8
0
 62
6
 10
1.78834183E+02
 20
-6.63376055E+01
 11
1.79089816E+02
 21
-6.67784295E+01
  0
LINE
  8
0
 62
6
 10
1.73789813E+02
 20
-6.67784220E+01
 11
1.74045442E+02
 21
-6.63376045E+01
  0
LINE
  8
0
 62
6
 10
1.77584182E+02
 20
-6.75876045E+01
 11
1.77839815E+02
 21
-6.80284286E+01
  0
LINE
  8
0
 62
6
 10
1.79089821E+02
 20
-6.67784272E+01
 11
1.77839819E+02
 21
-6.80284285E+01
  0
LINE
  8
0
 62
6
 10
1.77584190E+02
 20
-6.75876116E+01
 11
1.78834191E+02
 21
-6.63376102E+01
  0
LINE
  8
0
 62
6
 10
1.75295445E+02
 20
-6.75876047E+01
 11
1.75039815E+02
 21
-6.80284222E+01
  0
LINE
  8
0
 62
6
 10
1.71439819E+02
 20
-7.34692383E+01
 11
1.81439819E+02
 21
-7.34692383E+01
  0
LINE
  8
0
 62
6
 10
1.75295445E+02
 20
-6.75876035E+01
 11
1.74045449E+02
 21
-6.63376075E+01
  0
LINE
  8
0
 62
6
 10
1.71439819E+02
 20
-6.63376007E+01
 11
1.74045448E+02
 21
-6.63376007E+01
  0
LINE
  8
0
 62
6
 10
1.78834190E+02
 20
-6.63376007E+01
 11
1.81439819E+02
 21
-6.63376007E+01
  0
LINE
  8
0
 62
6
 10
1.77584190E+02
 20
-6.75876007E+01
 11
1.75295448E+02
 21
-6.75876007E+01
  0
LINE
  8
0
 62
6
 10
1.71439819E+02
 20
-6.67784271E+01
 11
1.73789818E+02
 21
-6.67784271E+01
  0
LINE
  8
0
 62
6
 10
1.73789822E+02
 20
-6.67784272E+01
 11
1.75039818E+02
 21
-6.80284231E+01
  0
LINE
  8
0
 62
6
 10
1.77839813E+02
 20
-6.80284271E+01
 11
1.75039818E+02
 21
-6.80284271E+01
  0
LINE
  8
0
 62
6
 10
1.79089813E+02
 20
-6.67784271E+01
 11
1.81439819E+02
 21
-6.67784271E+01
  0
LINE
  8
0
 62
6
 10
1.72939819E+02
 20
-7.04784241E+01
 11
1.71439819E+02
 21
-7.04784241E+01
  0
LINE
  8
0
 62
6
 10
1.71439819E+02
 20
-6.72784271E+01
 11
1.72939819E+02
 21
-6.72784271E+01
  0
LINE
  8
0
 62
6
 10
1.79939819E+02
 20
-6.72784271E+01
 11
1.81439819E+02
 21
-6.72784271E+01
  0
LINE
  8
0
 62
6
 10
1.81439819E+02
 20
-7.04784241E+01
 11
1.79939819E+02
 21
-7.04784241E+01
  0
LINE
  8
0
 62
6
 10
1.74614304E+02
 20
-7.03284225E+01
 11
1.78265327E+02
 21
-7.03284225E+01
  0
LINE
  8
0
 62
6
 10
1.74614304E+02
 20
-7.09284210E+01
 11
1.78265327E+02
 21
-7.09284210E+01
  0
LINE
  8
0
 62
6
 10
1.80646929E+02
 20
-6.81713232E+01
 11
1.79232715E+02
 21
-6.95855367E+01
  0
LINE
  8
0
 62
6
 10
1.80646929E+02
 20
-6.95855367E+01
 11
1.79232715E+02
 21
-6.81713232E+01
  0
LINE
  8
0
 62
6
 10
1.72232711E+02
 20
-6.95855340E+01
 11
1.73646924E+02
 21
-6.81713205E+01
  0
LINE
  8
0
 62
6
 10
1.72232711E+02
 20
-6.81713205E+01
 11
1.73646924E+02
 21
-6.95855340E+01
  0
LINE
  8
0
 62
6
 10
1.71739815E+02
 20
-9.23784256E+01
 11
1.81139816E+02
 21
-9.23784256E+01
  0
LINE
  8
0
 62
6
 10
1.71439819E+02
 20
-9.20784225E+01
 11
1.71439819E+02
 21
-6.03687134E+01
  0
LINE
  8
0
  6
CENTER
 62
6
 10
1.76439819E+02
 20
-5.85934143E+01
 11
1.76439819E+02
 21
-9.45144730E+01
  0
LINE
  8
0
 62
6
 10
1.81439819E+02
 20
-9.20784225E+01
 11
1.81439819E+02
 21
-6.03784180E+01
  0
LINE
  8
0
 62
7
 10
1.71639816E+02
 20
-9.50784225E+01
 11
1.69139816E+02
 21
-9.50784225E+01
  0
LINE
  8
0
 62
7
 10
1.71439819E+02
 20
-8.96784210E+01
 11
1.69139816E+02
 21
-8.96784210E+01
  0
LINE
  8
0
  6
CENTER
 62
2
 10
1.85339813E+02
 20
-6.33944092E+01
 11
1.85339813E+02
 21
-5.90926361E+01
  0
LINE
  8
0
 62
7
 10
1.86834816E+02
 20
-6.13784180E+01
 11
1.86834816E+02
 21
-6.08784180E+01
  0
LINE
  8
0
 62
7
 10
1.83834816E+02
 20
-6.13784180E+01
 11
1.83834816E+02
 21
-6.08784180E+01
  0
LINE
  8
0
 62
7
 10
1.84839815E+02
 20
-1.14678422E+02
 11
1.85700475E+02
 21
-1.13817762E+02
  0
LINE
  8
0
 62
7
 10
1.84839816E+02
 20
-1.15078423E+02
 11
1.85700475E+02
 21
-1.15939082E+02
  0
LINE
  8
0
  6
PHANTOM
 62
2
 10
1.71139816E+02
 20
-1.45575684E+02
 11
1.72389816E+02
 21
-1.45575684E+02
  0
LINE
  8
0
  6
CENTER
 62
2
 10
1.82739815E+02
 20
-1.70566385E+02
 11
1.82739815E+02
 21
-1.62828743E+02
  0
LINE
  8
0
  6
CENTER
 62
2
 10
1.79902878E+02
 20
-1.66475683E+02
 11
1.85704575E+02
 21
-1.66475683E+02
  0
LINE
  8
0
 62
7
 10
1.84839813E+02
 20
-1.17578423E+02
 11
1.87139816E+02
 21
-1.17578423E+02
  0
LINE
  8
0
 62
7
 10
1.84639816E+02
 20
-1.12178421E+02
 11
1.87139816E+02
 21
-1.12178421E+02
  0
LINE
  8
0
 62
7
 10
1.83539818E+02
 20
-6.11784210E+01
 11
1.83539818E+02
 21
-6.03784180E+01
  0
LINE
  8
0
 62
7
 10
1.83739815E+02
 20
-6.13784180E+01
 11
1.87139816E+02
 21
-6.13784180E+01
  0
LINE
  8
0
  6
CENTER
 62
2
 10
1.71736557E+02
 20
-1.82875683E+02
 11
1.84819519E+02
 21
-1.82875683E+02
  0
LINE
  8
0
 62
7
 10
1.87139816E+02
 20
-1.45378422E+02
 11
1.87139816E+02
 21
-6.03784180E+01
  0
LINE
  8
0
 62
7
 10
1.69139816E+02
 20
-1.45378422E+02
 11
1.69139816E+02
 21
-6.03784180E+01
  0
LINE
  8
0
 62
7
 10
1.87389816E+02
 20
-1.88385399E+02
 11
1.87389816E+02
 21
-6.03784180E+01
  0
LINE
  8
0
 62
7
 10
1.68889816E+02
 20
-1.88385399E+02
 11
1.68889816E+02
 21
-6.03784180E+01
  0
LINE
  8
0
 62
7
 10
1.87389816E+02
 20
-1.88385399E+02
 11
1.68889816E+02
 21
-1.88385399E+02
  0
LINE
  8
0
  6
PHANTOM
 62
2
 10
1.79939819E+02
 20
-1.69885399E+02
 11
1.79939819E+02
 21
-1.63285400E+02
  0
LINE
  8
0
  6
PHANTOM
 62
2
 10
1.80439819E+02
 20
-1.62785400E+02
 11
1.85039818E+02
 21
-1.62785400E+02
  0
LINE
  8
0
  6
PHANTOM
 62
2
 10
1.85539818E+02
 20
-1.69885399E+02
 11
1.85539818E+02
 21
-1.63285400E+02
  0
LINE
  8
0
  6
CENTER
 62
2
 10
1.71223976E+02
 20
-1.63688141E+02
 11
1.76156807E+02
 21
-1.63688141E+02
  0
LINE
  8
0
  6
CENTER
 62
2
 10
1.73639816E+02
 20
-1.66136299E+02
 11
1.73639816E+02
 21
-1.61203468E+02
  0
LINE
  8
0
  6
CENTER
 62
2
 10
1.73639816E+02
 20
-1.58069668E+02
 11
1.73639816E+02
 21
-1.53368969E+02
  0
LINE
  8
0
  6
CENTER
 62
2
 10
1.71340042E+02
 20
-1.55688141E+02
 11
1.75808609E+02
 21
-1.55688141E+02
  0
LINE
  8
0
  6
PHANTOM
 62
2
 10
1.83889816E+02
 20
-1.52875683E+02
 11
1.85139816E+02
 21
-1.52875683E+02
  0
LINE
  8
0
  6
PHANTOM
 62
2
 10
1.71139816E+02
 20
-1.52875683E+02
 11
1.72389816E+02
 21
-1.52875683E+02
  0
LINE
  8
0
  6
PHANTOM
 62
2
 10
1.72389816E+02
 20
-1.53575684E+02
 11
1.83889816E+02
 21
-1.53575684E+02
  0
LINE
  8
0
  6
PHANTOM
 62
2
 10
1.72889816E+02
 20
-1.50575684E+02
 11
1.83389816E+02
 21
-1.50575684E+02
  0
LINE
  8
0
  6
PHANTOM
 62
2
 10
1.83889816E+02
 20
-1.45575684E+02
 11
1.85139816E+02
 21
-1.45575684E+02
  0
LINE
  8
0
  6
PHANTOM
 62
2
 10
1.72889816E+02
 20
-1.44575684E+02
 11
1.83389816E+02
 21
-1.44575684E+02
  0
LINE
  8
0
  6
PHANTOM
 62
2
 10
1.83889816E+02
 20
-1.45015385E+02
 11
1.83889816E+02
 21
-1.53575684E+02
  0
LINE
  8
0
  6
PHANTOM
 62
2
 10
1.72389816E+02
 20
-1.53575684E+02
 11
1.72389816E+02
 21
-1.45075684E+02
  0
LINE
  8
0
 62
7
 10
1.71139816E+02
 20
-1.70375683E+02
 11
1.85139816E+02
 21
-1.70375683E+02
  0
LINE
  8
0
 62
7
 10
1.85639816E+02
 20
-1.87885399E+02
 11
1.85639816E+02
 21
-1.70688139E+02
  0
LINE
  8
0
 62
7
 10
1.70639816E+02
 20
-1.87885399E+02
 11
1.70639816E+02
 21
-1.70688139E+02
  0
LINE
  8
0
  6
PHANTOM
 62
2
 10
1.85639816E+02
 20
-1.69875683E+02
 11
1.85639816E+02
 21
-1.46075684E+02
  0
LINE
  8
0
  6
PHANTOM
 62
2
 10
1.70639816E+02
 20
-1.69875683E+02
 11
1.70639816E+02
 21
-1.46075684E+02
  0
LINE
  8
0
 62
7
 10
1.85139816E+02
 20
-1.70385399E+02
 11
1.71139816E+02
 21
-1.70385399E+02
  0
LINE
  8
0
 62
7
 10
1.87389816E+02
 20
-6.03784180E+01
 11
1.68889816E+02
 21
-6.03784180E+01
  0
LINE
  8
0
 62
6
 10
1.84539818E+02
 20
-1.13378426E+02
 11
1.75139816E+02
 21
-1.13378426E+02
  0
LINE
  8
0
 62
6
 10
1.78339813E+02
 20
-1.18378426E+02
 11
1.81339813E+02
 21
-1.18378426E+02
  0
LINE
  8
0
 62
6
 10
1.81339813E+02
 20
-1.18378426E+02
 11
1.81339813E+02
 21
-1.13378426E+02
  0
LINE
  8
0
 62
6
 10
1.78339813E+02
 20
-1.18378426E+02
 11
1.78339813E+02
 21
-1.13378426E+02
  0
LINE
  8
0
  6
CENTER
 62
6
 10
1.79839813E+02
 20
-1.47163429E+02
 11
1.79839813E+02
 21
-1.11242371E+02
  0
LINE
  8
0
 62
6
 10
1.77445444E+02
 20
-1.39419242E+02
 11
1.77189815E+02
 21
-1.38978425E+02
  0
LINE
  8
0
 62
6
 10
1.82489816E+02
 20
-1.38978420E+02
 11
1.82234186E+02
 21
-1.39419238E+02
  0
LINE
  8
0
 62
6
 10
1.78695447E+02
 20
-1.38169242E+02
 11
1.78439817E+02
 21
-1.37728425E+02
  0
LINE
  8
0
 62
6
 10
1.77189817E+02
 20
-1.38978423E+02
 11
1.78439817E+02
 21
-1.37728423E+02
  0
LINE
  8
0
 62
6
 10
1.78695446E+02
 20
-1.38169241E+02
 11
1.77445446E+02
 21
-1.39419241E+02
  0
LINE
  8
0
 62
6
 10
1.80984191E+02
 20
-1.38169241E+02
 11
1.81239820E+02
 21
-1.37728423E+02
  0
LINE
  8
0
 62
6
 10
1.80984188E+02
 20
-1.38169242E+02
 11
1.82234189E+02
 21
-1.39419243E+02
  0
LINE
  8
0
 62
6
 10
1.84839813E+02
 20
-1.39419239E+02
 11
1.82234184E+02
 21
-1.39419239E+02
  0
LINE
  8
0
 62
6
 10
1.77445442E+02
 20
-1.39419239E+02
 11
1.74839813E+02
 21
-1.39419239E+02
  0
LINE
  8
0
 62
6
 10
1.78695442E+02
 20
-1.38169239E+02
 11
1.80984184E+02
 21
-1.38169239E+02
  0
LINE
  8
0
 62
6
 10
1.84839813E+02
 20
-1.38978424E+02
 11
1.82489815E+02
 21
-1.38978424E+02
  0
LINE
  8
0
 62
6
 10
1.82489817E+02
 20
-1.38978423E+02
 11
1.81239815E+02
 21
-1.37728422E+02
  0
LINE
  8
0
 62
6
 10
1.78439819E+02
 20
-1.37728424E+02
 11
1.81239815E+02
 21
-1.37728424E+02
  0
LINE
  8
0
 62
6
 10
1.77189819E+02
 20
-1.38978424E+02
 11
1.74839813E+02
 21
-1.38978424E+02
  0
LINE
  8
0
 62
6
 10
1.83339813E+02
 20
-1.35278423E+02
 11
1.84839813E+02
 21
-1.35278423E+02
  0
LINE
  8
0
 62
6
 10
1.84839813E+02
 20
-1.38478424E+02
 11
1.83339813E+02
 21
-1.38478424E+02
  0
LINE
  8
0
 62
6
 10
1.76339813E+02
 20
-1.38478424E+02
 11
1.74839813E+02
 21
-1.38478424E+02
  0
LINE
  8
0
 62
6
 10
1.74839813E+02
 20
-1.35278423E+02
 11
1.76339813E+02
 21
-1.35278423E+02
  0
LINE
  8
0
 62
6
 10
1.74839813E+02
 20
-1.13678421E+02
 11
1.74839813E+02
 21
-1.45378422E+02
  0
LINE
  8
0
 62
6
 10
1.84839813E+02
 20
-1.13678421E+02
 11
1.84839813E+02
 21
-1.45388138E+02
  0
LINE
  8
0
 62
6
 10
1.81665329E+02
 20
-1.35428421E+02
 11
1.78014305E+02
 21
-1.35428421E+02
  0
LINE
  8
0
 62
6
 10
1.78014305E+02
 20
-1.34828423E+02
 11
1.81665329E+02
 21
-1.34828423E+02
  0
LINE
  8
0
 62
6
 10
1.75632708E+02
 20
-1.37585528E+02
 11
1.77046922E+02
 21
-1.36171314E+02
  0
LINE
  8
0
 62
6
 10
1.75632708E+02
 20
-1.36171314E+02
 11
1.77046922E+02
 21
-1.37585528E+02
  0
LINE
  8
0
 62
6
 10
1.84046925E+02
 20
-1.36171318E+02
 11
1.82632712E+02
 21
-1.37585532E+02
  0
LINE
  8
0
 62
6
 10
1.84046925E+02
 20
-1.37585532E+02
 11
1.82632712E+02
 21
-1.36171318E+02
  0
LINE
  8
0
 62
7
 10
1.68889816E+02
 20
-1.45378422E+02
 11
1.87389816E+02
 21
-1.45378422E+02
  0
LINE
  8
0
 62
7
 10
1.69139816E+02
 20
-1.31878426E+02
 11
1.74839813E+02
 21
-1.31878426E+02
  0
LINE
  8
0
 62
7
 10
1.84839813E+02
 20
-1.31878426E+02
 11
1.87139816E+02
 21
-1.31878426E+02
  0
LINE
  8
0
 62
7
 10
1.80139816E+02
 20
-4.86734161E+01
 11
1.76139816E+02
 21
-4.86734161E+01
  0
LINE
  8
0
 62
7
 10
1.76139816E+02
 20
-5.36734161E+01
 11
1.80139816E+02
 21
-5.36734161E+01
  0
LINE
  8
0
 62
7
 10
1.81139816E+02
 20
-5.63784180E+01
 11
1.75139816E+02
 21
-5.63784180E+01
  0
LINE
  8
0
 62
7
 10
1.81639816E+02
 20
-5.88784180E+01
 11
1.81639816E+02
 21
-5.68784180E+01
  0
LINE
  8
0
 62
7
 10
1.79389816E+02
 20
-5.36734161E+01
 11
1.79389816E+02
 21
-5.63784180E+01
  0
LINE
  8
0
 62
7
 10
1.81639820E+02
 20
-5.68784280E+01
 11
1.81139819E+02
 21
-5.63784274E+01
  0
LINE
  8
0
 62
7
 10
1.80639821E+02
 20
-5.31734301E+01
 11
1.80139821E+02
 21
-5.36734306E+01
  0
LINE
  8
0
 62
7
 10
1.80639819E+02
 20
-4.91734285E+01
 11
1.80139818E+02
 21
-4.86734280E+01
  0
LINE
  8
0
 62
7
 10
1.80639816E+02
 20
-4.91734161E+01
 11
1.80639816E+02
 21
-5.31734161E+01
  0
LINE
  8
0
 62
7
 10
1.74639818E+02
 20
-5.88784247E+01
 11
1.75139818E+02
 21
-5.93784252E+01
  0
LINE
  8
0
 62
7
 10
1.74639815E+02
 20
-5.68784253E+01
 11
1.75139815E+02
 21
-5.63784248E+01
  0
LINE
  8
0
 62
7
 10
1.75639816E+02
 20
-4.91734258E+01
 11
1.76139817E+02
 21
-4.86734253E+01
  0
LINE
  8
0
 62
7
 10
1.76139819E+02
 20
-5.36734279E+01
 11
1.75639819E+02
 21
-5.31734274E+01
  0
LINE
  8
0
 62
7
 10
1.75639816E+02
 20
-4.91734161E+01
 11
1.75639816E+02
 21
-5.31734161E+01
  0
LINE
  8
0
 62
7
 10
1.74639816E+02
 20
-5.88784180E+01
 11
1.74639816E+02
 21
-5.68784180E+01
  0
LINE
  8
0
 62
7
 10
1.76889816E+02
 20
-5.36734161E+01
 11
1.76889816E+02
 21
-5.63784180E+01
  0
LINE
  8
0
 62
7
 10
1.81639820E+02
 20
-5.88784301E+01
 11
1.81139822E+02
 21
-5.93784279E+01
  0
LINE
  8
0
 62
7
 10
1.74439819E+02
 20
-5.93784180E+01
 11
1.81839813E+02
 21
-5.93784180E+01
  0
LINE
  8
0
 62
7
 10
1.82139816E+02
 20
-6.03784180E+01
 11
1.82139816E+02
 21
-5.96784210E+01
  0
LINE
  8
0
 62
7
 10
1.74139816E+02
 20
-6.03784180E+01
 11
1.74139816E+02
 21
-5.96784210E+01
  0
LINE
  8
0
 62
7
 10
1.74139814E+02
 20
-5.96784218E+01
 11
1.74439814E+02
 21
-5.93784225E+01
  0
LINE
  8
0
 62
7
 10
1.81839813E+02
 20
-5.93784225E+01
 11
1.82139818E+02
 21
-5.96784272E+01
  0
LINE
  8
0
 62
7
 10
1.74139816E+02
 20
-5.96784210E+01
 11
1.82139816E+02
 21
-5.96784210E+01
  0
LINE
  8
0
  6
CENTER
 62
2
 10
1.78139816E+02
 20
-4.48921509E+01
 11
1.78139816E+02
 21
-1.92668721E+02
  0
LINE
  8
0
  6
CENTER
 62
6
 10
1.73839813E+02
 20
-1.36878422E+02
 11
1.78839813E+02
 21
-1.36878422E+02
  0
LINE
  8
0
  6
CENTER
 62
6
 10
1.80839813E+02
 20
-1.36878422E+02
 11
1.85839813E+02
 21
-1.36878422E+02
  0
LINE
  8
0
  6
CENTER
 62
6
 10
1.76339813E+02
 20
-1.39378422E+02
 11
1.76339813E+02
 21
-1.34378422E+02
  0
LINE
  8
0
  6
CENTER
 62
6
 10
1.83339813E+02
 20
-1.39378422E+02
 11
1.83339813E+02
 21
-1.34378422E+02
  0
LINE
  8
0
  6
CENTER
 62
6
 10
1.79939819E+02
 20
-7.13784256E+01
 11
1.79939819E+02
 21
-6.63784180E+01
  0
LINE
  8
0
  6
CENTER
 62
6
 10
1.72939819E+02
 20
-7.13784256E+01
 11
1.72939819E+02
 21
-6.63784180E+01
  0
LINE
  8
0
  6
CENTER
 62
6
 10
1.77439819E+02
 20
-6.88784180E+01
 11
1.82439819E+02
 21
-6.88784180E+01
  0
LINE
  8
0
  6
CENTER
 62
6
 10
1.70439819E+02
 20
-6.88784180E+01
 11
1.75439819E+02
 21
-6.88784180E+01
  0
LINE
  8
0
  6
CENTER
 62
6
 10
1.85304230E+02
 20
-1.26678421E+02
 11
1.74427933E+02
 21
-1.26678421E+02
  0
LINE
  8
0
  6
CENTER
 62
6
 10
1.82739815E+02
 20
-1.29386497E+02
 11
1.82739815E+02
 21
-1.23841721E+02
  0
LINE
  8
0
  6
CENTER
 62
6
 10
1.76939819E+02
 20
-1.29386497E+02
 11
1.76939819E+02
 21
-1.23841721E+02
  0
LINE
  8
0
  6
CENTER
 62
6
 10
1.81904228E+02
 20
-7.90784225E+01
 11
1.71027931E+02
 21
-7.90784225E+01
  0
LINE
  8
0
  6
CENTER
 62
6
 10
1.79339813E+02
 20
-8.17864990E+01
 11
1.79339813E+02
 21
-7.62417221E+01
  0
LINE
  8
0
  6
CENTER
 62
6
 10
1.73539818E+02
 20
-8.17864990E+01
 11
1.73539818E+02
 21
-7.62417221E+01
  0
LINE
  8
0
  6
CENTER
 62
2
 10
1.65639816E+02
 20
-1.41875683E+02
 11
1.90639816E+02
 21
-1.41875683E+02
  0
LINE
  8
0
 62
6
 10
2.08339817E+02
 20
-1.31473763E+02
 11
2.18339817E+02
 21
-1.31473763E+02
  0
LINE
  8
0
 62
6
 10
2.18339817E+02
 20
-1.30975685E+02
 11
2.08339817E+02
 21
-1.30975685E+02
  0
LINE
  8
0
 62
6
 10
2.18339817E+02
 20
-1.30875687E+02
 11
2.08339817E+02
 21
-1.30875687E+02
  0
LINE
  8
0
 62
7
 10
2.04139816E+02
 20
-1.45375683E+02
 11
2.04139816E+02
 21
-7.03756866E+01
  0
LINE
  8
0
 62
7
 10
2.19139816E+02
 20
-1.45375683E+02
 11
2.19139816E+02
 21
-7.03756866E+01
  0
LINE
  8
0
 62
6
 10
2.18339817E+02
 20
-1.13675682E+02
 11
2.18339817E+02
 21
-1.45385399E+02
  0
LINE
  8
0
  6
CENTER
 62
6
 10
2.16239815E+02
 20
-1.29383759E+02
 11
2.16239815E+02
 21
-1.23838982E+02
  0
LINE
  8
0
  6
CENTER
 62
6
 10
2.10439816E+02
 20
-1.29383759E+02
 11
2.10439816E+02
 21
-1.23838982E+02
  0
LINE
  8
0
 62
6
 10
2.16239815E+02
 20
-1.24675682E+02
 11
2.10439816E+02
 21
-1.24675682E+02
  0
LINE
  8
0
 62
6
 10
2.16239815E+02
 20
-1.28675682E+02
 11
2.10439816E+02
 21
-1.28675682E+02
  0
LINE
  8
0
  6
CENTER
 62
6
 10
2.18804230E+02
 20
-1.26675682E+02
 11
2.07927933E+02
 21
-1.26675682E+02
  0
LINE
  8
0
 62
6
 10
2.04939816E+02
 20
-8.48756866E+01
 11
2.14939816E+02
 21
-8.48756866E+01
  0
LINE
  8
0
 62
6
 10
2.04939816E+02
 20
-8.47756805E+01
 11
2.14939816E+02
 21
-8.47756805E+01
  0
LINE
  8
0
  6
CENTER
 62
6
 10
2.07039818E+02
 20
-8.63676071E+01
 11
2.07039818E+02
 21
-9.19123840E+01
  0
LINE
  8
0
  6
CENTER
 62
6
 10
2.12839817E+02
 20
-8.63676071E+01
 11
2.12839817E+02
 21
-9.19123840E+01
  0
LINE
  8
0
 62
6
 10
2.07039818E+02
 20
-9.10756836E+01
 11
2.12839817E+02
 21
-9.10756836E+01
  0
LINE
  8
0
 62
6
 10
2.07039818E+02
 20
-8.70756836E+01
 11
2.12839817E+02
 21
-8.70756836E+01
  0
LINE
  8
0
  6
CENTER
 62
6
 10
2.04475403E+02
 20
-8.90756836E+01
 11
2.15351700E+02
 21
-8.90756836E+01
  0
LINE
  8
0
 62
7
 10
2.04444817E+02
 20
-1.44875683E+02
 11
2.04444817E+02
 21
-1.44375683E+02
  0
LINE
  8
0
 62
7
 10
2.07739815E+02
 20
-1.45375683E+02
 11
2.07739815E+02
 21
-1.44575684E+02
  0
LINE
  8
0
 62
7
 10
2.07444817E+02
 20
-1.44375683E+02
 11
2.07444817E+02
 21
-1.44875683E+02
  0
LINE
  8
0
  6
CENTER
 62
2
 10
2.05939816E+02
 20
-1.46240669E+02
 11
2.05939816E+02
 21
-1.43534294E+02
  0
LINE
  8
0
 62
7
 10
2.07539818E+02
 20
-1.44375683E+02
 11
2.04139816E+02
 21
-1.44375683E+02
  0
LINE
  8
0
  6
CENTER
 62
2
 10
2.17339817E+02
 20
-6.95106964E+01
 11
2.17339817E+02
 21
-7.22170715E+01
  0
LINE
  8
0
  6
CENTER
 62
2
 10
2.04944752E+02
 20
-1.82672943E+02
 11
2.18206352E+02
 21
-1.82672943E+02
  0
LINE
  8
0
 62
7
 10
2.18834816E+02
 20
-7.13756866E+01
 11
2.18834816E+02
 21
-7.08756866E+01
  0
LINE
  8
0
 62
7
 10
2.15834816E+02
 20
-7.13756866E+01
 11
2.15834816E+02
 21
-7.08756866E+01
  0
LINE
  8
0
 62
7
 10
2.15539818E+02
 20
-7.03756866E+01
 11
2.15539818E+02
 21
-7.11756821E+01
  0
LINE
  8
0
 62
7
 10
2.15739815E+02
 20
-7.13756866E+01
 11
2.19139816E+02
 21
-7.13756866E+01
  0
LINE
  8
0
 62
7
 10
2.18339817E+02
 20
-1.17575684E+02
 11
2.19139816E+02
 21
-1.17575684E+02
  0
LINE
  8
0
 62
7
 10
2.16639816E+02
 20
-1.12175682E+02
 11
2.19139816E+02
 21
-1.12175682E+02
  0
LINE
  8
0
 62
7
 10
2.06639816E+02
 20
-1.03075684E+02
 11
2.04139816E+02
 21
-1.03075684E+02
  0
LINE
  8
0
 62
7
 10
2.04939816E+02
 20
-9.76756821E+01
 11
2.04139816E+02
 21
-9.76756821E+01
  0
LINE
  8
0
 62
7
 10
2.19389816E+02
 20
-1.88382660E+02
 11
2.03889816E+02
 21
-1.88382660E+02
  0
LINE
  8
0
  6
PHANTOM
 62
2
 10
2.13439816E+02
 20
-1.69585400E+02
 11
2.13439816E+02
 21
-1.62985401E+02
  0
LINE
  8
0
  6
PHANTOM
 62
2
 10
2.13939816E+02
 20
-1.62485401E+02
 11
2.18539818E+02
 21
-1.62485401E+02
  0
LINE
  8
0
  6
PHANTOM
 62
2
 10
2.19039818E+02
 20
-1.69585400E+02
 11
2.19039818E+02
 21
-1.62985401E+02
  0
LINE
  8
0
  6
PHANTOM
 62
2
 10
2.13939816E+02
 20
-1.70085400E+02
 11
2.18539818E+02
 21
-1.70085400E+02
  0
LINE
  8
0
  6
CENTER
 62
2
 10
2.04723976E+02
 20
-1.63685398E+02
 11
2.09656807E+02
 21
-1.63685398E+02
  0
LINE
  8
0
  6
CENTER
 62
2
 10
2.07139816E+02
 20
-1.66133560E+02
 11
2.07139816E+02
 21
-1.61200726E+02
  0
LINE
  8
0
  6
CENTER
 62
2
 10
2.07139816E+02
 20
-1.58066929E+02
 11
2.07139816E+02
 21
-1.53366230E+02
  0
LINE
  8
0
  6
CENTER
 62
2
 10
2.04840042E+02
 20
-1.55685398E+02
 11
2.09308609E+02
 21
-1.55685398E+02
  0
LINE
  8
0
  6
PHANTOM
 62
2
 10
2.17389816E+02
 20
-1.52685398E+02
 11
2.18639816E+02
 21
-1.52685398E+02
  0
LINE
  8
0
  6
PHANTOM
 62
2
 10
2.04639816E+02
 20
-1.52685398E+02
 11
2.05889816E+02
 21
-1.52685398E+02
  0
LINE
  8
0
  6
PHANTOM
 62
2
 10
2.05889816E+02
 20
-1.53385399E+02
 11
2.17389816E+02
 21
-1.53385399E+02
  0
LINE
  8
0
  6
PHANTOM
 62
2
 10
2.06389816E+02
 20
-1.50385399E+02
 11
2.16889816E+02
 21
-1.50385399E+02
  0
LINE
  8
0
 62
7
 10
2.17389816E+02
 20
-1.45385399E+02
 11
2.18639816E+02
 21
-1.45385399E+02
  0
LINE
  8
0
  6
PHANTOM
 62
2
 10
2.06389816E+02
 20
-1.44385399E+02
 11
2.16889816E+02
 21
-1.44385399E+02
  0
LINE
  8
0
  6
PHANTOM
 62
2
 10
2.17389816E+02
 20
-1.44825104E+02
 11
2.17389816E+02
 21
-1.53385399E+02
  0
LINE
  8
0
  6
PHANTOM
 62
2
 10
2.05889816E+02
 20
-1.53385399E+02
 11
2.05889816E+02
 21
-1.44885399E+02
  0
LINE
  8
0
 62
7
 10
2.04639816E+02
 20
-1.45385399E+02
 11
2.05889816E+02
 21
-1.45385399E+02
  0
LINE
  8
0
  6
PHANTOM
 62
2
 10
2.04639816E+02
 20
-1.70185400E+02
 11
2.18639816E+02
 21
-1.70185400E+02
  0
LINE
  8
0
 62
7
 10
2.19139816E+02
 20
-1.87882660E+02
 11
2.19139816E+02
 21
-1.70685400E+02
  0
LINE
  8
0
 62
7
 10
2.04139816E+02
 20
-1.87882660E+02
 11
2.04139816E+02
 21
-1.70685400E+02
  0
LINE
  8
0
  6
PHANTOM
 62
2
 10
2.19139816E+02
 20
-1.69685400E+02
 11
2.19139816E+02
 21
-1.45885399E+02
  0
LINE
  8
0
  6
PHANTOM
 62
2
 10
2.04139816E+02
 20
-1.69685400E+02
 11
2.04139816E+02
 21
-1.45885399E+02
  0
LINE
  8
0
 62
7
 10
2.18639816E+02
 20
-1.70382660E+02
 11
2.04639816E+02
 21
-1.70382660E+02
  0
LINE
  8
0
  6
CENTER
 62
2
 10
2.11639816E+02
 20
-1.91665982E+02
 11
2.11639816E+02
 21
-6.58907166E+01
  0
LINE
  8
0
 62
6
 10
2.14639816E+02
 20
-1.02375687E+02
 11
2.05239815E+02
 21
-1.02375687E+02
  0
LINE
  8
0
 62
6
 10
2.11439816E+02
 20
-9.73756866E+01
 11
2.11439816E+02
 21
-1.02375687E+02
  0
LINE
  8
0
 62
6
 10
2.08439816E+02
 20
-9.73756866E+01
 11
2.11439816E+02
 21
-9.73756866E+01
  0
LINE
  8
0
 62
6
 10
2.08439816E+02
 20
-9.73756866E+01
 11
2.08439816E+02
 21
-1.02375687E+02
  0
LINE
  8
0
 62
6
 10
2.07545449E+02
 20
-7.63348619E+01
 11
2.07289819E+02
 21
-7.67756794E+01
  0
LINE
  8
0
 62
6
 10
2.12589814E+02
 20
-7.67756850E+01
 11
2.12334184E+02
 21
-7.63348675E+01
  0
LINE
  8
0
 62
6
 10
2.08795448E+02
 20
-7.75848687E+01
 11
2.08539818E+02
 21
-7.80256862E+01
  0
LINE
  8
0
 62
6
 10
2.07289817E+02
 20
-7.67756837E+01
 11
2.08539818E+02
 21
-7.80256851E+01
  0
LINE
  8
0
 62
6
 10
2.08795445E+02
 20
-7.75848654E+01
 11
2.07545449E+02
 21
-7.63348695E+01
  0
LINE
  8
0
 62
6
 10
2.11084183E+02
 20
-7.75848667E+01
 11
2.11339813E+02
 21
-7.80256842E+01
  0
LINE
  8
0
 62
6
 10
2.14939816E+02
 20
-8.34664993E+01
 11
2.04939816E+02
 21
-8.34664993E+01
  0
LINE
  8
0
 62
6
 10
2.11084187E+02
 20
-7.75848654E+01
 11
2.12334186E+02
 21
-7.63348668E+01
  0
LINE
  8
0
 62
6
 10
2.14939816E+02
 20
-7.63348694E+01
 11
2.12334187E+02
 21
-7.63348694E+01
  0
LINE
  8
0
 62
6
 10
2.07545444E+02
 20
-7.63348694E+01
 11
2.04939816E+02
 21
-7.63348694E+01
  0
LINE
  8
0
 62
6
 10
2.08795444E+02
 20
-7.75848694E+01
 11
2.11084187E+02
 21
-7.75848694E+01
  0
LINE
  8
0
 62
6
 10
2.14939816E+02
 20
-7.67756805E+01
 11
2.12589817E+02
 21
-7.67756805E+01
  0
LINE
  8
0
 62
6
 10
2.12589816E+02
 20
-7.67756837E+01
 11
2.11339815E+02
 21
-7.80256851E+01
  0
LINE
  8
0
 62
6
 10
2.08539818E+02
 20
-7.80256805E+01
 11
2.11339817E+02
 21
-7.80256805E+01
  0
LINE
  8
0
 62
6
 10
2.07289818E+02
 20
-7.67756805E+01
 11
2.04939816E+02
 21
-7.67756805E+01
  0
LINE
  8
0
 62
6
 10
2.04939816E+02
 20
-8.42776031E+01
 11
2.14939816E+02
 21
-8.42776031E+01
  0
LINE
  8
0
 62
6
 10
2.13439816E+02
 20
-8.04756851E+01
 11
2.14939816E+02
 21
-8.04756851E+01
  0
LINE
  8
0
 62
6
 10
2.14939816E+02
 20
-7.72756805E+01
 11
2.13439816E+02
 21
-7.72756805E+01
  0
LINE
  8
0
 62
6
 10
2.06439816E+02
 20
-7.72756805E+01
 11
2.04939816E+02
 21
-7.72756805E+01
  0
LINE
  8
0
 62
6
 10
2.04939816E+02
 20
-8.04756851E+01
 11
2.06439816E+02
 21
-8.04756851E+01
  0
LINE
  8
0
 62
6
 10
2.04939816E+02
 20
-1.02075684E+02
 11
2.04939816E+02
 21
-7.03756866E+01
  0
LINE
  8
0
 62
6
 10
2.14939816E+02
 20
-1.02075684E+02
 11
2.14939816E+02
 21
-7.03756866E+01
  0
LINE
  8
0
 62
6
 10
2.11765331E+02
 20
-8.03256836E+01
 11
2.08114304E+02
 21
-8.03256836E+01
  0
LINE
  8
0
 62
6
 10
2.09939816E+02
 20
-8.09256821E+01
 11
2.08114304E+02
 21
-8.09256821E+01
  0
LINE
  8
0
 62
6
 10
2.11765331E+02
 20
-8.09256821E+01
 11
2.09939816E+02
 21
-8.09256821E+01
  0
LINE
  8
0
 62
6
 10
2.05732714E+02
 20
-7.81685797E+01
 11
2.07146927E+02
 21
-7.95827933E+01
  0
LINE
  8
0
 62
6
 10
2.05732714E+02
 20
-7.95827933E+01
 11
2.07146927E+02
 21
-7.81685797E+01
  0
LINE
  8
0
 62
6
 10
2.14146924E+02
 20
-7.95827933E+01
 11
2.12732711E+02
 21
-7.81685797E+01
  0
LINE
  8
0
 62
6
 10
2.14146924E+02
 20
-7.81685797E+01
 11
2.12732711E+02
 21
-7.95827933E+01
  0
LINE
  8
0
 62
7
 10
2.19389816E+02
 20
-7.03756866E+01
 11
2.03889816E+02
 21
-7.03756866E+01
  0
LINE
  8
0
 62
6
 10
2.18039818E+02
 20
-1.13375687E+02
 11
2.08639816E+02
 21
-1.13375687E+02
  0
LINE
  8
0
 62
6
 10
2.14839817E+02
 20
-1.18375687E+02
 11
2.14839817E+02
 21
-1.13375687E+02
  0
LINE
  8
0
 62
6
 10
2.11839817E+02
 20
-1.18375687E+02
 11
2.14839817E+02
 21
-1.18375687E+02
  0
LINE
  8
0
 62
6
 10
2.11839817E+02
 20
-1.18375687E+02
 11
2.11839817E+02
 21
-1.13375687E+02
  0
LINE
  8
0
 62
6
 10
2.10945444E+02
 20
-1.39416500E+02
 11
2.10689814E+02
 21
-1.38975683E+02
  0
LINE
  8
0
 62
6
 10
2.15989817E+02
 20
-1.38975684E+02
 11
2.15734188E+02
 21
-1.39416499E+02
  0
LINE
  8
0
 62
6
 10
2.12195444E+02
 20
-1.38166501E+02
 11
2.11939814E+02
 21
-1.37725684E+02
  0
LINE
  8
0
 62
6
 10
2.10689818E+02
 20
-1.38975685E+02
 11
2.11939818E+02
 21
-1.37725685E+02
  0
LINE
  8
0
 62
6
 10
2.12195447E+02
 20
-1.38166502E+02
 11
2.10945447E+02
 21
-1.39416502E+02
  0
LINE
  8
0
 62
6
 10
2.14484190E+02
 20
-1.38166499E+02
 11
2.14739820E+02
 21
-1.37725682E+02
  0
LINE
  8
0
 62
6
 10
2.18339817E+02
 20
-1.32284866E+02
 11
2.08339817E+02
 21
-1.32284866E+02
  0
LINE
  8
0
 62
6
 10
2.14484189E+02
 20
-1.38166503E+02
 11
2.15734185E+02
 21
-1.39416499E+02
  0
LINE
  8
0
 62
6
 10
2.18339817E+02
 20
-1.39416500E+02
 11
2.15734188E+02
 21
-1.39416500E+02
  0
LINE
  8
0
 62
6
 10
2.10945446E+02
 20
-1.39416500E+02
 11
2.08339817E+02
 21
-1.39416500E+02
  0
LINE
  8
0
 62
6
 10
2.12195446E+02
 20
-1.38166500E+02
 11
2.14484188E+02
 21
-1.38166500E+02
  0
LINE
  8
0
 62
6
 10
2.18339817E+02
 20
-1.38975681E+02
 11
2.15989815E+02
 21
-1.38975681E+02
  0
LINE
  8
0
 62
6
 10
2.15989818E+02
 20
-1.38975685E+02
 11
2.14739816E+02
 21
-1.37725683E+02
  0
LINE
  8
0
 62
6
 10
2.11939816E+02
 20
-1.37725681E+02
 11
2.14739815E+02
 21
-1.37725681E+02
  0
LINE
  8
0
 62
6
 10
2.10689816E+02
 20
-1.38975681E+02
 11
2.08339817E+02
 21
-1.38975681E+02
  0
LINE
  8
0
 62
6
 10
2.16839817E+02
 20
-1.35275684E+02
 11
2.18339817E+02
 21
-1.35275684E+02
  0
LINE
  8
0
 62
6
 10
2.18339817E+02
 20
-1.38475681E+02
 11
2.16839817E+02
 21
-1.38475681E+02
  0
LINE
  8
0
 62
6
 10
2.09839817E+02
 20
-1.38475681E+02
 11
2.08339817E+02
 21
-1.38475681E+02
  0
LINE
  8
0
 62
6
 10
2.08339817E+02
 20
-1.35275684E+02
 11
2.09839817E+02
 21
-1.35275684E+02
  0
LINE
  8
0
 62
6
 10
2.08339817E+02
 20
-1.13675682E+02
 11
2.08339817E+02
 21
-1.45375683E+02
  0
LINE
  8
0
 62
6
 10
2.15165329E+02
 20
-1.35425682E+02
 11
2.11514301E+02
 21
-1.35425682E+02
  0
LINE
  8
0
 62
6
 10
2.11514301E+02
 20
-1.34825684E+02
 11
2.15165329E+02
 21
-1.34825684E+02
  0
LINE
  8
0
 62
6
 10
2.09132709E+02
 20
-1.37582790E+02
 11
2.10546922E+02
 21
-1.36168577E+02
  0
LINE
  8
0
 62
6
 10
2.09132709E+02
 20
-1.36168577E+02
 11
2.10546922E+02
 21
-1.37582790E+02
  0
LINE
  8
0
 62
6
 10
2.17546920E+02
 20
-1.36168575E+02
 11
2.16132707E+02
 21
-1.37582789E+02
  0
LINE
  8
0
 62
6
 10
2.17546920E+02
 20
-1.37582789E+02
 11
2.16132707E+02
 21
-1.36168575E+02
  0
LINE
  8
0
 62
7
 10
2.03889816E+02
 20
-1.45375683E+02
 11
2.19389816E+02
 21
-1.45375683E+02
  0
LINE
  8
0
 62
7
 10
2.04139816E+02
 20
-8.38756866E+01
 11
2.04939816E+02
 21
-8.38756866E+01
  0
LINE
  8
0
 62
6
 10
2.04139816E+02
 20
-1.31875687E+02
 11
2.08339817E+02
 21
-1.31875687E+02
  0
LINE
  8
0
 62
7
 10
2.14939816E+02
 20
-8.38756866E+01
 11
2.19139816E+02
 21
-8.38756866E+01
  0
LINE
  8
0
 62
7
 10
2.18339817E+02
 20
-1.31875687E+02
 11
2.19139816E+02
 21
-1.31875687E+02
  0
LINE
  8
0
 62
7
 10
2.19389816E+02
 20
-1.88382660E+02
 11
2.19389816E+02
 21
-7.03756866E+01
  0
LINE
  8
0
 62
7
 10
2.03889816E+02
 20
-1.88382660E+02
 11
2.03889816E+02
 21
-7.03756866E+01
  0
LINE
  8
0
 62
7
 10
2.11689816E+02
 20
-5.86706848E+01
 11
2.07689816E+02
 21
-5.86706848E+01
  0
LINE
  8
0
 62
7
 10
2.07689816E+02
 20
-6.36706848E+01
 11
2.11689816E+02
 21
-6.36706848E+01
  0
LINE
  8
0
 62
7
 10
2.12689816E+02
 20
-6.63756866E+01
 11
2.06689816E+02
 21
-6.63756866E+01
  0
LINE
  8
0
 62
7
 10
2.13189816E+02
 20
-6.88756866E+01
 11
2.13189816E+02
 21
-6.68756866E+01
  0
LINE
  8
0
 62
7
 10
2.10939816E+02
 20
-6.36706848E+01
 11
2.10939816E+02
 21
-6.63756866E+01
  0
LINE
  8
0
 62
7
 10
2.13189817E+02
 20
-6.68756899E+01
 11
2.12689816E+02
 21
-6.63756894E+01
  0
LINE
  8
0
 62
7
 10
2.12189816E+02
 20
-6.31706840E+01
 11
2.11689815E+02
 21
-6.36706845E+01
  0
LINE
  8
0
 62
7
 10
2.12189821E+02
 20
-5.91706851E+01
 11
2.11689821E+02
 21
-5.86706846E+01
  0
LINE
  8
0
 62
7
 10
2.12189816E+02
 20
-5.91706848E+01
 11
2.12189816E+02
 21
-6.31706848E+01
  0
LINE
  8
0
 62
7
 10
2.06189818E+02
 20
-6.88756840E+01
 11
2.06689818E+02
 21
-6.93756845E+01
  0
LINE
  8
0
 62
7
 10
2.06189815E+02
 20
-6.68756846E+01
 11
2.06689816E+02
 21
-6.63756840E+01
  0
LINE
  8
0
 62
7
 10
2.07189821E+02
 20
-5.91706905E+01
 11
2.07689822E+02
 21
-5.86706900E+01
  0
LINE
  8
0
 62
7
 10
2.07689819E+02
 20
-6.36706872E+01
 11
2.07189819E+02
 21
-6.31706867E+01
  0
LINE
  8
0
 62
7
 10
2.07189816E+02
 20
-5.91706848E+01
 11
2.07189816E+02
 21
-6.31706848E+01
  0
LINE
  8
0
 62
7
 10
2.06189816E+02
 20
-6.88756866E+01
 11
2.06189816E+02
 21
-6.68756866E+01
  0
LINE
  8
0
 62
7
 10
2.08439816E+02
 20
-6.36706848E+01
 11
2.08439816E+02
 21
-6.63756866E+01
  0
LINE
  8
0
 62
7
 10
2.13189814E+02
 20
-6.88756840E+01
 11
2.12689814E+02
 21
-6.93756845E+01
  0
LINE
  8
0
 62
7
 10
2.05989815E+02
 20
-6.93756866E+01
 11
2.13389816E+02
 21
-6.93756866E+01
  0
LINE
  8
0
 62
7
 10
2.13689816E+02
 20
-7.03756866E+01
 11
2.13689816E+02
 21
-6.96756821E+01
  0
LINE
  8
0
 62
7
 10
2.05689816E+02
 20
-7.03756866E+01
 11
2.05689816E+02
 21
-6.96756821E+01
  0
LINE
  8
0
 62
7
 10
2.05689820E+02
 20
-6.96756864E+01
 11
2.05989819E+02
 21
-6.93756872E+01
  0
LINE
  8
0
 62
7
 10
2.13389818E+02
 20
-6.93756872E+01
 11
2.13689818E+02
 21
-6.96756864E+01
  0
LINE
  8
0
 62
7
 10
2.05689816E+02
 20
-6.96756821E+01
 11
2.13689816E+02
 21
-6.96756821E+01
  0
LINE
  8
0
  6
CENTER
 62
2
 10
2.09689816E+02
 20
-5.48894043E+01
 11
2.09689816E+02
 21
-7.18532333E+01
  0
LINE
  8
0
  6
CENTER
 62
6
 10
2.03939816E+02
 20
-7.88756866E+01
 11
2.08939816E+02
 21
-7.88756866E+01
  0
LINE
  8
0
  6
CENTER
 62
6
 10
2.10939816E+02
 20
-7.88756866E+01
 11
2.15939816E+02
 21
-7.88756866E+01
  0
LINE
  8
0
  6
CENTER
 62
6
 10
2.13439816E+02
 20
-8.13756866E+01
 11
2.13439816E+02
 21
-7.63756866E+01
  0
LINE
  8
0
  6
CENTER
 62
6
 10
2.06439816E+02
 20
-8.13756866E+01
 11
2.06439816E+02
 21
-7.63756866E+01
  0
LINE
  8
0
  6
CENTER
 62
6
 10
2.16839817E+02
 20
-1.39375683E+02
 11
2.16839817E+02
 21
-1.34375683E+02
  0
LINE
  8
0
  6
CENTER
 62
6
 10
2.09839817E+02
 20
-1.39375683E+02
 11
2.09839817E+02
 21
-1.34375683E+02
  0
LINE
  8
0
  6
CENTER
 62
6
 10
2.07339817E+02
 20
-1.36875683E+02
 11
2.12339817E+02
 21
-1.36875683E+02
  0
LINE
  8
0
 62
6
 10
2.04139816E+02
 20
-1.45872944E+02
 11
2.19139816E+02
 21
-1.45872944E+02
  0
LINE
  8
0
 62
6
 10
2.04139816E+02
 20
-1.69872944E+02
 11
2.19139816E+02
 21
-1.69872944E+02
  0
LINE
  8
0
 62
6
 10
2.04139816E+02
 20
-1.69872944E+02
 11
2.04139816E+02
 21
-1.45872944E+02
  0
LINE
  8
0
 62
6
 10
2.19139816E+02
 20
-1.69872944E+02
 11
2.19139816E+02
 21
-1.45872944E+02
  0
LINE
  8
0
 62
6
 10
1.92339817E+02
 20
-1.31473763E+02
 11
2.02339817E+02
 21
-1.31473763E+02
  0
LINE
  8
0
 62
6
 10
2.02339817E+02
 20
-1.30975685E+02
 11
1.92339817E+02
 21
-1.30975685E+02
  0
LINE
  8
0
 62
6
 10
2.02339817E+02
 20
-1.30875687E+02
 11
1.92339817E+02
 21
-1.30875687E+02
  0
LINE
  8
0
 62
7
 10
1.88139816E+02
 20
-1.45375683E+02
 11
1.88139816E+02
 21
-7.03756866E+01
  0
LINE
  8
0
 62
7
 10
2.03139816E+02
 20
-1.45375683E+02
 11
2.03139816E+02
 21
-7.03756866E+01
  0
LINE
  8
0
 62
6
 10
2.02339817E+02
 20
-1.13675682E+02
 11
2.02339817E+02
 21
-1.45385399E+02
  0
LINE
  8
0
  6
CENTER
 62
6
 10
2.00239815E+02
 20
-1.29383759E+02
 11
2.00239815E+02
 21
-1.23838982E+02
  0
LINE
  8
0
  6
CENTER
 62
6
 10
1.94439816E+02
 20
-1.29383759E+02
 11
1.94439816E+02
 21
-1.23838982E+02
  0
LINE
  8
0
 62
6
 10
2.00239815E+02
 20
-1.24675682E+02
 11
1.94439816E+02
 21
-1.24675682E+02
  0
LINE
  8
0
 62
6
 10
2.00239815E+02
 20
-1.28675682E+02
 11
1.94439816E+02
 21
-1.28675682E+02
  0
LINE
  8
0
  6
CENTER
 62
6
 10
2.02804230E+02
 20
-1.26675682E+02
 11
1.91927933E+02
 21
-1.26675682E+02
  0
LINE
  8
0
 62
6
 10
1.88939816E+02
 20
-8.48756866E+01
 11
1.98939816E+02
 21
-8.48756866E+01
  0
LINE
  8
0
 62
6
 10
1.88939816E+02
 20
-8.47756805E+01
 11
1.98939816E+02
 21
-8.47756805E+01
  0
LINE
  8
0
  6
CENTER
 62
6
 10
1.91039818E+02
 20
-8.63676071E+01
 11
1.91039818E+02
 21
-9.19123840E+01
  0
LINE
  8
0
  6
CENTER
 62
6
 10
1.96839817E+02
 20
-8.63676071E+01
 11
1.96839817E+02
 21
-9.19123840E+01
  0
LINE
  8
0
 62
6
 10
1.91039818E+02
 20
-9.10756836E+01
 11
1.96839817E+02
 21
-9.10756836E+01
  0
LINE
  8
0
 62
6
 10
1.91039818E+02
 20
-8.70756836E+01
 11
1.96839817E+02
 21
-8.70756836E+01
  0
LINE
  8
0
  6
CENTER
 62
6
 10
1.88475403E+02
 20
-8.90756836E+01
 11
1.99351700E+02
 21
-8.90756836E+01
  0
LINE
  8
0
 62
7
 10
1.88444817E+02
 20
-1.44875683E+02
 11
1.88444817E+02
 21
-1.44375683E+02
  0
LINE
  8
0
 62
7
 10
1.91739815E+02
 20
-1.45375683E+02
 11
1.91739815E+02
 21
-1.44575684E+02
  0
LINE
  8
0
 62
7
 10
1.91444817E+02
 20
-1.44375683E+02
 11
1.91444817E+02
 21
-1.44875683E+02
  0
LINE
  8
0
  6
CENTER
 62
2
 10
1.89939816E+02
 20
-1.46240669E+02
 11
1.89939816E+02
 21
-1.43534294E+02
  0
LINE
  8
0
 62
7
 10
1.91539818E+02
 20
-1.44375683E+02
 11
1.88139816E+02
 21
-1.44375683E+02
  0
LINE
  8
0
  6
CENTER
 62
2
 10
2.01339817E+02
 20
-6.95106964E+01
 11
2.01339817E+02
 21
-7.22170715E+01
  0
LINE
  8
0
  6
CENTER
 62
2
 10
1.88944752E+02
 20
-1.82672943E+02
 11
2.02206352E+02
 21
-1.82672943E+02
  0
LINE
  8
0
 62
7
 10
2.02834816E+02
 20
-7.13756866E+01
 11
2.02834816E+02
 21
-7.08756866E+01
  0
LINE
  8
0
 62
7
 10
1.99834816E+02
 20
-7.13756866E+01
 11
1.99834816E+02
 21
-7.08756866E+01
  0
LINE
  8
0
 62
7
 10
1.99539818E+02
 20
-7.03756866E+01
 11
1.99539818E+02
 21
-7.11756821E+01
  0
LINE
  8
0
 62
7
 10
1.99739815E+02
 20
-7.13756866E+01
 11
2.03139816E+02
 21
-7.13756866E+01
  0
LINE
  8
0
 62
7
 10
2.02339817E+02
 20
-1.17575684E+02
 11
2.03139816E+02
 21
-1.17575684E+02
  0
LINE
  8
0
 62
7
 10
2.00639816E+02
 20
-1.12175682E+02
 11
2.03139816E+02
 21
-1.12175682E+02
  0
LINE
  8
0
 62
7
 10
1.90639816E+02
 20
-1.03075684E+02
 11
1.88139816E+02
 21
-1.03075684E+02
  0
LINE
  8
0
 62
7
 10
1.88939816E+02
 20
-9.76756821E+01
 11
1.88139816E+02
 21
-9.76756821E+01
  0
LINE
  8
0
 62
7
 10
2.03389816E+02
 20
-1.88382660E+02
 11
1.87889816E+02
 21
-1.88382660E+02
  0
LINE
  8
0
  6
PHANTOM
 62
2
 10
1.97439816E+02
 20
-1.69585400E+02
 11
1.97439816E+02
 21
-1.62985401E+02
  0
LINE
  8
0
  6
PHANTOM
 62
2
 10
1.97939816E+02
 20
-1.62485401E+02
 11
2.02539818E+02
 21
-1.62485401E+02
  0
LINE
  8
0
  6
PHANTOM
 62
2
 10
2.03039818E+02
 20
-1.69585400E+02
 11
2.03039818E+02
 21
-1.62985401E+02
  0
LINE
  8
0
  6
PHANTOM
 62
2
 10
1.97939816E+02
 20
-1.70085400E+02
 11
2.02539818E+02
 21
-1.70085400E+02
  0
LINE
  8
0
  6
CENTER
 62
2
 10
1.88723976E+02
 20
-1.63685398E+02
 11
1.93656807E+02
 21
-1.63685398E+02
  0
LINE
  8
0
  6
CENTER
 62
2
 10
1.91139816E+02
 20
-1.66133560E+02
 11
1.91139816E+02
 21
-1.61200726E+02
  0
LINE
  8
0
  6
CENTER
 62
2
 10
1.91139816E+02
 20
-1.58066929E+02
 11
1.91139816E+02
 21
-1.53366230E+02
  0
LINE
  8
0
  6
CENTER
 62
2
 10
1.88840042E+02
 20
-1.55685398E+02
 11
1.93308609E+02
 21
-1.55685398E+02
  0
LINE
  8
0
  6
PHANTOM
 62
2
 10
2.01389816E+02
 20
-1.52685398E+02
 11
2.02639816E+02
 21
-1.52685398E+02
  0
LINE
  8
0
  6
PHANTOM
 62
2
 10
1.88639816E+02
 20
-1.52685398E+02
 11
1.89889816E+02
 21
-1.52685398E+02
  0
LINE
  8
0
  6
PHANTOM
 62
2
 10
1.89889816E+02
 20
-1.53385399E+02
 11
2.01389816E+02
 21
-1.53385399E+02
  0
LINE
  8
0
  6
PHANTOM
 62
2
 10
1.90389816E+02
 20
-1.50385399E+02
 11
2.00889816E+02
 21
-1.50385399E+02
  0
LINE
  8
0
 62
7
 10
2.01389816E+02
 20
-1.45385399E+02
 11
2.02639816E+02
 21
-1.45385399E+02
  0
LINE
  8
0
  6
PHANTOM
 62
2
 10
1.90389816E+02
 20
-1.44385399E+02
 11
2.00889816E+02
 21
-1.44385399E+02
  0
LINE
  8
0
  6
PHANTOM
 62
2
 10
2.01389816E+02
 20
-1.44825104E+02
 11
2.01389816E+02
 21
-1.53385399E+02
  0
LINE
  8
0
  6
PHANTOM
 62
2
 10
1.89889816E+02
 20
-1.53385399E+02
 11
1.89889816E+02
 21
-1.44885399E+02
  0
LINE
  8
0
 62
7
 10
1.88639816E+02
 20
-1.45385399E+02
 11
1.89889816E+02
 21
-1.45385399E+02
  0
LINE
  8
0
  6
PHANTOM
 62
2
 10
1.88639816E+02
 20
-1.70185400E+02
 11
2.02639816E+02
 21
-1.70185400E+02
  0
LINE
  8
0
 62
7
 10
2.03139816E+02
 20
-1.87882660E+02
 11
2.03139816E+02
 21
-1.70685400E+02
  0
LINE
  8
0
 62
7
 10
1.88139816E+02
 20
-1.87882660E+02
 11
1.88139816E+02
 21
-1.70685400E+02
  0
LINE
  8
0
  6
PHANTOM
 62
2
 10
2.03139816E+02
 20
-1.69685400E+02
 11
2.03139816E+02
 21
-1.45885399E+02
  0
LINE
  8
0
  6
PHANTOM
 62
2
 10
1.88139816E+02
 20
-1.69685400E+02
 11
1.88139816E+02
 21
-1.45885399E+02
  0
LINE
  8
0
 62
7
 10
2.02639816E+02
 20
-1.70382660E+02
 11
1.88639816E+02
 21
-1.70382660E+02
  0
LINE
  8
0
  6
CENTER
 62
2
 10
1.95639816E+02
 20
-1.91665982E+02
 11
1.95639816E+02
 21
-6.58907166E+01
  0
LINE
  8
0
 62
6
 10
1.98639816E+02
 20
-1.02375687E+02
 11
1.89239815E+02
 21
-1.02375687E+02
  0
LINE
  8
0
 62
6
 10
1.95439816E+02
 20
-9.73756866E+01
 11
1.95439816E+02
 21
-1.02375687E+02
  0
LINE
  8
0
 62
6
 10
1.92439816E+02
 20
-9.73756866E+01
 11
1.95439816E+02
 21
-9.73756866E+01
  0
LINE
  8
0
 62
6
 10
1.92439816E+02
 20
-9.73756866E+01
 11
1.92439816E+02
 21
-1.02375687E+02
  0
LINE
  8
0
 62
6
 10
1.91545452E+02
 20
-7.63348634E+01
 11
1.91289822E+02
 21
-7.67756809E+01
  0
LINE
  8
0
 62
6
 10
1.96589818E+02
 20
-7.67756916E+01
 11
1.96334184E+02
 21
-7.63348675E+01
  0
LINE
  8
0
 62
6
 10
1.92795450E+02
 20
-7.75848702E+01
 11
1.92539821E+02
 21
-7.80256877E+01
  0
LINE
  8
0
 62
6
 10
1.91289819E+02
 20
-7.67756864E+01
 11
1.92539820E+02
 21
-7.80256878E+01
  0
LINE
  8
0
 62
6
 10
1.92795447E+02
 20
-7.75848681E+01
 11
1.91545446E+02
 21
-7.63348668E+01
  0
LINE
  8
0
 62
6
 10
1.95084183E+02
 20
-7.75848667E+01
 11
1.95339817E+02
 21
-7.80256908E+01
  0
LINE
  8
0
 62
6
 10
1.98939816E+02
 20
-8.34664993E+01
 11
1.88939816E+02
 21
-8.34664993E+01
  0
LINE
  8
0
 62
6
 10
1.95084189E+02
 20
-7.75848681E+01
 11
1.96334188E+02
 21
-7.63348695E+01
  0
LINE
  8
0
 62
6
 10
1.98939816E+02
 20
-7.63348694E+01
 11
1.96334187E+02
 21
-7.63348694E+01
  0
LINE
  8
0
 62
6
 10
1.91545444E+02
 20
-7.63348694E+01
 11
1.88939816E+02
 21
-7.63348694E+01
  0
LINE
  8
0
 62
6
 10
1.92795444E+02
 20
-7.75848694E+01
 11
1.95084187E+02
 21
-7.75848694E+01
  0
LINE
  8
0
 62
6
 10
1.98939816E+02
 20
-7.67756805E+01
 11
1.96589817E+02
 21
-7.67756805E+01
  0
LINE
  8
0
 62
6
 10
1.96589818E+02
 20
-7.67756864E+01
 11
1.95339819E+02
 21
-7.80256851E+01
  0
LINE
  8
0
 62
6
 10
1.92539818E+02
 20
-7.80256805E+01
 11
1.95339817E+02
 21
-7.80256805E+01
  0
LINE
  8
0
 62
6
 10
1.91289818E+02
 20
-7.67756805E+01
 11
1.88939816E+02
 21
-7.67756805E+01
  0
LINE
  8
0
 62
6
 10
1.88939816E+02
 20
-8.42776031E+01
 11
1.98939816E+02
 21
-8.42776031E+01
  0
LINE
  8
0
 62
6
 10
1.97439816E+02
 20
-8.04756851E+01
 11
1.98939816E+02
 21
-8.04756851E+01
  0
LINE
  8
0
 62
6
 10
1.98939816E+02
 20
-7.72756805E+01
 11
1.97439816E+02
 21
-7.72756805E+01
  0
LINE
  8
0
 62
6
 10
1.90439816E+02
 20
-7.72756805E+01
 11
1.88939816E+02
 21
-7.72756805E+01
  0
LINE
  8
0
 62
6
 10
1.88939816E+02
 20
-8.04756851E+01
 11
1.90439816E+02
 21
-8.04756851E+01
  0
LINE
  8
0
 62
6
 10
1.88939816E+02
 20
-1.02075684E+02
 11
1.88939816E+02
 21
-7.03756866E+01
  0
LINE
  8
0
 62
6
 10
1.98939816E+02
 20
-1.02075684E+02
 11
1.98939816E+02
 21
-7.03756866E+01
  0
LINE
  8
0
 62
6
 10
1.95765331E+02
 20
-8.03256836E+01
 11
1.92114304E+02
 21
-8.03256836E+01
  0
LINE
  8
0
 62
6
 10
1.93939816E+02
 20
-8.09256821E+01
 11
1.92114304E+02
 21
-8.09256821E+01
  0
LINE
  8
0
 62
6
 10
1.95765331E+02
 20
-8.09256821E+01
 11
1.93939816E+02
 21
-8.09256821E+01
  0
LINE
  8
0
 62
6
 10
1.89732710E+02
 20
-7.81685770E+01
 11
1.91146924E+02
 21
-7.95827906E+01
  0
LINE
  8
0
 62
6
 10
1.89732710E+02
 20
-7.95827906E+01
 11
1.91146924E+02
 21
-7.81685770E+01
  0
LINE
  8
0
 62
6
 10
1.98146921E+02
 20
-7.95827906E+01
 11
1.96732707E+02
 21
-7.81685770E+01
  0
LINE
  8
0
 62
6
 10
1.98146921E+02
 20
-7.81685770E+01
 11
1.96732707E+02
 21
-7.95827906E+01
  0
LINE
  8
0
 62
7
 10
2.03389816E+02
 20
-7.03756866E+01
 11
1.87889816E+02
 21
-7.03756866E+01
  0
LINE
  8
0
 62
6
 10
2.02039818E+02
 20
-1.13375687E+02
 11
1.92639816E+02
 21
-1.13375687E+02
  0
LINE
  8
0
 62
6
 10
1.98839817E+02
 20
-1.18375687E+02
 11
1.98839817E+02
 21
-1.13375687E+02
  0
LINE
  8
0
 62
6
 10
1.95839817E+02
 20
-1.18375687E+02
 11
1.98839817E+02
 21
-1.18375687E+02
  0
LINE
  8
0
 62
6
 10
1.95839817E+02
 20
-1.18375687E+02
 11
1.95839817E+02
 21
-1.13375687E+02
  0
LINE
  8
0
 62
6
 10
1.94945444E+02
 20
-1.39416500E+02
 11
1.94689815E+02
 21
-1.38975682E+02
  0
LINE
  8
0
 62
6
 10
1.99989817E+02
 20
-1.38975681E+02
 11
1.99734188E+02
 21
-1.39416499E+02
  0
LINE
  8
0
 62
6
 10
1.96195444E+02
 20
-1.38166502E+02
 11
1.95939814E+02
 21
-1.37725684E+02
  0
LINE
  8
0
 62
6
 10
1.94689815E+02
 20
-1.38975682E+02
 11
1.95939815E+02
 21
-1.37725682E+02
  0
LINE
  8
0
 62
6
 10
1.96195444E+02
 20
-1.38166499E+02
 11
1.94945444E+02
 21
-1.39416499E+02
  0
LINE
  8
0
 62
6
 10
1.98484185E+02
 20
-1.38166499E+02
 11
1.98739815E+02
 21
-1.37725681E+02
  0
LINE
  8
0
 62
6
 10
2.02339817E+02
 20
-1.32284866E+02
 11
1.92339817E+02
 21
-1.32284866E+02
  0
LINE
  8
0
 62
6
 10
1.98484186E+02
 20
-1.38166500E+02
 11
1.99734187E+02
 21
-1.39416501E+02
  0
LINE
  8
0
 62
6
 10
2.02339817E+02
 20
-1.39416500E+02
 11
1.99734188E+02
 21
-1.39416500E+02
  0
LINE
  8
0
 62
6
 10
1.94945446E+02
 20
-1.39416500E+02
 11
1.92339817E+02
 21
-1.39416500E+02
  0
LINE
  8
0
 62
6
 10
1.96195446E+02
 20
-1.38166500E+02
 11
1.98484188E+02
 21
-1.38166500E+02
  0
LINE
  8
0
 62
6
 10
2.02339817E+02
 20
-1.38975681E+02
 11
1.99989815E+02
 21
-1.38975681E+02
  0
LINE
  8
0
 62
6
 10
1.99989815E+02
 20
-1.38975681E+02
 11
1.98739819E+02
 21
-1.37725685E+02
  0
LINE
  8
0
 62
6
 10
1.95939816E+02
 20
-1.37725681E+02
 11
1.98739815E+02
 21
-1.37725681E+02
  0
LINE
  8
0
 62
6
 10
1.94689816E+02
 20
-1.38975681E+02
 11
1.92339817E+02
 21
-1.38975681E+02
  0
LINE
  8
0
 62
6
 10
2.00839817E+02
 20
-1.35275684E+02
 11
2.02339817E+02
 21
-1.35275684E+02
  0
LINE
  8
0
 62
6
 10
2.02339817E+02
 20
-1.38475681E+02
 11
2.00839817E+02
 21
-1.38475681E+02
  0
LINE
  8
0
 62
6
 10
1.93839817E+02
 20
-1.38475681E+02
 11
1.92339817E+02
 21
-1.38475681E+02
  0
LINE
  8
0
 62
6
 10
1.92339817E+02
 20
-1.35275684E+02
 11
1.93839817E+02
 21
-1.35275684E+02
  0
LINE
  8
0
 62
6
 10
1.92339817E+02
 20
-1.13675682E+02
 11
1.92339817E+02
 21
-1.45375683E+02
  0
LINE
  8
0
 62
6
 10
1.99165329E+02
 20
-1.35425682E+02
 11
1.95514301E+02
 21
-1.35425682E+02
  0
LINE
  8
0
 62
6
 10
1.95514301E+02
 20
-1.34825684E+02
 11
1.99165329E+02
 21
-1.34825684E+02
  0
LINE
  8
0
 62
6
 10
1.93132712E+02
 20
-1.37582792E+02
 11
1.94546925E+02
 21
-1.36168578E+02
  0
LINE
  8
0
 62
6
 10
1.93132712E+02
 20
-1.36168578E+02
 11
1.94546925E+02
 21
-1.37582792E+02
  0
LINE
  8
0
 62
6
 10
2.01546923E+02
 20
-1.36168577E+02
 11
2.00132710E+02
 21
-1.37582790E+02
  0
LINE
  8
0
 62
6
 10
2.01546923E+02
 20
-1.37582790E+02
 11
2.00132710E+02
 21
-1.36168577E+02
  0
LINE
  8
0
 62
7
 10
1.87889816E+02
 20
-1.45375683E+02
 11
2.03389816E+02
 21
-1.45375683E+02
  0
LINE
  8
0
 62
7
 10
1.88139816E+02
 20
-8.38756866E+01
 11
1.88939816E+02
 21
-8.38756866E+01
  0
LINE
  8
0
 62
6
 10
1.88139816E+02
 20
-1.31875687E+02
 11
1.92339817E+02
 21
-1.31875687E+02
  0
LINE
  8
0
 62
7
 10
1.98939816E+02
 20
-8.38756866E+01
 11
2.03139816E+02
 21
-8.38756866E+01
  0
LINE
  8
0
 62
7
 10
2.02339817E+02
 20
-1.31875687E+02
 11
2.03139816E+02
 21
-1.31875687E+02
  0
LINE
  8
0
 62
7
 10
2.03389816E+02
 20
-1.88382660E+02
 11
2.03389816E+02
 21
-7.03756866E+01
  0
LINE
  8
0
 62
7
 10
1.87889816E+02
 20
-1.88382660E+02
 11
1.87889816E+02
 21
-7.03756866E+01
  0
LINE
  8
0
 62
7
 10
1.95689816E+02
 20
-5.86706848E+01
 11
1.91689816E+02
 21
-5.86706848E+01
  0
LINE
  8
0
 62
7
 10
1.91689816E+02
 20
-6.36706848E+01
 11
1.95689816E+02
 21
-6.36706848E+01
  0
LINE
  8
0
 62
7
 10
1.96689816E+02
 20
-6.63756866E+01
 11
1.90689816E+02
 21
-6.63756866E+01
  0
LINE
  8
0
 62
7
 10
1.97189816E+02
 20
-6.88756866E+01
 11
1.97189816E+02
 21
-6.68756866E+01
  0
LINE
  8
0
 62
7
 10
1.94939816E+02
 20
-6.36706848E+01
 11
1.94939816E+02
 21
-6.63756866E+01
  0
LINE
  8
0
 62
7
 10
1.97189816E+02
 20
-6.68756846E+01
 11
1.96689816E+02
 21
-6.63756840E+01
  0
LINE
  8
0
 62
7
 10
1.96189818E+02
 20
-6.31706867E+01
 11
1.95689817E+02
 21
-6.36706872E+01
  0
LINE
  8
0
 62
7
 10
1.96189815E+02
 20
-5.91706851E+01
 11
1.95689815E+02
 21
-5.86706846E+01
  0
LINE
  8
0
 62
7
 10
1.96189816E+02
 20
-5.91706848E+01
 11
1.96189816E+02
 21
-6.31706848E+01
  0
LINE
  8
0
 62
7
 10
1.90189814E+02
 20
-6.88756813E+01
 11
1.90689815E+02
 21
-6.93756818E+01
  0
LINE
  8
0
 62
7
 10
1.90189811E+02
 20
-6.68756819E+01
 11
1.90689812E+02
 21
-6.63756813E+01
  0
LINE
  8
0
 62
7
 10
1.91189813E+02
 20
-5.91706824E+01
 11
1.91689813E+02
 21
-5.86706819E+01
  0
LINE
  8
0
 62
7
 10
1.91689816E+02
 20
-6.36706845E+01
 11
1.91189815E+02
 21
-6.31706840E+01
  0
LINE
  8
0
 62
7
 10
1.91189816E+02
 20
-5.91706848E+01
 11
1.91189816E+02
 21
-6.31706848E+01
  0
LINE
  8
0
 62
7
 10
1.90189816E+02
 20
-6.88756866E+01
 11
1.90189816E+02
 21
-6.68756866E+01
  0
LINE
  8
0
 62
7
 10
1.92439816E+02
 20
-6.36706848E+01
 11
1.92439816E+02
 21
-6.63756866E+01
  0
LINE
  8
0
 62
7
 10
1.97189816E+02
 20
-6.88756867E+01
 11
1.96689818E+02
 21
-6.93756845E+01
  0
LINE
  8
0
 62
7
 10
1.89989815E+02
 20
-6.93756866E+01
 11
1.97389816E+02
 21
-6.93756866E+01
  0
LINE
  8
0
 62
7
 10
1.97689816E+02
 20
-7.03756866E+01
 11
1.97689816E+02
 21
-6.96756821E+01
  0
LINE
  8
0
 62
7
 10
1.89689816E+02
 20
-7.03756866E+01
 11
1.89689816E+02
 21
-6.96756821E+01
  0
LINE
  8
0
 62
7
 10
1.89689822E+02
 20
-6.96756891E+01
 11
1.89989821E+02
 21
-6.93756899E+01
  0
LINE
  8
0
 62
7
 10
1.97389820E+02
 20
-6.93756899E+01
 11
1.97689814E+02
 21
-6.96756837E+01
  0
LINE
  8
0
 62
7
 10
1.89689816E+02
 20
-6.96756821E+01
 11
1.97689816E+02
 21
-6.96756821E+01
  0
LINE
  8
0
  6
CENTER
 62
2
 10
1.93689816E+02
 20
-5.48894043E+01
 11
1.93689816E+02
 21
-7.18532333E+01
  0
LINE
  8
0
  6
CENTER
 62
6
 10
1.87939819E+02
 20
-7.88756866E+01
 11
1.92939816E+02
 21
-7.88756866E+01
  0
LINE
  8
0
  6
CENTER
 62
6
 10
1.94939816E+02
 20
-7.88756866E+01
 11
1.99939816E+02
 21
-7.88756866E+01
  0
LINE
  8
0
  6
CENTER
 62
6
 10
1.97439816E+02
 20
-8.13756866E+01
 11
1.97439816E+02
 21
-7.63756866E+01
  0
LINE
  8
0
  6
CENTER
 62
6
 10
1.90439816E+02
 20
-8.13756866E+01
 11
1.90439816E+02
 21
-7.63756866E+01
  0
LINE
  8
0
  6
CENTER
 62
6
 10
2.00839817E+02
 20
-1.39375683E+02
 11
2.00839817E+02
 21
-1.34375683E+02
  0
LINE
  8
0
  6
CENTER
 62
6
 10
1.93839817E+02
 20
-1.39375683E+02
 11
1.93839817E+02
 21
-1.34375683E+02
  0
LINE
  8
0
  6
CENTER
 62
6
 10
1.98339817E+02
 20
-1.36875683E+02
 11
2.03339817E+02
 21
-1.36875683E+02
  0
LINE
  8
0
  6
CENTER
 62
6
 10
1.91339817E+02
 20
-1.36875683E+02
 11
1.96339817E+02
 21
-1.36875683E+02
  0
LINE
  8
0
 62
6
 10
1.88139816E+02
 20
-1.45872944E+02
 11
2.03139816E+02
 21
-1.45872944E+02
  0
LINE
  8
0
 62
6
 10
1.88139816E+02
 20
-1.69872944E+02
 11
2.03139816E+02
 21
-1.69872944E+02
  0
LINE
  8
0
 62
6
 10
1.88139816E+02
 20
-1.69872944E+02
 11
1.88139816E+02
 21
-1.45872944E+02
  0
LINE
  8
0
 62
6
 10
2.03139816E+02
 20
-1.69872944E+02
 11
2.03139816E+02
 21
-1.45872944E+02
  0
LINE
  8
0
 62
2
 10
2.36139816E+02
 20
-6.88659668E+01
 11
2.36139816E+02
 21
-6.68659668E+01
  0
LINE
  8
0
 62
6
 10
2.41139816E+02
 20
-8.48659668E+01
 11
2.31139816E+02
 21
-8.48659668E+01
  0
LINE
  8
0
 62
6
 10
2.41139816E+02
 20
-8.47659683E+01
 11
2.31139816E+02
 21
-8.47659683E+01
  0
LINE
  8
0
 62
6
 10
2.31139816E+02
 20
-8.42678909E+01
 11
2.41139816E+02
 21
-8.42678909E+01
  0
LINE
  8
0
  6
CENTER
 62
6
 10
2.39039816E+02
 20
-8.63578873E+01
 11
2.39039816E+02
 21
-9.19026718E+01
  0
LINE
  8
0
  6
CENTER
 62
6
 10
2.33239817E+02
 20
-8.63578873E+01
 11
2.33239817E+02
 21
-9.19026718E+01
  0
LINE
  8
0
 62
6
 10
2.39039816E+02
 20
-9.10659637E+01
 11
2.33239817E+02
 21
-9.10659637E+01
  0
LINE
  8
0
 62
6
 10
2.39039816E+02
 20
-8.70659637E+01
 11
2.33239817E+02
 21
-8.70659637E+01
  0
LINE
  8
0
  6
CENTER
 62
6
 10
2.41550306E+02
 20
-8.90659637E+01
 11
2.30727934E+02
 21
-8.90659637E+01
  0
LINE
  8
0
 62
6
 10
2.41139816E+02
 20
-1.30875687E+02
 11
2.31139816E+02
 21
-1.30875687E+02
  0
LINE
  8
0
 62
6
 10
2.41139816E+02
 20
-1.30975685E+02
 11
2.31139816E+02
 21
-1.30975685E+02
  0
LINE
  8
0
  6
CENTER
 62
6
 10
2.39039816E+02
 20
-1.29383759E+02
 11
2.39039816E+02
 21
-1.23838982E+02
  0
LINE
  8
0
  6
CENTER
 62
6
 10
2.33239817E+02
 20
-1.29383759E+02
 11
2.33239817E+02
 21
-1.23838982E+02
  0
LINE
  8
0
 62
6
 10
2.39039816E+02
 20
-1.24675682E+02
 11
2.33239817E+02
 21
-1.24675682E+02
  0
LINE
  8
0
 62
6
 10
2.39039816E+02
 20
-1.28675682E+02
 11
2.33239817E+02
 21
-1.28675682E+02
  0
LINE
  8
0
  6
CENTER
 62
6
 10
2.41550306E+02
 20
-1.26675682E+02
 11
2.30727934E+02
 21
-1.26675682E+02
  0
LINE
  8
0
 62
6
 10
2.40839816E+02
 20
-1.13375687E+02
 11
2.31439816E+02
 21
-1.13375687E+02
  0
LINE
  8
0
 62
6
 10
2.37639816E+02
 20
-1.18375687E+02
 11
2.37639816E+02
 21
-1.13375687E+02
  0
LINE
  8
0
 62
6
 10
2.34639816E+02
 20
-1.18375687E+02
 11
2.37639816E+02
 21
-1.18375687E+02
  0
LINE
  8
0
 62
6
 10
2.34639816E+02
 20
-1.18375687E+02
 11
2.34639816E+02
 21
-1.13375687E+02
  0
LINE
  8
0
 62
6
 10
2.33745444E+02
 20
-1.39416501E+02
 11
2.33489815E+02
 21
-1.38975683E+02
  0
LINE
  8
0
 62
6
 10
2.38789817E+02
 20
-1.38975683E+02
 11
2.38534188E+02
 21
-1.39416500E+02
  0
LINE
  8
0
 62
6
 10
2.34995445E+02
 20
-1.38166502E+02
 11
2.34739815E+02
 21
-1.37725684E+02
  0
LINE
  8
0
 62
6
 10
2.33489816E+02
 20
-1.38975683E+02
 11
2.34739816E+02
 21
-1.37725683E+02
  0
LINE
  8
0
 62
6
 10
2.34995446E+02
 20
-1.38166500E+02
 11
2.33745446E+02
 21
-1.39416500E+02
  0
LINE
  8
0
 62
6
 10
2.37284189E+02
 20
-1.38166502E+02
 11
2.37539818E+02
 21
-1.37725684E+02
  0
LINE
  8
0
 62
6
 10
2.41139816E+02
 20
-1.32284866E+02
 11
2.31139816E+02
 21
-1.32284866E+02
  0
LINE
  8
0
 62
6
 10
2.37284187E+02
 20
-1.38166502E+02
 11
2.38534188E+02
 21
-1.39416503E+02
  0
LINE
  8
0
 62
6
 10
2.41139816E+02
 20
-1.39416500E+02
 11
2.38534186E+02
 21
-1.39416500E+02
  0
LINE
  8
0
 62
6
 10
2.33745445E+02
 20
-1.39416500E+02
 11
2.31139816E+02
 21
-1.39416500E+02
  0
LINE
  8
0
 62
6
 10
2.34995445E+02
 20
-1.38166500E+02
 11
2.37284186E+02
 21
-1.38166500E+02
  0
LINE
  8
0
 62
6
 10
2.41139816E+02
 20
-1.38975681E+02
 11
2.38789816E+02
 21
-1.38975681E+02
  0
LINE
  8
0
 62
6
 10
2.38789815E+02
 20
-1.38975683E+02
 11
2.37539816E+02
 21
-1.37725685E+02
  0
LINE
  8
0
 62
6
 10
2.34739817E+02
 20
-1.37725681E+02
 11
2.37539816E+02
 21
-1.37725681E+02
  0
LINE
  8
0
 62
6
 10
2.33489817E+02
 20
-1.38975681E+02
 11
2.31139816E+02
 21
-1.38975681E+02
  0
LINE
  8
0
 62
6
 10
2.31139816E+02
 20
-1.31473763E+02
 11
2.41139816E+02
 21
-1.31473763E+02
  0
LINE
  8
0
 62
6
 10
2.39639816E+02
 20
-1.35275684E+02
 11
2.41139816E+02
 21
-1.35275684E+02
  0
LINE
  8
0
 62
6
 10
2.41139816E+02
 20
-1.38475681E+02
 11
2.39639816E+02
 21
-1.38475681E+02
  0
LINE
  8
0
 62
6
 10
2.32639816E+02
 20
-1.38475681E+02
 11
2.31139816E+02
 21
-1.38475681E+02
  0
LINE
  8
0
 62
6
 10
2.31139816E+02
 20
-1.35275684E+02
 11
2.32639816E+02
 21
-1.35275684E+02
  0
LINE
  8
0
 62
6
 10
2.37965330E+02
 20
-1.35425682E+02
 11
2.34314302E+02
 21
-1.35425682E+02
  0
LINE
  8
0
 62
6
 10
2.36139816E+02
 20
-1.34825684E+02
 11
2.34314302E+02
 21
-1.34825684E+02
  0
LINE
  8
0
 62
6
 10
2.37965330E+02
 20
-1.34825684E+02
 11
2.36139816E+02
 21
-1.34825684E+02
  0
LINE
  8
0
 62
6
 10
2.31932710E+02
 20
-1.37582790E+02
 11
2.33346924E+02
 21
-1.36168577E+02
  0
LINE
  8
0
 62
6
 10
2.31932710E+02
 20
-1.36168577E+02
 11
2.33346924E+02
 21
-1.37582790E+02
  0
LINE
  8
0
 62
6
 10
2.40346923E+02
 20
-1.36168579E+02
 11
2.38932710E+02
 21
-1.37582793E+02
  0
LINE
  8
0
 62
6
 10
2.40346923E+02
 20
-1.37582793E+02
 11
2.38932710E+02
 21
-1.36168579E+02
  0
LINE
  8
0
 62
6
 10
2.40839816E+02
 20
-1.02365967E+02
 11
2.31439816E+02
 21
-1.02365967E+02
  0
LINE
  8
0
 62
6
 10
2.37639816E+02
 20
-9.73659668E+01
 11
2.37639816E+02
 21
-1.02365967E+02
  0
LINE
  8
0
 62
6
 10
2.34639816E+02
 20
-9.73659668E+01
 11
2.37639816E+02
 21
-9.73659668E+01
  0
LINE
  8
0
 62
6
 10
2.34639816E+02
 20
-9.73659668E+01
 11
2.34639816E+02
 21
-1.02365967E+02
  0
LINE
  8
0
 62
6
 10
2.33745446E+02
 20
-7.63251482E+01
 11
2.33489816E+02
 21
-7.67659657E+01
  0
LINE
  8
0
 62
6
 10
2.38789812E+02
 20
-7.67659686E+01
 11
2.38534182E+02
 21
-7.63251511E+01
  0
LINE
  8
0
 62
6
 10
2.34995448E+02
 20
-7.75751485E+01
 11
2.34739819E+02
 21
-7.80159659E+01
  0
LINE
  8
0
 62
6
 10
2.33489816E+02
 20
-7.67659650E+01
 11
2.34739817E+02
 21
-7.80159663E+01
  0
LINE
  8
0
 62
6
 10
2.34995450E+02
 20
-7.75751521E+01
 11
2.33745448E+02
 21
-7.63251508E+01
  0
LINE
  8
0
 62
6
 10
2.37284183E+02
 20
-7.75751494E+01
 11
2.37539813E+02
 21
-7.80159669E+01
  0
LINE
  8
0
 62
6
 10
2.41139816E+02
 20
-8.34567871E+01
 11
2.31139816E+02
 21
-8.34567871E+01
  0
LINE
  8
0
 62
6
 10
2.37284187E+02
 20
-7.75751467E+01
 11
2.38534183E+02
 21
-7.63251508E+01
  0
LINE
  8
0
 62
6
 10
2.41139816E+02
 20
-7.63251495E+01
 11
2.38534186E+02
 21
-7.63251495E+01
  0
LINE
  8
0
 62
6
 10
2.33745445E+02
 20
-7.63251495E+01
 11
2.31139816E+02
 21
-7.63251495E+01
  0
LINE
  8
0
 62
6
 10
2.34995445E+02
 20
-7.75751495E+01
 11
2.37284186E+02
 21
-7.75751495E+01
  0
LINE
  8
0
 62
6
 10
2.41139816E+02
 20
-7.67659683E+01
 11
2.38789816E+02
 21
-7.67659683E+01
  0
LINE
  8
0
 62
6
 10
2.38789815E+02
 20
-7.67659650E+01
 11
2.37539814E+02
 21
-7.80159663E+01
  0
LINE
  8
0
 62
6
 10
2.34739817E+02
 20
-7.80159683E+01
 11
2.37539816E+02
 21
-7.80159683E+01
  0
LINE
  8
0
 62
6
 10
2.33489817E+02
 20
-7.67659683E+01
 11
2.31139816E+02
 21
-7.67659683E+01
  0
LINE
  8
0
 62
6
 10
2.39639816E+02
 20
-8.04659653E+01
 11
2.41139816E+02
 21
-8.04659653E+01
  0
LINE
  8
0
 62
6
 10
2.41139816E+02
 20
-7.72659683E+01
 11
2.39639816E+02
 21
-7.72659683E+01
  0
LINE
  8
0
 62
6
 10
2.32639816E+02
 20
-7.72659683E+01
 11
2.31139816E+02
 21
-7.72659683E+01
  0
LINE
  8
0
 62
6
 10
2.31139816E+02
 20
-8.04659653E+01
 11
2.32639816E+02
 21
-8.04659653E+01
  0
LINE
  8
0
 62
6
 10
2.31139816E+02
 20
-1.02065964E+02
 11
2.31139816E+02
 21
-7.03659668E+01
  0
LINE
  8
0
 62
6
 10
2.41139816E+02
 20
-1.02065964E+02
 11
2.41139816E+02
 21
-7.03659668E+01
  0
LINE
  8
0
 62
6
 10
2.37965330E+02
 20
-8.03159637E+01
 11
2.34314302E+02
 21
-8.03159637E+01
  0
LINE
  8
0
 62
6
 10
2.36139816E+02
 20
-8.09159698E+01
 11
2.34314302E+02
 21
-8.09159698E+01
  0
LINE
  8
0
 62
6
 10
2.37965330E+02
 20
-8.09159698E+01
 11
2.36139816E+02
 21
-8.09159698E+01
  0
LINE
  8
0
 62
6
 10
2.31932710E+02
 20
-7.81588637E+01
 11
2.33346924E+02
 21
-7.95730772E+01
  0
LINE
  8
0
 62
6
 10
2.31932710E+02
 20
-7.95730772E+01
 11
2.33346924E+02
 21
-7.81588637E+01
  0
LINE
  8
0
 62
6
 10
2.40346921E+02
 20
-7.95730772E+01
 11
2.38932707E+02
 21
-7.81588637E+01
  0
LINE
  8
0
 62
6
 10
2.40346921E+02
 20
-7.81588637E+01
 11
2.38932707E+02
 21
-7.95730772E+01
  0
LINE
  8
0
 62
6
 10
2.31139816E+02
 20
-7.03659668E+01
 11
2.41139816E+02
 21
-7.03659668E+01
  0
LINE
  8
0
  6
PHANTOM
 62
2
 10
2.41239817E+02
 20
-1.65372944E+02
 11
2.31039816E+02
 21
-1.65372944E+02
  0
LINE
  8
0
  6
PHANTOM
 62
2
 10
2.41239817E+02
 20
-1.65372944E+02
 11
2.41239817E+02
 21
-1.45375683E+02
  0
LINE
  8
0
  6
PHANTOM
 62
2
 10
2.31039816E+02
 20
-1.65372944E+02
 11
2.31039816E+02
 21
-1.45375683E+02
  0
LINE
  8
0
  6
CENTER
 62
2
 10
2.34039816E+02
 20
-1.45375683E+02
 11
2.34039816E+02
 21
-1.64127460E+02
  0
LINE
  8
0
  6
CENTER
 62
2
 10
2.31383610E+02
 20
-1.61274315E+02
 11
2.36695438E+02
 21
-1.61274315E+02
  0
LINE
  8
0
  6
CENTER
 62
2
 10
2.31383610E+02
 20
-1.53474312E+02
 11
2.36660261E+02
 21
-1.53474312E+02
  0
LINE
  8
0
  6
CENTER
 62
2
 10
2.30398636E+02
 20
-1.48124313E+02
 11
2.37815729E+02
 21
-1.48124313E+02
  0
LINE
  8
0
 62
6
 10
2.41139816E+02
 20
-1.45375683E+02
 11
2.31139816E+02
 21
-1.45375683E+02
  0
LINE
  8
0
 62
7
 10
2.31639816E+02
 20
-1.65372944E+02
 11
2.40639816E+02
 21
-1.65372944E+02
  0
LINE
  8
0
 62
7
 10
2.41389816E+02
 20
-1.88372943E+02
 11
2.30889816E+02
 21
-1.88372943E+02
  0
LINE
  8
0
 62
7
 10
2.41139816E+02
 20
-1.65872944E+02
 11
2.41139816E+02
 21
-1.87872943E+02
  0
LINE
  8
0
 62
7
 10
2.31139816E+02
 20
-1.65872944E+02
 11
2.31139816E+02
 21
-1.87872943E+02
  0
LINE
  8
0
 62
7
 10
2.41389816E+02
 20
-7.03659668E+01
 11
2.41389816E+02
 21
-1.88372943E+02
  0
LINE
  8
0
 62
7
 10
2.30889816E+02
 20
-7.03659668E+01
 11
2.30889816E+02
 21
-1.88372943E+02
  0
LINE
  8
0
  6
CENTER
 62
2
 10
2.36139816E+02
 20
-6.87943726E+01
 11
2.36139816E+02
 21
-1.89432279E+02
  0
LINE
  8
0
 62
7
 10
2.41139816E+02
 20
-1.13675682E+02
 11
2.41139816E+02
 21
-1.02065964E+02
  0
LINE
  8
0
 62
7
 10
2.31139816E+02
 20
-1.02065964E+02
 11
2.31139816E+02
 21
-1.13675682E+02
  0
LINE
  8
0
  6
CENTER
 62
6
 10
2.32639816E+02
 20
-8.13659668E+01
 11
2.32639816E+02
 21
-7.63659668E+01
  0
LINE
  8
0
  6
CENTER
 62
6
 10
2.39639816E+02
 20
-8.13659668E+01
 11
2.39639816E+02
 21
-7.63659668E+01
  0
LINE
  8
0
  6
CENTER
 62
6
 10
2.37139816E+02
 20
-7.88659668E+01
 11
2.42139816E+02
 21
-7.88659668E+01
  0
LINE
  8
0
  6
CENTER
 62
6
 10
2.32639816E+02
 20
-1.39375683E+02
 11
2.32639816E+02
 21
-1.34375683E+02
  0
LINE
  8
0
  6
CENTER
 62
6
 10
2.39639816E+02
 20
-1.39375683E+02
 11
2.39639816E+02
 21
-1.34375683E+02
  0
LINE
  8
0
  6
CENTER
 62
6
 10
2.37139816E+02
 20
-1.36875683E+02
 11
2.42139816E+02
 21
-1.36875683E+02
  0
LINE
  8
0
  6
CENTER
 62
2
 10
2.35189816E+02
 20
-5.48796844E+01
 11
2.35189816E+02
 21
-7.18435135E+01
  0
LINE
  8
0
 62
7
 10
2.31189816E+02
 20
-6.96659698E+01
 11
2.39189816E+02
 21
-6.96659698E+01
  0
LINE
  8
0
 62
7
 10
2.38889818E+02
 20
-6.93659712E+01
 11
2.39189818E+02
 21
-6.96659704E+01
  0
LINE
  8
0
 62
7
 10
2.31189820E+02
 20
-6.96659704E+01
 11
2.31489819E+02
 21
-6.93659712E+01
  0
LINE
  8
0
 62
7
 10
2.31189816E+02
 20
-7.03659668E+01
 11
2.31189816E+02
 21
-6.96659698E+01
  0
LINE
  8
0
 62
7
 10
2.39189816E+02
 20
-7.03659668E+01
 11
2.39189816E+02
 21
-6.96659698E+01
  0
LINE
  8
0
 62
7
 10
2.31489817E+02
 20
-6.93659668E+01
 11
2.38889816E+02
 21
-6.93659668E+01
  0
LINE
  8
0
 62
7
 10
2.38689817E+02
 20
-6.88659653E+01
 11
2.38189817E+02
 21
-6.93659658E+01
  0
LINE
  8
0
 62
7
 10
2.33939816E+02
 20
-6.36609650E+01
 11
2.33939816E+02
 21
-6.63659668E+01
  0
LINE
  8
0
 62
7
 10
2.31689816E+02
 20
-6.88659668E+01
 11
2.31689816E+02
 21
-6.68659668E+01
  0
LINE
  8
0
 62
7
 10
2.32689816E+02
 20
-5.91609650E+01
 11
2.32689816E+02
 21
-6.31609650E+01
  0
LINE
  8
0
 62
7
 10
2.33189817E+02
 20
-6.36609739E+01
 11
2.32689816E+02
 21
-6.31609733E+01
  0
LINE
  8
0
 62
7
 10
2.32689816E+02
 20
-5.91609691E+01
 11
2.33189817E+02
 21
-5.86609686E+01
  0
LINE
  8
0
 62
7
 10
2.31689815E+02
 20
-6.68659685E+01
 11
2.32189816E+02
 21
-6.63659680E+01
  0
LINE
  8
0
 62
7
 10
2.31689815E+02
 20
-6.88659706E+01
 11
2.32189816E+02
 21
-6.93659712E+01
  0
LINE
  8
0
 62
7
 10
2.37689816E+02
 20
-5.91609650E+01
 11
2.37689816E+02
 21
-6.31609650E+01
  0
LINE
  8
0
 62
7
 10
2.37689821E+02
 20
-5.91609691E+01
 11
2.37189821E+02
 21
-5.86609686E+01
  0
LINE
  8
0
 62
7
 10
2.37689816E+02
 20
-6.31609679E+01
 11
2.37189816E+02
 21
-6.36609685E+01
  0
LINE
  8
0
 62
7
 10
2.38689812E+02
 20
-6.68659685E+01
 11
2.38189817E+02
 21
-6.63659734E+01
  0
LINE
  8
0
 62
7
 10
2.36439816E+02
 20
-6.36609650E+01
 11
2.36439816E+02
 21
-6.63659668E+01
  0
LINE
  8
0
 62
7
 10
2.38689816E+02
 20
-6.88659668E+01
 11
2.38689816E+02
 21
-6.68659668E+01
  0
LINE
  8
0
 62
7
 10
2.38189816E+02
 20
-6.63659668E+01
 11
2.32189816E+02
 21
-6.63659668E+01
  0
LINE
  8
0
 62
7
 10
2.33189816E+02
 20
-6.36609650E+01
 11
2.37189816E+02
 21
-6.36609650E+01
  0
LINE
  8
0
 62
7
 10
2.37189816E+02
 20
-5.86609650E+01
 11
2.33189816E+02
 21
-5.86609650E+01
  0
LINE
  8
0
 62
7
 10
2.41139816E+02
 20
-7.03659668E+01
 11
2.41389816E+02
 21
-7.03659668E+01
  0
LINE
  8
0
 62
7
 10
2.31139816E+02
 20
-7.03659668E+01
 11
2.30889816E+02
 21
-7.03659668E+01
  0
LINE
  8
0
 62
7
 10
2.41139816E+02
 20
-1.45375683E+02
 11
2.41389816E+02
 21
-1.45375683E+02
  0
LINE
  8
0
 62
7
 10
2.31139816E+02
 20
-1.45375683E+02
 11
2.30889816E+02
 21
-1.45375683E+02
  0
LINE
  8
0
 62
6
 10
2.31139816E+02
 20
-1.65372944E+02
 11
2.41139816E+02
 21
-1.65372944E+02
  0
LINE
  8
0
 62
6
 10
2.31139816E+02
 20
-1.45372944E+02
 11
2.41139816E+02
 21
-1.45372944E+02
  0
LINE
  8
0
  6
PHANTOM
 62
2
 10
2.31039816E+02
 20
-1.45375683E+02
 11
2.41239817E+02
 21
-1.45375683E+02
  0
LINE
  8
0
 62
2
 10
2.25139816E+02
 20
-6.88659668E+01
 11
2.25139816E+02
 21
-6.68659668E+01
  0
LINE
  8
0
 62
6
 10
2.30139816E+02
 20
-8.48659668E+01
 11
2.20139816E+02
 21
-8.48659668E+01
  0
LINE
  8
0
 62
6
 10
2.30139816E+02
 20
-8.47659683E+01
 11
2.20139816E+02
 21
-8.47659683E+01
  0
LINE
  8
0
 62
6
 10
2.20139816E+02
 20
-8.42678909E+01
 11
2.30139816E+02
 21
-8.42678909E+01
  0
LINE
  8
0
  6
CENTER
 62
6
 10
2.28039816E+02
 20
-8.63578873E+01
 11
2.28039816E+02
 21
-9.19026718E+01
  0
LINE
  8
0
  6
CENTER
 62
6
 10
2.22239817E+02
 20
-8.63578873E+01
 11
2.22239817E+02
 21
-9.19026718E+01
  0
LINE
  8
0
 62
6
 10
2.28039816E+02
 20
-9.10659637E+01
 11
2.22239817E+02
 21
-9.10659637E+01
  0
LINE
  8
0
 62
6
 10
2.28039816E+02
 20
-8.70659637E+01
 11
2.22239817E+02
 21
-8.70659637E+01
  0
LINE
  8
0
  6
CENTER
 62
6
 10
2.30550306E+02
 20
-8.90659637E+01
 11
2.19727932E+02
 21
-8.90659637E+01
  0
LINE
  8
0
 62
6
 10
2.30139816E+02
 20
-1.30875687E+02
 11
2.20139816E+02
 21
-1.30875687E+02
  0
LINE
  8
0
 62
6
 10
2.30139816E+02
 20
-1.30975685E+02
 11
2.20139816E+02
 21
-1.30975685E+02
  0
LINE
  8
0
  6
CENTER
 62
6
 10
2.28039816E+02
 20
-1.29383759E+02
 11
2.28039816E+02
 21
-1.23838982E+02
  0
LINE
  8
0
  6
CENTER
 62
6
 10
2.22239817E+02
 20
-1.29383759E+02
 11
2.22239817E+02
 21
-1.23838982E+02
  0
LINE
  8
0
 62
6
 10
2.28039816E+02
 20
-1.24675682E+02
 11
2.22239817E+02
 21
-1.24675682E+02
  0
LINE
  8
0
 62
6
 10
2.28039816E+02
 20
-1.28675682E+02
 11
2.22239817E+02
 21
-1.28675682E+02
  0
LINE
  8
0
  6
CENTER
 62
6
 10
2.30550306E+02
 20
-1.26675682E+02
 11
2.19727932E+02
 21
-1.26675682E+02
  0
LINE
  8
0
 62
6
 10
2.29839817E+02
 20
-1.13375687E+02
 11
2.20439816E+02
 21
-1.13375687E+02
  0
LINE
  8
0
 62
6
 10
2.26639816E+02
 20
-1.18375687E+02
 11
2.26639816E+02
 21
-1.13375687E+02
  0
LINE
  8
0
 62
6
 10
2.23639816E+02
 20
-1.18375687E+02
 11
2.26639816E+02
 21
-1.18375687E+02
  0
LINE
  8
0
 62
6
 10
2.23639816E+02
 20
-1.18375687E+02
 11
2.23639816E+02
 21
-1.13375687E+02
  0
LINE
  8
0
 62
6
 10
2.22745444E+02
 20
-1.39416500E+02
 11
2.22489814E+02
 21
-1.38975683E+02
  0
LINE
  8
0
 62
6
 10
2.27789818E+02
 20
-1.38975684E+02
 11
2.27534189E+02
 21
-1.39416502E+02
  0
LINE
  8
0
 62
6
 10
2.23995444E+02
 20
-1.38166501E+02
 11
2.23739815E+02
 21
-1.37725684E+02
  0
LINE
  8
0
 62
6
 10
2.22489815E+02
 20
-1.38975683E+02
 11
2.23739815E+02
 21
-1.37725683E+02
  0
LINE
  8
0
 62
6
 10
2.23995447E+02
 20
-1.38166503E+02
 11
2.22745447E+02
 21
-1.39416503E+02
  0
LINE
  8
0
 62
6
 10
2.26284188E+02
 20
-1.38166498E+02
 11
2.26539818E+02
 21
-1.37725681E+02
  0
LINE
  8
0
 62
6
 10
2.30139816E+02
 20
-1.32284866E+02
 11
2.20139816E+02
 21
-1.32284866E+02
  0
LINE
  8
0
 62
6
 10
2.26284187E+02
 20
-1.38166500E+02
 11
2.27534188E+02
 21
-1.39416502E+02
  0
LINE
  8
0
 62
6
 10
2.30139816E+02
 20
-1.39416500E+02
 11
2.27534187E+02
 21
-1.39416500E+02
  0
LINE
  8
0
 62
6
 10
2.22745445E+02
 20
-1.39416500E+02
 11
2.20139816E+02
 21
-1.39416500E+02
  0
LINE
  8
0
 62
6
 10
2.23995445E+02
 20
-1.38166500E+02
 11
2.26284187E+02
 21
-1.38166500E+02
  0
LINE
  8
0
 62
6
 10
2.30139816E+02
 20
-1.38975681E+02
 11
2.27789816E+02
 21
-1.38975681E+02
  0
LINE
  8
0
 62
6
 10
2.27789818E+02
 20
-1.38975685E+02
 11
2.26539817E+02
 21
-1.37725683E+02
  0
LINE
  8
0
 62
6
 10
2.23739817E+02
 20
-1.37725681E+02
 11
2.26539816E+02
 21
-1.37725681E+02
  0
LINE
  8
0
 62
6
 10
2.22489817E+02
 20
-1.38975681E+02
 11
2.20139816E+02
 21
-1.38975681E+02
  0
LINE
  8
0
 62
6
 10
2.20139816E+02
 20
-1.31473763E+02
 11
2.30139816E+02
 21
-1.31473763E+02
  0
LINE
  8
0
 62
6
 10
2.28639816E+02
 20
-1.35275684E+02
 11
2.30139816E+02
 21
-1.35275684E+02
  0
LINE
  8
0
 62
6
 10
2.30139816E+02
 20
-1.38475681E+02
 11
2.28639816E+02
 21
-1.38475681E+02
  0
LINE
  8
0
 62
6
 10
2.21639816E+02
 20
-1.38475681E+02
 11
2.20139816E+02
 21
-1.38475681E+02
  0
LINE
  8
0
 62
6
 10
2.20139816E+02
 20
-1.35275684E+02
 11
2.21639816E+02
 21
-1.35275684E+02
  0
LINE
  8
0
 62
6
 10
2.26965330E+02
 20
-1.35425682E+02
 11
2.23314302E+02
 21
-1.35425682E+02
  0
LINE
  8
0
 62
6
 10
2.25139816E+02
 20
-1.34825684E+02
 11
2.23314302E+02
 21
-1.34825684E+02
  0
LINE
  8
0
 62
6
 10
2.26965330E+02
 20
-1.34825684E+02
 11
2.25139816E+02
 21
-1.34825684E+02
  0
LINE
  8
0
 62
6
 10
2.20932712E+02
 20
-1.37582793E+02
 11
2.22346926E+02
 21
-1.36168579E+02
  0
LINE
  8
0
 62
6
 10
2.20932712E+02
 20
-1.36168579E+02
 11
2.22346923E+02
 21
-1.37582790E+02
  0
LINE
  8
0
 62
6
 10
2.29346924E+02
 20
-1.36168578E+02
 11
2.27932710E+02
 21
-1.37582791E+02
  0
LINE
  8
0
 62
6
 10
2.29346924E+02
 20
-1.37582791E+02
 11
2.27932710E+02
 21
-1.36168578E+02
  0
LINE
  8
0
 62
6
 10
2.29839817E+02
 20
-1.02365967E+02
 11
2.20439816E+02
 21
-1.02365967E+02
  0
LINE
  8
0
 62
6
 10
2.26639816E+02
 20
-9.73659668E+01
 11
2.26639816E+02
 21
-1.02365967E+02
  0
LINE
  8
0
 62
6
 10
2.23639816E+02
 20
-9.73659668E+01
 11
2.26639816E+02
 21
-9.73659668E+01
  0
LINE
  8
0
 62
6
 10
2.23639816E+02
 20
-9.73659668E+01
 11
2.23639816E+02
 21
-1.02365967E+02
  0
LINE
  8
0
 62
6
 10
2.22745450E+02
 20
-7.63251517E+01
 11
2.22489821E+02
 21
-7.67659692E+01
  0
LINE
  8
0
 62
6
 10
2.27789813E+02
 20
-7.67659670E+01
 11
2.27534183E+02
 21
-7.63251495E+01
  0
LINE
  8
0
 62
6
 10
2.23995446E+02
 20
-7.75751481E+01
 11
2.23739816E+02
 21
-7.80159656E+01
  0
LINE
  8
0
 62
6
 10
2.22489820E+02
 20
-7.67659704E+01
 11
2.23739816E+02
 21
-7.80159663E+01
  0
LINE
  8
0
 62
6
 10
2.23995449E+02
 20
-7.75751521E+01
 11
2.22745447E+02
 21
-7.63251508E+01
  0
LINE
  8
0
 62
6
 10
2.26284184E+02
 20
-7.75751478E+01
 11
2.26539814E+02
 21
-7.80159653E+01
  0
LINE
  8
0
 62
6
 10
2.30139816E+02
 20
-8.34567871E+01
 11
2.20139816E+02
 21
-8.34567871E+01
  0
LINE
  8
0
 62
6
 10
2.26284191E+02
 20
-7.75751521E+01
 11
2.27534187E+02
 21
-7.63251562E+01
  0
LINE
  8
0
 62
6
 10
2.30139816E+02
 20
-7.63251495E+01
 11
2.27534187E+02
 21
-7.63251495E+01
  0
LINE
  8
0
 62
6
 10
2.22745445E+02
 20
-7.63251495E+01
 11
2.20139816E+02
 21
-7.63251495E+01
  0
LINE
  8
0
 62
6
 10
2.23995445E+02
 20
-7.75751495E+01
 11
2.26284187E+02
 21
-7.75751495E+01
  0
LINE
  8
0
 62
6
 10
2.30139816E+02
 20
-7.67659683E+01
 11
2.27789816E+02
 21
-7.67659683E+01
  0
LINE
  8
0
 62
6
 10
2.27789820E+02
 20
-7.67659704E+01
 11
2.26539818E+02
 21
-7.80159717E+01
  0
LINE
  8
0
 62
6
 10
2.23739817E+02
 20
-7.80159683E+01
 11
2.26539816E+02
 21
-7.80159683E+01
  0
LINE
  8
0
 62
6
 10
2.22489817E+02
 20
-7.67659683E+01
 11
2.20139816E+02
 21
-7.67659683E+01
  0
LINE
  8
0
 62
6
 10
2.28639816E+02
 20
-8.04659653E+01
 11
2.30139816E+02
 21
-8.04659653E+01
  0
LINE
  8
0
 62
6
 10
2.30139816E+02
 20
-7.72659683E+01
 11
2.28639816E+02
 21
-7.72659683E+01
  0
LINE
  8
0
 62
6
 10
2.21639816E+02
 20
-7.72659683E+01
 11
2.20139816E+02
 21
-7.72659683E+01
  0
LINE
  8
0
 62
6
 10
2.20139816E+02
 20
-8.04659653E+01
 11
2.21639816E+02
 21
-8.04659653E+01
  0
LINE
  8
0
 62
6
 10
2.20139816E+02
 20
-1.02065964E+02
 11
2.20139816E+02
 21
-7.03659668E+01
  0
LINE
  8
0
 62
6
 10
2.30139816E+02
 20
-1.02065964E+02
 11
2.30139816E+02
 21
-7.03659668E+01
  0
LINE
  8
0
 62
6
 10
2.26965330E+02
 20
-8.03159637E+01
 11
2.23314302E+02
 21
-8.03159637E+01
  0
LINE
  8
0
 62
6
 10
2.25139816E+02
 20
-8.09159698E+01
 11
2.23314302E+02
 21
-8.09159698E+01
  0
LINE
  8
0
 62
6
 10
2.26965330E+02
 20
-8.09159698E+01
 11
2.25139816E+02
 21
-8.09159698E+01
  0
LINE
  8
0
 62
6
 10
2.20932710E+02
 20
-7.81588637E+01
 11
2.22346923E+02
 21
-7.95730772E+01
  0
LINE
  8
0
 62
6
 10
2.20932710E+02
 20
-7.95730772E+01
 11
2.22346923E+02
 21
-7.81588637E+01
  0
LINE
  8
0
 62
6
 10
2.29346925E+02
 20
-7.95730718E+01
 11
2.27932712E+02
 21
-7.81588583E+01
  0
LINE
  8
0
 62
6
 10
2.29346925E+02
 20
-7.81588583E+01
 11
2.27932712E+02
 21
-7.95730718E+01
  0
LINE
  8
0
 62
6
 10
2.20139816E+02
 20
-7.03659668E+01
 11
2.30139816E+02
 21
-7.03659668E+01
  0
LINE
  8
0
  6
PHANTOM
 62
2
 10
2.30239817E+02
 20
-1.65372944E+02
 11
2.20039818E+02
 21
-1.65372944E+02
  0
LINE
  8
0
  6
PHANTOM
 62
2
 10
2.30239817E+02
 20
-1.65372944E+02
 11
2.30239817E+02
 21
-1.45375683E+02
  0
LINE
  8
0
  6
PHANTOM
 62
2
 10
2.20039818E+02
 20
-1.65372944E+02
 11
2.20039818E+02
 21
-1.45375683E+02
  0
LINE
  8
0
  6
CENTER
 62
2
 10
2.23039816E+02
 20
-1.45375683E+02
 11
2.23039816E+02
 21
-1.64127460E+02
  0
LINE
  8
0
  6
CENTER
 62
2
 10
2.20383610E+02
 20
-1.61274315E+02
 11
2.25695438E+02
 21
-1.61274315E+02
  0
LINE
  8
0
  6
CENTER
 62
2
 10
2.20383610E+02
 20
-1.53474312E+02
 11
2.25660261E+02
 21
-1.53474312E+02
  0
LINE
  8
0
  6
CENTER
 62
2
 10
2.19398636E+02
 20
-1.48124313E+02
 11
2.26815729E+02
 21
-1.48124313E+02
  0
LINE
  8
0
 62
6
 10
2.30139816E+02
 20
-1.45375683E+02
 11
2.20139816E+02
 21
-1.45375683E+02
  0
LINE
  8
0
 62
7
 10
2.20639816E+02
 20
-1.65372944E+02
 11
2.29639816E+02
 21
-1.65372944E+02
  0
LINE
  8
0
 62
7
 10
2.30389816E+02
 20
-1.88372943E+02
 11
2.19889816E+02
 21
-1.88372943E+02
  0
LINE
  8
0
 62
7
 10
2.30139816E+02
 20
-1.65872944E+02
 11
2.30139816E+02
 21
-1.87872943E+02
  0
LINE
  8
0
 62
7
 10
2.20139816E+02
 20
-1.65872944E+02
 11
2.20139816E+02
 21
-1.87872943E+02
  0
LINE
  8
0
 62
7
 10
2.30389816E+02
 20
-7.03659668E+01
 11
2.30389816E+02
 21
-1.88372943E+02
  0
LINE
  8
0
 62
7
 10
2.19889816E+02
 20
-7.03659668E+01
 11
2.19889816E+02
 21
-1.88372943E+02
  0
LINE
  8
0
  6
CENTER
 62
2
 10
2.25139816E+02
 20
-6.87943726E+01
 11
2.25139816E+02
 21
-1.89432279E+02
  0
LINE
  8
0
 62
7
 10
2.30139816E+02
 20
-1.13675682E+02
 11
2.30139816E+02
 21
-1.02065964E+02
  0
LINE
  8
0
 62
7
 10
2.20139816E+02
 20
-1.02065964E+02
 11
2.20139816E+02
 21
-1.13675682E+02
  0
LINE
  8
0
  6
CENTER
 62
6
 10
2.21639816E+02
 20
-8.13659668E+01
 11
2.21639816E+02
 21
-7.63659668E+01
  0
LINE
  8
0
  6
CENTER
 62
6
 10
2.19139816E+02
 20
-7.88659668E+01
 11
2.24139816E+02
 21
-7.88659668E+01
  0
LINE
  8
0
  6
CENTER
 62
6
 10
2.28639816E+02
 20
-8.13659668E+01
 11
2.28639816E+02
 21
-7.63659668E+01
  0
LINE
  8
0
  6
CENTER
 62
6
 10
2.21639816E+02
 20
-1.39375683E+02
 11
2.21639816E+02
 21
-1.34375683E+02
  0
LINE
  8
0
  6
CENTER
 62
6
 10
2.28639816E+02
 20
-1.39375683E+02
 11
2.28639816E+02
 21
-1.34375683E+02
  0
LINE
  8
0
  6
CENTER
 62
2
 10
2.24189816E+02
 20
-5.48796844E+01
 11
2.24189816E+02
 21
-7.18435135E+01
  0
LINE
  8
0
 62
7
 10
2.20189816E+02
 20
-6.96659698E+01
 11
2.28189816E+02
 21
-6.96659698E+01
  0
LINE
  8
0
 62
7
 10
2.27889818E+02
 20
-6.93659712E+01
 11
2.28189817E+02
 21
-6.96659704E+01
  0
LINE
  8
0
 62
7
 10
2.20189819E+02
 20
-6.96659704E+01
 11
2.20489818E+02
 21
-6.93659712E+01
  0
LINE
  8
0
 62
7
 10
2.20189816E+02
 20
-7.03659668E+01
 11
2.20189816E+02
 21
-6.96659698E+01
  0
LINE
  8
0
 62
7
 10
2.28189816E+02
 20
-7.03659668E+01
 11
2.28189816E+02
 21
-6.96659698E+01
  0
LINE
  8
0
 62
7
 10
2.20489817E+02
 20
-6.93659668E+01
 11
2.27889816E+02
 21
-6.93659668E+01
  0
LINE
  8
0
 62
7
 10
2.27689816E+02
 20
-6.88659653E+01
 11
2.27189816E+02
 21
-6.93659658E+01
  0
LINE
  8
0
 62
7
 10
2.22939816E+02
 20
-6.36609650E+01
 11
2.22939816E+02
 21
-6.63659668E+01
  0
LINE
  8
0
 62
7
 10
2.20689816E+02
 20
-6.88659668E+01
 11
2.20689816E+02
 21
-6.68659668E+01
  0
LINE
  8
0
 62
7
 10
2.21689816E+02
 20
-5.91609650E+01
 11
2.21689816E+02
 21
-6.31609650E+01
  0
LINE
  8
0
 62
7
 10
2.22189821E+02
 20
-6.36609685E+01
 11
2.21689821E+02
 21
-6.31609679E+01
  0
LINE
  8
0
 62
7
 10
2.21689815E+02
 20
-5.91609691E+01
 11
2.22189816E+02
 21
-5.86609686E+01
  0
LINE
  8
0
 62
7
 10
2.20689814E+02
 20
-6.68659685E+01
 11
2.21189815E+02
 21
-6.63659680E+01
  0
LINE
  8
0
 62
7
 10
2.20689814E+02
 20
-6.88659706E+01
 11
2.21189815E+02
 21
-6.93659712E+01
  0
LINE
  8
0
 62
7
 10
2.26689816E+02
 20
-5.91609650E+01
 11
2.26689816E+02
 21
-6.31609650E+01
  0
LINE
  8
0
 62
7
 10
2.26689821E+02
 20
-5.91609691E+01
 11
2.26189820E+02
 21
-5.86609686E+01
  0
LINE
  8
0
 62
7
 10
2.26689815E+02
 20
-6.31609679E+01
 11
2.26189815E+02
 21
-6.36609685E+01
  0
LINE
  8
0
 62
7
 10
2.27689816E+02
 20
-6.68659739E+01
 11
2.27189816E+02
 21
-6.63659734E+01
  0
LINE
  8
0
 62
7
 10
2.25439816E+02
 20
-6.36609650E+01
 11
2.25439816E+02
 21
-6.63659668E+01
  0
LINE
  8
0
 62
7
 10
2.27689816E+02
 20
-6.88659668E+01
 11
2.27689816E+02
 21
-6.68659668E+01
  0
LINE
  8
0
 62
7
 10
2.27189816E+02
 20
-6.63659668E+01
 11
2.21189816E+02
 21
-6.63659668E+01
  0
LINE
  8
0
 62
7
 10
2.22189816E+02
 20
-6.36609650E+01
 11
2.26189816E+02
 21
-6.36609650E+01
  0
LINE
  8
0
 62
7
 10
2.26189816E+02
 20
-5.86609650E+01
 11
2.22189816E+02
 21
-5.86609650E+01
  0
LINE
  8
0
 62
7
 10
2.30139816E+02
 20
-7.03659668E+01
 11
2.30389816E+02
 21
-7.03659668E+01
  0
LINE
  8
0
 62
7
 10
2.20139816E+02
 20
-7.03659668E+01
 11
2.19889816E+02
 21
-7.03659668E+01
  0
LINE
  8
0
 62
7
 10
2.30139816E+02
 20
-1.45375683E+02
 11
2.30389816E+02
 21
-1.45375683E+02
  0
LINE
  8
0
 62
7
 10
2.20139816E+02
 20
-1.45375683E+02
 11
2.19889816E+02
 21
-1.45375683E+02
  0
LINE
  8
0
 62
6
 10
2.20139816E+02
 20
-1.65372944E+02
 11
2.30139816E+02
 21
-1.65372944E+02
  0
LINE
  8
0
 62
6
 10
2.20139816E+02
 20
-1.45372944E+02
 11
2.30139816E+02
 21
-1.45372944E+02
  0
LINE
  8
0
  6
PHANTOM
 62
2
 10
2.20039818E+02
 20
-1.45375683E+02
 11
2.30239817E+02
 21
-1.45375683E+02
  0
LINE
  8
0
 62
6
 10
2.20139816E+02
 20
-1.65372944E+02
 11
2.20139816E+02
 21
-1.13675682E+02
  0
LINE
  8
0
 62
6
 10
2.30139816E+02
 20
-1.65372944E+02
 11
2.30139816E+02
 21
-1.13675682E+02
  0
LINE
  8
0
  6
CENTER
 62
6
 10
2.26139816E+02
 20
-1.36875683E+02
 11
2.35139816E+02
 21
-1.36875683E+02
  0
LINE
  8
0
  6
CENTER
 62
6
 10
2.14339817E+02
 20
-1.36875683E+02
 11
2.24139816E+02
 21
-1.36875683E+02
  0
LINE
  8
0
  6
CENTER
 62
6
 10
2.26139816E+02
 20
-7.88659668E+01
 11
2.35139816E+02
 21
-7.88659668E+01
  0
LINE
  8
0
  6
CENTER
 62
2
 10
2.18390953E+02
 20
-1.81372943E+02
 11
2.42720656E+02
 21
-1.81372943E+02
  0
LINE
  8
0
 62
6
 10
2.31139816E+02
 20
-1.65372944E+02
 11
2.31139816E+02
 21
-1.13675682E+02
  0
LINE
  8
0
 62
6
 10
2.41139816E+02
 20
-1.65372944E+02
 11
2.41139816E+02
 21
-1.13675682E+02
  0
LINE
  8
0
  6
CENTER
 62
2
 10
1.85639816E+02
 20
-1.41872944E+02
 11
2.43639816E+02
 21
-1.41872944E+02
  0
LINE
  8
0
  6
CENTER
 62
2
 10
1.65639816E+02
 20
-7.43756866E+01
 11
2.43639816E+02
 21
-7.43756866E+01
  0
LINE
  8
0
 62
7
 10
1.87389816E+02
 20
-8.03714447E+01
 11
1.87639816E+02
 21
-8.03714447E+01
  0
LINE
  8
0
 62
7
 10
1.87389816E+02
 20
-9.13714447E+01
 11
1.87639816E+02
 21
-9.13714447E+01
  0
LINE
  8
0
 62
7
 10
1.87389816E+02
 20
-9.66714478E+01
 11
1.87639816E+02
 21
-9.66714478E+01
  0
LINE
  8
0
 62
7
 10
1.87389816E+02
 20
-1.37671448E+02
 11
1.87639816E+02
 21
-1.37671448E+02
  0
LINE
  8
0
 62
7
 10
1.87639816E+02
 20
-8.03714447E+01
 11
1.87889816E+02
 21
-8.03714447E+01
  0
LINE
  8
0
 62
7
 10
1.87639816E+02
 20
-9.13714447E+01
 11
1.87889816E+02
 21
-9.13714447E+01
  0
LINE
  8
0
 62
7
 10
1.87639816E+02
 20
-9.66714478E+01
 11
1.87889816E+02
 21
-9.66714478E+01
  0
LINE
  8
0
 62
7
 10
1.87639816E+02
 20
-1.37671448E+02
 11
1.87889816E+02
 21
-1.37671448E+02
  0
LINE
  8
0
 62
7
 10
2.03389816E+02
 20
-8.03714447E+01
 11
2.03639816E+02
 21
-8.03714447E+01
  0
LINE
  8
0
 62
7
 10
2.03389816E+02
 20
-9.13714447E+01
 11
2.03639816E+02
 21
-9.13714447E+01
  0
LINE
  8
0
 62
7
 10
2.03389816E+02
 20
-9.66714478E+01
 11
2.03639816E+02
 21
-9.66714478E+01
  0
LINE
  8
0
 62
7
 10
2.03389816E+02
 20
-1.37671448E+02
 11
2.03639816E+02
 21
-1.37671448E+02
  0
LINE
  8
0
 62
7
 10
2.03639816E+02
 20
-8.03714447E+01
 11
2.03889816E+02
 21
-8.03714447E+01
  0
LINE
  8
0
 62
7
 10
2.03639816E+02
 20
-9.13714447E+01
 11
2.03889816E+02
 21
-9.13714447E+01
  0
LINE
  8
0
 62
7
 10
2.03639816E+02
 20
-9.66714478E+01
 11
2.03889816E+02
 21
-9.66714478E+01
  0
LINE
  8
0
 62
7
 10
2.03639816E+02
 20
-1.37671448E+02
 11
2.03889816E+02
 21
-1.37671448E+02
  0
LINE
  8
0
 62
7
 10
2.19389816E+02
 20
-8.03714447E+01
 11
2.19639816E+02
 21
-8.03714447E+01
  0
LINE
  8
0
 62
7
 10
2.19389816E+02
 20
-9.13714447E+01
 11
2.19639816E+02
 21
-9.13714447E+01
  0
LINE
  8
0
 62
7
 10
2.19389816E+02
 20
-9.66714478E+01
 11
2.19639816E+02
 21
-9.66714478E+01
  0
LINE
  8
0
 62
7
 10
2.19389816E+02
 20
-1.37671448E+02
 11
2.19639816E+02
 21
-1.37671448E+02
  0
LINE
  8
0
 62
7
 10
2.19639816E+02
 20
-8.03714447E+01
 11
2.19889816E+02
 21
-8.03714447E+01
  0
LINE
  8
0
 62
7
 10
2.19639816E+02
 20
-9.13714447E+01
 11
2.19889816E+02
 21
-9.13714447E+01
  0
LINE
  8
0
 62
7
 10
2.19639816E+02
 20
-9.66714478E+01
 11
2.19889816E+02
 21
-9.66714478E+01
  0
LINE
  8
0
 62
7
 10
2.19639816E+02
 20
-1.37671448E+02
 11
2.19889816E+02
 21
-1.37671448E+02
  0
LINE
  8
0
 62
7
 10
2.30389816E+02
 20
-8.03714447E+01
 11
2.30639816E+02
 21
-8.03714447E+01
  0
LINE
  8
0
 62
7
 10
2.30389816E+02
 20
-9.13714447E+01
 11
2.30639816E+02
 21
-9.13714447E+01
  0
LINE
  8
0
 62
7
 10
2.30389816E+02
 20
-9.66714478E+01
 11
2.30639816E+02
 21
-9.66714478E+01
  0
LINE
  8
0
 62
7
 10
2.30389816E+02
 20
-1.37671448E+02
 11
2.30639816E+02
 21
-1.37671448E+02
  0
LINE
  8
0
 62
7
 10
2.30639816E+02
 20
-8.03714447E+01
 11
2.30889816E+02
 21
-8.03714447E+01
  0
LINE
  8
0
 62
7
 10
2.30639816E+02
 20
-9.13714447E+01
 11
2.30889816E+02
 21
-9.13714447E+01
  0
LINE
  8
0
 62
7
 10
2.30639816E+02
 20
-9.66714478E+01
 11
2.30889816E+02
 21
-9.66714478E+01
  0
LINE
  8
0
 62
7
 10
2.30639816E+02
 20
-1.37671448E+02
 11
2.30889816E+02
 21
-1.37671448E+02
  0
LINE
  8
0
 62
7
 10
2.41389816E+02
 20
-8.03714447E+01
 11
2.41639816E+02
 21
-8.03714447E+01
  0
LINE
  8
0
 62
7
 10
2.41389816E+02
 20
-9.13714447E+01
 11
2.41639816E+02
 21
-9.13714447E+01
  0
LINE
  8
0
 62
7
 10
2.41389816E+02
 20
-9.66714478E+01
 11
2.41639816E+02
 21
-9.66714478E+01
  0
LINE
  8
0
 62
7
 10
2.41389816E+02
 20
-1.37671448E+02
 11
2.41639816E+02
 21
-1.37671448E+02
  0
LINE
  8
0
  6
CENTER
 62
2
 10
1.58139816E+02
 20
-2.02447547E+02
 11
1.58139816E+02
 21
-1.83358293E+02
  0
LINE
  8
0
  6
CENTER
 62
2
 10
2.52139816E+02
 20
-2.02447547E+02
 11
2.52139816E+02
 21
-1.83358293E+02
  0
LINE
  8
0
 62
6
 10
1.70639816E+02
 20
-1.45872944E+02
 11
1.85639816E+02
 21
-1.45872944E+02
  0
LINE
  8
0
 62
6
 10
1.85639816E+02
 20
-1.69872944E+02
 11
1.85639816E+02
 21
-1.45872944E+02
  0
LINE
  8
0
 62
6
 10
1.70639816E+02
 20
-1.69872944E+02
 11
1.70639816E+02
 21
-1.45872944E+02
  0
LINE
  8
0
 62
6
 10
1.70639816E+02
 20
-1.69872944E+02
 11
1.85639816E+02
 21
-1.69872944E+02
  0
LINE
  8
0
  6
CENTER
 62
2
 10
2.00239815E+02
 20
-1.70376101E+02
 11
2.00239815E+02
 21
-1.62638458E+02
  0
LINE
  8
0
  6
CENTER
 62
2
 10
1.97402878E+02
 20
-1.66285398E+02
 11
2.03204578E+02
 21
-1.66285398E+02
  0
LINE
  8
0
  6
CENTER
 62
2
 10
2.16239815E+02
 20
-1.70376101E+02
 11
2.16239815E+02
 21
-1.62638458E+02
  0
LINE
  8
0
  6
CENTER
 62
2
 10
2.13402878E+02
 20
-1.66285398E+02
 11
2.19204578E+02
 21
-1.66285398E+02
  0
CIRCLE
  8
0
 62
6
 10
1.82739815E+02
 20
-1.26678421E+02
 40
8.75000000E-01
  0
ARC
  8
0
 62
6
 10
1.82739815E+02
 20
-1.26678421E+02
 40
2.00000000E+00
 50
2.70000000E+02
 51
9.00000002E+01
  0
CIRCLE
  8
0
 62
6
 10
1.76939819E+02
 20
-1.26678421E+02
 40
8.75000000E-01
  0
ARC
  8
0
 62
6
 10
1.76939819E+02
 20
-1.26678421E+02
 40
2.00000000E+00
 50
9.00000002E+01
 51
2.70000000E+02
  0
CIRCLE
  8
0
 62
6
 10
1.79339813E+02
 20
-7.90784225E+01
 40
8.75000000E-01
  0
ARC
  8
0
 62
6
 10
1.79339813E+02
 20
-7.90784225E+01
 40
2.00000000E+00
 50
2.70000000E+02
 51
9.00000002E+01
  0
ARC
  8
0
 62
6
 10
1.73539818E+02
 20
-7.90784225E+01
 40
2.00000000E+00
 50
9.00000002E+01
 51
2.70000000E+02
  0
CIRCLE
  8
0
 62
6
 10
1.73539818E+02
 20
-7.90784225E+01
 40
8.75000000E-01
  0
ARC
  8
0
 62
7
 10
1.70944817E+02
 20
-1.42878422E+02
 40
2.50000000E+00
 50
2.33130097E+02
 51
3.06869898E+02
  0
ARC
  8
0
 62
7
 10
1.71639816E+02
 20
-9.23784256E+01
 40
2.70000005E+00
 50
2.70000000E+02
 51
6.03127398E-13
  0
CIRCLE
  8
0
 62
6
 10
1.76439819E+02
 20
-7.06284256E+01
 40
2.04999995E+00
  0
ARC
  8
0
 62
6
 10
1.79939819E+02
 20
-6.88784180E+01
 40
1.60000002E+00
 50
9.00000002E+01
 51
2.70000000E+02
  0
ARC
  8
0
 62
6
 10
1.72939819E+02
 20
-6.88784180E+01
 40
1.60000002E+00
 50
2.70000000E+02
 51
9.00000002E+01
  0
CIRCLE
  8
0
 62
6
 10
1.76439819E+02
 20
-7.06284256E+01
 40
1.85000002E+00
  0
ARC
  8
0
 62
6
 10
1.76439819E+02
 20
-7.06284256E+01
 40
8.00000012E-01
 50
2.02024309E+02
 51
3.37975688E+02
  0
ARC
  8
0
 62
6
 10
1.76439819E+02
 20
-7.06284256E+01
 40
8.00000012E-01
 50
2.20243121E+01
 51
1.57975691E+02
  0
CIRCLE
  8
0
 62
6
 10
1.79939819E+02
 20
-6.88784180E+01
 40
1.50000000E+00
  0
CIRCLE
  8
0
 62
6
 10
1.72939819E+02
 20
-6.88784180E+01
 40
1.50000000E+00
  0
ARC
  8
0
 62
6
 10
1.81139816E+02
 20
-9.20784225E+01
 40
3.00000012E-01
 50
2.70000000E+02
 51
0.00000000E+00
  0
ARC
  8
0
 62
6
 10
1.71739815E+02
 20
-9.20784225E+01
 40
3.00000012E-01
 50
1.79999995E+02
 51
2.70000000E+02
  0
ARC
  8
0
 62
7
 10
1.71639816E+02
 20
-9.23784256E+01
 40
2.50000000E+00
 50
9.45885648E+01
 51
1.00179126E-05
  0
ARC
  8
0
 62
7
 10
1.85334816E+02
 20
-6.28784180E+01
 40
2.50000000E+00
 50
5.31301018E+01
 51
1.26869903E+02
  0
ARC
  8
0
 62
7
 10
1.84639816E+02
 20
-1.14878426E+02
 40
2.50000000E+00
 50
2.74588566E+02
 51
1.43130097E+02
  0
CIRCLE
  8
0
  6
PHANTOM
 62
2
 10
1.82239815E+02
 20
-1.65975683E+02
 40
3.00000012E-01
  0
CIRCLE
  8
0
  6
PHANTOM
 62
2
 10
1.82239815E+02
 20
-1.66975683E+02
 40
3.00000012E-01
  0
CIRCLE
  8
0
  6
PHANTOM
 62
2
 10
1.83239815E+02
 20
-1.66975683E+02
 40
3.00000012E-01
  0
CIRCLE
  8
0
  6
PHANTOM
 62
2
 10
1.83239815E+02
 20
-1.65975683E+02
 40
3.00000012E-01
  0
CIRCLE
  8
0
  6
PHANTOM
 62
2
 10
1.82739815E+02
 20
-1.66475683E+02
 40
1.20000005E+00
  0
ARC
  8
0
 62
7
 10
1.84639816E+02
 20
-1.14878426E+02
 40
2.70000005E+00
 50
9.00000002E+01
 51
1.46251016E+02
  0
ARC
  8
0
 62
7
 10
1.83739815E+02
 20
-6.11784210E+01
 40
2.00000003E-01
 50
1.79999995E+02
 51
2.70000000E+02
  0
ARC
  8
0
 62
7
 10
1.72539818E+02
 20
-1.44578423E+02
 40
2.00000003E-01
 50
3.54080197E+02
 51
9.00000002E+01
  0
CIRCLE
  8
0
 62
7
 10
1.78139816E+02
 20
-1.82875683E+02
 40
4.94999981E+00
  0
CIRCLE
  8
0
  6
PHANTOM
 62
2
 10
1.82739815E+02
 20
-1.66475683E+02
 40
1.89999998E+00
  0
ARC
  8
0
  6
PHANTOM
 62
2
 10
1.85039818E+02
 20
-1.69885399E+02
 40
5.00000000E-01
 50
2.70000000E+02
 51
0.00000000E+00
  0
ARC
  8
0
  6
PHANTOM
 62
2
 10
1.80439819E+02
 20
-1.69885399E+02
 40
5.00000000E-01
 50
1.79999995E+02
 51
2.70000000E+02
  0
ARC
  8
0
  6
PHANTOM
 62
2
 10
1.85039818E+02
 20
-1.63285400E+02
 40
5.00000000E-01
 50
0.00000000E+00
 51
9.00000002E+01
  0
ARC
  8
0
  6
PHANTOM
 62
2
 10
1.80439819E+02
 20
-1.63285400E+02
 40
5.00000000E-01
 50
9.00000002E+01
 51
1.80000005E+02
  0
CIRCLE
  8
0
  6
PHANTOM
 62
2
 10
1.73639816E+02
 20
-1.63688141E+02
 40
1.75000000E+00
  0
CIRCLE
  8
0
  6
PHANTOM
 62
2
 10
1.73639816E+02
 20
-1.55688141E+02
 40
1.75000000E+00
  0
ARC
  8
0
  6
PHANTOM
 62
2
 10
1.71139816E+02
 20
-1.52375683E+02
 40
5.00000000E-01
 50
1.79999995E+02
 51
2.70000000E+02
  0
ARC
  8
0
  6
PHANTOM
 62
2
 10
1.85139816E+02
 20
-1.52375683E+02
 40
5.00000000E-01
 50
2.70000000E+02
 51
0.00000000E+00
  0
ARC
  8
0
  6
PHANTOM
 62
2
 10
1.72889816E+02
 20
-1.50075684E+02
 40
5.00000000E-01
 50
1.79999995E+02
 51
2.70000000E+02
  0
ARC
  8
0
  6
PHANTOM
 62
2
 10
1.83389816E+02
 20
-1.50075684E+02
 40
5.00000000E-01
 50
2.70000000E+02
 51
0.00000000E+00
  0
ARC
  8
0
  6
PHANTOM
 62
2
 10
1.72889816E+02
 20
-1.45075684E+02
 40
5.00000000E-01
 50
9.00000002E+01
 51
1.80000005E+02
  0
ARC
  8
0
  6
PHANTOM
 62
2
 10
1.83389816E+02
 20
-1.45075684E+02
 40
5.00000000E-01
 50
0.00000000E+00
 51
9.00000002E+01
  0
ARC
  8
0
  6
PHANTOM
 62
2
 10
1.71139816E+02
 20
-1.46075684E+02
 40
5.00000000E-01
 50
9.00000002E+01
 51
1.80000005E+02
  0
ARC
  8
0
  6
PHANTOM
 62
2
 10
1.71139816E+02
 20
-1.69875683E+02
 40
5.00000000E-01
 50
1.79999995E+02
 51
2.70000000E+02
  0
ARC
  8
0
  6
PHANTOM
 62
2
 10
1.85139816E+02
 20
-1.69875683E+02
 40
5.00000000E-01
 50
2.70000000E+02
 51
0.00000000E+00
  0
ARC
  8
0
  6
PHANTOM
 62
2
 10
1.85139816E+02
 20
-1.46075684E+02
 40
5.00000000E-01
 50
0.00000000E+00
 51
9.00000002E+01
  0
ARC
  8
0
 62
7
 10
1.71139816E+02
 20
-1.87885399E+02
 40
5.00000000E-01
 50
1.79999995E+02
 51
2.70000000E+02
  0
ARC
  8
0
 62
7
 10
1.85139816E+02
 20
-1.87885399E+02
 40
5.00000000E-01
 50
2.70000000E+02
 51
0.00000000E+00
  0
ARC
  8
0
 62
7
 10
1.85139816E+02
 20
-1.70885399E+02
 40
5.00000000E-01
 50
0.00000000E+00
 51
9.00000002E+01
  0
ARC
  8
0
 62
7
 10
1.71139816E+02
 20
-1.70885399E+02
 40
5.00000000E-01
 50
9.00000002E+01
 51
1.80000005E+02
  0
ARC
  8
0
 62
6
 10
1.75139816E+02
 20
-1.13678421E+02
 40
3.00000012E-01
 50
9.00000002E+01
 51
1.80000005E+02
  0
ARC
  8
0
 62
6
 10
1.84539818E+02
 20
-1.13678421E+02
 40
3.00000012E-01
 50
0.00000000E+00
 51
9.00000002E+01
  0
CIRCLE
  8
0
 62
6
 10
1.79839813E+02
 20
-1.35128422E+02
 40
2.04999995E+00
  0
ARC
  8
0
 62
6
 10
1.76339813E+02
 20
-1.36878422E+02
 40
1.60000002E+00
 50
2.70000000E+02
 51
9.00000002E+01
  0
ARC
  8
0
 62
6
 10
1.83339813E+02
 20
-1.36878422E+02
 40
1.60000002E+00
 50
9.00000002E+01
 51
2.70000000E+02
  0
CIRCLE
  8
0
 62
6
 10
1.79839813E+02
 20
-1.35128422E+02
 40
1.85000002E+00
  0
ARC
  8
0
 62
6
 10
1.79839813E+02
 20
-1.35128422E+02
 40
8.00000012E-01
 50
2.20243121E+01
 51
1.57975691E+02
  0
ARC
  8
0
 62
6
 10
1.79839813E+02
 20
-1.35128422E+02
 40
8.00000012E-01
 50
2.02024309E+02
 51
3.37975688E+02
  0
CIRCLE
  8
0
 62
6
 10
1.76339813E+02
 20
-1.36878422E+02
 40
1.50000000E+00
  0
CIRCLE
  8
0
 62
6
 10
1.83339813E+02
 20
-1.36878422E+02
 40
1.50000000E+00
  0
CIRCLE
  8
0
 62
6
 10
2.16239815E+02
 20
-1.26675682E+02
 40
8.75000000E-01
  0
ARC
  8
0
 62
6
 10
2.16239815E+02
 20
-1.26675682E+02
 40
2.00000000E+00
 50
2.70000000E+02
 51
9.00000002E+01
  0
CIRCLE
  8
0
 62
6
 10
2.10439816E+02
 20
-1.26675682E+02
 40
8.75000000E-01
  0
ARC
  8
0
 62
6
 10
2.10439816E+02
 20
-1.26675682E+02
 40
2.00000000E+00
 50
9.00000002E+01
 51
2.70000000E+02
  0
CIRCLE
  8
0
 62
6
 10
2.07039818E+02
 20
-8.90756836E+01
 40
8.75000000E-01
  0
ARC
  8
0
 62
6
 10
2.07039818E+02
 20
-8.90756836E+01
 40
2.00000000E+00
 50
9.00000002E+01
 51
2.70000000E+02
  0
CIRCLE
  8
0
 62
6
 10
2.12839817E+02
 20
-8.90756836E+01
 40
8.75000000E-01
  0
ARC
  8
0
 62
6
 10
2.12839817E+02
 20
-8.90756836E+01
 40
2.00000000E+00
 50
2.70000000E+02
 51
9.00000002E+01
  0
ARC
  8
0
 62
7
 10
2.05944817E+02
 20
-1.42875683E+02
 40
2.50000000E+00
 50
2.33130097E+02
 51
3.06869898E+02
  0
ARC
  8
0
 62
7
 10
2.07539818E+02
 20
-1.44575684E+02
 40
2.00000003E-01
 50
0.00000000E+00
 51
9.00000002E+01
  0
ARC
  8
0
 62
7
 10
2.17334816E+02
 20
-7.28756866E+01
 40
2.50000000E+00
 50
5.31301018E+01
 51
1.26869903E+02
  0
ARC
  8
0
 62
7
 10
2.15739815E+02
 20
-7.11756821E+01
 40
2.00000003E-01
 50
1.79999995E+02
 51
2.70000000E+02
  0
ARC
  8
0
 62
7
 10
2.06639816E+02
 20
-1.00375687E+02
 40
2.70000005E+00
 50
2.70000000E+02
 51
3.12205447E+02
  0
ARC
  8
0
 62
7
 10
2.16639816E+02
 20
-1.14875687E+02
 40
2.70000005E+00
 50
9.00000002E+01
 51
1.46251016E+02
  0
ARC
  8
0
 62
7
 10
2.16639816E+02
 20
-1.14875687E+02
 40
2.50000000E+00
 50
3.12843643E+02
 51
1.43130097E+02
  0
ARC
  8
0
 62
7
 10
2.06639816E+02
 20
-1.00375687E+02
 40
2.50000000E+00
 50
1.32843641E+02
 51
3.06869908E+02
  0
CIRCLE
  8
0
  6
PHANTOM
 62
2
 10
2.16239815E+02
 20
-1.66285398E+02
 40
1.89999998E+00
  0
ARC
  8
0
  6
PHANTOM
 62
2
 10
2.18539818E+02
 20
-1.69585400E+02
 40
5.00000000E-01
 50
2.70000000E+02
 51
0.00000000E+00
  0
ARC
  8
0
  6
PHANTOM
 62
2
 10
2.13939816E+02
 20
-1.69585400E+02
 40
5.00000000E-01
 50
1.79999995E+02
 51
2.70000000E+02
  0
ARC
  8
0
  6
PHANTOM
 62
2
 10
2.18539818E+02
 20
-1.62985401E+02
 40
5.00000000E-01
 50
0.00000000E+00
 51
9.00000002E+01
  0
ARC
  8
0
  6
PHANTOM
 62
2
 10
2.13939816E+02
 20
-1.62985401E+02
 40
5.00000000E-01
 50
9.00000002E+01
 51
1.80000005E+02
  0
CIRCLE
  8
0
  6
PHANTOM
 62
2
 10
2.07139816E+02
 20
-1.63685398E+02
 40
1.75000000E+00
  0
CIRCLE
  8
0
  6
PHANTOM
 62
2
 10
2.07139816E+02
 20
-1.55685398E+02
 40
1.75000000E+00
  0
ARC
  8
0
  6
PHANTOM
 62
2
 10
2.04639816E+02
 20
-1.52185398E+02
 40
5.00000000E-01
 50
1.79999995E+02
 51
2.70000000E+02
  0
ARC
  8
0
  6
PHANTOM
 62
2
 10
2.18639816E+02
 20
-1.52185398E+02
 40
5.00000000E-01
 50
2.70000000E+02
 51
0.00000000E+00
  0
ARC
  8
0
  6
PHANTOM
 62
2
 10
2.06389816E+02
 20
-1.49885399E+02
 40
5.00000000E-01
 50
1.79999995E+02
 51
2.70000000E+02
  0
ARC
  8
0
  6
PHANTOM
 62
2
 10
2.16889816E+02
 20
-1.49885399E+02
 40
5.00000000E-01
 50
2.70000000E+02
 51
0.00000000E+00
  0
ARC
  8
0
  6
PHANTOM
 62
2
 10
2.06389816E+02
 20
-1.44885399E+02
 40
5.00000000E-01
 50
9.00000002E+01
 51
1.80000005E+02
  0
ARC
  8
0
  6
PHANTOM
 62
2
 10
2.16889816E+02
 20
-1.44885399E+02
 40
5.00000000E-01
 50
0.00000000E+00
 51
9.00000002E+01
  0
ARC
  8
0
  6
PHANTOM
 62
2
 10
2.04639816E+02
 20
-1.45885399E+02
 40
5.00000000E-01
 50
9.00000002E+01
 51
1.80000005E+02
  0
ARC
  8
0
  6
PHANTOM
 62
2
 10
2.04639816E+02
 20
-1.69685400E+02
 40
5.00000000E-01
 50
1.79999995E+02
 51
2.70000000E+02
  0
ARC
  8
0
  6
PHANTOM
 62
2
 10
2.18639816E+02
 20
-1.69685400E+02
 40
5.00000000E-01
 50
2.70000000E+02
 51
0.00000000E+00
  0
ARC
  8
0
  6
PHANTOM
 62
2
 10
2.18639816E+02
 20
-1.45885399E+02
 40
5.00000000E-01
 50
0.00000000E+00
 51
9.00000002E+01
  0
CIRCLE
  8
0
 62
7
 10
2.11639816E+02
 20
-1.82672943E+02
 40
4.94999981E+00
  0
ARC
  8
0
 62
7
 10
2.04639816E+02
 20
-1.87882660E+02
 40
5.00000000E-01
 50
1.79999995E+02
 51
2.70000000E+02
  0
ARC
  8
0
 62
7
 10
2.18639816E+02
 20
-1.87882660E+02
 40
5.00000000E-01
 50
2.70000000E+02
 51
0.00000000E+00
  0
ARC
  8
0
 62
7
 10
2.18639816E+02
 20
-1.70882660E+02
 40
5.00000000E-01
 50
0.00000000E+00
 51
9.00000002E+01
  0
ARC
  8
0
 62
7
 10
2.04639816E+02
 20
-1.70882660E+02
 40
5.00000000E-01
 50
9.00000002E+01
 51
1.80000005E+02
  0
ARC
  8
0
 62
7
 10
2.05239815E+02
 20
-1.02075684E+02
 40
3.00000012E-01
 50
1.79999995E+02
 51
2.70000000E+02
  0
ARC
  8
0
 62
6
 10
2.14639816E+02
 20
-1.02075684E+02
 40
3.00000012E-01
 50
2.70000000E+02
 51
0.00000000E+00
  0
CIRCLE
  8
0
 62
6
 10
2.09939816E+02
 20
-8.06256866E+01
 40
2.04999995E+00
  0
ARC
  8
0
 62
6
 10
2.06439816E+02
 20
-7.88756866E+01
 40
1.60000002E+00
 50
2.70000000E+02
 51
9.00000002E+01
  0
ARC
  8
0
 62
6
 10
2.13439816E+02
 20
-7.88756866E+01
 40
1.60000002E+00
 50
9.00000002E+01
 51
2.70000000E+02
  0
CIRCLE
  8
0
 62
6
 10
2.09939816E+02
 20
-8.06256866E+01
 40
1.85000002E+00
  0
ARC
  8
0
 62
6
 10
2.09939816E+02
 20
-8.06256866E+01
 40
8.00000012E-01
 50
2.02024309E+02
 51
3.37975688E+02
  0
ARC
  8
0
 62
6
 10
2.09939816E+02
 20
-8.06256866E+01
 40
8.00000012E-01
 50
2.20243121E+01
 51
1.57975691E+02
  0
CIRCLE
  8
0
 62
6
 10
2.06439816E+02
 20
-7.88756866E+01
 40
1.50000000E+00
  0
CIRCLE
  8
0
 62
6
 10
2.13439816E+02
 20
-7.88756866E+01
 40
1.50000000E+00
  0
ARC
  8
0
 62
6
 10
2.08639816E+02
 20
-1.13675682E+02
 40
3.00000012E-01
 50
9.00000002E+01
 51
1.80000005E+02
  0
ARC
  8
0
 62
6
 10
2.18039818E+02
 20
-1.13675682E+02
 40
3.00000012E-01
 50
0.00000000E+00
 51
9.00000002E+01
  0
CIRCLE
  8
0
 62
6
 10
2.13339817E+02
 20
-1.35125683E+02
 40
2.04999995E+00
  0
ARC
  8
0
 62
6
 10
2.09839817E+02
 20
-1.36875683E+02
 40
1.60000002E+00
 50
2.70000000E+02
 51
9.00000002E+01
  0
ARC
  8
0
 62
6
 10
2.16839817E+02
 20
-1.36875683E+02
 40
1.60000002E+00
 50
9.00000002E+01
 51
2.70000000E+02
  0
CIRCLE
  8
0
 62
6
 10
2.13339817E+02
 20
-1.35125683E+02
 40
1.85000002E+00
  0
ARC
  8
0
 62
6
 10
2.13339817E+02
 20
-1.35125683E+02
 40
8.00000012E-01
 50
2.20243121E+01
 51
1.57975691E+02
  0
ARC
  8
0
 62
6
 10
2.13339817E+02
 20
-1.35125683E+02
 40
8.00000012E-01
 50
2.02024309E+02
 51
3.37975688E+02
  0
CIRCLE
  8
0
 62
6
 10
2.09839817E+02
 20
-1.36875683E+02
 40
1.50000000E+00
  0
CIRCLE
  8
0
 62
6
 10
2.16839817E+02
 20
-1.36875683E+02
 40
1.50000000E+00
  0
CIRCLE
  8
0
 62
6
 10
2.00239815E+02
 20
-1.26675682E+02
 40
8.75000000E-01
  0
ARC
  8
0
 62
6
 10
2.00239815E+02
 20
-1.26675682E+02
 40
2.00000000E+00
 50
2.70000000E+02
 51
9.00000002E+01
  0
CIRCLE
  8
0
 62
6
 10
1.94439816E+02
 20
-1.26675682E+02
 40
8.75000000E-01
  0
ARC
  8
0
 62
6
 10
1.94439816E+02
 20
-1.26675682E+02
 40
2.00000000E+00
 50
9.00000002E+01
 51
2.70000000E+02
  0
CIRCLE
  8
0
 62
6
 10
1.91039818E+02
 20
-8.90756836E+01
 40
8.75000000E-01
  0
ARC
  8
0
 62
6
 10
1.91039818E+02
 20
-8.90756836E+01
 40
2.00000000E+00
 50
9.00000002E+01
 51
2.70000000E+02
  0
CIRCLE
  8
0
 62
6
 10
1.96839817E+02
 20
-8.90756836E+01
 40
8.75000000E-01
  0
ARC
  8
0
 62
6
 10
1.96839817E+02
 20
-8.90756836E+01
 40
2.00000000E+00
 50
2.70000000E+02
 51
9.00000002E+01
  0
ARC
  8
0
 62
7
 10
1.89944817E+02
 20
-1.42875683E+02
 40
2.50000000E+00
 50
2.33130097E+02
 51
3.06869898E+02
  0
ARC
  8
0
 62
7
 10
1.91539818E+02
 20
-1.44575684E+02
 40
2.00000003E-01
 50
0.00000000E+00
 51
9.00000002E+01
  0
ARC
  8
0
 62
7
 10
2.01334816E+02
 20
-7.28756866E+01
 40
2.50000000E+00
 50
5.31301018E+01
 51
1.26869903E+02
  0
ARC
  8
0
 62
7
 10
1.99739815E+02
 20
-7.11756821E+01
 40
2.00000003E-01
 50
1.79999995E+02
 51
2.70000000E+02
  0
ARC
  8
0
 62
7
 10
1.90639816E+02
 20
-1.00375687E+02
 40
2.70000005E+00
 50
2.70000000E+02
 51
3.12205447E+02
  0
ARC
  8
0
 62
7
 10
2.00639816E+02
 20
-1.14875687E+02
 40
2.70000005E+00
 50
9.00000002E+01
 51
1.46251016E+02
  0
ARC
  8
0
 62
7
 10
2.00639816E+02
 20
-1.14875687E+02
 40
2.50000000E+00
 50
3.12843643E+02
 51
1.43130097E+02
  0
ARC
  8
0
 62
7
 10
1.90639816E+02
 20
-1.00375687E+02
 40
2.50000000E+00
 50
1.32843641E+02
 51
3.06869908E+02
  0
CIRCLE
  8
0
  6
PHANTOM
 62
2
 10
2.00239815E+02
 20
-1.66285398E+02
 40
1.89999998E+00
  0
ARC
  8
0
  6
PHANTOM
 62
2
 10
2.02539818E+02
 20
-1.69585400E+02
 40
5.00000000E-01
 50
2.70000000E+02
 51
0.00000000E+00
  0
ARC
  8
0
  6
PHANTOM
 62
2
 10
1.97939816E+02
 20
-1.69585400E+02
 40
5.00000000E-01
 50
1.79999995E+02
 51
2.70000000E+02
  0
ARC
  8
0
  6
PHANTOM
 62
2
 10
2.02539818E+02
 20
-1.62985401E+02
 40
5.00000000E-01
 50
0.00000000E+00
 51
9.00000002E+01
  0
ARC
  8
0
  6
PHANTOM
 62
2
 10
1.97939816E+02
 20
-1.62985401E+02
 40
5.00000000E-01
 50
9.00000002E+01
 51
1.80000005E+02
  0
CIRCLE
  8
0
  6
PHANTOM
 62
2
 10
1.91139816E+02
 20
-1.63685398E+02
 40
1.75000000E+00
  0
CIRCLE
  8
0
  6
PHANTOM
 62
2
 10
1.91139816E+02
 20
-1.55685398E+02
 40
1.75000000E+00
  0
ARC
  8
0
  6
PHANTOM
 62
2
 10
1.88639816E+02
 20
-1.52185398E+02
 40
5.00000000E-01
 50
1.79999995E+02
 51
2.70000000E+02
  0
ARC
  8
0
  6
PHANTOM
 62
2
 10
2.02639816E+02
 20
-1.52185398E+02
 40
5.00000000E-01
 50
2.70000000E+02
 51
0.00000000E+00
  0
ARC
  8
0
  6
PHANTOM
 62
2
 10
1.90389816E+02
 20
-1.49885399E+02
 40
5.00000000E-01
 50
1.79999995E+02
 51
2.70000000E+02
  0
ARC
  8
0
  6
PHANTOM
 62
2
 10
2.00889816E+02
 20
-1.49885399E+02
 40
5.00000000E-01
 50
2.70000000E+02
 51
0.00000000E+00
  0
ARC
  8
0
  6
PHANTOM
 62
2
 10
1.90389816E+02
 20
-1.44885399E+02
 40
5.00000000E-01
 50
9.00000002E+01
 51
1.80000005E+02
  0
ARC
  8
0
  6
PHANTOM
 62
2
 10
2.00889816E+02
 20
-1.44885399E+02
 40
5.00000000E-01
 50
0.00000000E+00
 51
9.00000002E+01
  0
ARC
  8
0
  6
PHANTOM
 62
2
 10
1.88639816E+02
 20
-1.45885399E+02
 40
5.00000000E-01
 50
9.00000002E+01
 51
1.80000005E+02
  0
ARC
  8
0
  6
PHANTOM
 62
2
 10
1.88639816E+02
 20
-1.69685400E+02
 40
5.00000000E-01
 50
1.79999995E+02
 51
2.70000000E+02
  0
ARC
  8
0
  6
PHANTOM
 62
2
 10
2.02639816E+02
 20
-1.69685400E+02
 40
5.00000000E-01
 50
2.70000000E+02
 51
0.00000000E+00
  0
ARC
  8
0
  6
PHANTOM
 62
2
 10
2.02639816E+02
 20
-1.45885399E+02
 40
5.00000000E-01
 50
0.00000000E+00
 51
9.00000002E+01
  0
CIRCLE
  8
0
 62
7
 10
1.95639816E+02
 20
-1.82672943E+02
 40
4.94999981E+00
  0
ARC
  8
0
 62
7
 10
1.88639816E+02
 20
-1.87882660E+02
 40
5.00000000E-01
 50
1.79999995E+02
 51
2.70000000E+02
  0
ARC
  8
0
 62
7
 10
2.02639816E+02
 20
-1.87882660E+02
 40
5.00000000E-01
 50
2.70000000E+02
 51
0.00000000E+00
  0
ARC
  8
0
 62
7
 10
2.02639816E+02
 20
-1.70882660E+02
 40
5.00000000E-01
 50
0.00000000E+00
 51
9.00000002E+01
  0
ARC
  8
0
 62
7
 10
1.88639816E+02
 20
-1.70882660E+02
 40
5.00000000E-01
 50
9.00000002E+01
 51
1.80000005E+02
  0
ARC
  8
0
 62
7
 10
1.89239815E+02
 20
-1.02075684E+02
 40
3.00000012E-01
 50
1.79999995E+02
 51
2.70000000E+02
  0
ARC
  8
0
 62
6
 10
1.98639816E+02
 20
-1.02075684E+02
 40
3.00000012E-01
 50
2.70000000E+02
 51
0.00000000E+00
  0
CIRCLE
  8
0
 62
6
 10
1.93939816E+02
 20
-8.06256866E+01
 40
2.04999995E+00
  0
ARC
  8
0
 62
6
 10
1.90439816E+02
 20
-7.88756866E+01
 40
1.60000002E+00
 50
2.70000000E+02
 51
9.00000002E+01
  0
ARC
  8
0
 62
6
 10
1.97439816E+02
 20
-7.88756866E+01
 40
1.60000002E+00
 50
9.00000002E+01
 51
2.70000000E+02
  0
CIRCLE
  8
0
 62
6
 10
1.93939816E+02
 20
-8.06256866E+01
 40
1.85000002E+00
  0
ARC
  8
0
 62
6
 10
1.93939816E+02
 20
-8.06256866E+01
 40
8.00000012E-01
 50
2.02024309E+02
 51
3.37975688E+02
  0
ARC
  8
0
 62
6
 10
1.93939816E+02
 20
-8.06256866E+01
 40
8.00000012E-01
 50
2.20243121E+01
 51
1.57975691E+02
  0
CIRCLE
  8
0
 62
6
 10
1.90439816E+02
 20
-7.88756866E+01
 40
1.50000000E+00
  0
CIRCLE
  8
0
 62
6
 10
1.97439816E+02
 20
-7.88756866E+01
 40
1.50000000E+00
  0
ARC
  8
0
 62
6
 10
1.92639816E+02
 20
-1.13675682E+02
 40
3.00000012E-01
 50
9.00000002E+01
 51
1.80000005E+02
  0
ARC
  8
0
 62
6
 10
2.02039818E+02
 20
-1.13675682E+02
 40
3.00000012E-01
 50
0.00000000E+00
 51
9.00000002E+01
  0
CIRCLE
  8
0
 62
6
 10
1.97339817E+02
 20
-1.35125683E+02
 40
2.04999995E+00
  0
ARC
  8
0
 62
6
 10
1.93839817E+02
 20
-1.36875683E+02
 40
1.60000002E+00
 50
2.70000000E+02
 51
9.00000002E+01
  0
ARC
  8
0
 62
6
 10
2.00839817E+02
 20
-1.36875683E+02
 40
1.60000002E+00
 50
9.00000002E+01
 51
2.70000000E+02
  0
CIRCLE
  8
0
 62
6
 10
1.97339817E+02
 20
-1.35125683E+02
 40
1.85000002E+00
  0
ARC
  8
0
 62
6
 10
1.97339817E+02
 20
-1.35125683E+02
 40
8.00000012E-01
 50
2.20243121E+01
 51
1.57975691E+02
  0
ARC
  8
0
 62
6
 10
1.97339817E+02
 20
-1.35125683E+02
 40
8.00000012E-01
 50
2.02024309E+02
 51
3.37975688E+02
  0
CIRCLE
  8
0
 62
6
 10
1.93839817E+02
 20
-1.36875683E+02
 40
1.50000000E+00
  0
CIRCLE
  8
0
 62
6
 10
2.00839817E+02
 20
-1.36875683E+02
 40
1.50000000E+00
  0
CIRCLE
  8
0
 62
6
 10
2.39039816E+02
 20
-8.90659637E+01
 40
8.75000000E-01
  0
ARC
  8
0
 62
6
 10
2.39039816E+02
 20
-8.90659637E+01
 40
2.00000000E+00
 50
2.70000000E+02
 51
9.00000002E+01
  0
CIRCLE
  8
0
 62
6
 10
2.33239817E+02
 20
-8.90659637E+01
 40
8.75000000E-01
  0
ARC
  8
0
 62
6
 10
2.33239817E+02
 20
-8.90659637E+01
 40
2.00000000E+00
 50
9.00000002E+01
 51
2.70000000E+02
  0
CIRCLE
  8
0
 62
6
 10
2.39039816E+02
 20
-1.26675682E+02
 40
8.75000000E-01
  0
ARC
  8
0
 62
6
 10
2.39039816E+02
 20
-1.26675682E+02
 40
2.00000000E+00
 50
2.70000000E+02
 51
9.00000002E+01
  0
CIRCLE
  8
0
 62
6
 10
2.33239817E+02
 20
-1.26675682E+02
 40
8.75000000E-01
  0
ARC
  8
0
 62
6
 10
2.33239817E+02
 20
-1.26675682E+02
 40
2.00000000E+00
 50
9.00000002E+01
 51
2.70000000E+02
  0
ARC
  8
0
 62
6
 10
2.31439816E+02
 20
-1.13675682E+02
 40
3.00000012E-01
 50
9.00000002E+01
 51
1.80000005E+02
  0
ARC
  8
0
 62
6
 10
2.40839816E+02
 20
-1.13675682E+02
 40
3.00000012E-01
 50
0.00000000E+00
 51
9.00000002E+01
  0
CIRCLE
  8
0
 62
6
 10
2.36139816E+02
 20
-1.35125683E+02
 40
2.04999995E+00
  0
ARC
  8
0
 62
6
 10
2.32639816E+02
 20
-1.36875683E+02
 40
1.60000002E+00
 50
2.70000000E+02
 51
9.00000002E+01
  0
ARC
  8
0
 62
6
 10
2.39639816E+02
 20
-1.36875683E+02
 40
1.60000002E+00
 50
9.00000002E+01
 51
2.70000000E+02
  0
CIRCLE
  8
0
 62
6
 10
2.36139816E+02
 20
-1.35125683E+02
 40
1.85000002E+00
  0
ARC
  8
0
 62
6
 10
2.36139816E+02
 20
-1.35125683E+02
 40
8.00000012E-01
 50
2.20243121E+01
 51
1.57975691E+02
  0
ARC
  8
0
 62
6
 10
2.36139816E+02
 20
-1.35125683E+02
 40
8.00000012E-01
 50
2.02024309E+02
 51
3.37975688E+02
  0
CIRCLE
  8
0
 62
6
 10
2.32639816E+02
 20
-1.36875683E+02
 40
1.50000000E+00
  0
CIRCLE
  8
0
 62
6
 10
2.39639816E+02
 20
-1.36875683E+02
 40
1.50000000E+00
  0
ARC
  8
0
 62
6
 10
2.31439816E+02
 20
-1.02065964E+02
 40
3.00000012E-01
 50
1.79999995E+02
 51
2.70000000E+02
  0
ARC
  8
0
 62
6
 10
2.40839816E+02
 20
-1.02065964E+02
 40
3.00000012E-01
 50
2.70000000E+02
 51
0.00000000E+00
  0
CIRCLE
  8
0
 62
6
 10
2.36139816E+02
 20
-8.06159668E+01
 40
2.04999995E+00
  0
ARC
  8
0
 62
6
 10
2.32639816E+02
 20
-7.88659668E+01
 40
1.60000002E+00
 50
2.70000000E+02
 51
9.00000002E+01
  0
ARC
  8
0
 62
6
 10
2.39639816E+02
 20
-7.88659668E+01
 40
1.60000002E+00
 50
9.00000002E+01
 51
2.70000000E+02
  0
CIRCLE
  8
0
 62
6
 10
2.36139816E+02
 20
-8.06159668E+01
 40
1.89999998E+00
  0
CIRCLE
  8
0
 62
6
 10
2.36139816E+02
 20
-8.06159668E+01
 40
1.85000002E+00
  0
ARC
  8
0
 62
6
 10
2.36139816E+02
 20
-8.06159668E+01
 40
8.00000012E-01
 50
2.02024309E+02
 51
3.37975688E+02
  0
ARC
  8
0
 62
6
 10
2.36139816E+02
 20
-8.06159668E+01
 40
8.00000012E-01
 50
2.20243121E+01
 51
1.57975691E+02
  0
CIRCLE
  8
0
 62
6
 10
2.32639816E+02
 20
-7.88659668E+01
 40
1.50000000E+00
  0
CIRCLE
  8
0
 62
6
 10
2.39639816E+02
 20
-7.88659668E+01
 40
1.50000000E+00
  0
CIRCLE
  8
0
  6
PHANTOM
 62
2
 10
2.34539816E+02
 20
-1.48624313E+02
 40
3.00000012E-01
  0
CIRCLE
  8
0
  6
PHANTOM
 62
2
 10
2.34039816E+02
 20
-1.48124313E+02
 40
1.89999998E+00
  0
CIRCLE
  8
0
  6
PHANTOM
 62
2
 10
2.34039816E+02
 20
-1.53474312E+02
 40
1.89999998E+00
  0
CIRCLE
  8
0
  6
PHANTOM
 62
2
 10
2.34039816E+02
 20
-1.61274315E+02
 40
1.89999998E+00
  0
CIRCLE
  8
0
  6
PHANTOM
 62
2
 10
2.34039816E+02
 20
-1.48124313E+02
 40
2.40000010E+00
  0
CIRCLE
  8
0
  6
PHANTOM
 62
2
 10
2.34039816E+02
 20
-1.48124313E+02
 40
1.20000005E+00
  0
CIRCLE
  8
0
  6
PHANTOM
 62
2
 10
2.34539816E+02
 20
-1.47624313E+02
 40
3.00000012E-01
  0
CIRCLE
  8
0
  6
PHANTOM
 62
2
 10
2.33539816E+02
 20
-1.47624313E+02
 40
3.00000012E-01
  0
CIRCLE
  8
0
  6
PHANTOM
 62
2
 10
2.33539816E+02
 20
-1.48624313E+02
 40
3.00000012E-01
  0
CIRCLE
  8
0
 62
7
 10
2.36139816E+02
 20
-1.81372943E+02
 40
4.94999981E+00
  0
CIRCLE
  8
0
 62
2
 10
2.36139816E+02
 20
-1.69772943E+02
 40
1.00000000E+00
  0
ARC
  8
0
 62
7
 10
2.40639816E+02
 20
-1.65872944E+02
 40
5.00000000E-01
 50
0.00000000E+00
 51
9.00000002E+01
  0
ARC
  8
0
 62
7
 10
2.31639816E+02
 20
-1.65872944E+02
 40
5.00000000E-01
 50
9.00000002E+01
 51
1.80000005E+02
  0
ARC
  8
0
 62
7
 10
2.31639816E+02
 20
-1.87872943E+02
 40
5.00000000E-01
 50
1.79999995E+02
 51
2.70000000E+02
  0
ARC
  8
0
 62
7
 10
2.40639816E+02
 20
-1.87872943E+02
 40
5.00000000E-01
 50
2.70000000E+02
 51
0.00000000E+00
  0
ARC
  8
0
 62
7
 10
2.39639816E+02
 20
-7.88659668E+01
 40
1.70000005E+00
 50
3.31927512E+02
 51
2.80724873E+01
  0
ARC
  8
0
 62
7
 10
2.32639816E+02
 20
-7.88659668E+01
 40
1.70000005E+00
 50
1.51927518E+02
 51
2.08072492E+02
  0
CIRCLE
  8
0
 62
6
 10
2.28039816E+02
 20
-8.90659637E+01
 40
8.75000000E-01
  0
ARC
  8
0
 62
6
 10
2.28039816E+02
 20
-8.90659637E+01
 40
2.00000000E+00
 50
2.70000000E+02
 51
9.00000002E+01
  0
CIRCLE
  8
0
 62
6
 10
2.22239817E+02
 20
-8.90659637E+01
 40
8.75000000E-01
  0
ARC
  8
0
 62
6
 10
2.22239817E+02
 20
-8.90659637E+01
 40
2.00000000E+00
 50
9.00000002E+01
 51
2.70000000E+02
  0
CIRCLE
  8
0
 62
6
 10
2.28039816E+02
 20
-1.26675682E+02
 40
8.75000000E-01
  0
ARC
  8
0
 62
6
 10
2.28039816E+02
 20
-1.26675682E+02
 40
2.00000000E+00
 50
2.70000000E+02
 51
9.00000002E+01
  0
CIRCLE
  8
0
 62
6
 10
2.22239817E+02
 20
-1.26675682E+02
 40
8.75000000E-01
  0
ARC
  8
0
 62
6
 10
2.22239817E+02
 20
-1.26675682E+02
 40
2.00000000E+00
 50
9.00000002E+01
 51
2.70000000E+02
  0
ARC
  8
0
 62
6
 10
2.20439816E+02
 20
-1.13675682E+02
 40
3.00000012E-01
 50
9.00000002E+01
 51
1.80000005E+02
  0
ARC
  8
0
 62
6
 10
2.29839817E+02
 20
-1.13675682E+02
 40
3.00000012E-01
 50
0.00000000E+00
 51
9.00000002E+01
  0
CIRCLE
  8
0
 62
6
 10
2.25139816E+02
 20
-1.35125683E+02
 40
2.04999995E+00
  0
ARC
  8
0
 62
6
 10
2.21639816E+02
 20
-1.36875683E+02
 40
1.60000002E+00
 50
2.70000000E+02
 51
9.00000002E+01
  0
ARC
  8
0
 62
6
 10
2.28639816E+02
 20
-1.36875683E+02
 40
1.60000002E+00
 50
9.00000002E+01
 51
2.70000000E+02
  0
CIRCLE
  8
0
 62
6
 10
2.25139816E+02
 20
-1.35125683E+02
 40
1.85000002E+00
  0
ARC
  8
0
 62
6
 10
2.25139816E+02
 20
-1.35125683E+02
 40
8.00000012E-01
 50
2.20243121E+01
 51
1.57975691E+02
  0
ARC
  8
0
 62
6
 10
2.25139816E+02
 20
-1.35125683E+02
 40
8.00000012E-01
 50
2.02024309E+02
 51
3.37975688E+02
  0
CIRCLE
  8
0
 62
6
 10
2.21639816E+02
 20
-1.36875683E+02
 40
1.50000000E+00
  0
CIRCLE
  8
0
 62
6
 10
2.28639816E+02
 20
-1.36875683E+02
 40
1.50000000E+00
  0
ARC
  8
0
 62
6
 10
2.20439816E+02
 20
-1.02065964E+02
 40
3.00000012E-01
 50
1.79999995E+02
 51
2.70000000E+02
  0
ARC
  8
0
 62
6
 10
2.29839817E+02
 20
-1.02065964E+02
 40
3.00000012E-01
 50
2.70000000E+02
 51
0.00000000E+00
  0
CIRCLE
  8
0
 62
6
 10
2.25139816E+02
 20
-8.06159668E+01
 40
2.04999995E+00
  0
ARC
  8
0
 62
6
 10
2.21639816E+02
 20
-7.88659668E+01
 40
1.60000002E+00
 50
2.70000000E+02
 51
9.00000002E+01
  0
ARC
  8
0
 62
6
 10
2.28639816E+02
 20
-7.88659668E+01
 40
1.60000002E+00
 50
9.00000002E+01
 51
2.70000000E+02
  0
CIRCLE
  8
0
 62
6
 10
2.25139816E+02
 20
-8.06159668E+01
 40
1.89999998E+00
  0
CIRCLE
  8
0
 62
6
 10
2.25139816E+02
 20
-8.06159668E+01
 40
1.85000002E+00
  0
ARC
  8
0
 62
6
 10
2.25139816E+02
 20
-8.06159668E+01
 40
8.00000012E-01
 50
2.02024309E+02
 51
3.37975688E+02
  0
ARC
  8
0
 62
6
 10
2.25139816E+02
 20
-8.06159668E+01
 40
8.00000012E-01
 50
2.20243121E+01
 51
1.57975691E+02
  0
CIRCLE
  8
0
 62
6
 10
2.21639816E+02
 20
-7.88659668E+01
 40
1.50000000E+00
  0
CIRCLE
  8
0
 62
6
 10
2.28639816E+02
 20
-7.88659668E+01
 40
1.50000000E+00
  0
CIRCLE
  8
0
  6
PHANTOM
 62
2
 10
2.23539816E+02
 20
-1.48624313E+02
 40
3.00000012E-01
  0
CIRCLE
  8
0
  6
PHANTOM
 62
2
 10
2.23039816E+02
 20
-1.48124313E+02
 40
1.89999998E+00
  0
CIRCLE
  8
0
  6
PHANTOM
 62
2
 10
2.23039816E+02
 20
-1.53474312E+02
 40
1.89999998E+00
  0
CIRCLE
  8
0
  6
PHANTOM
 62
2
 10
2.23039816E+02
 20
-1.61274315E+02
 40
1.89999998E+00
  0
CIRCLE
  8
0
  6
PHANTOM
 62
2
 10
2.23039816E+02
 20
-1.48124313E+02
 40
2.40000010E+00
  0
CIRCLE
  8
0
  6
PHANTOM
 62
2
 10
2.23039816E+02
 20
-1.48124313E+02
 40
1.20000005E+00
  0
CIRCLE
  8
0
  6
PHANTOM
 62
2
 10
2.23539816E+02
 20
-1.47624313E+02
 40
3.00000012E-01
  0
CIRCLE
  8
0
  6
PHANTOM
 62
2
 10
2.22539816E+02
 20
-1.47624313E+02
 40
3.00000012E-01
  0
CIRCLE
  8
0
  6
PHANTOM
 62
2
 10
2.22539816E+02
 20
-1.48624313E+02
 40
3.00000012E-01
  0
CIRCLE
  8
0
 62
7
 10
2.25139816E+02
 20
-1.81372943E+02
 40
4.94999981E+00
  0
CIRCLE
  8
0
 62
2
 10
2.25139816E+02
 20
-1.69772943E+02
 40
1.00000000E+00
  0
ARC
  8
0
 62
7
 10
2.29639816E+02
 20
-1.65872944E+02
 40
5.00000000E-01
 50
0.00000000E+00
 51
9.00000002E+01
  0
ARC
  8
0
 62
7
 10
2.20639816E+02
 20
-1.65872944E+02
 40
5.00000000E-01
 50
9.00000002E+01
 51
1.80000005E+02
  0
ARC
  8
0
 62
7
 10
2.20639816E+02
 20
-1.87872943E+02
 40
5.00000000E-01
 50
1.79999995E+02
 51
2.70000000E+02
  0
ARC
  8
0
 62
7
 10
2.29639816E+02
 20
-1.87872943E+02
 40
5.00000000E-01
 50
2.70000000E+02
 51
0.00000000E+00
  0
ARC
  8
0
 62
7
 10
2.28639816E+02
 20
-7.88659668E+01
 40
1.70000005E+00
 50
3.31927512E+02
 51
2.80724873E+01
  0
ARC
  8
0
 62
7
 10
2.21639816E+02
 20
-7.88659668E+01
 40
1.70000005E+00
 50
1.51927518E+02
 51
2.08072492E+02
  0
CIRCLE
  8
0
  6
PHANTOM
 62
2
 10
2.00239815E+02
 20
-1.66285398E+02
 40
1.20000005E+00
  0
CIRCLE
  8
0
  6
PHANTOM
 62
2
 10
2.00739815E+02
 20
-1.65785398E+02
 40
3.00000012E-01
  0
CIRCLE
  8
0
  6
PHANTOM
 62
2
 10
2.00739815E+02
 20
-1.66785398E+02
 40
3.00000012E-01
  0
CIRCLE
  8
0
  6
PHANTOM
 62
2
 10
1.99739815E+02
 20
-1.66785398E+02
 40
3.00000012E-01
  0
CIRCLE
  8
0
  6
PHANTOM
 62
2
 10
1.99739815E+02
 20
-1.65785398E+02
 40
3.00000012E-01
  0
CIRCLE
  8
0
  6
PHANTOM
 62
2
 10
2.16239815E+02
 20
-1.66285398E+02
 40
1.20000005E+00
  0
CIRCLE
  8
0
  6
PHANTOM
 62
2
 10
2.16739815E+02
 20
-1.65785398E+02
 40
3.00000012E-01
  0
CIRCLE
  8
0
  6
PHANTOM
 62
2
 10
2.16739815E+02
 20
-1.66785398E+02
 40
3.00000012E-01
  0
CIRCLE
  8
0
  6
PHANTOM
 62
2
 10
2.15739815E+02
 20
-1.66785398E+02
 40
3.00000012E-01
  0
CIRCLE
  8
0
  6
PHANTOM
 62
2
 10
2.15739815E+02
 20
-1.65785398E+02
 40
3.00000012E-01
  0
LINE
  8
0
  6
CENTER
 62
2
 10
-1.22650024E+02
 20
9.60340409E+01
 11
-1.18854713E+02
 21
9.60340409E+01
  0
LINE
  8
0
 62
7
 10
-1.22260185E+02
 20
9.87840409E+01
 11
-1.19260185E+02
 21
9.87840409E+01
  0
LINE
  8
0
 62
7
 10
-1.22260185E+02
 20
9.32840405E+01
 11
-1.19260185E+02
 21
9.32840405E+01
  0
LINE
  8
0
 62
7
 10
-1.19260185E+02
 20
9.32840405E+01
 11
-1.19260185E+02
 21
9.87840409E+01
  0
LINE
  8
0
  6
CENTER
 62
2
 10
-1.22650024E+02
 20
6.72340393E+01
 11
-1.18854713E+02
 21
6.72340393E+01
  0
LINE
  8
0
 62
7
 10
-1.22260185E+02
 20
6.99840393E+01
 11
-1.19260185E+02
 21
6.99840393E+01
  0
LINE
  8
0
 62
7
 10
-1.22260185E+02
 20
6.44840393E+01
 11
-1.19260185E+02
 21
6.44840393E+01
  0
LINE
  8
0
 62
7
 10
-1.19260185E+02
 20
6.44840393E+01
 11
-1.19260185E+02
 21
6.99840393E+01
  0
LINE
  8
0
 62
7
 10
-2.11360184E+02
 20
7.40340405E+01
 11
-2.11110184E+02
 21
7.40340405E+01
  0
LINE
  8
0
 62
7
 10
-2.11360184E+02
 20
8.50340405E+01
 11
-2.11110184E+02
 21
8.50340405E+01
  0
LINE
  8
0
  6
CENTER
 62
2
 10
-2.27470343E+02
 20
6.72340393E+01
 11
-2.31265652E+02
 21
6.72340393E+01
  0
LINE
  8
0
 62
7
 10
-2.27860184E+02
 20
6.99840393E+01
 11
-2.30860184E+02
 21
6.99840393E+01
  0
LINE
  8
0
 62
7
 10
-2.27860184E+02
 20
6.44840393E+01
 11
-2.30860184E+02
 21
6.44840393E+01
  0
LINE
  8
0
 62
7
 10
-2.30860184E+02
 20
6.44840393E+01
 11
-2.30860184E+02
 21
6.99840393E+01
  0
LINE
  8
0
 62
7
 10
-2.26860184E+02
 20
1.09134041E+02
 11
-2.26860184E+02
 21
5.31340408E+01
  0
LINE
  8
0
 62
7
 10
-2.26860184E+02
 20
5.31340408E+01
 11
-2.17860184E+02
 21
5.31340408E+01
  0
LINE
  8
0
 62
7
 10
-2.27860184E+02
 20
6.41340408E+01
 11
-2.11360184E+02
 21
6.41340408E+01
  0
LINE
  8
0
 62
7
 10
-2.27860184E+02
 20
9.81340408E+01
 11
-2.11360184E+02
 21
9.81340408E+01
  0
LINE
  8
0
 62
7
 10
-2.27860184E+02
 20
9.86840410E+01
 11
-2.27860184E+02
 21
6.41340408E+01
  0
LINE
  8
0
  6
CENTER
 62
2
 10
-2.21860184E+02
 20
5.44579468E+01
 11
-2.21860184E+02
 21
6.35498962E+01
  0
LINE
  8
0
  6
CENTER
 62
2
 10
-2.26465891E+02
 20
5.91340408E+01
 11
-2.17007000E+02
 21
5.91340408E+01
  0
LINE
  8
0
 62
7
 10
-2.17860184E+02
 20
6.41340408E+01
 11
-2.17860184E+02
 21
6.10340424E+01
  0
LINE
  8
0
 62
7
 10
-2.11360184E+02
 20
6.41340408E+01
 11
-2.11360184E+02
 21
9.81340408E+01
  0
LINE
  8
0
 62
7
 10
-1.22260185E+02
 20
6.41340408E+01
 11
-1.38360184E+02
 21
6.41340408E+01
  0
LINE
  8
0
 62
7
 10
-1.22260185E+02
 20
9.81340408E+01
 11
-1.38360184E+02
 21
9.81340408E+01
  0
LINE
  8
0
 62
7
 10
-1.22260185E+02
 20
9.87840409E+01
 11
-1.22260185E+02
 21
6.41340408E+01
  0
LINE
  8
0
 62
7
 10
-1.38360184E+02
 20
6.41340408E+01
 11
-1.38360184E+02
 21
9.81340408E+01
  0
LINE
  8
0
 62
7
 10
-2.35860184E+02
 20
7.23340399E+01
 11
-2.29403613E+02
 21
6.99840399E+01
  0
LINE
  8
0
 62
7
 10
-2.35860183E+02
 20
9.23340408E+01
 11
-2.27860184E+02
 21
9.52458027E+01
  0
LINE
  8
0
 62
7
 10
-2.35860184E+02
 20
9.23340406E+01
 11
-2.35860184E+02
 21
7.23340416E+01
  0
LINE
  8
0
 62
7
 10
-2.27860184E+02
 20
9.86840410E+01
 11
-2.30860184E+02
 21
9.86840410E+01
  0
LINE
  8
0
 62
7
 10
-2.30860184E+02
 20
9.86840410E+01
 11
-2.30860184E+02
 21
9.41538916E+01
  0
LINE
  8
0
 62
7
 10
-2.31062366E+02
 20
9.59340410E+01
 11
-2.27646593E+02
 21
9.59340410E+01
  0
LINE
  8
0
 62
7
 10
-2.21860184E+02
 20
6.31340408E+01
 11
-2.17860184E+02
 21
6.31340408E+01
  0
LINE
  8
0
 62
7
 10
-2.21860184E+02
 20
5.51340408E+01
 11
-2.17860184E+02
 21
5.51340408E+01
  0
LINE
  8
0
  6
CENTER
 62
2
 10
-2.26465891E+02
 20
1.03134041E+02
 11
-2.17007000E+02
 21
1.03134041E+02
  0
LINE
  8
0
 62
7
 10
-2.17860184E+02
 20
9.81340408E+01
 11
-2.17860184E+02
 21
1.01234041E+02
  0
LINE
  8
0
 62
7
 10
-2.21860184E+02
 20
1.07134041E+02
 11
-2.17860184E+02
 21
1.07134041E+02
  0
LINE
  8
0
 62
7
 10
-2.21860184E+02
 20
9.91340408E+01
 11
-2.17860184E+02
 21
9.91340408E+01
  0
LINE
  8
0
  6
CENTER
 62
2
 10
-2.21860184E+02
 20
1.07810137E+02
 11
-2.21860184E+02
 21
9.87181854E+01
  0
LINE
  8
0
 62
7
 10
-2.26860184E+02
 20
1.09134041E+02
 11
-2.17860184E+02
 21
1.09134041E+02
  0
LINE
  8
0
  6
CENTER
 62
2
 10
-1.23254478E+02
 20
1.03134041E+02
 11
-1.32713364E+02
 21
1.03134041E+02
  0
LINE
  8
0
 62
7
 10
-1.31860184E+02
 20
9.81340408E+01
 11
-1.31860184E+02
 21
1.01234041E+02
  0
LINE
  8
0
  6
CENTER
 62
2
 10
-1.27860184E+02
 20
1.07810137E+02
 11
-1.27860184E+02
 21
9.87181854E+01
  0
LINE
  8
0
 62
7
 10
-1.22860184E+02
 20
1.09134041E+02
 11
-1.31860184E+02
 21
1.09134041E+02
  0
LINE
  8
0
 62
7
 10
-1.27860184E+02
 20
9.91340408E+01
 11
-1.31860184E+02
 21
9.91340408E+01
  0
LINE
  8
0
 62
7
 10
-1.27860184E+02
 20
1.07134041E+02
 11
-1.31860184E+02
 21
1.07134041E+02
  0
LINE
  8
0
 62
7
 10
-1.22860184E+02
 20
1.09134041E+02
 11
-1.22860184E+02
 21
5.31340408E+01
  0
LINE
  8
0
  6
CENTER
 62
2
 10
-1.27860184E+02
 20
5.44579468E+01
 11
-1.27860184E+02
 21
6.35498962E+01
  0
LINE
  8
0
 62
7
 10
-1.31860184E+02
 20
6.41340408E+01
 11
-1.31860184E+02
 21
6.10340424E+01
  0
LINE
  8
0
 62
7
 10
-1.27860184E+02
 20
5.51340408E+01
 11
-1.31860184E+02
 21
5.51340408E+01
  0
LINE
  8
0
  6
CENTER
 62
2
 10
-1.23254478E+02
 20
5.91340408E+01
 11
-1.32713364E+02
 21
5.91340408E+01
  0
LINE
  8
0
 62
7
 10
-1.22860184E+02
 20
5.31340408E+01
 11
-1.31860184E+02
 21
5.31340408E+01
  0
LINE
  8
0
 62
7
 10
-1.27860184E+02
 20
6.31340408E+01
 11
-1.31860184E+02
 21
6.31340408E+01
  0
LINE
  8
0
 62
7
 10
-1.38360184E+02
 20
8.50340405E+01
 11
-1.38610184E+02
 21
8.50340405E+01
  0
LINE
  8
0
 62
7
 10
-1.38360184E+02
 20
7.40340405E+01
 11
-1.38610184E+02
 21
7.40340405E+01
  0
LINE
  8
0
  6
CENTER
 62
2
 10
-2.05860184E+02
 20
6.94734650E+01
 11
-2.05860184E+02
 21
1.52901474E+02
  0
LINE
  8
0
  6
CENTER
 62
2
 10
-2.09285184E+02
 20
8.96340408E+01
 11
-2.00535183E+02
 21
8.96340408E+01
  0
LINE
  8
0
 62
7
 10
-2.11060184E+02
 20
1.16634041E+02
 11
-2.00660183E+02
 21
1.16634041E+02
  0
LINE
  8
0
 62
7
 10
-2.00860184E+02
 20
9.81340408E+01
 11
-2.00860184E+02
 21
1.16634041E+02
  0
LINE
  8
0
 62
7
 10
-2.10860184E+02
 20
1.16634041E+02
 11
-2.10860184E+02
 21
9.81340408E+01
  0
LINE
  8
0
 62
7
 10
-2.08860184E+02
 20
1.02634041E+02
 11
-2.10860184E+02
 21
1.02634041E+02
  0
LINE
  8
0
 62
7
 10
-2.02560184E+02
 20
1.08334041E+02
 11
-2.00860184E+02
 21
1.08334041E+02
  0
LINE
  8
0
 62
7
 10
-2.02560184E+02
 20
1.11534040E+02
 11
-2.00860184E+02
 21
1.11534040E+02
  0
LINE
  8
0
 62
7
 10
-2.00660183E+02
 20
1.09934041E+02
 11
-2.00660183E+02
 21
1.16634041E+02
  0
LINE
  8
0
 62
7
 10
-2.11060184E+02
 20
1.16634041E+02
 11
-2.11060184E+02
 21
1.09934041E+02
  0
LINE
  8
0
 62
7
 10
-2.00660183E+02
 20
1.09934041E+02
 11
-2.00860184E+02
 21
1.09934041E+02
  0
LINE
  8
0
 62
7
 10
-2.10860184E+02
 20
1.09934041E+02
 11
-2.11060184E+02
 21
1.09934041E+02
  0
LINE
  8
0
 62
7
 10
-2.08860184E+02
 20
9.94340408E+01
 11
-2.10860184E+02
 21
9.94340408E+01
  0
LINE
  8
0
  6
CENTER
 62
2
 10
-2.04910183E+02
 20
8.52590408E+01
 11
-2.04910183E+02
 21
9.40090408E+01
  0
LINE
  8
0
 62
7
 10
-2.11110184E+02
 20
7.21340408E+01
 11
-2.00610184E+02
 21
7.21340408E+01
  0
LINE
  8
0
 62
7
 10
-2.00610184E+02
 20
7.21340408E+01
 11
-2.00610184E+02
 21
9.81340408E+01
  0
LINE
  8
0
 62
7
 10
-2.11110184E+02
 20
7.21340408E+01
 11
-2.11110184E+02
 21
9.81340408E+01
  0
LINE
  8
0
 62
7
 10
-2.01059076E+02
 20
1.43134041E+02
 11
-2.02310184E+02
 21
1.43134041E+02
  0
LINE
  8
0
 62
7
 10
-2.10810184E+02
 20
1.43434040E+02
 11
-2.10810184E+02
 21
1.49634041E+02
  0
LINE
  8
0
 62
7
 10
-2.02410183E+02
 20
1.51134041E+02
 11
-2.09310184E+02
 21
1.51134041E+02
  0
LINE
  8
0
 62
7
 10
-2.10810184E+02
 20
1.43434039E+02
 11
-2.10510185E+02
 21
1.43134040E+02
  0
LINE
  8
0
 62
7
 10
-2.00859078E+02
 20
1.42935152E+02
 11
-2.00712961E+02
 21
1.16634041E+02
  0
LINE
  8
0
 62
7
 10
-2.11044628E+02
 20
1.09934041E+02
 11
-2.11110184E+02
 21
9.81340406E+01
  0
LINE
  8
0
 62
7
 10
-2.11110184E+02
 20
9.81340408E+01
 11
-2.00610184E+02
 21
9.81340408E+01
  0
LINE
  8
0
 62
7
 10
-2.08082366E+02
 20
1.01811858E+02
 11
-2.09638001E+02
 21
1.00256223E+02
  0
LINE
  8
0
 62
7
 10
-2.09638001E+02
 20
1.01811858E+02
 11
-2.08082367E+02
 21
1.00256223E+02
  0
LINE
  8
0
 62
7
 10
-2.01782367E+02
 20
1.10711858E+02
 11
-2.03338001E+02
 21
1.09156224E+02
  0
LINE
  8
0
 62
7
 10
-2.03338002E+02
 20
1.10711858E+02
 11
-2.01782367E+02
 21
1.09156223E+02
  0
LINE
  8
0
  6
PHANTOM
 62
2
 10
-2.05008373E+02
 20
1.49243105E+02
 11
-2.12384001E+02
 21
1.51225305E+02
  0
LINE
  8
0
  6
PHANTOM
 62
2
 10
-2.05008373E+02
 20
1.48213104E+02
 11
-2.12384001E+02
 21
1.50195304E+02
  0
LINE
  8
0
  6
CENTER
 62
2
 10
-2.08360736E+02
 20
1.40440895E+02
 11
-2.08360736E+02
 21
1.60295181E+02
  0
LINE
  8
0
  6
PHANTOM
 62
2
 10
-2.10060737E+02
 20
1.56589107E+02
 11
-2.09860737E+02
 21
1.56725053E+02
  0
LINE
  8
0
  6
PHANTOM
 62
2
 10
-2.10060737E+02
 20
1.55715168E+02
 11
-2.10060737E+02
 21
1.56589111E+02
  0
LINE
  8
0
  6
PHANTOM
 62
2
 10
-2.09860736E+02
 20
1.55715168E+02
 11
-2.09860736E+02
 21
1.56725056E+02
  0
LINE
  8
0
  6
PHANTOM
 62
2
 10
-2.09060735E+02
 20
1.56589107E+02
 11
-2.08860736E+02
 21
1.56725054E+02
  0
LINE
  8
0
  6
PHANTOM
 62
2
 10
-2.09060737E+02
 20
1.55715168E+02
 11
-2.09060737E+02
 21
1.56589111E+02
  0
LINE
  8
0
  6
PHANTOM
 62
2
 10
-2.08860736E+02
 20
1.55715168E+02
 11
-2.08860736E+02
 21
1.56725056E+02
  0
LINE
  8
0
  6
PHANTOM
 62
2
 10
-2.08060736E+02
 20
1.56589110E+02
 11
-2.07860736E+02
 21
1.56725057E+02
  0
LINE
  8
0
  6
PHANTOM
 62
2
 10
-2.08060737E+02
 20
1.55715168E+02
 11
-2.08060737E+02
 21
1.56589111E+02
  0
LINE
  8
0
  6
PHANTOM
 62
2
 10
-2.07860736E+02
 20
1.55715168E+02
 11
-2.07860736E+02
 21
1.56725056E+02
  0
LINE
  8
0
  6
PHANTOM
 62
2
 10
-2.07060737E+02
 20
1.56589108E+02
 11
-2.06860738E+02
 21
1.56725055E+02
  0
LINE
  8
0
  6
PHANTOM
 62
2
 10
-2.07060737E+02
 20
1.55715168E+02
 11
-2.07060737E+02
 21
1.56589111E+02
  0
LINE
  8
0
  6
PHANTOM
 62
2
 10
-2.06860736E+02
 20
1.55715168E+02
 11
-2.06860736E+02
 21
1.56725056E+02
  0
LINE
  8
0
  6
PHANTOM
 62
2
 10
-2.09710736E+02
 20
1.55715168E+02
 11
-2.10210736E+02
 21
1.55715168E+02
  0
LINE
  8
0
  6
PHANTOM
 62
2
 10
-2.08710736E+02
 20
1.55715168E+02
 11
-2.09210736E+02
 21
1.55715168E+02
  0
LINE
  8
0
  6
PHANTOM
 62
2
 10
-2.07710736E+02
 20
1.55715168E+02
 11
-2.08210736E+02
 21
1.55715168E+02
  0
LINE
  8
0
  6
PHANTOM
 62
2
 10
-2.06710736E+02
 20
1.55715168E+02
 11
-2.07210736E+02
 21
1.55715168E+02
  0
LINE
  8
0
  6
PHANTOM
 62
2
 10
-2.10210736E+02
 20
1.53834595E+02
 11
-2.10210736E+02
 21
1.55715168E+02
  0
LINE
  8
0
  6
PHANTOM
 62
2
 10
-2.09710736E+02
 20
1.53834595E+02
 11
-2.09710736E+02
 21
1.55715168E+02
  0
LINE
  8
0
  6
PHANTOM
 62
2
 10
-2.09210736E+02
 20
1.53834595E+02
 11
-2.09210736E+02
 21
1.55715168E+02
  0
LINE
  8
0
  6
PHANTOM
 62
2
 10
-2.08710736E+02
 20
1.53834595E+02
 11
-2.08710736E+02
 21
1.55715168E+02
  0
LINE
  8
0
  6
PHANTOM
 62
2
 10
-2.08210736E+02
 20
1.53834595E+02
 11
-2.08210736E+02
 21
1.55715168E+02
  0
LINE
  8
0
  6
PHANTOM
 62
2
 10
-2.07710736E+02
 20
1.53834595E+02
 11
-2.07710736E+02
 21
1.55715168E+02
  0
LINE
  8
0
  6
PHANTOM
 62
2
 10
-2.07210736E+02
 20
1.53834595E+02
 11
-2.07210736E+02
 21
1.55715168E+02
  0
LINE
  8
0
  6
PHANTOM
 62
2
 10
-2.06710736E+02
 20
1.53834595E+02
 11
-2.06710736E+02
 21
1.55715168E+02
  0
LINE
  8
0
  6
PHANTOM
 62
2
 10
-2.06360736E+02
 20
1.53834595E+02
 11
-2.10360736E+02
 21
1.53834595E+02
  0
LINE
  8
0
  6
PHANTOM
 62
2
 10
-2.10360736E+02
 20
1.44034595E+02
 11
-2.10360736E+02
 21
1.53834595E+02
  0
LINE
  8
0
  6
PHANTOM
 62
2
 10
-2.06360736E+02
 20
1.44034595E+02
 11
-2.06360736E+02
 21
1.53834595E+02
  0
LINE
  8
0
  6
PHANTOM
 62
2
 10
-2.05960736E+02
 20
1.44034595E+02
 11
-2.07311289E+02
 21
1.44034595E+02
  0
LINE
  8
0
  6
PHANTOM
 62
2
 10
-2.10760736E+02
 20
1.44034595E+02
 11
-2.10760736E+02
 21
1.43134041E+02
  0
LINE
  8
0
  6
PHANTOM
 62
2
 10
-2.05960736E+02
 20
1.44034595E+02
 11
-2.05960736E+02
 21
1.43107567E+02
  0
LINE
  8
0
 62
7
 10
-2.00910183E+02
 20
1.43434040E+02
 11
-2.00910183E+02
 21
1.49634041E+02
  0
LINE
  8
0
 62
7
 10
-2.00675738E+02
 20
1.09933821E+02
 11
-2.00610183E+02
 21
9.81340408E+01
  0
LINE
  8
0
 62
7
 10
-2.10861288E+02
 20
1.42935154E+02
 11
-2.11007406E+02
 21
1.16634041E+02
  0
LINE
  8
0
 62
6
 10
-2.10860184E+02
 20
1.37234039E+02
 11
-2.00860184E+02
 21
1.37234039E+02
  0
LINE
  8
0
 62
6
 10
-2.09410184E+02
 20
1.37234039E+02
 11
-2.09410184E+02
 21
1.45434040E+02
  0
LINE
  8
0
 62
6
 10
-2.08110184E+02
 20
1.37234039E+02
 11
-2.08110184E+02
 21
1.45434040E+02
  0
LINE
  8
0
 62
6
 10
-2.08110184E+02
 20
1.45434040E+02
 11
-2.09410184E+02
 21
1.45434040E+02
  0
LINE
  8
0
 62
6
 10
-2.08510183E+02
 20
1.49434040E+02
 11
-2.09010183E+02
 21
1.49434040E+02
  0
LINE
  8
0
 62
6
 10
-2.08510183E+02
 20
1.45434040E+02
 11
-2.08510183E+02
 21
1.49434040E+02
  0
LINE
  8
0
 62
6
 10
-2.09010183E+02
 20
1.45434040E+02
 11
-2.09010183E+02
 21
1.49434040E+02
  0
LINE
  8
0
 62
6
 10
-2.03210184E+02
 20
1.45434040E+02
 11
-2.03210184E+02
 21
1.49434040E+02
  0
LINE
  8
0
 62
6
 10
-2.02710184E+02
 20
1.45434040E+02
 11
-2.02710184E+02
 21
1.49434040E+02
  0
LINE
  8
0
 62
6
 10
-2.02710184E+02
 20
1.49434040E+02
 11
-2.03210184E+02
 21
1.49434040E+02
  0
LINE
  8
0
 62
6
 10
-2.02310184E+02
 20
1.45434040E+02
 11
-2.03610184E+02
 21
1.45434040E+02
  0
LINE
  8
0
 62
6
 10
-2.02310184E+02
 20
1.37234039E+02
 11
-2.02310184E+02
 21
1.45434040E+02
  0
LINE
  8
0
 62
6
 10
-2.03610184E+02
 20
1.37234039E+02
 11
-2.03610184E+02
 21
1.45434040E+02
  0
LINE
  8
0
 62
6
 10
-2.10860184E+02
 20
1.16634041E+02
 11
-2.10860184E+02
 21
1.36234039E+02
  0
LINE
  8
0
 62
6
 10
-2.10860184E+02
 20
1.36234039E+02
 11
-2.10860184E+02
 21
1.37234039E+02
  0
LINE
  8
0
 62
6
 10
-2.00860184E+02
 20
1.36234039E+02
 11
-2.00860184E+02
 21
1.37234039E+02
  0
LINE
  8
0
 62
6
 10
-2.00860184E+02
 20
1.16634041E+02
 11
-2.00860184E+02
 21
1.36234039E+02
  0
LINE
  8
0
 62
6
 10
-2.00860184E+02
 20
1.20634041E+02
 11
-2.10860184E+02
 21
1.20634041E+02
  0
LINE
  8
0
 62
7
 10
-2.09410184E+02
 20
1.43134041E+02
 11
-2.10661292E+02
 21
1.43134041E+02
  0
LINE
  8
0
 62
7
 10
-2.03610184E+02
 20
1.43134041E+02
 11
-2.08110184E+02
 21
1.43134041E+02
  0
LINE
  8
0
  6
PHANTOM
 62
2
 10
-2.08611289E+02
 20
1.44034595E+02
 11
-2.10760736E+02
 21
1.44034595E+02
  0
LINE
  8
0
 62
6
 10
-2.10860184E+02
 20
1.36234039E+02
 11
-2.00860184E+02
 21
1.36234039E+02
  0
LINE
  8
0
 62
6
 10
-2.10860184E+02
 20
1.28134041E+02
 11
-2.00860184E+02
 21
1.28134041E+02
  0
LINE
  8
0
 62
6
 10
-2.10860184E+02
 20
1.31634041E+02
 11
-2.00860184E+02
 21
1.31634041E+02
  0
LINE
  8
0
 62
7
 10
-2.00910183E+02
 20
1.43434041E+02
 11
-2.01210185E+02
 21
1.43134039E+02
  0
LINE
  8
0
 62
7
 10
-1.66810184E+02
 20
1.51134041E+02
 11
-1.68810184E+02
 21
1.51134041E+02
  0
LINE
  8
0
 62
7
 10
-1.61410183E+02
 20
1.44134041E+02
 11
-1.63510185E+02
 21
1.44134041E+02
  0
LINE
  8
0
 62
7
 10
-1.61410183E+02
 20
1.42134041E+02
 11
-1.63510185E+02
 21
1.42134041E+02
  0
LINE
  8
0
 62
7
 10
-1.67210182E+02
 20
1.42134041E+02
 11
-1.69310184E+02
 21
1.42134041E+02
  0
LINE
  8
0
 62
7
 10
-1.67210182E+02
 20
1.44134041E+02
 11
-1.69310184E+02
 21
1.44134041E+02
  0
LINE
  8
0
  6
PHANTOM
 62
2
 10
-1.69760185E+02
 20
1.94035263E+02
 11
-1.69160183E+02
 21
1.94035263E+02
  0
LINE
  8
0
  6
PHANTOM
 62
2
 10
-1.70160183E+02
 20
1.94035263E+02
 11
-1.70760185E+02
 21
1.94035263E+02
  0
LINE
  8
0
  6
PHANTOM
 62
2
 10
-1.68760185E+02
 20
1.73868042E+02
 11
-1.71160183E+02
 21
1.73868042E+02
  0
LINE
  8
0
  6
PHANTOM
 62
2
 10
-1.69160183E+02
 20
1.73868042E+02
 11
-1.69160183E+02
 21
1.94035263E+02
  0
LINE
  8
0
  6
PHANTOM
 62
2
 10
-1.69760185E+02
 20
1.73868042E+02
 11
-1.69760185E+02
 21
1.94035263E+02
  0
LINE
  8
0
  6
PHANTOM
 62
2
 10
-1.70160183E+02
 20
1.73868042E+02
 11
-1.70160183E+02
 21
1.94035263E+02
  0
LINE
  8
0
  6
PHANTOM
 62
2
 10
-1.70760185E+02
 20
1.73868042E+02
 11
-1.70760185E+02
 21
1.94035263E+02
  0
LINE
  8
0
  6
PHANTOM
 62
2
 10
-1.68760185E+02
 20
1.68334038E+02
 11
-1.68760185E+02
 21
1.73868042E+02
  0
LINE
  8
0
  6
PHANTOM
 62
2
 10
-1.71160183E+02
 20
1.68334038E+02
 11
-1.71160183E+02
 21
1.73868042E+02
  0
LINE
  8
0
  6
PHANTOM
 62
2
 10
-1.72060184E+02
 20
1.39634041E+02
 11
-1.72860184E+02
 21
1.39634041E+02
  0
LINE
  8
0
  6
PHANTOM
 62
2
 10
-1.59610184E+02
 20
1.41257328E+02
 11
-1.60110184E+02
 21
1.41257328E+02
  0
LINE
  8
0
  6
PHANTOM
 62
2
 10
-1.59610184E+02
 20
1.39734039E+02
 11
-1.59610184E+02
 21
1.44138962E+02
  0
LINE
  8
0
  6
PHANTOM
 62
2
 10
-1.71110184E+02
 20
1.39734039E+02
 11
-1.71110184E+02
 21
1.44134041E+02
  0
LINE
  8
0
  6
PHANTOM
 62
2
 10
-1.57860184E+02
 20
1.39634041E+02
 11
-1.58660183E+02
 21
1.39634041E+02
  0
LINE
  8
0
  6
PHANTOM
 62
2
 10
-1.57860184E+02
 20
1.43134041E+02
 11
-1.60110184E+02
 21
1.43134041E+02
  0
LINE
  8
0
  6
PHANTOM
 62
2
 10
-1.57860184E+02
 20
1.19134041E+02
 11
-1.57860184E+02
 21
1.43134041E+02
  0
LINE
  8
0
  6
PHANTOM
 62
2
 10
-1.72860184E+02
 20
1.19134041E+02
 11
-1.72860184E+02
 21
1.43134041E+02
  0
LINE
  8
0
  6
PHANTOM
 62
2
 10
-1.68060184E+02
 20
1.55939144E+02
 11
-1.68060184E+02
 21
1.68334038E+02
  0
LINE
  8
0
  6
PHANTOM
 62
2
 10
-1.71860184E+02
 20
1.58133076E+02
 11
-1.71860184E+02
 21
1.68334038E+02
  0
LINE
  8
0
  6
PHANTOM
 62
2
 10
-1.66021036E+02
 20
1.54761841E+02
 11
-1.74377920E+02
 21
1.59586691E+02
  0
LINE
  8
0
  6
PHANTOM
 62
2
 10
-1.66229471E+02
 20
1.51995430E+02
 11
-1.74564498E+02
 21
1.56807660E+02
  0
LINE
  8
0
  6
PHANTOM
 62
2
 10
-1.68060184E+02
 20
1.68334038E+02
 11
-1.71860184E+02
 21
1.68334038E+02
  0
LINE
  8
0
  6
PHANTOM
 62
2
 10
-1.68060184E+02
 20
1.44134041E+02
 11
-1.68060184E+02
 21
1.53052391E+02
  0
LINE
  8
0
  6
PHANTOM
 62
2
 10
-1.71860184E+02
 20
1.44134041E+02
 11
-1.71860184E+02
 21
1.55246323E+02
  0
LINE
  8
0
  6
PHANTOM
 62
2
 10
-1.72760185E+02
 20
1.43134041E+02
 11
-1.72760185E+02
 21
1.44134041E+02
  0
LINE
  8
0
  6
PHANTOM
 62
2
 10
-1.71110184E+02
 20
1.44134041E+02
 11
-1.72760185E+02
 21
1.44134041E+02
  0
LINE
  8
0
  6
PHANTOM
 62
2
 10
-1.71110184E+02
 20
1.44138962E+02
 11
-1.70610184E+02
 21
1.44138962E+02
  0
LINE
  8
0
  6
CENTER
 62
6
 10
-1.63660183E+02
 20
1.16738373E+02
 11
-1.63660183E+02
 21
1.40957352E+02
  0
LINE
  8
0
  6
CENTER
 62
6
 10
-1.67060184E+02
 20
1.16738373E+02
 11
-1.67060184E+02
 21
1.40957352E+02
  0
LINE
  8
0
 62
7
 10
-1.57953518E+02
 20
1.19134041E+02
 11
-1.58059300E+02
 21
1.42934927E+02
  0
LINE
  8
0
 62
7
 10
-1.72766849E+02
 20
1.19134041E+02
 11
-1.72661068E+02
 21
1.42934930E+02
  0
LINE
  8
0
 62
7
 10
-1.61910183E+02
 20
1.51134041E+02
 11
-1.63910183E+02
 21
1.51134041E+02
  0
LINE
  8
0
 62
7
 10
-1.70310184E+02
 20
1.47934040E+02
 11
-1.70310184E+02
 21
1.49634041E+02
  0
LINE
  8
0
 62
7
 10
-1.60410183E+02
 20
1.47934040E+02
 11
-1.60410183E+02
 21
1.49634041E+02
  0
LINE
  8
0
 62
7
 10
-1.58259296E+02
 20
1.43134041E+02
 11
-1.59610184E+02
 21
1.43134041E+02
  0
LINE
  8
0
  6
CENTER
 62
2
 10
-1.65360184E+02
 20
6.86930389E+01
 11
-1.65360184E+02
 21
1.56109509E+02
  0
LINE
  8
0
 62
7
 10
-1.60638002E+02
 20
1.00911857E+02
 11
-1.59082369E+02
 21
9.93562240E+01
  0
LINE
  8
0
 62
7
 10
-1.59082366E+02
 20
1.00911859E+02
 11
-1.60638002E+02
 21
9.93562240E+01
  0
LINE
  8
0
 62
7
 10
-1.70082369E+02
 20
1.17911857E+02
 11
-1.71638001E+02
 21
1.16356224E+02
  0
LINE
  8
0
 62
7
 10
-1.71638003E+02
 20
1.17911859E+02
 11
-1.70082367E+02
 21
1.16356223E+02
  0
LINE
  8
0
 62
7
 10
-1.72860184E+02
 20
1.19134041E+02
 11
-1.72860184E+02
 21
9.81340408E+01
  0
LINE
  8
0
 62
7
 10
-1.57860184E+02
 20
1.19134041E+02
 11
-1.57860184E+02
 21
9.81340408E+01
  0
LINE
  8
0
 62
7
 10
-1.72860184E+02
 20
1.19134041E+02
 11
-1.57860184E+02
 21
1.19134041E+02
  0
LINE
  8
0
 62
7
 10
-1.59860184E+02
 20
1.01734041E+02
 11
-1.57860184E+02
 21
1.01734041E+02
  0
LINE
  8
0
 62
7
 10
-1.61460182E+02
 20
1.00134041E+02
 11
-1.61460182E+02
 21
9.81340408E+01
  0
LINE
  8
0
 62
7
 10
-1.69260185E+02
 20
1.17134041E+02
 11
-1.69260185E+02
 21
1.19134041E+02
  0
LINE
  8
0
 62
7
 10
-1.70860184E+02
 20
1.15534040E+02
 11
-1.72860184E+02
 21
1.15534040E+02
  0
LINE
  8
0
 62
7
 10
-1.73110184E+02
 20
7.21340408E+01
 11
-1.57610184E+02
 21
7.21340408E+01
  0
LINE
  8
0
 62
7
 10
-1.57610184E+02
 20
9.81340408E+01
 11
-1.73110184E+02
 21
9.81340408E+01
  0
LINE
  8
0
 62
7
 10
-1.57610184E+02
 20
7.21340408E+01
 11
-1.57610184E+02
 21
9.81340408E+01
  0
LINE
  8
0
 62
7
 10
-1.73110184E+02
 20
7.21340408E+01
 11
-1.73110184E+02
 21
9.81340408E+01
  0
LINE
  8
0
 62
7
 10
-1.59610184E+02
 20
1.44134041E+02
 11
-1.60110184E+02
 21
1.44134041E+02
  0
LINE
  8
0
 62
7
 10
-1.59610184E+02
 20
1.42134041E+02
 11
-1.60110184E+02
 21
1.42134041E+02
  0
LINE
  8
0
 62
7
 10
-1.59610184E+02
 20
1.44134041E+02
 11
-1.59610184E+02
 21
1.42134041E+02
  0
LINE
  8
0
 62
7
 10
-1.71110184E+02
 20
1.44134041E+02
 11
-1.71110184E+02
 21
1.42134041E+02
  0
LINE
  8
0
 62
7
 10
-1.71110184E+02
 20
1.43134041E+02
 11
-1.72461071E+02
 21
1.43134041E+02
  0
LINE
  8
0
 62
7
 10
-1.70610184E+02
 20
1.44134041E+02
 11
-1.71110184E+02
 21
1.44134041E+02
  0
LINE
  8
0
 62
7
 10
-1.70610184E+02
 20
1.42134041E+02
 11
-1.71110184E+02
 21
1.42134041E+02
  0
LINE
  8
0
 62
7
 10
-1.64810184E+02
 20
1.44134041E+02
 11
-1.65910183E+02
 21
1.44134041E+02
  0
LINE
  8
0
 62
7
 10
-1.64810184E+02
 20
1.42134041E+02
 11
-1.65910183E+02
 21
1.42134041E+02
  0
LINE
  8
0
 62
7
 10
-1.64410183E+02
 20
1.51134041E+02
 11
-1.66310184E+02
 21
1.51134041E+02
  0
LINE
  8
0
 62
6
 10
-1.72060184E+02
 20
1.38734039E+02
 11
-1.72060184E+02
 21
1.39734039E+02
  0
LINE
  8
0
 62
6
 10
-1.70610184E+02
 20
1.39734039E+02
 11
-1.70610184E+02
 21
1.47934040E+02
  0
LINE
  8
0
 62
6
 10
-1.69310184E+02
 20
1.39734039E+02
 11
-1.69310184E+02
 21
1.47934040E+02
  0
LINE
  8
0
 62
6
 10
-1.69310184E+02
 20
1.47934040E+02
 11
-1.70610184E+02
 21
1.47934040E+02
  0
LINE
  8
0
 62
6
 10
-1.69710182E+02
 20
1.51934040E+02
 11
-1.70210182E+02
 21
1.51934040E+02
  0
LINE
  8
0
 62
6
 10
-1.69710182E+02
 20
1.47934040E+02
 11
-1.69710182E+02
 21
1.51934040E+02
  0
LINE
  8
0
 62
6
 10
-1.70210182E+02
 20
1.47934040E+02
 11
-1.70210182E+02
 21
1.51934040E+02
  0
LINE
  8
0
 62
6
 10
-1.64410183E+02
 20
1.47934040E+02
 11
-1.64410183E+02
 21
1.51934040E+02
  0
LINE
  8
0
 62
6
 10
-1.63910183E+02
 20
1.47934040E+02
 11
-1.63910183E+02
 21
1.51934040E+02
  0
LINE
  8
0
 62
6
 10
-1.63910183E+02
 20
1.51934040E+02
 11
-1.64410183E+02
 21
1.51934040E+02
  0
LINE
  8
0
 62
6
 10
-1.63510185E+02
 20
1.47934040E+02
 11
-1.64810184E+02
 21
1.47934040E+02
  0
LINE
  8
0
 62
6
 10
-1.63510185E+02
 20
1.39734039E+02
 11
-1.63510185E+02
 21
1.47934040E+02
  0
LINE
  8
0
 62
6
 10
-1.64810184E+02
 20
1.39734039E+02
 11
-1.64810184E+02
 21
1.47934040E+02
  0
LINE
  8
0
 62
6
 10
-1.72060184E+02
 20
1.39734039E+02
 11
-1.68660183E+02
 21
1.39734039E+02
  0
LINE
  8
0
 62
6
 10
-1.58660183E+02
 20
1.23134041E+02
 11
-1.68660183E+02
 21
1.23134041E+02
  0
LINE
  8
0
 62
6
 10
-1.72060184E+02
 20
1.19134041E+02
 11
-1.72060184E+02
 21
1.38734039E+02
  0
LINE
  8
0
 62
6
 10
-1.58660183E+02
 20
1.19134041E+02
 11
-1.58660183E+02
 21
1.38734039E+02
  0
LINE
  8
0
 62
6
 10
-1.58660183E+02
 20
1.38734039E+02
 11
-1.58660183E+02
 21
1.39734039E+02
  0
LINE
  8
0
 62
6
 10
-1.68660183E+02
 20
1.38734039E+02
 11
-1.68660183E+02
 21
1.39734039E+02
  0
LINE
  8
0
 62
6
 10
-1.68660183E+02
 20
1.19134041E+02
 11
-1.68660183E+02
 21
1.38734039E+02
  0
LINE
  8
0
 62
6
 10
-1.61410183E+02
 20
1.39734039E+02
 11
-1.61410183E+02
 21
1.47934040E+02
  0
LINE
  8
0
 62
6
 10
-1.60110184E+02
 20
1.39734039E+02
 11
-1.60110184E+02
 21
1.47934040E+02
  0
LINE
  8
0
 62
6
 10
-1.60110184E+02
 20
1.47934040E+02
 11
-1.61410183E+02
 21
1.47934040E+02
  0
LINE
  8
0
 62
6
 10
-1.60510185E+02
 20
1.51934040E+02
 11
-1.61010185E+02
 21
1.51934040E+02
  0
LINE
  8
0
 62
6
 10
-1.60510185E+02
 20
1.47934040E+02
 11
-1.60510185E+02
 21
1.51934040E+02
  0
LINE
  8
0
 62
6
 10
-1.61010185E+02
 20
1.47934040E+02
 11
-1.61010185E+02
 21
1.51934040E+02
  0
LINE
  8
0
 62
6
 10
-1.66810184E+02
 20
1.47934040E+02
 11
-1.66810184E+02
 21
1.51934040E+02
  0
LINE
  8
0
 62
6
 10
-1.66310184E+02
 20
1.47934040E+02
 11
-1.66310184E+02
 21
1.51934040E+02
  0
LINE
  8
0
 62
6
 10
-1.66310184E+02
 20
1.51934040E+02
 11
-1.66810184E+02
 21
1.51934040E+02
  0
LINE
  8
0
 62
6
 10
-1.65910183E+02
 20
1.47934040E+02
 11
-1.67210182E+02
 21
1.47934040E+02
  0
LINE
  8
0
 62
6
 10
-1.65910183E+02
 20
1.39734039E+02
 11
-1.65910183E+02
 21
1.47934040E+02
  0
LINE
  8
0
 62
6
 10
-1.67210182E+02
 20
1.39734039E+02
 11
-1.67210182E+02
 21
1.47934040E+02
  0
LINE
  8
0
 62
6
 10
-1.68660183E+02
 20
1.34134041E+02
 11
-1.58660183E+02
 21
1.34134041E+02
  0
LINE
  8
0
 62
6
 10
-1.68660183E+02
 20
1.30634041E+02
 11
-1.58660183E+02
 21
1.30634041E+02
  0
LINE
  8
0
 62
6
 10
-1.68660183E+02
 20
1.38734039E+02
 11
-1.58660183E+02
 21
1.38734039E+02
  0
LINE
  8
0
 62
6
 10
-1.68660183E+02
 20
1.39734039E+02
 11
-1.58660183E+02
 21
1.39734039E+02
  0
LINE
  8
0
 62
6
 10
-1.68660183E+02
 20
1.38734039E+02
 11
-1.72060184E+02
 21
1.38734039E+02
  0
LINE
  8
0
 62
6
 10
-1.68660183E+02
 20
1.20334042E+02
 11
-1.72060184E+02
 21
1.20334042E+02
  0
LINE
  8
0
  6
PHANTOM
 62
2
 10
-1.70610184E+02
 20
1.44134041E+02
 11
-1.71110184E+02
 21
1.44134041E+02
  0
LINE
  8
0
  6
PHANTOM
 62
2
 10
-1.70610184E+02
 20
1.43134041E+02
 11
-1.72860184E+02
 21
1.43134041E+02
  0
LINE
  8
0
  6
PHANTOM
 62
2
 10
-1.70610184E+02
 20
1.41257328E+02
 11
-1.71110184E+02
 21
1.41257328E+02
  0
LINE
  8
0
  6
PHANTOM
 62
2
 10
-1.67210182E+02
 20
1.41257328E+02
 11
-1.69310184E+02
 21
1.41257328E+02
  0
LINE
  8
0
  6
PHANTOM
 62
2
 10
-1.67210182E+02
 20
1.44134041E+02
 11
-1.69310184E+02
 21
1.44134041E+02
  0
LINE
  8
0
  6
PHANTOM
 62
2
 10
-1.67210182E+02
 20
1.43134041E+02
 11
-1.69310184E+02
 21
1.43134041E+02
  0
LINE
  8
0
  6
PHANTOM
 62
2
 10
-1.64810184E+02
 20
1.44134041E+02
 11
-1.65910183E+02
 21
1.44134041E+02
  0
LINE
  8
0
  6
PHANTOM
 62
2
 10
-1.64810184E+02
 20
1.43134041E+02
 11
-1.65910183E+02
 21
1.43134041E+02
  0
LINE
  8
0
  6
PHANTOM
 62
2
 10
-1.64810184E+02
 20
1.41257328E+02
 11
-1.65910183E+02
 21
1.41257328E+02
  0
LINE
  8
0
  6
PHANTOM
 62
2
 10
-1.61410183E+02
 20
1.41257328E+02
 11
-1.63510185E+02
 21
1.41257328E+02
  0
LINE
  8
0
  6
PHANTOM
 62
2
 10
-1.61410183E+02
 20
1.43134041E+02
 11
-1.63510185E+02
 21
1.43134041E+02
  0
LINE
  8
0
  6
PHANTOM
 62
2
 10
-1.60110184E+02
 20
1.44138962E+02
 11
-1.59610184E+02
 21
1.44138962E+02
  0
LINE
  8
0
  6
PHANTOM
 62
2
 10
-1.63510185E+02
 20
1.44138962E+02
 11
-1.61410183E+02
 21
1.44138962E+02
  0
LINE
  8
0
 62
7
 10
-1.46410187E+02
 20
1.51134041E+02
 11
-1.44410187E+02
 21
1.51134041E+02
  0
LINE
  8
0
 62
7
 10
-1.46010185E+02
 20
1.44138962E+02
 11
-1.43910187E+02
 21
1.44138962E+02
  0
LINE
  8
0
 62
7
 10
-1.47310181E+02
 20
1.42138962E+02
 11
-1.48410187E+02
 21
1.42138962E+02
  0
LINE
  8
0
 62
7
 10
-1.53110184E+02
 20
1.42138962E+02
 11
-1.53610184E+02
 21
1.42138962E+02
  0
LINE
  8
0
 62
7
 10
-1.51810181E+02
 20
1.44138962E+02
 11
-1.49710182E+02
 21
1.44138962E+02
  0
LINE
  8
0
 62
6
 10
-1.54560181E+02
 20
1.38734039E+02
 11
-1.54560181E+02
 21
1.39734039E+02
  0
LINE
  8
0
 62
6
 10
-1.53110184E+02
 20
1.39734039E+02
 11
-1.53110184E+02
 21
1.47934040E+02
  0
LINE
  8
0
 62
6
 10
-1.51810181E+02
 20
1.39734039E+02
 11
-1.51810181E+02
 21
1.47934040E+02
  0
LINE
  8
0
 62
6
 10
-1.51810181E+02
 20
1.47934040E+02
 11
-1.53110184E+02
 21
1.47934040E+02
  0
LINE
  8
0
 62
6
 10
-1.52210182E+02
 20
1.51934040E+02
 11
-1.52710182E+02
 21
1.51934040E+02
  0
LINE
  8
0
 62
6
 10
-1.52210182E+02
 20
1.47934040E+02
 11
-1.52210182E+02
 21
1.51934040E+02
  0
LINE
  8
0
 62
6
 10
-1.52710182E+02
 20
1.47934040E+02
 11
-1.52710182E+02
 21
1.51934040E+02
  0
LINE
  8
0
 62
6
 10
-1.46910187E+02
 20
1.47934040E+02
 11
-1.46910187E+02
 21
1.51934040E+02
  0
LINE
  8
0
 62
6
 10
-1.46410187E+02
 20
1.47934040E+02
 11
-1.46410187E+02
 21
1.51934040E+02
  0
LINE
  8
0
 62
6
 10
-1.46410187E+02
 20
1.51934040E+02
 11
-1.46910187E+02
 21
1.51934040E+02
  0
LINE
  8
0
 62
6
 10
-1.46010185E+02
 20
1.47934040E+02
 11
-1.47310181E+02
 21
1.47934040E+02
  0
LINE
  8
0
 62
6
 10
-1.46010185E+02
 20
1.39734039E+02
 11
-1.46010185E+02
 21
1.47934040E+02
  0
LINE
  8
0
 62
6
 10
-1.47310181E+02
 20
1.39734039E+02
 11
-1.47310181E+02
 21
1.47934040E+02
  0
LINE
  8
0
 62
6
 10
-1.54560181E+02
 20
1.39734039E+02
 11
-1.51160187E+02
 21
1.39734039E+02
  0
LINE
  8
0
  6
CENTER
 62
6
 10
-1.49560181E+02
 20
1.16738373E+02
 11
-1.49560181E+02
 21
1.40957352E+02
  0
LINE
  8
0
 62
6
 10
-1.41160187E+02
 20
1.23134041E+02
 11
-1.51160187E+02
 21
1.23134041E+02
  0
LINE
  8
0
  6
CENTER
 62
6
 10
-1.46160187E+02
 20
1.16738373E+02
 11
-1.46160187E+02
 21
1.40957352E+02
  0
LINE
  8
0
 62
7
 10
-1.42110184E+02
 20
1.43138962E+02
 11
-1.39258858E+02
 21
1.43138962E+02
  0
LINE
  8
0
 62
7
 10
-1.55360184E+02
 20
1.43138962E+02
 11
-1.55360184E+02
 21
1.19134041E+02
  0
LINE
  8
0
 62
7
 10
-1.40360184E+02
 20
1.43138962E+02
 11
-1.40360184E+02
 21
1.19134041E+02
  0
LINE
  8
0
 62
7
 10
-1.42110184E+02
 20
1.44138962E+02
 11
-1.42110184E+02
 21
1.42138962E+02
  0
LINE
  8
0
 62
7
 10
-1.53610184E+02
 20
1.44138962E+02
 11
-1.53610184E+02
 21
1.42138962E+02
  0
LINE
  8
0
 62
7
 10
-1.53610184E+02
 20
1.44138962E+02
 11
-1.53110184E+02
 21
1.44138962E+02
  0
LINE
  8
0
 62
7
 10
-1.42110184E+02
 20
1.42138962E+02
 11
-1.42610184E+02
 21
1.42138962E+02
  0
LINE
  8
0
 62
7
 10
-1.40082368E+02
 20
1.00911859E+02
 11
-1.41638003E+02
 21
9.93562240E+01
  0
LINE
  8
0
 62
7
 10
-1.41638003E+02
 20
1.00911857E+02
 11
-1.40082368E+02
 21
9.93562213E+01
  0
LINE
  8
0
 62
7
 10
-1.55638002E+02
 20
1.17911859E+02
 11
-1.54082366E+02
 21
1.16356223E+02
  0
LINE
  8
0
 62
7
 10
-1.54082369E+02
 20
1.17911859E+02
 11
-1.55638004E+02
 21
1.16356223E+02
  0
LINE
  8
0
 62
7
 10
-1.56860184E+02
 20
9.81340408E+01
 11
-1.56860184E+02
 21
1.19134041E+02
  0
LINE
  8
0
 62
7
 10
-1.38860184E+02
 20
1.19134041E+02
 11
-1.38860184E+02
 21
9.81340408E+01
  0
LINE
  8
0
 62
7
 10
-1.40860184E+02
 20
1.01734041E+02
 11
-1.38860184E+02
 21
1.01734041E+02
  0
LINE
  8
0
 62
7
 10
-1.54860184E+02
 20
1.15534040E+02
 11
-1.56860184E+02
 21
1.15534040E+02
  0
LINE
  8
0
 62
7
 10
-1.53260185E+02
 20
1.17134041E+02
 11
-1.53260185E+02
 21
1.19134041E+02
  0
LINE
  8
0
 62
7
 10
-1.42460182E+02
 20
1.00134041E+02
 11
-1.42460182E+02
 21
9.81340408E+01
  0
LINE
  8
0
 62
7
 10
-1.57110184E+02
 20
7.21340408E+01
 11
-1.57110184E+02
 21
9.81340408E+01
  0
LINE
  8
0
 62
7
 10
-1.38610184E+02
 20
9.81340408E+01
 11
-1.38610184E+02
 21
7.21340408E+01
  0
LINE
  8
0
 62
7
 10
-1.57110184E+02
 20
9.81340408E+01
 11
-1.38610184E+02
 21
9.81340408E+01
  0
LINE
  8
0
 62
7
 10
-1.57110184E+02
 20
7.21340408E+01
 11
-1.38610184E+02
 21
7.21340408E+01
  0
LINE
  8
0
 62
7
 10
-1.52810181E+02
 20
1.47934040E+02
 11
-1.52810181E+02
 21
1.49634041E+02
  0
LINE
  8
0
 62
7
 10
-1.42910187E+02
 20
1.47934040E+02
 11
-1.42910187E+02
 21
1.49634041E+02
  0
LINE
  8
0
 62
7
 10
-1.51310181E+02
 20
1.51134041E+02
 11
-1.49310181E+02
 21
1.51134041E+02
  0
LINE
  8
0
 62
7
 10
-1.39058864E+02
 20
1.42940298E+02
 11
-1.38860188E+02
 21
1.13138963E+02
  0
LINE
  8
0
 62
7
 10
-1.56661512E+02
 20
1.42940298E+02
 11
-1.56860188E+02
 21
1.13138963E+02
  0
LINE
  8
0
 62
7
 10
-1.38860184E+02
 20
1.19134041E+02
 11
-1.56860184E+02
 21
1.19134041E+02
  0
LINE
  8
0
 62
6
 10
-1.54560181E+02
 20
1.19134041E+02
 11
-1.54560181E+02
 21
1.38734039E+02
  0
LINE
  8
0
 62
7
 10
-1.56461510E+02
 20
1.43138962E+02
 11
-1.53610184E+02
 21
1.43138962E+02
  0
LINE
  8
0
  6
CENTER
 62
2
 10
-1.47860184E+02
 20
6.89593124E+01
 11
-1.47860184E+02
 21
1.53689785E+02
  0
LINE
  8
0
 62
6
 10
-1.41160187E+02
 20
1.19134041E+02
 11
-1.41160187E+02
 21
1.38734039E+02
  0
LINE
  8
0
 62
6
 10
-1.41160187E+02
 20
1.38734039E+02
 11
-1.41160187E+02
 21
1.39734039E+02
  0
LINE
  8
0
 62
6
 10
-1.51160187E+02
 20
1.38734039E+02
 11
-1.51160187E+02
 21
1.39734039E+02
  0
LINE
  8
0
 62
6
 10
-1.51160187E+02
 20
1.19134041E+02
 11
-1.51160187E+02
 21
1.38734039E+02
  0
LINE
  8
0
 62
6
 10
-1.43910187E+02
 20
1.39734039E+02
 11
-1.43910187E+02
 21
1.47934040E+02
  0
LINE
  8
0
 62
6
 10
-1.42610184E+02
 20
1.39734039E+02
 11
-1.42610184E+02
 21
1.47934040E+02
  0
LINE
  8
0
 62
6
 10
-1.42610184E+02
 20
1.47934040E+02
 11
-1.43910187E+02
 21
1.47934040E+02
  0
LINE
  8
0
 62
6
 10
-1.43010185E+02
 20
1.51934040E+02
 11
-1.43510185E+02
 21
1.51934040E+02
  0
LINE
  8
0
 62
6
 10
-1.43010185E+02
 20
1.47934040E+02
 11
-1.43010185E+02
 21
1.51934040E+02
  0
LINE
  8
0
 62
6
 10
-1.43510185E+02
 20
1.47934040E+02
 11
-1.43510185E+02
 21
1.51934040E+02
  0
LINE
  8
0
 62
6
 10
-1.49310181E+02
 20
1.47934040E+02
 11
-1.49310181E+02
 21
1.51934040E+02
  0
LINE
  8
0
 62
6
 10
-1.48810181E+02
 20
1.47934040E+02
 11
-1.48810181E+02
 21
1.51934040E+02
  0
LINE
  8
0
 62
6
 10
-1.48810181E+02
 20
1.51934040E+02
 11
-1.49310181E+02
 21
1.51934040E+02
  0
LINE
  8
0
 62
6
 10
-1.48410187E+02
 20
1.47934040E+02
 11
-1.49710182E+02
 21
1.47934040E+02
  0
LINE
  8
0
 62
6
 10
-1.48410187E+02
 20
1.39734039E+02
 11
-1.48410187E+02
 21
1.47934040E+02
  0
LINE
  8
0
 62
6
 10
-1.49710182E+02
 20
1.39734039E+02
 11
-1.49710182E+02
 21
1.47934040E+02
  0
LINE
  8
0
 62
6
 10
-1.51160187E+02
 20
1.34134041E+02
 11
-1.41160187E+02
 21
1.34134041E+02
  0
LINE
  8
0
 62
6
 10
-1.51160187E+02
 20
1.30634041E+02
 11
-1.41160187E+02
 21
1.30634041E+02
  0
LINE
  8
0
 62
7
 10
-1.48410187E+02
 20
1.44138962E+02
 11
-1.47310181E+02
 21
1.44138962E+02
  0
LINE
  8
0
 62
7
 10
-1.49710182E+02
 20
1.42138962E+02
 11
-1.51810181E+02
 21
1.42138962E+02
  0
LINE
  8
0
 62
7
 10
-1.43910187E+02
 20
1.42138962E+02
 11
-1.46010185E+02
 21
1.42138962E+02
  0
LINE
  8
0
 62
7
 10
-1.42610184E+02
 20
1.44138962E+02
 11
-1.42110184E+02
 21
1.44138962E+02
  0
LINE
  8
0
 62
7
 10
-1.48810181E+02
 20
1.51134041E+02
 11
-1.46910187E+02
 21
1.51134041E+02
  0
LINE
  8
0
 62
6
 10
-1.51160187E+02
 20
1.38734039E+02
 11
-1.41160187E+02
 21
1.38734039E+02
  0
LINE
  8
0
 62
6
 10
-1.51160187E+02
 20
1.39734039E+02
 11
-1.41160187E+02
 21
1.39734039E+02
  0
LINE
  8
0
 62
6
 10
-1.51160187E+02
 20
1.38734039E+02
 11
-1.54560181E+02
 21
1.38734039E+02
  0
LINE
  8
0
 62
6
 10
-1.51160187E+02
 20
1.20334042E+02
 11
-1.54560181E+02
 21
1.20334042E+02
  0
LINE
  8
0
  6
PHANTOM
 62
2
 10
-1.52260185E+02
 20
1.94035263E+02
 11
-1.51660187E+02
 21
1.94035263E+02
  0
LINE
  8
0
  6
PHANTOM
 62
2
 10
-1.52660187E+02
 20
1.94035263E+02
 11
-1.53260185E+02
 21
1.94035263E+02
  0
LINE
  8
0
  6
PHANTOM
 62
2
 10
-1.51260185E+02
 20
1.73868042E+02
 11
-1.53660187E+02
 21
1.73868042E+02
  0
LINE
  8
0
  6
PHANTOM
 62
2
 10
-1.51660187E+02
 20
1.73868042E+02
 11
-1.51660187E+02
 21
1.94035263E+02
  0
LINE
  8
0
  6
PHANTOM
 62
2
 10
-1.52260185E+02
 20
1.73868042E+02
 11
-1.52260185E+02
 21
1.94035263E+02
  0
LINE
  8
0
  6
PHANTOM
 62
2
 10
-1.52660187E+02
 20
1.73868042E+02
 11
-1.52660187E+02
 21
1.94035263E+02
  0
LINE
  8
0
  6
PHANTOM
 62
2
 10
-1.53260185E+02
 20
1.73868042E+02
 11
-1.53260185E+02
 21
1.94035263E+02
  0
LINE
  8
0
  6
PHANTOM
 62
2
 10
-1.51260185E+02
 20
1.68334038E+02
 11
-1.51260185E+02
 21
1.73868042E+02
  0
LINE
  8
0
  6
PHANTOM
 62
2
 10
-1.53660187E+02
 20
1.68334038E+02
 11
-1.53660187E+02
 21
1.73868042E+02
  0
LINE
  8
0
  6
PHANTOM
 62
2
 10
-1.54560181E+02
 20
1.39634041E+02
 11
-1.55360184E+02
 21
1.39634041E+02
  0
LINE
  8
0
  6
PHANTOM
 62
2
 10
-1.42110184E+02
 20
1.41257328E+02
 11
-1.42610184E+02
 21
1.41257328E+02
  0
LINE
  8
0
  6
PHANTOM
 62
2
 10
-1.42110184E+02
 20
1.44134041E+02
 11
-1.42610184E+02
 21
1.44134041E+02
  0
LINE
  8
0
  6
PHANTOM
 62
2
 10
-1.42110184E+02
 20
1.39734039E+02
 11
-1.42110184E+02
 21
1.44138962E+02
  0
LINE
  8
0
  6
PHANTOM
 62
2
 10
-1.53610184E+02
 20
1.39734039E+02
 11
-1.53610184E+02
 21
1.44134041E+02
  0
LINE
  8
0
  6
PHANTOM
 62
2
 10
-1.40360184E+02
 20
1.39634041E+02
 11
-1.41160187E+02
 21
1.39634041E+02
  0
LINE
  8
0
  6
PHANTOM
 62
2
 10
-1.40360184E+02
 20
1.43134041E+02
 11
-1.42610184E+02
 21
1.43134041E+02
  0
LINE
  8
0
  6
PHANTOM
 62
2
 10
-1.40360184E+02
 20
1.19134041E+02
 11
-1.40360184E+02
 21
1.43134041E+02
  0
LINE
  8
0
  6
PHANTOM
 62
2
 10
-1.55360184E+02
 20
1.19134041E+02
 11
-1.55360184E+02
 21
1.43134041E+02
  0
LINE
  8
0
  6
PHANTOM
 62
2
 10
-1.50560181E+02
 20
1.55939144E+02
 11
-1.50560181E+02
 21
1.68334038E+02
  0
LINE
  8
0
  6
PHANTOM
 62
2
 10
-1.54360184E+02
 20
1.58133076E+02
 11
-1.54360184E+02
 21
1.68334038E+02
  0
LINE
  8
0
  6
PHANTOM
 62
2
 10
-1.48521036E+02
 20
1.54761841E+02
 11
-1.56877921E+02
 21
1.59586691E+02
  0
LINE
  8
0
  6
PHANTOM
 62
2
 10
-1.48729472E+02
 20
1.51995431E+02
 11
-1.57064497E+02
 21
1.56807660E+02
  0
LINE
  8
0
  6
PHANTOM
 62
2
 10
-1.50560181E+02
 20
1.68334038E+02
 11
-1.54360184E+02
 21
1.68334038E+02
  0
LINE
  8
0
  6
PHANTOM
 62
2
 10
-1.50560181E+02
 20
1.44134041E+02
 11
-1.50560181E+02
 21
1.53052391E+02
  0
LINE
  8
0
  6
PHANTOM
 62
2
 10
-1.54360184E+02
 20
1.44134041E+02
 11
-1.54360184E+02
 21
1.55246323E+02
  0
LINE
  8
0
  6
PHANTOM
 62
2
 10
-1.55260185E+02
 20
1.43134041E+02
 11
-1.55260185E+02
 21
1.44134041E+02
  0
LINE
  8
0
  6
PHANTOM
 62
2
 10
-1.53610184E+02
 20
1.44134041E+02
 11
-1.55260185E+02
 21
1.44134041E+02
  0
LINE
  8
0
  6
PHANTOM
 62
2
 10
-1.53610184E+02
 20
1.44138962E+02
 11
-1.53110184E+02
 21
1.44138962E+02
  0
LINE
  8
0
  6
PHANTOM
 62
2
 10
-1.46010185E+02
 20
1.44138962E+02
 11
-1.43910187E+02
 21
1.44138962E+02
  0
LINE
  8
0
  6
PHANTOM
 62
2
 10
-1.53110184E+02
 20
1.44134041E+02
 11
-1.53610184E+02
 21
1.44134041E+02
  0
LINE
  8
0
  6
PHANTOM
 62
2
 10
-1.53110184E+02
 20
1.43134041E+02
 11
-1.55360184E+02
 21
1.43134041E+02
  0
LINE
  8
0
  6
PHANTOM
 62
2
 10
-1.53110184E+02
 20
1.41257328E+02
 11
-1.53610184E+02
 21
1.41257328E+02
  0
LINE
  8
0
  6
PHANTOM
 62
2
 10
-1.49710182E+02
 20
1.41257328E+02
 11
-1.51810181E+02
 21
1.41257328E+02
  0
LINE
  8
0
  6
PHANTOM
 62
2
 10
-1.49710182E+02
 20
1.43134041E+02
 11
-1.51810181E+02
 21
1.43134041E+02
  0
LINE
  8
0
  6
PHANTOM
 62
2
 10
-1.49710182E+02
 20
1.44134041E+02
 11
-1.51810181E+02
 21
1.44134041E+02
  0
LINE
  8
0
  6
PHANTOM
 62
2
 10
-1.47310181E+02
 20
1.44134041E+02
 11
-1.48410187E+02
 21
1.44134041E+02
  0
LINE
  8
0
  6
PHANTOM
 62
2
 10
-1.47310181E+02
 20
1.43134041E+02
 11
-1.48410187E+02
 21
1.43134041E+02
  0
LINE
  8
0
  6
PHANTOM
 62
2
 10
-1.47310181E+02
 20
1.41257328E+02
 11
-1.48410187E+02
 21
1.41257328E+02
  0
LINE
  8
0
  6
PHANTOM
 62
2
 10
-1.43910187E+02
 20
1.41257328E+02
 11
-1.46010185E+02
 21
1.41257328E+02
  0
LINE
  8
0
  6
PHANTOM
 62
2
 10
-1.43910187E+02
 20
1.43134041E+02
 11
-1.46010185E+02
 21
1.43134041E+02
  0
LINE
  8
0
  6
PHANTOM
 62
2
 10
-1.43910187E+02
 20
1.44134041E+02
 11
-1.46010185E+02
 21
1.44134041E+02
  0
LINE
  8
0
 62
7
 10
-1.82810184E+02
 20
1.51134041E+02
 11
-1.84810184E+02
 21
1.51134041E+02
  0
LINE
  8
0
 62
7
 10
-1.77410183E+02
 20
1.44134041E+02
 11
-1.79510185E+02
 21
1.44134041E+02
  0
LINE
  8
0
 62
7
 10
-1.77410183E+02
 20
1.42134041E+02
 11
-1.79510185E+02
 21
1.42134041E+02
  0
LINE
  8
0
 62
7
 10
-1.83210182E+02
 20
1.42134041E+02
 11
-1.85310184E+02
 21
1.42134041E+02
  0
LINE
  8
0
 62
7
 10
-1.83210182E+02
 20
1.44134041E+02
 11
-1.85310184E+02
 21
1.44134041E+02
  0
LINE
  8
0
  6
PHANTOM
 62
2
 10
-1.85760185E+02
 20
1.94035263E+02
 11
-1.85160183E+02
 21
1.94035263E+02
  0
LINE
  8
0
  6
PHANTOM
 62
2
 10
-1.86160183E+02
 20
1.94035263E+02
 11
-1.86760185E+02
 21
1.94035263E+02
  0
LINE
  8
0
  6
PHANTOM
 62
2
 10
-1.84760185E+02
 20
1.73868042E+02
 11
-1.87160183E+02
 21
1.73868042E+02
  0
LINE
  8
0
  6
PHANTOM
 62
2
 10
-1.85160183E+02
 20
1.73868042E+02
 11
-1.85160183E+02
 21
1.94035263E+02
  0
LINE
  8
0
  6
PHANTOM
 62
2
 10
-1.85760185E+02
 20
1.73868042E+02
 11
-1.85760185E+02
 21
1.94035263E+02
  0
LINE
  8
0
  6
PHANTOM
 62
2
 10
-1.86160183E+02
 20
1.73868042E+02
 11
-1.86160183E+02
 21
1.94035263E+02
  0
LINE
  8
0
  6
PHANTOM
 62
2
 10
-1.86760185E+02
 20
1.73868042E+02
 11
-1.86760185E+02
 21
1.94035263E+02
  0
LINE
  8
0
  6
PHANTOM
 62
2
 10
-1.84760185E+02
 20
1.68334038E+02
 11
-1.84760185E+02
 21
1.73868042E+02
  0
LINE
  8
0
  6
PHANTOM
 62
2
 10
-1.87160183E+02
 20
1.68334038E+02
 11
-1.87160183E+02
 21
1.73868042E+02
  0
LINE
  8
0
  6
PHANTOM
 62
2
 10
-1.88060184E+02
 20
1.39634041E+02
 11
-1.88860184E+02
 21
1.39634041E+02
  0
LINE
  8
0
  6
PHANTOM
 62
2
 10
-1.75610184E+02
 20
1.41257328E+02
 11
-1.76110184E+02
 21
1.41257328E+02
  0
LINE
  8
0
  6
PHANTOM
 62
2
 10
-1.75610184E+02
 20
1.39734039E+02
 11
-1.75610184E+02
 21
1.44138962E+02
  0
LINE
  8
0
  6
PHANTOM
 62
2
 10
-1.87110184E+02
 20
1.39734039E+02
 11
-1.87110184E+02
 21
1.44134041E+02
  0
LINE
  8
0
  6
PHANTOM
 62
2
 10
-1.73860184E+02
 20
1.39634041E+02
 11
-1.74660183E+02
 21
1.39634041E+02
  0
LINE
  8
0
  6
PHANTOM
 62
2
 10
-1.73860184E+02
 20
1.43134041E+02
 11
-1.76110184E+02
 21
1.43134041E+02
  0
LINE
  8
0
  6
PHANTOM
 62
2
 10
-1.73860184E+02
 20
1.19134041E+02
 11
-1.73860184E+02
 21
1.43134041E+02
  0
LINE
  8
0
  6
PHANTOM
 62
2
 10
-1.88860184E+02
 20
1.19134041E+02
 11
-1.88860184E+02
 21
1.43134041E+02
  0
LINE
  8
0
  6
PHANTOM
 62
2
 10
-1.84060184E+02
 20
1.55939144E+02
 11
-1.84060184E+02
 21
1.68334038E+02
  0
LINE
  8
0
  6
PHANTOM
 62
2
 10
-1.87860184E+02
 20
1.58133076E+02
 11
-1.87860184E+02
 21
1.68334038E+02
  0
LINE
  8
0
  6
PHANTOM
 62
2
 10
-1.82021036E+02
 20
1.54761842E+02
 11
-1.90377920E+02
 21
1.59586691E+02
  0
LINE
  8
0
  6
PHANTOM
 62
2
 10
-1.82229473E+02
 20
1.51995427E+02
 11
-1.90564499E+02
 21
1.56807657E+02
  0
LINE
  8
0
  6
PHANTOM
 62
2
 10
-1.84060184E+02
 20
1.68334038E+02
 11
-1.87860184E+02
 21
1.68334038E+02
  0
LINE
  8
0
  6
PHANTOM
 62
2
 10
-1.84060184E+02
 20
1.44134041E+02
 11
-1.84060184E+02
 21
1.53052391E+02
  0
LINE
  8
0
  6
PHANTOM
 62
2
 10
-1.87860184E+02
 20
1.44134041E+02
 11
-1.87860184E+02
 21
1.55246323E+02
  0
LINE
  8
0
  6
PHANTOM
 62
2
 10
-1.88760185E+02
 20
1.43134041E+02
 11
-1.88760185E+02
 21
1.44134041E+02
  0
LINE
  8
0
  6
PHANTOM
 62
2
 10
-1.87110184E+02
 20
1.44134041E+02
 11
-1.88760185E+02
 21
1.44134041E+02
  0
LINE
  8
0
  6
PHANTOM
 62
2
 10
-1.87110184E+02
 20
1.44138962E+02
 11
-1.86610184E+02
 21
1.44138962E+02
  0
LINE
  8
0
  6
CENTER
 62
6
 10
-1.79660183E+02
 20
1.16738373E+02
 11
-1.79660183E+02
 21
1.40957352E+02
  0
LINE
  8
0
  6
CENTER
 62
6
 10
-1.83060184E+02
 20
1.16738373E+02
 11
-1.83060184E+02
 21
1.40957352E+02
  0
LINE
  8
0
 62
7
 10
-1.73953519E+02
 20
1.19134040E+02
 11
-1.74059301E+02
 21
1.42934930E+02
  0
LINE
  8
0
 62
7
 10
-1.88766851E+02
 20
1.19134040E+02
 11
-1.88661069E+02
 21
1.42934931E+02
  0
LINE
  8
0
 62
7
 10
-1.77910183E+02
 20
1.51134041E+02
 11
-1.79910183E+02
 21
1.51134041E+02
  0
LINE
  8
0
 62
7
 10
-1.86310184E+02
 20
1.47934040E+02
 11
-1.86310184E+02
 21
1.49634041E+02
  0
LINE
  8
0
 62
7
 10
-1.76410183E+02
 20
1.47934040E+02
 11
-1.76410183E+02
 21
1.49634041E+02
  0
LINE
  8
0
 62
7
 10
-1.74259296E+02
 20
1.43134041E+02
 11
-1.75610184E+02
 21
1.43134041E+02
  0
LINE
  8
0
  6
CENTER
 62
2
 10
-1.81360184E+02
 20
6.86930389E+01
 11
-1.81360184E+02
 21
1.56109509E+02
  0
LINE
  8
0
 62
7
 10
-1.76638001E+02
 20
1.00911858E+02
 11
-1.75082366E+02
 21
9.93562226E+01
  0
LINE
  8
0
 62
7
 10
-1.75082367E+02
 20
1.00911859E+02
 11
-1.76638003E+02
 21
9.93562240E+01
  0
LINE
  8
0
 62
7
 10
-1.86082366E+02
 20
1.17911859E+02
 11
-1.87638001E+02
 21
1.16356224E+02
  0
LINE
  8
0
 62
7
 10
-1.87638002E+02
 20
1.17911857E+02
 11
-1.86082367E+02
 21
1.16356222E+02
  0
LINE
  8
0
 62
7
 10
-1.88860184E+02
 20
1.19134041E+02
 11
-1.88860184E+02
 21
9.81340408E+01
  0
LINE
  8
0
 62
7
 10
-1.73860184E+02
 20
1.19134041E+02
 11
-1.73860184E+02
 21
9.81340408E+01
  0
LINE
  8
0
 62
7
 10
-1.88860184E+02
 20
1.19134041E+02
 11
-1.73860184E+02
 21
1.19134041E+02
  0
LINE
  8
0
 62
7
 10
-1.75860184E+02
 20
1.01734041E+02
 11
-1.73860184E+02
 21
1.01734041E+02
  0
LINE
  8
0
 62
7
 10
-1.77460182E+02
 20
1.00134041E+02
 11
-1.77460182E+02
 21
9.81340408E+01
  0
LINE
  8
0
 62
7
 10
-1.85260185E+02
 20
1.17134041E+02
 11
-1.85260185E+02
 21
1.19134041E+02
  0
LINE
  8
0
 62
7
 10
-1.86860184E+02
 20
1.15534040E+02
 11
-1.88860184E+02
 21
1.15534040E+02
  0
LINE
  8
0
 62
7
 10
-1.89110184E+02
 20
7.21340408E+01
 11
-1.73610184E+02
 21
7.21340408E+01
  0
LINE
  8
0
 62
7
 10
-1.73610184E+02
 20
9.81340408E+01
 11
-1.89110184E+02
 21
9.81340408E+01
  0
LINE
  8
0
 62
7
 10
-1.73610184E+02
 20
7.21340408E+01
 11
-1.73610184E+02
 21
9.81340408E+01
  0
LINE
  8
0
 62
7
 10
-1.89110184E+02
 20
7.21340408E+01
 11
-1.89110184E+02
 21
9.81340408E+01
  0
LINE
  8
0
 62
7
 10
-1.75610184E+02
 20
1.44134041E+02
 11
-1.76110184E+02
 21
1.44134041E+02
  0
LINE
  8
0
 62
7
 10
-1.75610184E+02
 20
1.42134041E+02
 11
-1.76110184E+02
 21
1.42134041E+02
  0
LINE
  8
0
 62
7
 10
-1.75610184E+02
 20
1.44134041E+02
 11
-1.75610184E+02
 21
1.42134041E+02
  0
LINE
  8
0
 62
7
 10
-1.87110184E+02
 20
1.44134041E+02
 11
-1.87110184E+02
 21
1.42134041E+02
  0
LINE
  8
0
 62
7
 10
-1.87110184E+02
 20
1.43134041E+02
 11
-1.88461071E+02
 21
1.43134041E+02
  0
LINE
  8
0
 62
7
 10
-1.86610184E+02
 20
1.44134041E+02
 11
-1.87110184E+02
 21
1.44134041E+02
  0
LINE
  8
0
 62
7
 10
-1.86610184E+02
 20
1.42134041E+02
 11
-1.87110184E+02
 21
1.42134041E+02
  0
LINE
  8
0
 62
7
 10
-1.80810184E+02
 20
1.44134041E+02
 11
-1.81910183E+02
 21
1.44134041E+02
  0
LINE
  8
0
 62
7
 10
-1.80810184E+02
 20
1.42134041E+02
 11
-1.81910183E+02
 21
1.42134041E+02
  0
LINE
  8
0
 62
7
 10
-1.80410183E+02
 20
1.51134041E+02
 11
-1.82310184E+02
 21
1.51134041E+02
  0
LINE
  8
0
 62
6
 10
-1.88060184E+02
 20
1.38734039E+02
 11
-1.88060184E+02
 21
1.39734039E+02
  0
LINE
  8
0
 62
6
 10
-1.86610184E+02
 20
1.39734039E+02
 11
-1.86610184E+02
 21
1.47934040E+02
  0
LINE
  8
0
 62
6
 10
-1.85310184E+02
 20
1.39734039E+02
 11
-1.85310184E+02
 21
1.47934040E+02
  0
LINE
  8
0
 62
6
 10
-1.85310184E+02
 20
1.47934040E+02
 11
-1.86610184E+02
 21
1.47934040E+02
  0
LINE
  8
0
 62
6
 10
-1.85710182E+02
 20
1.51934040E+02
 11
-1.86210182E+02
 21
1.51934040E+02
  0
LINE
  8
0
 62
6
 10
-1.85710182E+02
 20
1.47934040E+02
 11
-1.85710182E+02
 21
1.51934040E+02
  0
LINE
  8
0
 62
6
 10
-1.86210182E+02
 20
1.47934040E+02
 11
-1.86210182E+02
 21
1.51934040E+02
  0
LINE
  8
0
 62
6
 10
-1.80410183E+02
 20
1.47934040E+02
 11
-1.80410183E+02
 21
1.51934040E+02
  0
LINE
  8
0
 62
6
 10
-1.79910183E+02
 20
1.47934040E+02
 11
-1.79910183E+02
 21
1.51934040E+02
  0
LINE
  8
0
 62
6
 10
-1.79910183E+02
 20
1.51934040E+02
 11
-1.80410183E+02
 21
1.51934040E+02
  0
LINE
  8
0
 62
6
 10
-1.79510185E+02
 20
1.47934040E+02
 11
-1.80810184E+02
 21
1.47934040E+02
  0
LINE
  8
0
 62
6
 10
-1.79510185E+02
 20
1.39734039E+02
 11
-1.79510185E+02
 21
1.47934040E+02
  0
LINE
  8
0
 62
6
 10
-1.80810184E+02
 20
1.39734039E+02
 11
-1.80810184E+02
 21
1.47934040E+02
  0
LINE
  8
0
 62
6
 10
-1.88060184E+02
 20
1.39734039E+02
 11
-1.84660183E+02
 21
1.39734039E+02
  0
LINE
  8
0
 62
6
 10
-1.74660183E+02
 20
1.23134041E+02
 11
-1.84660183E+02
 21
1.23134041E+02
  0
LINE
  8
0
 62
6
 10
-1.88060184E+02
 20
1.19134041E+02
 11
-1.88060184E+02
 21
1.38734039E+02
  0
LINE
  8
0
 62
6
 10
-1.74660183E+02
 20
1.19134041E+02
 11
-1.74660183E+02
 21
1.38734039E+02
  0
LINE
  8
0
 62
6
 10
-1.74660183E+02
 20
1.38734039E+02
 11
-1.74660183E+02
 21
1.39734039E+02
  0
LINE
  8
0
 62
6
 10
-1.84660183E+02
 20
1.38734039E+02
 11
-1.84660183E+02
 21
1.39734039E+02
  0
LINE
  8
0
 62
6
 10
-1.84660183E+02
 20
1.19134041E+02
 11
-1.84660183E+02
 21
1.38734039E+02
  0
LINE
  8
0
 62
6
 10
-1.77410183E+02
 20
1.39734039E+02
 11
-1.77410183E+02
 21
1.47934040E+02
  0
LINE
  8
0
 62
6
 10
-1.76110184E+02
 20
1.39734039E+02
 11
-1.76110184E+02
 21
1.47934040E+02
  0
LINE
  8
0
 62
6
 10
-1.76110184E+02
 20
1.47934040E+02
 11
-1.77410183E+02
 21
1.47934040E+02
  0
LINE
  8
0
 62
6
 10
-1.76510185E+02
 20
1.51934040E+02
 11
-1.77010185E+02
 21
1.51934040E+02
  0
LINE
  8
0
 62
6
 10
-1.76510185E+02
 20
1.47934040E+02
 11
-1.76510185E+02
 21
1.51934040E+02
  0
LINE
  8
0
 62
6
 10
-1.77010185E+02
 20
1.47934040E+02
 11
-1.77010185E+02
 21
1.51934040E+02
  0
LINE
  8
0
 62
6
 10
-1.82810184E+02
 20
1.47934040E+02
 11
-1.82810184E+02
 21
1.51934040E+02
  0
LINE
  8
0
 62
6
 10
-1.82310184E+02
 20
1.47934040E+02
 11
-1.82310184E+02
 21
1.51934040E+02
  0
LINE
  8
0
 62
6
 10
-1.82310184E+02
 20
1.51934040E+02
 11
-1.82810184E+02
 21
1.51934040E+02
  0
LINE
  8
0
 62
6
 10
-1.81910183E+02
 20
1.47934040E+02
 11
-1.83210182E+02
 21
1.47934040E+02
  0
LINE
  8
0
 62
6
 10
-1.81910183E+02
 20
1.39734039E+02
 11
-1.81910183E+02
 21
1.47934040E+02
  0
LINE
  8
0
 62
6
 10
-1.83210182E+02
 20
1.39734039E+02
 11
-1.83210182E+02
 21
1.47934040E+02
  0
LINE
  8
0
 62
6
 10
-1.84660183E+02
 20
1.34134041E+02
 11
-1.74660183E+02
 21
1.34134041E+02
  0
LINE
  8
0
 62
6
 10
-1.84660183E+02
 20
1.30634041E+02
 11
-1.74660183E+02
 21
1.30634041E+02
  0
LINE
  8
0
 62
6
 10
-1.84660183E+02
 20
1.38734039E+02
 11
-1.74660183E+02
 21
1.38734039E+02
  0
LINE
  8
0
 62
6
 10
-1.84660183E+02
 20
1.39734039E+02
 11
-1.74660183E+02
 21
1.39734039E+02
  0
LINE
  8
0
 62
6
 10
-1.84660183E+02
 20
1.38734039E+02
 11
-1.88060184E+02
 21
1.38734039E+02
  0
LINE
  8
0
 62
6
 10
-1.84660183E+02
 20
1.20334042E+02
 11
-1.88060184E+02
 21
1.20334042E+02
  0
LINE
  8
0
  6
PHANTOM
 62
2
 10
-1.86610184E+02
 20
1.44134041E+02
 11
-1.87110184E+02
 21
1.44134041E+02
  0
LINE
  8
0
  6
PHANTOM
 62
2
 10
-1.86610184E+02
 20
1.43134041E+02
 11
-1.88860184E+02
 21
1.43134041E+02
  0
LINE
  8
0
  6
PHANTOM
 62
2
 10
-1.86610184E+02
 20
1.41257328E+02
 11
-1.87110184E+02
 21
1.41257328E+02
  0
LINE
  8
0
  6
PHANTOM
 62
2
 10
-1.83210182E+02
 20
1.41257328E+02
 11
-1.85310184E+02
 21
1.41257328E+02
  0
LINE
  8
0
  6
PHANTOM
 62
2
 10
-1.83210182E+02
 20
1.44134041E+02
 11
-1.85310184E+02
 21
1.44134041E+02
  0
LINE
  8
0
  6
PHANTOM
 62
2
 10
-1.83210182E+02
 20
1.43134041E+02
 11
-1.85310184E+02
 21
1.43134041E+02
  0
LINE
  8
0
  6
PHANTOM
 62
2
 10
-1.80810184E+02
 20
1.44134041E+02
 11
-1.81910183E+02
 21
1.44134041E+02
  0
LINE
  8
0
  6
PHANTOM
 62
2
 10
-1.80810184E+02
 20
1.43134041E+02
 11
-1.81910183E+02
 21
1.43134041E+02
  0
LINE
  8
0
  6
PHANTOM
 62
2
 10
-1.80810184E+02
 20
1.41257328E+02
 11
-1.81910183E+02
 21
1.41257328E+02
  0
LINE
  8
0
  6
PHANTOM
 62
2
 10
-1.77410183E+02
 20
1.41257328E+02
 11
-1.79510185E+02
 21
1.41257328E+02
  0
LINE
  8
0
  6
PHANTOM
 62
2
 10
-1.77410183E+02
 20
1.43134041E+02
 11
-1.79510185E+02
 21
1.43134041E+02
  0
LINE
  8
0
  6
PHANTOM
 62
2
 10
-1.76110184E+02
 20
1.44138962E+02
 11
-1.75610184E+02
 21
1.44138962E+02
  0
LINE
  8
0
  6
PHANTOM
 62
2
 10
-1.79510185E+02
 20
1.44138962E+02
 11
-1.77410183E+02
 21
1.44138962E+02
  0
LINE
  8
0
  6
CENTER
 62
2
 10
-1.94860184E+02
 20
6.94734650E+01
 11
-1.94860184E+02
 21
1.52901474E+02
  0
LINE
  8
0
 62
7
 10
-2.00060184E+02
 20
1.16634041E+02
 11
-1.89660183E+02
 21
1.16634041E+02
  0
LINE
  8
0
 62
7
 10
-1.89860184E+02
 20
9.81340408E+01
 11
-1.89860184E+02
 21
1.16634041E+02
  0
LINE
  8
0
 62
7
 10
-1.99860184E+02
 20
1.16634041E+02
 11
-1.99860184E+02
 21
9.81340408E+01
  0
LINE
  8
0
 62
7
 10
-1.97860184E+02
 20
1.02634041E+02
 11
-1.99860184E+02
 21
1.02634041E+02
  0
LINE
  8
0
 62
7
 10
-1.91560184E+02
 20
1.08334041E+02
 11
-1.89860184E+02
 21
1.08334041E+02
  0
LINE
  8
0
 62
7
 10
-1.91560184E+02
 20
1.11534040E+02
 11
-1.89860184E+02
 21
1.11534040E+02
  0
LINE
  8
0
 62
7
 10
-1.89660183E+02
 20
1.09934041E+02
 11
-1.89660183E+02
 21
1.16634041E+02
  0
LINE
  8
0
 62
7
 10
-2.00060184E+02
 20
1.16634041E+02
 11
-2.00060184E+02
 21
1.09934041E+02
  0
LINE
  8
0
 62
7
 10
-1.89660183E+02
 20
1.09934041E+02
 11
-1.89860184E+02
 21
1.09934041E+02
  0
LINE
  8
0
 62
7
 10
-1.99860184E+02
 20
1.09934041E+02
 11
-2.00060184E+02
 21
1.09934041E+02
  0
LINE
  8
0
 62
7
 10
-1.97860184E+02
 20
9.94340408E+01
 11
-1.99860184E+02
 21
9.94340408E+01
  0
LINE
  8
0
 62
7
 10
-2.00110184E+02
 20
7.21340408E+01
 11
-1.89610184E+02
 21
7.21340408E+01
  0
LINE
  8
0
 62
7
 10
-1.89610184E+02
 20
7.21340408E+01
 11
-1.89610184E+02
 21
9.81340408E+01
  0
LINE
  8
0
 62
7
 10
-2.00110184E+02
 20
7.21340408E+01
 11
-2.00110184E+02
 21
9.81340408E+01
  0
LINE
  8
0
 62
7
 10
-1.90059076E+02
 20
1.43134041E+02
 11
-1.91310184E+02
 21
1.43134041E+02
  0
LINE
  8
0
 62
7
 10
-1.99810184E+02
 20
1.43434040E+02
 11
-1.99810184E+02
 21
1.49634041E+02
  0
LINE
  8
0
 62
7
 10
-1.91410183E+02
 20
1.51134041E+02
 11
-1.98310184E+02
 21
1.51134041E+02
  0
LINE
  8
0
 62
7
 10
-1.99810184E+02
 20
1.43434040E+02
 11
-1.99510184E+02
 21
1.43134040E+02
  0
LINE
  8
0
 62
7
 10
-1.89859078E+02
 20
1.42935151E+02
 11
-1.89712961E+02
 21
1.16634040E+02
  0
LINE
  8
0
 62
7
 10
-2.00044629E+02
 20
1.09934041E+02
 11
-2.00110185E+02
 21
9.81340410E+01
  0
LINE
  8
0
 62
7
 10
-2.00110184E+02
 20
9.81340408E+01
 11
-1.89610184E+02
 21
9.81340408E+01
  0
LINE
  8
0
 62
7
 10
-1.97082367E+02
 20
1.01811858E+02
 11
-1.98638002E+02
 21
1.00256224E+02
  0
LINE
  8
0
 62
7
 10
-1.98638001E+02
 20
1.01811858E+02
 11
-1.97082367E+02
 21
1.00256224E+02
  0
LINE
  8
0
 62
7
 10
-1.90782366E+02
 20
1.10711858E+02
 11
-1.92338001E+02
 21
1.09156223E+02
  0
LINE
  8
0
 62
7
 10
-1.92338001E+02
 20
1.10711858E+02
 11
-1.90782367E+02
 21
1.09156224E+02
  0
LINE
  8
0
  6
PHANTOM
 62
2
 10
-1.94008373E+02
 20
1.49243102E+02
 11
-2.01384001E+02
 21
1.51225302E+02
  0
LINE
  8
0
  6
PHANTOM
 62
2
 10
-1.94008373E+02
 20
1.48213104E+02
 11
-2.01384001E+02
 21
1.50195304E+02
  0
LINE
  8
0
  6
CENTER
 62
2
 10
-1.97360737E+02
 20
1.40440895E+02
 11
-1.97360737E+02
 21
1.60295181E+02
  0
LINE
  8
0
  6
PHANTOM
 62
2
 10
-1.99060737E+02
 20
1.56589108E+02
 11
-1.98860737E+02
 21
1.56725054E+02
  0
LINE
  8
0
  6
PHANTOM
 62
2
 10
-1.99060736E+02
 20
1.55715168E+02
 11
-1.99060736E+02
 21
1.56589111E+02
  0
LINE
  8
0
  6
PHANTOM
 62
2
 10
-1.98860737E+02
 20
1.55715168E+02
 11
-1.98860737E+02
 21
1.56725056E+02
  0
LINE
  8
0
  6
PHANTOM
 62
2
 10
-1.98060736E+02
 20
1.56589110E+02
 11
-1.97860737E+02
 21
1.56725056E+02
  0
LINE
  8
0
  6
PHANTOM
 62
2
 10
-1.98060736E+02
 20
1.55715168E+02
 11
-1.98060736E+02
 21
1.56589111E+02
  0
LINE
  8
0
  6
PHANTOM
 62
2
 10
-1.97860737E+02
 20
1.55715168E+02
 11
-1.97860737E+02
 21
1.56725056E+02
  0
LINE
  8
0
  6
PHANTOM
 62
2
 10
-1.97060738E+02
 20
1.56589108E+02
 11
-1.96860738E+02
 21
1.56725054E+02
  0
LINE
  8
0
  6
PHANTOM
 62
2
 10
-1.97060736E+02
 20
1.55715168E+02
 11
-1.97060736E+02
 21
1.56589111E+02
  0
LINE
  8
0
  6
PHANTOM
 62
2
 10
-1.96860737E+02
 20
1.55715168E+02
 11
-1.96860737E+02
 21
1.56725056E+02
  0
LINE
  8
0
  6
PHANTOM
 62
2
 10
-1.96060736E+02
 20
1.56589108E+02
 11
-1.95860736E+02
 21
1.56725054E+02
  0
LINE
  8
0
  6
PHANTOM
 62
2
 10
-1.96060736E+02
 20
1.55715168E+02
 11
-1.96060736E+02
 21
1.56589111E+02
  0
LINE
  8
0
  6
PHANTOM
 62
2
 10
-1.95860737E+02
 20
1.55715168E+02
 11
-1.95860737E+02
 21
1.56725056E+02
  0
LINE
  8
0
  6
PHANTOM
 62
2
 10
-1.98710735E+02
 20
1.55715168E+02
 11
-1.99210735E+02
 21
1.55715168E+02
  0
LINE
  8
0
  6
PHANTOM
 62
2
 10
-1.97710735E+02
 20
1.55715168E+02
 11
-1.98210735E+02
 21
1.55715168E+02
  0
LINE
  8
0
  6
PHANTOM
 62
2
 10
-1.96710735E+02
 20
1.55715168E+02
 11
-1.97210735E+02
 21
1.55715168E+02
  0
LINE
  8
0
  6
PHANTOM
 62
2
 10
-1.95710735E+02
 20
1.55715168E+02
 11
-1.96210735E+02
 21
1.55715168E+02
  0
LINE
  8
0
  6
PHANTOM
 62
2
 10
-1.99210735E+02
 20
1.53834595E+02
 11
-1.99210735E+02
 21
1.55715168E+02
  0
LINE
  8
0
  6
PHANTOM
 62
2
 10
-1.98710735E+02
 20
1.53834595E+02
 11
-1.98710735E+02
 21
1.55715168E+02
  0
LINE
  8
0
  6
PHANTOM
 62
2
 10
-1.98210735E+02
 20
1.53834595E+02
 11
-1.98210735E+02
 21
1.55715168E+02
  0
LINE
  8
0
  6
PHANTOM
 62
2
 10
-1.97710735E+02
 20
1.53834595E+02
 11
-1.97710735E+02
 21
1.55715168E+02
  0
LINE
  8
0
  6
PHANTOM
 62
2
 10
-1.97210735E+02
 20
1.53834595E+02
 11
-1.97210735E+02
 21
1.55715168E+02
  0
LINE
  8
0
  6
PHANTOM
 62
2
 10
-1.96710735E+02
 20
1.53834595E+02
 11
-1.96710735E+02
 21
1.55715168E+02
  0
LINE
  8
0
  6
PHANTOM
 62
2
 10
-1.96210735E+02
 20
1.53834595E+02
 11
-1.96210735E+02
 21
1.55715168E+02
  0
LINE
  8
0
  6
PHANTOM
 62
2
 10
-1.95710735E+02
 20
1.53834595E+02
 11
-1.95710735E+02
 21
1.55715168E+02
  0
LINE
  8
0
  6
PHANTOM
 62
2
 10
-1.95360737E+02
 20
1.53834595E+02
 11
-1.99360737E+02
 21
1.53834595E+02
  0
LINE
  8
0
  6
PHANTOM
 62
2
 10
-1.99360737E+02
 20
1.44034595E+02
 11
-1.99360737E+02
 21
1.53834595E+02
  0
LINE
  8
0
  6
PHANTOM
 62
2
 10
-1.95360737E+02
 20
1.44034595E+02
 11
-1.95360737E+02
 21
1.53834595E+02
  0
LINE
  8
0
  6
PHANTOM
 62
2
 10
-1.94960735E+02
 20
1.44034595E+02
 11
-1.96311289E+02
 21
1.44034595E+02
  0
LINE
  8
0
  6
PHANTOM
 62
2
 10
-1.99760736E+02
 20
1.44034595E+02
 11
-1.99760736E+02
 21
1.43134041E+02
  0
LINE
  8
0
  6
PHANTOM
 62
2
 10
-1.94960735E+02
 20
1.44034595E+02
 11
-1.94960735E+02
 21
1.43107567E+02
  0
LINE
  8
0
 62
7
 10
-1.89910183E+02
 20
1.43434040E+02
 11
-1.89910183E+02
 21
1.49634041E+02
  0
LINE
  8
0
 62
7
 10
-1.89675738E+02
 20
1.09933820E+02
 11
-1.89610183E+02
 21
9.81340409E+01
  0
LINE
  8
0
 62
7
 10
-1.99861289E+02
 20
1.42935151E+02
 11
-2.00007407E+02
 21
1.16634041E+02
  0
LINE
  8
0
 62
6
 10
-1.99860184E+02
 20
1.37234039E+02
 11
-1.89860184E+02
 21
1.37234039E+02
  0
LINE
  8
0
 62
6
 10
-1.98410183E+02
 20
1.37234039E+02
 11
-1.98410183E+02
 21
1.45434040E+02
  0
LINE
  8
0
 62
6
 10
-1.97110184E+02
 20
1.37234039E+02
 11
-1.97110184E+02
 21
1.45434040E+02
  0
LINE
  8
0
 62
6
 10
-1.97110184E+02
 20
1.45434040E+02
 11
-1.98410183E+02
 21
1.45434040E+02
  0
LINE
  8
0
 62
6
 10
-1.97510183E+02
 20
1.49434040E+02
 11
-1.98010183E+02
 21
1.49434040E+02
  0
LINE
  8
0
 62
6
 10
-1.97510183E+02
 20
1.45434040E+02
 11
-1.97510183E+02
 21
1.49434040E+02
  0
LINE
  8
0
 62
6
 10
-1.98010183E+02
 20
1.45434040E+02
 11
-1.98010183E+02
 21
1.49434040E+02
  0
LINE
  8
0
 62
6
 10
-1.92210184E+02
 20
1.45434040E+02
 11
-1.92210184E+02
 21
1.49434040E+02
  0
LINE
  8
0
 62
6
 10
-1.91710184E+02
 20
1.45434040E+02
 11
-1.91710184E+02
 21
1.49434040E+02
  0
LINE
  8
0
 62
6
 10
-1.91710184E+02
 20
1.49434040E+02
 11
-1.92210184E+02
 21
1.49434040E+02
  0
LINE
  8
0
 62
6
 10
-1.91310184E+02
 20
1.45434040E+02
 11
-1.92610184E+02
 21
1.45434040E+02
  0
LINE
  8
0
 62
6
 10
-1.91310184E+02
 20
1.37234039E+02
 11
-1.91310184E+02
 21
1.45434040E+02
  0
LINE
  8
0
 62
6
 10
-1.92610184E+02
 20
1.37234039E+02
 11
-1.92610184E+02
 21
1.45434040E+02
  0
LINE
  8
0
 62
6
 10
-1.99860184E+02
 20
1.16634041E+02
 11
-1.99860184E+02
 21
1.36234039E+02
  0
LINE
  8
0
 62
6
 10
-1.99860184E+02
 20
1.36234039E+02
 11
-1.99860184E+02
 21
1.37234039E+02
  0
LINE
  8
0
 62
6
 10
-1.89860184E+02
 20
1.36234039E+02
 11
-1.89860184E+02
 21
1.37234039E+02
  0
LINE
  8
0
 62
6
 10
-1.89860184E+02
 20
1.16634041E+02
 11
-1.89860184E+02
 21
1.36234039E+02
  0
LINE
  8
0
 62
6
 10
-1.89860184E+02
 20
1.20634041E+02
 11
-1.99860184E+02
 21
1.20634041E+02
  0
LINE
  8
0
 62
7
 10
-1.98410183E+02
 20
1.43134041E+02
 11
-1.99661291E+02
 21
1.43134041E+02
  0
LINE
  8
0
 62
7
 10
-1.92610184E+02
 20
1.43134041E+02
 11
-1.97110184E+02
 21
1.43134041E+02
  0
LINE
  8
0
  6
PHANTOM
 62
2
 10
-1.97611288E+02
 20
1.44034595E+02
 11
-1.99760736E+02
 21
1.44034595E+02
  0
LINE
  8
0
 62
6
 10
-1.99860184E+02
 20
1.36234039E+02
 11
-1.89860184E+02
 21
1.36234039E+02
  0
LINE
  8
0
 62
6
 10
-1.99860184E+02
 20
1.28134041E+02
 11
-1.89860184E+02
 21
1.28134041E+02
  0
LINE
  8
0
 62
6
 10
-1.99860184E+02
 20
1.31634041E+02
 11
-1.89860184E+02
 21
1.31634041E+02
  0
LINE
  8
0
 62
7
 10
-1.89910183E+02
 20
1.43434041E+02
 11
-1.90210185E+02
 21
1.43134039E+02
  0
LINE
  8
0
  6
CENTER
 62
2
 10
-1.35360184E+02
 20
8.00340405E+01
 11
-2.13360184E+02
 21
8.00340405E+01
  0
LINE
  8
0
  6
CENTER
 62
2
 10
-1.35360184E+02
 20
8.20340405E+01
 11
-2.13360184E+02
 21
8.20340405E+01
  0
LINE
  8
0
 62
7
 10
-2.00610184E+02
 20
8.50340405E+01
 11
-2.00360184E+02
 21
8.50340405E+01
  0
LINE
  8
0
 62
7
 10
-1.27860184E+02
 20
1.05034041E+02
 11
-1.31860184E+02
 21
1.05034041E+02
  0
LINE
  8
0
 62
7
 10
-1.27860184E+02
 20
1.01234041E+02
 11
-1.31860184E+02
 21
1.01234041E+02
  0
LINE
  8
0
 62
7
 10
-1.27860184E+02
 20
6.10340424E+01
 11
-1.31860184E+02
 21
6.10340424E+01
  0
LINE
  8
0
 62
7
 10
-1.27860184E+02
 20
5.72340393E+01
 11
-1.31860184E+02
 21
5.72340393E+01
  0
LINE
  8
0
 62
7
 10
-2.21860184E+02
 20
1.05034041E+02
 11
-2.17860184E+02
 21
1.05034041E+02
  0
LINE
  8
0
 62
7
 10
-2.21860184E+02
 20
1.01234041E+02
 11
-2.17860184E+02
 21
1.01234041E+02
  0
LINE
  8
0
 62
7
 10
-2.21860184E+02
 20
6.10340424E+01
 11
-2.17860184E+02
 21
6.10340424E+01
  0
LINE
  8
0
 62
7
 10
-2.21860184E+02
 20
5.72340393E+01
 11
-2.17860184E+02
 21
5.72340393E+01
  0
LINE
  8
0
 62
7
 10
-1.31860184E+02
 20
1.05034041E+02
 11
-1.31860184E+02
 21
1.09134041E+02
  0
LINE
  8
0
 62
7
 10
-2.17860184E+02
 20
1.05034041E+02
 11
-2.17860184E+02
 21
1.09134041E+02
  0
LINE
  8
0
 62
7
 10
-2.17860184E+02
 20
5.72340393E+01
 11
-2.17860184E+02
 21
5.31340408E+01
  0
LINE
  8
0
 62
7
 10
-1.31860184E+02
 20
5.72340393E+01
 11
-1.31860184E+02
 21
5.31340408E+01
  0
LINE
  8
0
 62
7
 10
-2.00610184E+02
 20
7.40340405E+01
 11
-2.00360184E+02
 21
7.40340405E+01
  0
LINE
  8
0
 62
7
 10
-2.00360184E+02
 20
7.40340405E+01
 11
-2.00110184E+02
 21
7.40340405E+01
  0
LINE
  8
0
 62
7
 10
-2.00360184E+02
 20
8.50340405E+01
 11
-2.00110184E+02
 21
8.50340405E+01
  0
LINE
  8
0
 62
7
 10
-1.89360184E+02
 20
7.40340405E+01
 11
-1.89110184E+02
 21
7.40340405E+01
  0
LINE
  8
0
 62
7
 10
-1.89610184E+02
 20
7.40340405E+01
 11
-1.89360184E+02
 21
7.40340405E+01
  0
LINE
  8
0
 62
7
 10
-1.89360184E+02
 20
8.50340405E+01
 11
-1.89110184E+02
 21
8.50340405E+01
  0
LINE
  8
0
 62
7
 10
-1.89610184E+02
 20
8.50340405E+01
 11
-1.89360184E+02
 21
8.50340405E+01
  0
LINE
  8
0
 62
7
 10
-1.73360184E+02
 20
7.40340405E+01
 11
-1.73110184E+02
 21
7.40340405E+01
  0
LINE
  8
0
 62
7
 10
-1.73610184E+02
 20
7.40340405E+01
 11
-1.73360184E+02
 21
7.40340405E+01
  0
LINE
  8
0
 62
7
 10
-1.73360184E+02
 20
8.50340405E+01
 11
-1.73110184E+02
 21
8.50340405E+01
  0
LINE
  8
0
 62
7
 10
-1.73610184E+02
 20
8.50340405E+01
 11
-1.73360184E+02
 21
8.50340405E+01
  0
LINE
  8
0
 62
7
 10
-1.57360184E+02
 20
7.40340405E+01
 11
-1.57110184E+02
 21
7.40340405E+01
  0
LINE
  8
0
 62
7
 10
-1.57610184E+02
 20
7.40340405E+01
 11
-1.57360184E+02
 21
7.40340405E+01
  0
LINE
  8
0
 62
7
 10
-1.57360184E+02
 20
8.50340405E+01
 11
-1.57110184E+02
 21
8.50340405E+01
  0
LINE
  8
0
 62
7
 10
-1.57610184E+02
 20
8.50340405E+01
 11
-1.57360184E+02
 21
8.50340405E+01
  0
LINE
  8
0
  6
CENTER
 62
2
 10
-1.98285183E+02
 20
8.96340408E+01
 11
-1.89535183E+02
 21
8.96340408E+01
  0
LINE
  8
0
  6
CENTER
 62
2
 10
-1.93910183E+02
 20
8.52590408E+01
 11
-1.93910183E+02
 21
9.40090408E+01
  0
LINE
  8
0
  6
CENTER
 62
2
 10
-1.83735184E+02
 20
9.06340408E+01
 11
-1.74985184E+02
 21
9.06340408E+01
  0
LINE
  8
0
  6
CENTER
 62
2
 10
-1.79360184E+02
 20
8.62590408E+01
 11
-1.79360184E+02
 21
9.50090408E+01
  0
LINE
  8
0
  6
CENTER
 62
2
 10
-1.67735184E+02
 20
9.06340408E+01
 11
-1.58985184E+02
 21
9.06340408E+01
  0
LINE
  8
0
  6
CENTER
 62
2
 10
-1.63360184E+02
 20
8.62590408E+01
 11
-1.63360184E+02
 21
9.50090408E+01
  0
LINE
  8
0
  6
CENTER
 62
2
 10
-1.52235184E+02
 20
9.06340408E+01
 11
-1.43485184E+02
 21
9.06340408E+01
  0
ARC
  8
0
 62
7
 10
-2.21860184E+02
 20
5.91340408E+01
 40
4.00000000E+00
 50
9.00000002E+01
 51
2.70000000E+02
  0
ARC
  8
0
 62
7
 10
-2.21860184E+02
 20
1.03134041E+02
 40
4.00000000E+00
 50
9.00000002E+01
 51
2.70000000E+02
  0
ARC
  8
0
 62
7
 10
-1.27860184E+02
 20
1.03134041E+02
 40
4.00000000E+00
 50
2.70000000E+02
 51
9.00000002E+01
  0
ARC
  8
0
 62
7
 10
-1.27860184E+02
 20
5.91340408E+01
 40
4.00000000E+00
 50
2.70000000E+02
 51
9.00000002E+01
  0
ARC
  8
0
 62
7
 10
-2.08860184E+02
 20
1.01034041E+02
 40
1.60000002E+00
 50
2.70000000E+02
 51
9.00000002E+01
  0
ARC
  8
0
 62
7
 10
-2.02560184E+02
 20
1.09934041E+02
 40
1.60000002E+00
 50
9.00000002E+01
 51
2.70000000E+02
  0
CIRCLE
  8
0
 62
7
 10
-2.04910183E+02
 20
8.96340408E+01
 40
2.50000000E+00
  0
ARC
  8
0
 62
7
 10
-2.09310184E+02
 20
1.49634041E+02
 40
1.50000000E+00
 50
9.00000002E+01
 51
1.80000005E+02
  0
ARC
  8
0
 62
7
 10
-2.01059076E+02
 20
1.42934040E+02
 40
2.00000003E-01
 50
3.18306612E-01
 51
9.00000002E+01
  0
ARC
  8
0
 62
7
 10
-2.10661292E+02
 20
1.42934040E+02
 40
2.00000003E-01
 50
9.00000002E+01
 51
1.79681691E+02
  0
CIRCLE
  8
0
 62
7
 10
-2.08860184E+02
 20
1.01034041E+02
 40
1.50000000E+00
  0
CIRCLE
  8
0
 62
7
 10
-2.02560184E+02
 20
1.09934041E+02
 40
1.50000000E+00
  0
ARC
  8
0
 62
7
 10
-2.02410183E+02
 20
1.49634041E+02
 40
1.50000000E+00
 50
0.00000000E+00
 51
9.00000002E+01
  0
ARC
  8
0
 62
7
 10
-1.61910183E+02
 20
1.49634041E+02
 40
1.50000000E+00
 50
0.00000000E+00
 51
2.10394706E+01
  0
ARC
  8
0
 62
7
 10
-1.72461071E+02
 20
1.42934040E+02
 40
2.00000003E-01
 50
9.00000002E+01
 51
1.79745348E+02
  0
ARC
  8
0
 62
7
 10
-1.58259296E+02
 20
1.42934040E+02
 40
2.00000003E-01
 50
2.54646235E-01
 51
9.00000002E+01
  0
ARC
  8
0
 62
7
 10
-1.68810184E+02
 20
1.49634041E+02
 40
1.50000000E+00
 50
9.00000002E+01
 51
1.26869903E+02
  0
ARC
  8
0
 62
7
 10
-1.61910183E+02
 20
1.49634041E+02
 40
1.50000000E+00
 50
5.31301018E+01
 51
9.00000002E+01
  0
CIRCLE
  8
0
 62
7
 10
-1.59860184E+02
 20
1.00134041E+02
 40
1.50000000E+00
  0
CIRCLE
  8
0
 62
7
 10
-1.70860184E+02
 20
1.17134041E+02
 40
1.50000000E+00
  0
ARC
  8
0
 62
7
 10
-1.59860184E+02
 20
1.00134041E+02
 40
1.60000002E+00
 50
9.00000002E+01
 51
1.80000005E+02
  0
ARC
  8
0
 62
7
 10
-1.70860184E+02
 20
1.17134041E+02
 40
1.60000002E+00
 50
2.70000000E+02
 51
0.00000000E+00
  0
ARC
  8
0
 62
7
 10
-1.68810184E+02
 20
1.49634041E+02
 40
1.50000000E+00
 50
1.58960536E+02
 51
1.80000005E+02
  0
ARC
  8
0
 62
7
 10
-1.51310181E+02
 20
1.49634041E+02
 40
1.50000000E+00
 50
1.58960536E+02
 51
1.80000005E+02
  0
CIRCLE
  8
0
 62
7
 10
-1.40860184E+02
 20
1.00134041E+02
 40
1.50000000E+00
  0
CIRCLE
  8
0
 62
7
 10
-1.54860184E+02
 20
1.17134041E+02
 40
1.50000000E+00
  0
ARC
  8
0
 62
7
 10
-1.54860184E+02
 20
1.17134041E+02
 40
1.60000002E+00
 50
2.70000000E+02
 51
0.00000000E+00
  0
ARC
  8
0
 62
7
 10
-1.40860184E+02
 20
1.00134041E+02
 40
1.60000002E+00
 50
9.00000002E+01
 51
1.80000005E+02
  0
ARC
  8
0
 62
7
 10
-1.51310181E+02
 20
1.49634041E+02
 40
1.50000000E+00
 50
9.00000002E+01
 51
1.26869903E+02
  0
ARC
  8
0
 62
7
 10
-1.44410187E+02
 20
1.49634041E+02
 40
1.50000000E+00
 50
5.31301018E+01
 51
9.00000002E+01
  0
ARC
  8
0
 62
7
 10
-1.39258858E+02
 20
1.42938965E+02
 40
2.00000003E-01
 50
3.81966217E-01
 51
9.00000002E+01
  0
ARC
  8
0
 62
7
 10
-1.56461510E+02
 20
1.42938965E+02
 40
2.00000003E-01
 50
9.00000002E+01
 51
1.79618033E+02
  0
ARC
  8
0
 62
7
 10
-1.44410187E+02
 20
1.49634041E+02
 40
1.50000000E+00
 50
0.00000000E+00
 51
2.10394706E+01
  0
ARC
  8
0
 62
7
 10
-1.77910183E+02
 20
1.49634041E+02
 40
1.50000000E+00
 50
0.00000000E+00
 51
2.10394706E+01
  0
ARC
  8
0
 62
7
 10
-1.88461071E+02
 20
1.42934040E+02
 40
2.00000003E-01
 50
9.00000002E+01
 51
1.79745348E+02
  0
ARC
  8
0
 62
7
 10
-1.74259296E+02
 20
1.42934040E+02
 40
2.00000003E-01
 50
2.54646235E-01
 51
9.00000002E+01
  0
ARC
  8
0
 62
7
 10
-1.84810184E+02
 20
1.49634041E+02
 40
1.50000000E+00
 50
9.00000002E+01
 51
1.26869903E+02
  0
ARC
  8
0
 62
7
 10
-1.77910183E+02
 20
1.49634041E+02
 40
1.50000000E+00
 50
5.31301018E+01
 51
9.00000002E+01
  0
CIRCLE
  8
0
 62
7
 10
-1.75860184E+02
 20
1.00134041E+02
 40
1.50000000E+00
  0
CIRCLE
  8
0
 62
7
 10
-1.86860184E+02
 20
1.17134041E+02
 40
1.50000000E+00
  0
ARC
  8
0
 62
7
 10
-1.75860184E+02
 20
1.00134041E+02
 40
1.60000002E+00
 50
9.00000002E+01
 51
1.80000005E+02
  0
ARC
  8
0
 62
7
 10
-1.86860184E+02
 20
1.17134041E+02
 40
1.60000002E+00
 50
2.70000000E+02
 51
0.00000000E+00
  0
ARC
  8
0
 62
7
 10
-1.84810184E+02
 20
1.49634041E+02
 40
1.50000000E+00
 50
1.58960536E+02
 51
1.80000005E+02
  0
ARC
  8
0
 62
7
 10
-1.97860184E+02
 20
1.01034041E+02
 40
1.60000002E+00
 50
2.70000000E+02
 51
9.00000002E+01
  0
ARC
  8
0
 62
7
 10
-1.91560184E+02
 20
1.09934041E+02
 40
1.60000002E+00
 50
9.00000002E+01
 51
2.70000000E+02
  0
ARC
  8
0
 62
7
 10
-1.98310184E+02
 20
1.49634041E+02
 40
1.50000000E+00
 50
9.00000002E+01
 51
1.80000005E+02
  0
ARC
  8
0
 62
7
 10
-1.90059076E+02
 20
1.42934040E+02
 40
2.00000003E-01
 50
3.18306612E-01
 51
9.00000002E+01
  0
ARC
  8
0
 62
7
 10
-1.99661291E+02
 20
1.42934040E+02
 40
2.00000003E-01
 50
9.00000002E+01
 51
1.79681691E+02
  0
CIRCLE
  8
0
 62
7
 10
-1.97860184E+02
 20
1.01034041E+02
 40
1.50000000E+00
  0
CIRCLE
  8
0
 62
7
 10
-1.91560184E+02
 20
1.09934041E+02
 40
1.50000000E+00
  0
ARC
  8
0
 62
7
 10
-1.91410183E+02
 20
1.49634041E+02
 40
1.50000000E+00
 50
0.00000000E+00
 51
9.00000002E+01
  0
ARC
  8
0
 62
7
 10
-2.21860184E+02
 20
1.03134041E+02
 40
1.89999998E+00
 50
9.00000002E+01
 51
2.70000000E+02
  0
ARC
  8
0
 62
7
 10
-1.27860184E+02
 20
1.03134041E+02
 40
1.89999998E+00
 50
2.70000000E+02
 51
9.00000002E+01
  0
ARC
  8
0
 62
7
 10
-1.27860184E+02
 20
5.91340408E+01
 40
1.89999998E+00
 50
2.70000000E+02
 51
9.00000002E+01
  0
ARC
  8
0
 62
7
 10
-2.21860184E+02
 20
5.91340408E+01
 40
1.89999998E+00
 50
9.00000002E+01
 51
2.70000000E+02
  0
CIRCLE
  8
0
 62
7
 10
-2.04910183E+02
 20
8.96340408E+01
 40
3.50000000E+00
  0
CIRCLE
  8
0
 62
7
 10
-2.04910183E+02
 20
8.96340408E+01
 40
4.00000000E+00
  0
CIRCLE
  8
0
 62
7
 10
-1.93910183E+02
 20
8.96340408E+01
 40
2.50000000E+00
  0
CIRCLE
  8
0
 62
7
 10
-1.93910183E+02
 20
8.96340408E+01
 40
3.50000000E+00
  0
CIRCLE
  8
0
 62
7
 10
-1.93910183E+02
 20
8.96340408E+01
 40
4.00000000E+00
  0
CIRCLE
  8
0
 62
7
 10
-1.79360184E+02
 20
9.06340408E+01
 40
2.50000000E+00
  0
CIRCLE
  8
0
 62
7
 10
-1.79360184E+02
 20
9.06340408E+01
 40
3.50000000E+00
  0
CIRCLE
  8
0
 62
7
 10
-1.79360184E+02
 20
9.06340408E+01
 40
4.00000000E+00
  0
CIRCLE
  8
0
 62
7
 10
-1.63360184E+02
 20
9.06340408E+01
 40
2.50000000E+00
  0
CIRCLE
  8
0
 62
7
 10
-1.63360184E+02
 20
9.06340408E+01
 40
3.50000000E+00
  0
CIRCLE
  8
0
 62
7
 10
-1.63360184E+02
 20
9.06340408E+01
 40
4.00000000E+00
  0
CIRCLE
  8
0
 62
7
 10
-1.47860184E+02
 20
9.06340408E+01
 40
2.50000000E+00
  0
CIRCLE
  8
0
 62
7
 10
-1.47860184E+02
 20
9.06340408E+01
 40
3.50000000E+00
  0
CIRCLE
  8
0
 62
7
 10
-1.47860184E+02
 20
9.06340408E+01
 40
4.00000000E+00
  0
LINE
  8
0
  6
PHANTOM
 62
2
 10
5.36403751E+01
 20
-1.50124313E+02
 11
5.81823292E+01
 21
-1.50124313E+02
  0
LINE
  8
0
  6
PHANTOM
 62
2
 10
5.92123280E+01
 20
-1.50124313E+02
 11
6.34403706E+01
 21
-1.50124313E+02
  0
LINE
  8
0
  6
PHANTOM
 62
2
 10
5.12466679E+01
 20
-1.45365967E+02
 11
5.27398167E+01
 21
-1.45365967E+02
  0
LINE
  8
0
 62
7
 10
1.91398182E+01
 20
-1.88365967E+02
 11
5.27348957E+01
 21
-1.88365967E+02
  0
LINE
  8
0
 62
7
 10
6.07348957E+01
 20
-1.79415966E+02
 11
6.07348957E+01
 21
-1.86315967E+02
  0
LINE
  8
0
 62
7
 10
1.12398167E+01
 20
-6.08687134E+01
 11
1.12398167E+01
 21
-6.13687134E+01
  0
LINE
  8
0
 62
7
 10
8.23981667E+00
 20
-6.08687134E+01
 11
8.23981667E+00
 21
-6.13687134E+01
  0
LINE
  8
0
  6
CENTER
 62
2
 10
9.73981667E+00
 20
-5.89209747E+01
 11
9.73981667E+00
 21
-6.34943848E+01
  0
LINE
  8
0
 62
7
 10
1.13398190E+01
 20
-6.13687134E+01
 11
7.73981667E+00
 21
-6.13687134E+01
  0
LINE
  8
0
 62
7
 10
1.13398190E+01
 20
-6.03687134E+01
 11
1.13398190E+01
 21
-6.13687134E+01
  0
LINE
  8
0
 62
7
 10
2.70948200E+01
 20
-9.46187057E+01
 11
2.57398167E+01
 21
-9.46187057E+01
  0
LINE
  8
0
 62
7
 10
2.63998203E+01
 20
-9.46187057E+01
 11
2.63998203E+01
 21
-9.01187057E+01
  0
LINE
  8
0
 62
7
 10
2.70948200E+01
 20
-9.01187057E+01
 11
2.57398167E+01
 21
-9.01187057E+01
  0
LINE
  8
0
 62
7
 10
2.51398182E+01
 20
-1.44367062E+02
 11
2.87398167E+01
 21
-1.44367062E+02
  0
LINE
  8
0
 62
7
 10
2.82398167E+01
 20
-1.44867062E+02
 11
2.82398167E+01
 21
-1.44367062E+02
  0
LINE
  8
0
 62
7
 10
2.52398167E+01
 20
-1.44867062E+02
 11
2.52398167E+01
 21
-1.44367062E+02
  0
LINE
  8
0
  6
CENTER
 62
2
 10
2.67398167E+01
 20
-1.46670471E+02
 11
2.67398167E+01
 21
-1.42660992E+02
  0
LINE
  8
0
 62
7
 10
2.51398182E+01
 20
-1.45367062E+02
 11
2.51398182E+01
 21
-1.44367062E+02
  0
LINE
  8
0
 62
7
 10
2.57398167E+01
 20
-9.50687103E+01
 11
2.87398167E+01
 21
-9.50687103E+01
  0
LINE
  8
0
 62
7
 10
2.87398167E+01
 20
-8.96687088E+01
 11
2.57398167E+01
 21
-8.96687088E+01
  0
LINE
  8
0
 62
7
 10
2.57398167E+01
 20
-8.96687088E+01
 11
2.57398167E+01
 21
-9.50687103E+01
  0
LINE
  8
0
  6
CENTER
 62
2
 10
2.15610943E+01
 20
-9.23687057E+01
 11
3.28903561E+01
 21
-9.23687057E+01
  0
LINE
  8
0
 62
7
 10
2.87398167E+01
 20
-6.03687134E+01
 11
2.87398167E+01
 21
-1.45368706E+02
  0
LINE
  8
0
 62
6
 10
2.87398167E+01
 20
-1.45368706E+02
 11
4.02398167E+01
 21
-1.45368706E+02
  0
LINE
  8
0
 62
6
 10
3.95398197E+01
 20
-1.44668705E+02
 11
3.19398174E+01
 21
-1.44668705E+02
  0
LINE
  8
0
 62
6
 10
4.28398151E+01
 20
-1.38368706E+02
 11
4.27398167E+01
 21
-1.38368706E+02
  0
LINE
  8
0
 62
6
 10
4.37398167E+01
 20
-1.38468708E+02
 11
4.27398167E+01
 21
-1.38468708E+02
  0
LINE
  8
0
 62
6
 10
4.02398189E+01
 20
-1.39585852E+02
 11
4.37398189E+01
 21
-1.38968708E+02
  0
LINE
  8
0
 62
6
 10
3.95398197E+01
 20
-1.43868706E+02
 11
3.19398174E+01
 21
-1.43868706E+02
  0
LINE
  8
0
 62
6
 10
3.95398197E+01
 20
-1.43868706E+02
 11
3.95398197E+01
 21
-1.44668705E+02
  0
LINE
  8
0
 62
6
 10
3.19398174E+01
 20
-1.44668705E+02
 11
3.19398174E+01
 21
-1.43868706E+02
  0
LINE
  8
0
 62
6
 10
4.02398167E+01
 20
-1.45368706E+02
 11
4.02398167E+01
 21
-1.39585850E+02
  0
LINE
  8
0
 62
6
 10
4.24398212E+01
 20
-1.14868706E+02
 11
4.24398212E+01
 21
-1.30968704E+02
  0
LINE
  8
0
 62
6
 10
4.83398151E+01
 20
-1.30868706E+02
 11
4.83398151E+01
 21
-1.13368706E+02
  0
LINE
  8
0
 62
6
 10
2.87398167E+01
 20
-1.13368706E+02
 11
4.83398151E+01
 21
-1.13368706E+02
  0
LINE
  8
0
 62
6
 10
2.99398174E+01
 20
-1.13368706E+02
 11
2.99398174E+01
 21
-1.14868706E+02
  0
LINE
  8
0
 62
6
 10
4.24398212E+01
 20
-1.14868706E+02
 11
2.99398174E+01
 21
-1.14868706E+02
  0
LINE
  8
0
 62
6
 10
5.42298145E+01
 20
-1.26018707E+02
 11
5.75398197E+01
 21
-1.26018707E+02
  0
LINE
  8
0
 62
6
 10
5.38798161E+01
 20
-1.27318710E+02
 11
5.75398197E+01
 21
-1.27318710E+02
  0
LINE
  8
0
 62
6
 10
5.75398197E+01
 20
-1.26918709E+02
 11
6.15398197E+01
 21
-1.26918709E+02
  0
LINE
  8
0
 62
6
 10
5.75398197E+01
 20
-1.26418709E+02
 11
6.15398197E+01
 21
-1.26418709E+02
  0
LINE
  8
0
 62
6
 10
5.75398197E+01
 20
-1.26018707E+02
 11
5.75398197E+01
 21
-1.27318710E+02
  0
LINE
  8
0
 62
6
 10
6.15398197E+01
 20
-1.26418709E+02
 11
6.15398197E+01
 21
-1.26918709E+02
  0
LINE
  8
0
 62
6
 10
5.25898187E+01
 20
-1.28268707E+02
 11
5.34498180E+01
 21
-1.25068709E+02
  0
LINE
  8
0
 62
6
 10
5.36198159E+01
 20
-1.28268706E+02
 11
5.44798151E+01
 21
-1.25068709E+02
  0
LINE
  8
0
 62
6
 10
4.93398151E+01
 20
-1.26018707E+02
 11
5.31898212E+01
 21
-1.26018707E+02
  0
LINE
  8
0
 62
6
 10
4.93398151E+01
 20
-1.27318710E+02
 11
5.28398151E+01
 21
-1.27318710E+02
  0
LINE
  8
0
 62
6
 10
4.24398212E+01
 20
-1.30868706E+02
 11
4.83398151E+01
 21
-1.30868706E+02
  0
LINE
  8
0
 62
6
 10
4.91398182E+01
 20
-1.24668709E+02
 11
4.83398151E+01
 21
-1.24668709E+02
  0
LINE
  8
0
 62
6
 10
4.93398151E+01
 20
-1.28468704E+02
 11
4.93398151E+01
 21
-1.24868706E+02
  0
LINE
  8
0
 62
6
 10
4.91398182E+01
 20
-1.28668709E+02
 11
4.83398151E+01
 21
-1.28668709E+02
  0
LINE
  8
0
 62
6
 10
4.24398212E+01
 20
-1.30968704E+02
 11
4.83398151E+01
 21
-1.30968704E+02
  0
LINE
  8
0
 62
6
 10
4.37398131E+01
 20
-1.32277892E+02
 11
4.83398176E+01
 21
-1.31466787E+02
  0
LINE
  8
0
 62
6
 10
4.83398151E+01
 20
-1.31466782E+02
 11
4.83398151E+01
 21
-1.30968704E+02
  0
LINE
  8
0
 62
6
 10
4.77398167E+01
 20
-1.30868706E+02
 11
4.77398167E+01
 21
-1.30968704E+02
  0
LINE
  8
0
  6
CENTER
 62
6
 10
6.29563084E+01
 20
-1.26668709E+02
 11
4.72278156E+01
 21
-1.26668709E+02
  0
LINE
  8
0
 62
6
 10
4.33398151E+01
 20
-1.37868706E+02
 11
4.33398151E+01
 21
-1.35868706E+02
  0
LINE
  8
0
 62
6
 10
4.28398151E+01
 20
-1.35368706E+02
 11
4.27398167E+01
 21
-1.35368706E+02
  0
LINE
  8
0
 62
6
 10
4.37398167E+01
 20
-1.35268707E+02
 11
4.27398167E+01
 21
-1.35268707E+02
  0
LINE
  8
0
 62
6
 10
4.27398167E+01
 20
-1.38468708E+02
 11
4.27398167E+01
 21
-1.35268707E+02
  0
LINE
  8
0
 62
6
 10
4.37398167E+01
 20
-1.38968708E+02
 11
4.37398167E+01
 21
-1.32277885E+02
  0
LINE
  8
0
 62
6
 10
2.99398174E+01
 20
-9.23687057E+01
 11
2.99398174E+01
 21
-9.08687057E+01
  0
LINE
  8
0
 62
6
 10
4.24398212E+01
 20
-9.08687057E+01
 11
4.24398212E+01
 21
-7.47687073E+01
  0
LINE
  8
0
 62
6
 10
4.83398151E+01
 20
-7.48687057E+01
 11
4.83398151E+01
 21
-9.23687057E+01
  0
LINE
  8
0
  6
CENTER
 62
6
 10
6.29563084E+01
 20
-7.90687103E+01
 11
4.72278156E+01
 21
-7.90687103E+01
  0
LINE
  8
0
 62
6
 10
3.95398197E+01
 20
-6.10687103E+01
 11
3.19398174E+01
 21
-6.10687103E+01
  0
LINE
  8
0
 62
6
 10
3.95398197E+01
 20
-6.18687134E+01
 11
3.19398174E+01
 21
-6.18687134E+01
  0
LINE
  8
0
 62
6
 10
3.95398197E+01
 20
-6.18687134E+01
 11
3.95398197E+01
 21
-6.10687103E+01
  0
LINE
  8
0
 62
6
 10
3.19398174E+01
 20
-6.10687103E+01
 11
3.19398174E+01
 21
-6.18687134E+01
  0
LINE
  8
0
 62
6
 10
4.02398167E+01
 20
-6.03687134E+01
 11
4.02398167E+01
 21
-6.61515656E+01
  0
LINE
  8
0
 62
6
 10
4.93398151E+01
 20
-7.84187088E+01
 11
5.31898212E+01
 21
-7.84187088E+01
  0
LINE
  8
0
 62
6
 10
4.93398151E+01
 20
-7.97187042E+01
 11
5.28398151E+01
 21
-7.97187042E+01
  0
LINE
  8
0
 62
6
 10
4.77398167E+01
 20
-7.48687057E+01
 11
4.77398167E+01
 21
-7.47687073E+01
  0
LINE
  8
0
 62
6
 10
4.83398151E+01
 20
-7.42706299E+01
 11
4.83398151E+01
 21
-7.47687073E+01
  0
LINE
  8
0
 62
6
 10
4.37398178E+01
 20
-7.34595269E+01
 11
4.83398185E+01
 21
-7.42706312E+01
  0
LINE
  8
0
 62
6
 10
4.24398212E+01
 20
-7.47687073E+01
 11
4.83398151E+01
 21
-7.47687073E+01
  0
LINE
  8
0
 62
6
 10
4.37398167E+01
 20
-6.67687073E+01
 11
4.37398167E+01
 21
-7.34595261E+01
  0
LINE
  8
0
 62
6
 10
4.91398182E+01
 20
-7.70687103E+01
 11
4.83398151E+01
 21
-7.70687103E+01
  0
LINE
  8
0
 62
6
 10
4.93398151E+01
 20
-7.72687073E+01
 11
4.93398151E+01
 21
-8.08687057E+01
  0
LINE
  8
0
 62
6
 10
4.91398182E+01
 20
-8.10687103E+01
 11
4.83398151E+01
 21
-8.10687103E+01
  0
LINE
  8
0
 62
6
 10
4.24398212E+01
 20
-7.48687057E+01
 11
4.83398151E+01
 21
-7.48687057E+01
  0
LINE
  8
0
 62
6
 10
4.27398167E+01
 20
-6.72687073E+01
 11
4.27398167E+01
 21
-7.04687042E+01
  0
LINE
  8
0
 62
6
 10
4.37398167E+01
 20
-7.04687042E+01
 11
4.27398167E+01
 21
-7.04687042E+01
  0
LINE
  8
0
 62
6
 10
4.37398167E+01
 20
-6.72687073E+01
 11
4.27398167E+01
 21
-6.72687073E+01
  0
LINE
  8
0
 62
6
 10
4.28398151E+01
 20
-6.73687134E+01
 11
4.27398167E+01
 21
-6.73687134E+01
  0
LINE
  8
0
 62
6
 10
4.28398151E+01
 20
-7.03687057E+01
 11
4.27398167E+01
 21
-7.03687057E+01
  0
LINE
  8
0
 62
6
 10
4.33398151E+01
 20
-6.78687134E+01
 11
4.33398151E+01
 21
-6.98687057E+01
  0
LINE
  8
0
 62
6
 10
5.36198178E+01
 20
-8.06687114E+01
 11
5.44798191E+01
 21
-7.74687066E+01
  0
LINE
  8
0
 62
6
 10
5.25898189E+01
 20
-8.06687034E+01
 11
5.34498162E+01
 21
-7.74687134E+01
  0
LINE
  8
0
 62
6
 10
6.15398197E+01
 20
-7.93187103E+01
 11
6.15398197E+01
 21
-7.88187103E+01
  0
LINE
  8
0
 62
6
 10
5.75398197E+01
 20
-7.84187088E+01
 11
5.75398197E+01
 21
-7.97187042E+01
  0
LINE
  8
0
 62
6
 10
5.75398197E+01
 20
-7.88187103E+01
 11
6.15398197E+01
 21
-7.88187103E+01
  0
LINE
  8
0
 62
6
 10
5.75398197E+01
 20
-7.93187103E+01
 11
6.15398197E+01
 21
-7.93187103E+01
  0
LINE
  8
0
 62
6
 10
5.38798161E+01
 20
-7.97187042E+01
 11
5.75398197E+01
 21
-7.97187042E+01
  0
LINE
  8
0
 62
6
 10
5.42298145E+01
 20
-7.84187088E+01
 11
5.75398197E+01
 21
-7.84187088E+01
  0
LINE
  8
0
 62
6
 10
4.02398167E+01
 20
-6.61515615E+01
 11
4.37398167E+01
 21
-6.67687059E+01
  0
LINE
  8
0
 62
6
 10
4.24398212E+01
 20
-9.08687057E+01
 11
2.99398174E+01
 21
-9.08687057E+01
  0
LINE
  8
0
 62
6
 10
2.87398167E+01
 20
-9.23687057E+01
 11
4.83398151E+01
 21
-9.23687057E+01
  0
LINE
  8
0
 62
7
 10
2.87398167E+01
 20
-1.45368706E+02
 11
8.13981819E+00
 21
-1.45368706E+02
  0
LINE
  8
0
 62
7
 10
7.73981667E+00
 20
-7.03659668E+01
 11
7.73981667E+00
 21
-6.03687134E+01
  0
LINE
  8
0
 62
7
 10
2.87398167E+01
 20
-1.31868706E+02
 11
8.13981819E+00
 21
-1.31868706E+02
  0
LINE
  8
0
 62
7
 10
2.87398167E+01
 20
-7.38687057E+01
 11
8.13981819E+00
 21
-7.38687057E+01
  0
LINE
  8
0
 62
6
 10
4.02398167E+01
 20
-6.03687134E+01
 11
2.87398167E+01
 21
-6.03687134E+01
  0
LINE
  8
0
 62
7
 10
5.27348957E+01
 20
-1.88365967E+02
 11
5.27348957E+01
 21
-1.70365967E+02
  0
LINE
  8
0
 62
7
 10
7.73981667E+00
 20
-6.03687134E+01
 11
-1.82601814E+01
 21
-6.03687134E+01
  0
LINE
  8
0
  6
PHANTOM
 62
2
 10
5.27398167E+01
 20
-1.70365967E+02
 11
5.33398151E+01
 21
-1.70365967E+02
  0
LINE
  8
0
  6
PHANTOM
 62
2
 10
5.35398197E+01
 20
-1.64565968E+02
 11
6.46521015E+01
 21
-1.64565968E+02
  0
LINE
  8
0
 62
7
 10
8.13981819E+00
 20
-1.70365967E+02
 11
5.27398167E+01
 21
-1.70365967E+02
  0
LINE
  8
0
  6
PHANTOM
 62
2
 10
5.35398197E+01
 20
-1.70165966E+02
 11
5.35398197E+01
 21
-1.62965965E+02
  0
LINE
  8
0
  6
PHANTOM
 62
2
 10
4.48631081E+01
 20
-1.45565965E+02
 11
4.53631049E+01
 21
-1.44565971E+02
  0
LINE
  8
0
  6
PHANTOM
 62
2
 10
5.08631010E+01
 20
-1.44565970E+02
 11
5.37398132E+01
 21
-1.50565969E+02
  0
LINE
  8
0
  6
PHANTOM
 62
2
 10
5.37398167E+01
 20
-1.50565968E+02
 11
5.37398167E+01
 21
-1.53565968E+02
  0
LINE
  8
0
  6
PHANTOM
 62
2
 10
5.37398167E+01
 20
-1.53565968E+02
 11
5.27398167E+01
 21
-1.53565968E+02
  0
LINE
  8
0
  6
PHANTOM
 62
2
 10
4.53631077E+01
 20
-1.44565968E+02
 11
5.08631077E+01
 21
-1.44565968E+02
  0
LINE
  8
0
  6
PHANTOM
 62
2
 10
4.92398144E+01
 20
-1.45565969E+02
 11
5.27398142E+01
 21
-1.52865969E+02
  0
LINE
  8
0
  6
PHANTOM
 62
2
 10
8.13981819E+00
 20
-1.45565968E+02
 11
4.92398167E+01
 21
-1.45565968E+02
  0
LINE
  8
0
  6
PHANTOM
 62
2
 10
5.27398167E+01
 20
-1.62765968E+02
 11
5.33398151E+01
 21
-1.62765968E+02
  0
LINE
  8
0
  6
PHANTOM
 62
2
 10
5.27398167E+01
 20
-1.70365967E+02
 11
5.27398167E+01
 21
-1.52865967E+02
  0
LINE
  8
0
  6
PHANTOM
 62
2
 10
8.57646075E+01
 20
-1.67147573E+02
 11
1.03641030E+02
 21
-1.68084437E+02
  0
LINE
  8
0
  6
PHANTOM
 62
2
 10
8.37646092E+01
 20
-1.65147576E+02
 11
1.03641033E+02
 21
-1.64105896E+02
  0
LINE
  8
0
  6
PHANTOM
 62
2
 10
1.03641039E+02
 20
-1.65147575E+02
 11
1.03641039E+02
 21
-1.64105896E+02
  0
LINE
  8
0
  6
PHANTOM
 62
2
 10
1.03641039E+02
 20
-1.67147573E+02
 11
1.03641039E+02
 21
-1.65147575E+02
  0
LINE
  8
0
  6
PHANTOM
 62
2
 10
9.66410389E+01
 20
-1.67717583E+02
 11
9.66410389E+01
 21
-1.64472748E+02
  0
LINE
  8
0
  6
PHANTOM
 62
2
 10
1.03641039E+02
 20
-1.68084438E+02
 11
1.03641039E+02
 21
-1.67147573E+02
  0
LINE
  8
0
  6
PHANTOM
 62
2
 10
8.37646122E+01
 20
-1.65147575E+02
 11
1.03641039E+02
 21
-1.65147575E+02
  0
LINE
  8
0
  6
PHANTOM
 62
2
 10
8.47646122E+01
 20
-1.66147573E+02
 11
1.03641039E+02
 21
-1.66147573E+02
  0
LINE
  8
0
  6
PHANTOM
 62
2
 10
8.57646122E+01
 20
-1.67147573E+02
 11
1.03641039E+02
 21
-1.67147573E+02
  0
LINE
  8
0
  6
PHANTOM
 62
2
 10
1.03365954E+02
 20
-1.71656581E+02
 11
1.03713250E+02
 21
-1.70702392E+02
  0
LINE
  8
0
  6
PHANTOM
 62
2
 10
8.34830051E+01
 20
-1.64865965E+02
 11
8.62380899E+01
 21
-1.67621049E+02
  0
LINE
  8
0
  6
PHANTOM
 62
2
 10
8.62380888E+01
 20
-1.67621051E+02
 11
1.03713249E+02
 21
-1.70702394E+02
  0
LINE
  8
0
  6
PHANTOM
 62
2
 10
8.60644406E+01
 20
-1.68605859E+02
 11
1.03365949E+02
 21
-1.71656582E+02
  0
LINE
  8
0
  6
PHANTOM
 62
2
 10
7.77398194E+01
 20
-1.67878983E+02
 11
8.62171042E+01
 21
-1.68620650E+02
  0
LINE
  8
0
  6
PHANTOM
 62
2
 10
8.34738178E+01
 20
-1.64865967E+02
 11
7.77398167E+01
 21
-1.64865967E+02
  0
LINE
  8
0
  6
PHANTOM
 62
2
 10
6.53449192E+01
 20
-1.68365967E+02
 11
7.77398167E+01
 21
-1.68365967E+02
  0
LINE
  8
0
  6
PHANTOM
 62
2
 10
6.75388508E+01
 20
-1.64565968E+02
 11
7.77398167E+01
 21
-1.64565968E+02
  0
LINE
  8
0
  6
PHANTOM
 62
2
 10
6.41676189E+01
 20
-1.70405113E+02
 11
6.89924671E+01
 21
-1.62048231E+02
  0
LINE
  8
0
  6
PHANTOM
 62
2
 10
6.14012065E+01
 20
-1.70196680E+02
 11
6.62134357E+01
 21
-1.61861655E+02
  0
LINE
  8
0
  6
PHANTOM
 62
2
 10
7.77398167E+01
 20
-1.68365967E+02
 11
7.77398167E+01
 21
-1.64565968E+02
  0
LINE
  8
0
  6
PHANTOM
 62
2
 10
5.35398197E+01
 20
-1.68365967E+02
 11
6.24581699E+01
 21
-1.68365967E+02
  0
LINE
  8
0
 62
7
 10
5.30348923E+01
 20
-1.87815969E+02
 11
5.27348930E+01
 21
-1.87515969E+02
  0
LINE
  8
0
 62
7
 10
5.30348950E+01
 20
-1.77915969E+02
 11
5.27348957E+01
 21
-1.78215969E+02
  0
LINE
  8
0
 62
7
 10
5.30348988E+01
 20
-1.87815967E+02
 11
5.92348957E+01
 21
-1.87815967E+02
  0
LINE
  8
0
 62
7
 10
5.30348988E+01
 20
-1.77915966E+02
 11
5.92348957E+01
 21
-1.77915966E+02
  0
LINE
  8
0
 62
7
 10
-1.82601814E+01
 20
-6.03687134E+01
 11
-1.82601814E+01
 21
-7.03659668E+01
  0
LINE
  8
0
 62
7
 10
2.23981667E+00
 20
-4.86637115E+01
 11
-1.76018143E+00
 21
-4.86637115E+01
  0
LINE
  8
0
 62
7
 10
-1.76018143E+00
 20
-5.36637115E+01
 11
2.23981667E+00
 21
-5.36637115E+01
  0
LINE
  8
0
 62
7
 10
3.23981667E+00
 20
-5.63687134E+01
 11
-2.76018143E+00
 21
-5.63687134E+01
  0
LINE
  8
0
 62
7
 10
3.73981667E+00
 20
-5.88687134E+01
 11
3.73981667E+00
 21
-5.68687134E+01
  0
LINE
  8
0
 62
7
 10
1.48981667E+00
 20
-5.36637115E+01
 11
1.48981667E+00
 21
-5.63687134E+01
  0
LINE
  8
0
 62
7
 10
3.73982040E+00
 20
-5.68687093E+01
 11
3.23981987E+00
 21
-5.63687087E+01
  0
LINE
  8
0
 62
7
 10
2.73981394E+00
 20
-5.31637087E+01
 11
2.23981341E+00
 21
-5.36637092E+01
  0
LINE
  8
0
 62
7
 10
2.73981394E+00
 20
-4.91637152E+01
 11
2.23981341E+00
 21
-4.86637147E+01
  0
LINE
  8
0
 62
7
 10
2.73981667E+00
 20
-4.91637115E+01
 11
2.73981667E+00
 21
-5.31637115E+01
  0
LINE
  8
0
 62
7
 10
-3.26018164E+00
 20
-5.88687060E+01
 11
-2.76018111E+00
 21
-5.93687065E+01
  0
LINE
  8
0
 62
7
 10
-3.26018704E+00
 20
-5.68687093E+01
 11
-2.76018650E+00
 21
-5.63687087E+01
  0
LINE
  8
0
 62
7
 10
-2.26018597E+00
 20
-4.91637098E+01
 11
-1.76018544E+00
 21
-4.86637093E+01
  0
LINE
  8
0
 62
7
 10
-1.76018005E+00
 20
-5.36637092E+01
 11
-2.26018058E+00
 21
-5.31637087E+01
  0
LINE
  8
0
 62
7
 10
-2.26018143E+00
 20
-4.91637115E+01
 11
-2.26018143E+00
 21
-5.31637115E+01
  0
LINE
  8
0
 62
7
 10
-3.26018143E+00
 20
-5.88687134E+01
 11
-3.26018143E+00
 21
-5.68687134E+01
  0
LINE
  8
0
 62
7
 10
-1.01018143E+00
 20
-5.36637115E+01
 11
-1.01018143E+00
 21
-5.63687134E+01
  0
LINE
  8
0
 62
7
 10
3.73982040E+00
 20
-5.88687114E+01
 11
3.23981987E+00
 21
-5.93687119E+01
  0
LINE
  8
0
 62
7
 10
-3.46018219E+00
 20
-5.93687134E+01
 11
3.93981743E+00
 21
-5.93687134E+01
  0
LINE
  8
0
 62
7
 10
4.23981667E+00
 20
-6.03687134E+01
 11
4.23981667E+00
 21
-5.96687012E+01
  0
LINE
  8
0
 62
7
 10
-3.76018143E+00
 20
-6.03687134E+01
 11
-3.76018143E+00
 21
-5.96687012E+01
  0
LINE
  8
0
 62
7
 10
-3.76018217E+00
 20
-5.96687111E+01
 11
-3.46018293E+00
 21
-5.93687119E+01
  0
LINE
  8
0
 62
7
 10
3.93981629E+00
 20
-5.93687119E+01
 11
4.23981553E+00
 21
-5.96687111E+01
  0
LINE
  8
0
 62
7
 10
-3.76018143E+00
 20
-5.96687012E+01
 11
4.23981667E+00
 21
-5.96687012E+01
  0
LINE
  8
0
  6
CENTER
 62
2
 10
2.39818573E-01
 20
-4.48824310E+01
 11
2.39818573E-01
 21
-6.18462524E+01
  0
LINE
  8
0
 62
7
 10
2.87398167E+01
 20
-6.03687134E+01
 11
7.73981667E+00
 21
-6.03687134E+01
  0
LINE
  8
0
  6
CENTER
 62
6
 10
4.60476017E+01
 20
-6.88687134E+01
 11
2.68565884E+01
 21
-6.88687134E+01
  0
LINE
  8
0
  6
CENTER
 62
6
 10
2.75400410E+01
 20
-1.36868706E+02
 11
4.59150105E+01
 21
-1.36868706E+02
  0
LINE
  8
0
 62
6
 10
8.13981819E+00
 20
-1.69865967E+02
 11
1.62398167E+01
 21
-1.69865967E+02
  0
LINE
  8
0
 62
6
 10
8.13981819E+00
 20
-1.45865967E+02
 11
1.62398167E+01
 21
-1.45865967E+02
  0
LINE
  8
0
 62
6
 10
1.62398167E+01
 20
-1.69865967E+02
 11
1.62398167E+01
 21
-1.45865967E+02
  0
LINE
  8
0
 62
6
 10
4.24398212E+01
 20
-1.00865967E+02
 11
2.99398174E+01
 21
-1.00865967E+02
  0
LINE
  8
0
 62
6
 10
2.99398174E+01
 20
-1.02365967E+02
 11
2.99398174E+01
 21
-1.00865967E+02
  0
LINE
  8
0
 62
6
 10
2.87398167E+01
 20
-1.02365967E+02
 11
4.83398151E+01
 21
-1.02365967E+02
  0
LINE
  8
0
 62
6
 10
5.42298145E+01
 20
-8.84159698E+01
 11
5.75398197E+01
 21
-8.84159698E+01
  0
LINE
  8
0
 62
6
 10
5.38798161E+01
 20
-8.97159653E+01
 11
5.75398197E+01
 21
-8.97159653E+01
  0
LINE
  8
0
 62
6
 10
5.75398197E+01
 20
-8.93159637E+01
 11
6.15398197E+01
 21
-8.93159637E+01
  0
LINE
  8
0
 62
6
 10
5.75398197E+01
 20
-8.88159637E+01
 11
6.15398197E+01
 21
-8.88159637E+01
  0
LINE
  8
0
 62
6
 10
5.75398197E+01
 20
-8.84159698E+01
 11
5.75398197E+01
 21
-8.97159653E+01
  0
LINE
  8
0
 62
6
 10
6.15398197E+01
 20
-8.93159637E+01
 11
6.15398197E+01
 21
-8.88159637E+01
  0
LINE
  8
0
 62
6
 10
5.25898165E+01
 20
-9.06659651E+01
 11
5.34498177E+01
 21
-8.74659603E+01
  0
LINE
  8
0
 62
6
 10
5.36198173E+01
 20
-9.06659657E+01
 11
5.44798166E+01
 21
-8.74659683E+01
  0
LINE
  8
0
 62
6
 10
4.91398182E+01
 20
-9.10659637E+01
 11
4.83398151E+01
 21
-9.10659637E+01
  0
LINE
  8
0
 62
6
 10
4.93398151E+01
 20
-8.72659683E+01
 11
4.93398151E+01
 21
-9.08659668E+01
  0
LINE
  8
0
 62
6
 10
4.91398182E+01
 20
-8.70659637E+01
 11
4.83398151E+01
 21
-8.70659637E+01
  0
LINE
  8
0
 62
6
 10
4.93398151E+01
 20
-8.97159653E+01
 11
5.28398151E+01
 21
-8.97159653E+01
  0
LINE
  8
0
 62
6
 10
4.93398151E+01
 20
-8.84159698E+01
 11
5.31898212E+01
 21
-8.84159698E+01
  0
LINE
  8
0
  6
CENTER
 62
6
 10
6.29563084E+01
 20
-8.90659637E+01
 11
4.72278156E+01
 21
-8.90659637E+01
  0
LINE
  8
0
 62
6
 10
4.83398151E+01
 20
-9.23687057E+01
 11
4.83398151E+01
 21
-1.02365967E+02
  0
LINE
  8
0
 62
6
 10
4.24398212E+01
 20
-1.00865967E+02
 11
4.24398212E+01
 21
-9.23687057E+01
  0
LINE
  8
0
  6
PHANTOM
 62
2
 10
4.02398167E+01
 20
-1.45365967E+02
 11
4.49631062E+01
 21
-1.45365967E+02
  0
LINE
  8
0
 62
7
 10
5.30398197E+01
 20
-1.76413227E+02
 11
5.92398167E+01
 21
-1.76413227E+02
  0
LINE
  8
0
 62
7
 10
6.07398167E+01
 20
-1.77913227E+02
 11
6.07398167E+01
 21
-1.79415966E+02
  0
LINE
  8
0
 62
7
 10
5.30398150E+01
 20
-1.76413227E+02
 11
5.27398158E+01
 21
-1.76713226E+02
  0
LINE
  8
0
  6
PHANTOM
 62
2
 10
5.27398167E+01
 20
-1.45365967E+02
 11
5.27398167E+01
 21
-1.48480251E+02
  0
LINE
  8
0
  6
PHANTOM
 62
2
 10
5.36403751E+01
 20
-1.45724312E+02
 11
5.27398167E+01
 21
-1.45724312E+02
  0
LINE
  8
0
  6
PHANTOM
 62
2
 10
5.36403751E+01
 20
-1.45724312E+02
 11
5.36403751E+01
 21
-1.50358555E+02
  0
LINE
  8
0
  6
PHANTOM
 62
2
 10
5.36403751E+01
 20
-1.46124313E+02
 11
5.92573261E+01
 21
-1.46124313E+02
  0
LINE
  8
0
  6
PHANTOM
 62
2
 10
6.34403706E+01
 20
-1.46124313E+02
 11
6.34403706E+01
 21
-1.50124313E+02
  0
LINE
  8
0
  6
PHANTOM
 62
2
 10
5.96207748E+01
 20
-1.44771946E+02
 11
5.76385744E+01
 21
-1.52147576E+02
  0
LINE
  8
0
  6
PHANTOM
 62
2
 10
6.06507756E+01
 20
-1.44771947E+02
 11
5.86685753E+01
 21
-1.52147577E+02
  0
LINE
  8
0
  6
PHANTOM
 62
2
 10
6.34403706E+01
 20
-1.46474312E+02
 11
6.53209400E+01
 21
-1.46474312E+02
  0
LINE
  8
0
  6
PHANTOM
 62
2
 10
6.34403706E+01
 20
-1.46974312E+02
 11
6.53209400E+01
 21
-1.46974312E+02
  0
LINE
  8
0
  6
PHANTOM
 62
2
 10
6.34403706E+01
 20
-1.47474312E+02
 11
6.53209400E+01
 21
-1.47474312E+02
  0
LINE
  8
0
  6
PHANTOM
 62
2
 10
6.34403706E+01
 20
-1.47974312E+02
 11
6.53209400E+01
 21
-1.47974312E+02
  0
LINE
  8
0
  6
PHANTOM
 62
2
 10
6.34403706E+01
 20
-1.48474312E+02
 11
6.53209400E+01
 21
-1.48474312E+02
  0
LINE
  8
0
  6
PHANTOM
 62
2
 10
6.34403706E+01
 20
-1.48974312E+02
 11
6.53209400E+01
 21
-1.48974312E+02
  0
LINE
  8
0
  6
PHANTOM
 62
2
 10
6.34403706E+01
 20
-1.49474312E+02
 11
6.53209400E+01
 21
-1.49474312E+02
  0
LINE
  8
0
  6
PHANTOM
 62
2
 10
6.34403706E+01
 20
-1.49974312E+02
 11
6.53209400E+01
 21
-1.49974312E+02
  0
LINE
  8
0
  6
PHANTOM
 62
2
 10
6.53209400E+01
 20
-1.46474312E+02
 11
6.53209400E+01
 21
-1.46974312E+02
  0
LINE
  8
0
  6
PHANTOM
 62
2
 10
6.53209400E+01
 20
-1.47474312E+02
 11
6.53209400E+01
 21
-1.47974312E+02
  0
LINE
  8
0
  6
PHANTOM
 62
2
 10
6.53209400E+01
 20
-1.48474312E+02
 11
6.53209400E+01
 21
-1.48974312E+02
  0
LINE
  8
0
  6
PHANTOM
 62
2
 10
6.53209400E+01
 20
-1.49474312E+02
 11
6.53209400E+01
 21
-1.49927052E+02
  0
LINE
  8
0
  6
PHANTOM
 62
2
 10
6.53209400E+01
 20
-1.46624313E+02
 11
6.63308353E+01
 21
-1.46624313E+02
  0
LINE
  8
0
  6
PHANTOM
 62
2
 10
6.53209400E+01
 20
-1.46824314E+02
 11
6.61948872E+01
 21
-1.46824314E+02
  0
LINE
  8
0
  6
PHANTOM
 62
2
 10
6.61948867E+01
 20
-1.46824313E+02
 11
6.63308332E+01
 21
-1.46624313E+02
  0
LINE
  8
0
  6
PHANTOM
 62
2
 10
6.53209400E+01
 20
-1.47624313E+02
 11
6.63308353E+01
 21
-1.47624313E+02
  0
LINE
  8
0
  6
PHANTOM
 62
2
 10
6.53209400E+01
 20
-1.47824314E+02
 11
6.61948872E+01
 21
-1.47824314E+02
  0
LINE
  8
0
  6
PHANTOM
 62
2
 10
6.61948813E+01
 20
-1.47824316E+02
 11
6.63308278E+01
 21
-1.47624316E+02
  0
LINE
  8
0
  6
PHANTOM
 62
2
 10
6.53209400E+01
 20
-1.48624313E+02
 11
6.63308353E+01
 21
-1.48624313E+02
  0
LINE
  8
0
  6
PHANTOM
 62
2
 10
6.53209400E+01
 20
-1.48824314E+02
 11
6.61948872E+01
 21
-1.48824314E+02
  0
LINE
  8
0
  6
PHANTOM
 62
2
 10
6.61948833E+01
 20
-1.48824314E+02
 11
6.63308298E+01
 21
-1.48624315E+02
  0
LINE
  8
0
  6
PHANTOM
 62
2
 10
6.53209400E+01
 20
-1.49624313E+02
 11
6.63308353E+01
 21
-1.49624313E+02
  0
LINE
  8
0
  6
PHANTOM
 62
2
 10
6.53209400E+01
 20
-1.49824314E+02
 11
6.61948872E+01
 21
-1.49824314E+02
  0
LINE
  8
0
  6
PHANTOM
 62
2
 10
6.61948853E+01
 20
-1.49824313E+02
 11
6.63308318E+01
 21
-1.49624313E+02
  0
LINE
  8
0
  6
PHANTOM
 62
2
 10
5.00466709E+01
 20
-1.48124313E+02
 11
6.99009571E+01
 21
-1.48124313E+02
  0
LINE
  8
0
  6
PHANTOM
 62
2
 10
6.02873249E+01
 20
-1.46124313E+02
 11
6.34403706E+01
 21
-1.46124313E+02
  0
LINE
  8
0
 62
7
 10
8.13981819E+00
 20
-7.03659668E+01
 11
8.13981819E+00
 21
-1.06523392E+02
  0
LINE
  8
0
 62
7
 10
1.91398182E+01
 20
-1.88365967E+02
 11
8.13981819E+00
 21
-1.88365967E+02
  0
LINE
  8
0
 62
7
 10
-2.56601820E+01
 20
-1.96363227E+02
 11
7.93981743E+00
 21
-1.96363227E+02
  0
LINE
  8
0
 62
7
 10
-2.58601818E+01
 20
-7.03659668E+01
 11
8.13981819E+00
 21
-7.03659668E+01
  0
LINE
  8
0
 62
7
 10
-2.58601818E+01
 20
-1.96563227E+02
 11
-2.58601818E+01
 21
-1.97365967E+02
  0
LINE
  8
0
 62
7
 10
8.13981819E+00
 20
-1.96563227E+02
 11
8.13981819E+00
 21
-1.97365967E+02
  0
LINE
  8
0
 62
7
 10
8.13981819E+00
 20
-1.97365967E+02
 11
1.91398182E+01
 21
-1.97365967E+02
  0
LINE
  8
0
 62
7
 10
-3.68601818E+01
 20
-1.97365967E+02
 11
-2.58601818E+01
 21
-1.97365967E+02
  0
LINE
  8
0
  6
CENTER
 62
2
 10
-1.08601818E+01
 20
-7.93760223E+01
 11
-1.08601818E+01
 21
-9.23336792E+01
  0
LINE
  8
0
  6
CENTER
 62
2
 10
-3.68735123E+00
 20
-8.58659668E+01
 11
-1.76557493E+01
 21
-8.58659668E+01
  0
LINE
  8
0
 62
7
 10
8.13981819E+00
 20
-1.21365967E+02
 11
-2.58601818E+01
 21
-1.21365967E+02
  0
LINE
  8
0
 62
7
 10
-2.58601818E+01
 20
-9.43659668E+01
 11
8.13981819E+00
 21
-9.43659668E+01
  0
LINE
  8
0
 62
7
 10
-2.58601818E+01
 20
-7.03659668E+01
 11
-2.58601818E+01
 21
-1.88365967E+02
  0
LINE
  8
0
 62
7
 10
-3.68601818E+01
 20
-1.88365967E+02
 11
-3.68601818E+01
 21
-1.97365967E+02
  0
LINE
  8
0
 62
7
 10
1.91398182E+01
 20
-1.88365967E+02
 11
1.91398182E+01
 21
-1.97365967E+02
  0
LINE
  8
0
 62
7
 10
-2.58601818E+01
 20
-1.88365967E+02
 11
-3.68601818E+01
 21
-1.88365967E+02
  0
LINE
  8
0
  6
CENTER
 62
2
 10
5.73981667E+00
 20
-1.04548965E+02
 11
5.73981667E+00
 21
-1.11172417E+02
  0
LINE
  8
0
 62
7
 10
4.48981667E+00
 20
-1.08570755E+02
 11
4.48981667E+00
 21
-1.07161179E+02
  0
LINE
  8
0
 62
7
 10
6.98981667E+00
 20
-1.08570755E+02
 11
6.98981667E+00
 21
-1.07161179E+02
  0
LINE
  8
0
 62
7
 10
5.73981915E+00
 20
-1.06430967E+02
 11
4.48982107E+00
 21
-1.07161179E+02
  0
LINE
  8
0
 62
7
 10
5.73981748E+00
 20
-1.06430963E+02
 11
6.98981803E+00
 21
-1.07161176E+02
  0
LINE
  8
0
 62
7
 10
5.73981831E+00
 20
-1.09300963E+02
 11
4.48981776E+00
 21
-1.08570750E+02
  0
LINE
  8
0
 62
7
 10
5.73982078E+00
 20
-1.09300966E+02
 11
6.98981886E+00
 21
-1.08570754E+02
  0
LINE
  8
0
  6
CENTER
 62
2
 10
-1.93712511E+01
 20
-1.16865967E+02
 11
-2.60780177E+01
 21
-1.16865967E+02
  0
LINE
  8
0
  6
CENTER
 62
2
 10
-2.27601814E+01
 20
-1.13548965E+02
 11
-2.27601814E+01
 21
-1.20172417E+02
  0
LINE
  8
0
 62
7
 10
-2.40101819E+01
 20
-1.17570755E+02
 11
-2.40101819E+01
 21
-1.16161179E+02
  0
LINE
  8
0
 62
7
 10
-2.15101814E+01
 20
-1.17570755E+02
 11
-2.15101814E+01
 21
-1.16161179E+02
  0
LINE
  8
0
 62
7
 10
-2.27601779E+01
 20
-1.15430968E+02
 11
-2.40101793E+01
 21
-1.16161181E+02
  0
LINE
  8
0
 62
7
 10
-2.27601828E+01
 20
-1.15430964E+02
 11
-2.15101814E+01
 21
-1.16161178E+02
  0
LINE
  8
0
 62
7
 10
-2.27601811E+01
 20
-1.18300964E+02
 11
-2.40101825E+01
 21
-1.17570751E+02
  0
LINE
  8
0
 62
7
 10
-2.27601795E+01
 20
-1.18300968E+02
 11
-2.15101782E+01
 21
-1.17570754E+02
  0
LINE
  8
0
  6
CENTER
 62
2
 10
-1.93712511E+01
 20
-9.88659668E+01
 11
-2.60780177E+01
 21
-9.88659668E+01
  0
LINE
  8
0
  6
CENTER
 62
2
 10
-2.27601814E+01
 20
-9.55489655E+01
 11
-2.27601814E+01
 21
-1.02172417E+02
  0
LINE
  8
0
 62
7
 10
-2.40101819E+01
 20
-9.95707550E+01
 11
-2.40101819E+01
 21
-9.81611786E+01
  0
LINE
  8
0
 62
7
 10
-2.15101814E+01
 20
-9.95707550E+01
 11
-2.15101814E+01
 21
-9.81611786E+01
  0
LINE
  8
0
 62
7
 10
-2.27601803E+01
 20
-9.74309661E+01
 11
-2.40101784E+01
 21
-9.81611778E+01
  0
LINE
  8
0
 62
7
 10
-2.27601842E+01
 20
-9.74309692E+01
 11
-2.15101861E+01
 21
-9.81611808E+01
  0
LINE
  8
0
 62
7
 10
-2.27601859E+01
 20
-1.00300968E+02
 11
-2.40101839E+01
 21
-9.95707560E+01
  0
LINE
  8
0
 62
7
 10
-2.27601787E+01
 20
-1.00300965E+02
 11
-2.15101806E+01
 21
-9.95707529E+01
  0
LINE
  8
0
 62
7
 10
-2.53601818E+01
 20
-9.44659653E+01
 11
7.63981819E+00
 21
-9.44659653E+01
  0
LINE
  8
0
 62
7
 10
7.63981819E+00
 20
-1.21265968E+02
 11
-2.53601818E+01
 21
-1.21265968E+02
  0
LINE
  8
0
  6
CENTER
 62
2
 10
-1.17491131E+01
 20
-7.43659668E+01
 11
-5.04234505E+00
 21
-7.43659668E+01
  0
LINE
  8
0
  6
CENTER
 62
2
 10
-8.36018181E+00
 20
-7.10489655E+01
 11
-8.36018181E+00
 21
-7.76724167E+01
  0
LINE
  8
0
 62
7
 10
-7.11018181E+00
 20
-7.50707550E+01
 11
-7.11018181E+00
 21
-7.36611786E+01
  0
LINE
  8
0
 62
7
 10
-9.61018181E+00
 20
-7.50707550E+01
 11
-9.61018181E+00
 21
-7.36611786E+01
  0
LINE
  8
0
 62
7
 10
-8.36018447E+00
 20
-7.29309663E+01
 11
-7.11018309E+00
 21
-7.36611798E+01
  0
LINE
  8
0
 62
7
 10
-8.36017908E+00
 20
-7.29309690E+01
 11
-9.61017716E+00
 21
-7.36611807E+01
  0
LINE
  8
0
 62
7
 10
-8.36017745E+00
 20
-7.58009675E+01
 11
-7.11017937E+00
 21
-7.50707558E+01
  0
LINE
  8
0
 62
7
 10
-8.36018281E+00
 20
-7.58009667E+01
 11
-9.61018418E+00
 21
-7.50707531E+01
  0
LINE
  8
0
  6
CENTER
 62
2
 10
-1.37491131E+01
 20
-1.41863228E+02
 11
-7.04234505E+00
 21
-1.41863228E+02
  0
LINE
  8
0
  6
CENTER
 62
2
 10
-1.03601818E+01
 20
-1.38546223E+02
 11
-1.03601818E+01
 21
-1.45169678E+02
  0
LINE
  8
0
 62
7
 10
-9.11018181E+00
 20
-1.42568012E+02
 11
-9.11018181E+00
 21
-1.41158440E+02
  0
LINE
  8
0
 62
7
 10
-1.16101818E+01
 20
-1.42568012E+02
 11
-1.16101818E+01
 21
-1.41158440E+02
  0
LINE
  8
0
 62
7
 10
-1.03601822E+01
 20
-1.40428226E+02
 11
-9.11018245E+00
 21
-1.41158438E+02
  0
LINE
  8
0
 62
7
 10
-1.03601824E+01
 20
-1.40428226E+02
 11
-1.16101805E+01
 21
-1.41158437E+02
  0
LINE
  8
0
 62
7
 10
-1.03601788E+01
 20
-1.43298228E+02
 11
-9.11018074E+00
 21
-1.42568016E+02
  0
LINE
  8
0
 62
7
 10
-1.03601822E+01
 20
-1.43298225E+02
 11
-1.16101819E+01
 21
-1.42568012E+02
  0
LINE
  8
0
 62
7
 10
8.13981819E+00
 20
-1.09208542E+02
 11
8.13981819E+00
 21
-1.88365967E+02
  0
LINE
  8
0
  6
CENTER
 62
2
 10
-3.08601818E+01
 20
-2.02444807E+02
 11
-3.08601818E+01
 21
-1.83355553E+02
  0
LINE
  8
0
  6
CENTER
 62
2
 10
1.31398182E+01
 20
-2.02444807E+02
 11
1.31398182E+01
 21
-1.83355553E+02
  0
LINE
  8
0
  6
CENTER
 62
2
 10
9.12874794E+00
 20
-1.07860687E+02
 11
2.42198372E+00
 21
-1.07860687E+02
  0
ARC
  8
0
 62
7
 10
9.73981667E+00
 20
-6.28687134E+01
 40
2.50000000E+00
 50
5.31301018E+01
 51
1.26869903E+02
  0
ARC
  8
0
 62
7
 10
2.70953846E+01
 20
-9.38230667E+01
 40
7.95639873E-01
 50
2.70000000E+02
 51
3.43900220E+02
  0
ARC
  8
0
 62
7
 10
2.21024075E+01
 20
-9.23712082E+01
 40
5.99541616E+00
 50
3.43801670E+02
 51
1.61983298E+01
  0
ARC
  8
0
 62
7
 10
2.70908298E+01
 20
-9.09184723E+01
 40
7.99777389E-01
 50
1.59492465E+01
 51
8.97141315E+01
  0
ARC
  8
0
 62
7
 10
2.67398167E+01
 20
-1.42867062E+02
 40
2.50000000E+00
 50
2.33130097E+02
 51
3.06869898E+02
  0
ARC
  8
0
 62
6
 10
4.91405277E+01
 20
-1.24867996E+02
 40
1.99289829E-01
 50
3.59795462E+02
 51
9.00000002E+01
  0
ARC
  8
0
 62
6
 10
4.91405277E+01
 20
-1.28469421E+02
 40
1.99289829E-01
 50
2.70000000E+02
 51
2.04538593E-01
  0
ARC
  8
0
 62
6
 10
4.28398151E+01
 20
-1.35868706E+02
 40
5.00000000E-01
 50
0.00000000E+00
 51
9.00000002E+01
  0
ARC
  8
0
 62
6
 10
4.28398151E+01
 20
-1.37868706E+02
 40
5.00000000E-01
 50
2.70000000E+02
 51
0.00000000E+00
  0
ARC
  8
0
 62
6
 10
4.91405277E+01
 20
-7.72679977E+01
 40
1.99289829E-01
 50
3.59795462E+02
 51
9.00000002E+01
  0
ARC
  8
0
 62
6
 10
4.91405277E+01
 20
-8.08694153E+01
 40
1.99289829E-01
 50
2.70000000E+02
 51
2.04538593E-01
  0
ARC
  8
0
 62
6
 10
4.28398151E+01
 20
-6.98687057E+01
 40
5.00000000E-01
 50
2.70000000E+02
 51
0.00000000E+00
  0
ARC
  8
0
 62
6
 10
4.28398151E+01
 20
-6.78687134E+01
 40
5.00000000E-01
 50
0.00000000E+00
 51
9.00000002E+01
  0
ARC
  8
0
  6
PHANTOM
 62
2
 10
5.33398151E+01
 20
-1.70165966E+02
 40
2.00000003E-01
 50
2.70000000E+02
 51
0.00000000E+00
  0
CIRCLE
  8
0
  6
PHANTOM
 62
2
 10
1.22398167E+01
 20
-1.63965965E+02
 40
1.64999998E+00
  0
CIRCLE
  8
0
  6
PHANTOM
 62
2
 10
1.22398167E+01
 20
-1.51965965E+02
 40
1.64999998E+00
  0
ARC
  8
0
  6
PHANTOM
 62
2
 10
5.33398151E+01
 20
-1.62965965E+02
 40
2.00000003E-01
 50
0.00000000E+00
 51
9.00000002E+01
  0
ARC
  8
0
 62
7
 10
5.92348957E+01
 20
-1.86315967E+02
 40
1.50000000E+00
 50
2.70000000E+02
 51
0.00000000E+00
  0
ARC
  8
0
 62
7
 10
5.92348957E+01
 20
-1.79415966E+02
 40
1.50000000E+00
 50
0.00000000E+00
 51
9.00000002E+01
  0
ARC
  8
0
 62
6
 10
4.91405277E+01
 20
-9.08666763E+01
 40
1.99289829E-01
 50
2.70000000E+02
 51
2.04538593E-01
  0
ARC
  8
0
 62
6
 10
4.91405277E+01
 20
-8.72652588E+01
 40
1.99289829E-01
 50
3.59795462E+02
 51
9.00000002E+01
  0
ARC
  8
0
 62
7
 10
5.92398167E+01
 20
-1.77913227E+02
 40
1.50000000E+00
 50
0.00000000E+00
 51
9.00000002E+01
  0
CIRCLE
  8
0
 62
7
 10
-1.08601818E+01
 20
-8.58659668E+01
 40
4.86399984E+00
  0
CIRCLE
  8
0
 62
7
 10
-1.08601818E+01
 20
-8.58659668E+01
 40
4.28299999E+00
  0
CIRCLE
  8
0
 62
7
 10
-1.08601818E+01
 20
-8.58659668E+01
 40
4.04500008E+00
  0
CIRCLE
  8
0
 62
7
 10
-8.36018181E+00
 20
-7.43659668E+01
 40
3.25000000E+00
  0
CIRCLE
  8
0
 62
7
 10
-1.03601818E+01
 20
-1.41863228E+02
 40
3.25000000E+00
  0
CIRCLE
  8
0
 62
7
 10
5.73981667E+00
 20
-1.07865967E+02
 40
2.75000000E+00
  0
CIRCLE
  8
0
 62
7
 10
-2.27601814E+01
 20
-1.16865967E+02
 40
2.75000000E+00
  0
CIRCLE
  8
0
 62
7
 10
-2.27601814E+01
 20
-9.88659668E+01
 40
2.75000000E+00
  0
ARC
  8
0
 62
7
 10
-2.53601818E+01
 20
-9.49659653E+01
 40
5.00000000E-01
 50
9.00000002E+01
 51
1.80000005E+02
  0
ARC
  8
0
 62
7
 10
-2.53601818E+01
 20
-1.20765968E+02
 40
5.00000000E-01
 50
1.79999995E+02
 51
2.70000000E+02
  0
ARC
  8
0
 62
7
 10
7.63981819E+00
 20
-1.20765968E+02
 40
5.00000000E-01
 50
2.70000000E+02
 51
0.00000000E+00
  0
ARC
  8
0
 62
7
 10
7.63981819E+00
 20
-9.49659653E+01
 40
5.00000000E-01
 50
0.00000000E+00
 51
9.00000002E+01
  0
ARC
  8
0
 62
7
 10
7.93981743E+00
 20
-1.96563227E+02
 40
2.00000003E-01
 50
0.00000000E+00
 51
9.00000002E+01
  0
ARC
  8
0
 62
7
 10
-2.56601820E+01
 20
-1.96563227E+02
 40
2.00000003E-01
 50
9.00000002E+01
 51
1.80000005E+02
  0
CIRCLE
  8
0
 62
7
 10
-8.36018181E+00
 20
-7.43659668E+01
 40
2.75000000E+00
  0
CIRCLE
  8
0
 62
7
 10
-1.03601818E+01
 20
-1.41863228E+02
 40
2.75000000E+00
  0
LINE
  8
0
 62
7
 10
-1.22260185E+02
 20
-1.19615959E+02
 11
-1.19260185E+02
 21
-1.19615959E+02
  0
LINE
  8
0
 62
7
 10
-1.22260185E+02
 20
-1.14115959E+02
 11
-1.19260185E+02
 21
-1.14115959E+02
  0
LINE
  8
0
 62
7
 10
-1.19260185E+02
 20
-1.14115959E+02
 11
-1.19260185E+02
 21
-1.19615959E+02
  0
LINE
  8
0
  6
CENTER
 62
2
 10
-1.22859741E+02
 20
-1.16865959E+02
 11
-1.18620064E+02
 21
-1.16865959E+02
  0
LINE
  8
0
 62
7
 10
-1.22260185E+02
 20
-1.10615959E+02
 11
-1.19260185E+02
 21
-1.10615959E+02
  0
LINE
  8
0
 62
7
 10
-1.22260185E+02
 20
-1.05115959E+02
 11
-1.19260185E+02
 21
-1.05115959E+02
  0
LINE
  8
0
 62
7
 10
-1.19260185E+02
 20
-1.05115959E+02
 11
-1.19260185E+02
 21
-1.10615959E+02
  0
LINE
  8
0
  6
CENTER
 62
2
 10
-1.22859741E+02
 20
-1.07865959E+02
 11
-1.18620064E+02
 21
-1.07865959E+02
  0
LINE
  8
0
 62
7
 10
-1.22260185E+02
 20
-1.01615959E+02
 11
-1.19260185E+02
 21
-1.01615959E+02
  0
LINE
  8
0
 62
7
 10
-1.22260185E+02
 20
-9.61159592E+01
 11
-1.19260185E+02
 21
-9.61159592E+01
  0
LINE
  8
0
 62
7
 10
-1.19260185E+02
 20
-9.61159592E+01
 11
-1.19260185E+02
 21
-1.01615959E+02
  0
LINE
  8
0
  6
CENTER
 62
2
 10
-1.22859741E+02
 20
-9.88659592E+01
 11
-1.18620064E+02
 21
-9.88659592E+01
  0
LINE
  8
0
 62
7
 10
-2.11360184E+02
 20
-9.75687027E+01
 11
-2.11110184E+02
 21
-9.75687027E+01
  0
LINE
  8
0
 62
7
 10
-2.11110184E+02
 20
-9.13686981E+01
 11
-2.11360184E+02
 21
-9.13686981E+01
  0
LINE
  8
0
 62
7
 10
-2.11360184E+02
 20
-8.03686981E+01
 11
-2.11110184E+02
 21
-8.03686981E+01
  0
LINE
  8
0
 62
7
 10
-2.11360184E+02
 20
-1.37668701E+02
 11
-2.11110184E+02
 21
-1.37668701E+02
  0
LINE
  8
0
 62
7
 10
-2.27860184E+02
 20
-1.01615959E+02
 11
-2.30860184E+02
 21
-1.01615959E+02
  0
LINE
  8
0
 62
7
 10
-2.27860184E+02
 20
-9.61159592E+01
 11
-2.30860184E+02
 21
-9.61159592E+01
  0
LINE
  8
0
 62
7
 10
-2.30860184E+02
 20
-9.61159592E+01
 11
-2.30860184E+02
 21
-1.01615959E+02
  0
LINE
  8
0
  6
CENTER
 62
2
 10
-2.27260629E+02
 20
-9.88659592E+01
 11
-2.31500305E+02
 21
-9.88659592E+01
  0
LINE
  8
0
 62
7
 10
-2.27860184E+02
 20
-1.19615959E+02
 11
-2.30860184E+02
 21
-1.19615959E+02
  0
LINE
  8
0
 62
7
 10
-2.27860184E+02
 20
-1.14115959E+02
 11
-2.30860184E+02
 21
-1.14115959E+02
  0
LINE
  8
0
 62
7
 10
-2.30860184E+02
 20
-1.14115959E+02
 11
-2.30860184E+02
 21
-1.19615959E+02
  0
LINE
  8
0
  6
CENTER
 62
2
 10
-2.27260629E+02
 20
-1.16865959E+02
 11
-2.31500305E+02
 21
-1.16865959E+02
  0
LINE
  8
0
 62
7
 10
-1.22860184E+02
 20
-1.97365960E+02
 11
-1.38360184E+02
 21
-1.97365960E+02
  0
LINE
  8
0
 62
7
 10
-1.22860184E+02
 20
-1.88365960E+02
 11
-1.31860184E+02
 21
-1.88365960E+02
  0
LINE
  8
0
 62
7
 10
-1.22860184E+02
 20
-1.20565964E+02
 11
-1.22860184E+02
 21
-1.97365960E+02
  0
LINE
  8
0
 62
7
 10
-1.22860184E+02
 20
-7.03659592E+01
 11
-1.38360184E+02
 21
-7.03659592E+01
  0
LINE
  8
0
 62
7
 10
-1.22260185E+02
 20
-9.45659637E+01
 11
-1.23860184E+02
 21
-9.45659637E+01
  0
LINE
  8
0
 62
7
 10
-1.22860184E+02
 20
-7.03659592E+01
 11
-1.22860184E+02
 21
-9.45659637E+01
  0
LINE
  8
0
 62
7
 10
-2.26860184E+02
 20
-1.21265961E+02
 11
-2.26860184E+02
 21
-1.97363220E+02
  0
LINE
  8
0
 62
7
 10
-2.26860184E+02
 20
-7.03632202E+01
 11
-2.26860184E+02
 21
-9.44659576E+01
  0
LINE
  8
0
 62
7
 10
-2.26860184E+02
 20
-7.03632202E+01
 11
-2.11360184E+02
 21
-7.03632202E+01
  0
LINE
  8
0
 62
7
 10
-2.26860184E+02
 20
-1.88363220E+02
 11
-2.17860184E+02
 21
-1.88363220E+02
  0
LINE
  8
0
 62
7
 10
-2.26860184E+02
 20
-1.97363220E+02
 11
-2.11360184E+02
 21
-1.97363220E+02
  0
LINE
  8
0
 62
7
 10
-1.38360184E+02
 20
-7.03632202E+01
 11
-1.38360184E+02
 21
-1.97363220E+02
  0
LINE
  8
0
 62
7
 10
-1.22260185E+02
 20
-1.20565964E+02
 11
-1.23860184E+02
 21
-1.20565964E+02
  0
LINE
  8
0
 62
7
 10
-2.17860184E+02
 20
-1.97363220E+02
 11
-2.17860184E+02
 21
-1.88363220E+02
  0
LINE
  8
0
 62
7
 10
-1.31860184E+02
 20
-1.97365960E+02
 11
-1.31860184E+02
 21
-1.88365960E+02
  0
LINE
  8
0
 62
7
 10
-1.22260185E+02
 20
-9.45659637E+01
 11
-1.22260185E+02
 21
-1.20565964E+02
  0
LINE
  8
0
 62
7
 10
-1.23860184E+02
 20
-9.45659637E+01
 11
-1.23860184E+02
 21
-1.20565964E+02
  0
LINE
  8
0
 62
7
 10
-2.27860184E+02
 20
-1.21265961E+02
 11
-2.27860184E+02
 21
-9.44659576E+01
  0
LINE
  8
0
 62
7
 10
-2.35860183E+02
 20
-1.17865964E+02
 11
-2.27860185E+02
 21
-1.20777725E+02
  0
LINE
  8
0
 62
7
 10
-2.35860186E+02
 20
-9.78659578E+01
 11
-2.27860186E+02
 21
-9.49541959E+01
  0
LINE
  8
0
 62
7
 10
-2.35860184E+02
 20
-9.78659592E+01
 11
-2.35860184E+02
 21
-1.17865959E+02
  0
LINE
  8
0
 62
7
 10
-2.25860184E+02
 20
-1.21265961E+02
 11
-2.27860184E+02
 21
-1.21265961E+02
  0
LINE
  8
0
 62
7
 10
-2.25860184E+02
 20
-9.44659576E+01
 11
-2.27860184E+02
 21
-9.44659576E+01
  0
LINE
  8
0
 62
7
 10
-2.25860184E+02
 20
-9.44659576E+01
 11
-2.25860184E+02
 21
-1.21265961E+02
  0
LINE
  8
0
 62
7
 10
-1.38360184E+02
 20
-8.03686981E+01
 11
-1.38610184E+02
 21
-8.03686981E+01
  0
LINE
  8
0
 62
7
 10
-1.38360184E+02
 20
-9.13686981E+01
 11
-1.38610184E+02
 21
-9.13686981E+01
  0
LINE
  8
0
 62
7
 10
-1.38360184E+02
 20
-9.66687012E+01
 11
-1.38610184E+02
 21
-9.66687012E+01
  0
LINE
  8
0
 62
7
 10
-1.38360184E+02
 20
-1.37668701E+02
 11
-1.38610184E+02
 21
-1.37668701E+02
  0
LINE
  8
0
 62
7
 10
-2.11360184E+02
 20
-1.97365960E+02
 11
-2.11360184E+02
 21
-7.03659592E+01
  0
LINE
  8
0
 62
7
 10
-2.07753694E+02
 20
-1.57945616E+02
 11
-2.04572892E+02
 21
-1.52436307E+02
  0
LINE
  8
0
 62
7
 10
-2.07147476E+02
 20
-1.58295616E+02
 11
-2.03966674E+02
 21
-1.52786307E+02
  0
LINE
  8
0
  6
CENTER
 62
2
 10
-2.05860184E+02
 20
-6.68592682E+01
 11
-2.05860184E+02
 21
-1.90619147E+02
  0
LINE
  8
0
  6
CENTER
 62
2
 10
-2.07110184E+02
 20
-9.17563782E+01
 11
-2.07110184E+02
 21
-8.32937164E+01
  0
LINE
  8
0
 62
7
 10
-2.11110184E+02
 20
-7.03686981E+01
 11
-2.00610184E+02
 21
-7.03686981E+01
  0
LINE
  8
0
 62
7
 10
-2.00610184E+02
 20
-7.03686981E+01
 11
-2.00610184E+02
 21
-1.45368698E+02
  0
LINE
  8
0
 62
7
 10
-2.11110184E+02
 20
-7.03686981E+01
 11
-2.11110184E+02
 21
-1.45368698E+02
  0
LINE
  8
0
 62
7
 10
-2.11110184E+02
 20
-1.45368698E+02
 11
-2.00610184E+02
 21
-1.45368698E+02
  0
LINE
  8
0
  6
CENTER
 62
2
 10
-2.09115960E+02
 20
-1.74365959E+02
 11
-2.01896599E+02
 21
-1.74365959E+02
  0
LINE
  8
0
 62
7
 10
-2.00610184E+02
 20
-1.88365960E+02
 11
-2.11110184E+02
 21
-1.88365960E+02
  0
LINE
  8
0
 62
7
 10
-2.00610184E+02
 20
-1.45368698E+02
 11
-2.00610184E+02
 21
-1.88365960E+02
  0
LINE
  8
0
 62
7
 10
-2.11110184E+02
 20
-1.88365960E+02
 11
-2.11110184E+02
 21
-1.45368698E+02
  0
LINE
  8
0
  6
CENTER
 62
2
 10
-2.11116283E+02
 20
-8.78686981E+01
 11
-2.02953606E+02
 21
-8.78686981E+01
  0
LINE
  8
0
  6
CENTER
 62
2
 10
-2.04910183E+02
 20
-5.48824158E+01
 11
-2.04910183E+02
 21
-7.18462524E+01
  0
LINE
  8
0
 62
7
 10
-2.08910184E+02
 20
-6.96687012E+01
 11
-2.00910183E+02
 21
-6.96687012E+01
  0
LINE
  8
0
 62
7
 10
-2.01210181E+02
 20
-6.93687003E+01
 11
-2.00910182E+02
 21
-6.96686996E+01
  0
LINE
  8
0
 62
7
 10
-2.08910185E+02
 20
-6.96687049E+01
 11
-2.08610180E+02
 21
-6.93687003E+01
  0
LINE
  8
0
 62
7
 10
-2.08910184E+02
 20
-7.03686981E+01
 11
-2.08910184E+02
 21
-6.96687012E+01
  0
LINE
  8
0
 62
7
 10
-2.00910183E+02
 20
-7.03686981E+01
 11
-2.00910183E+02
 21
-6.96687012E+01
  0
LINE
  8
0
 62
7
 10
-2.08610184E+02
 20
-6.93686981E+01
 11
-2.01210184E+02
 21
-6.93686981E+01
  0
LINE
  8
0
 62
7
 10
-2.01410183E+02
 20
-6.88687052E+01
 11
-2.01910183E+02
 21
-6.93687057E+01
  0
LINE
  8
0
 62
7
 10
-2.06160184E+02
 20
-6.36636963E+01
 11
-2.06160184E+02
 21
-6.63686981E+01
  0
LINE
  8
0
 62
7
 10
-2.08410184E+02
 20
-6.88686981E+01
 11
-2.08410184E+02
 21
-6.68686981E+01
  0
LINE
  8
0
 62
7
 10
-2.07410184E+02
 20
-5.91636963E+01
 11
-2.07410184E+02
 21
-6.31636963E+01
  0
LINE
  8
0
 62
7
 10
-2.06910183E+02
 20
-6.36637030E+01
 11
-2.07410183E+02
 21
-6.31637025E+01
  0
LINE
  8
0
 62
7
 10
-2.07410183E+02
 20
-5.91636982E+01
 11
-2.06910188E+02
 21
-5.86637031E+01
  0
LINE
  8
0
 62
7
 10
-2.08410185E+02
 20
-6.68686977E+01
 11
-2.07910184E+02
 21
-6.63686971E+01
  0
LINE
  8
0
 62
7
 10
-2.08410185E+02
 20
-6.88686998E+01
 11
-2.07910184E+02
 21
-6.93687003E+01
  0
LINE
  8
0
 62
7
 10
-2.02410183E+02
 20
-5.91636963E+01
 11
-2.02410183E+02
 21
-6.31636963E+01
  0
LINE
  8
0
 62
7
 10
-2.02410184E+02
 20
-5.91637036E+01
 11
-2.02910184E+02
 21
-5.86637031E+01
  0
LINE
  8
0
 62
7
 10
-2.02410189E+02
 20
-6.31637025E+01
 11
-2.02910184E+02
 21
-6.36636976E+01
  0
LINE
  8
0
 62
7
 10
-2.01410183E+02
 20
-6.68687031E+01
 11
-2.01910183E+02
 21
-6.63687025E+01
  0
LINE
  8
0
 62
7
 10
-2.03660183E+02
 20
-6.36636963E+01
 11
-2.03660183E+02
 21
-6.63686981E+01
  0
LINE
  8
0
 62
7
 10
-2.01410183E+02
 20
-6.88686981E+01
 11
-2.01410183E+02
 21
-6.68686981E+01
  0
LINE
  8
0
 62
7
 10
-2.01910183E+02
 20
-6.63686981E+01
 11
-2.07910184E+02
 21
-6.63686981E+01
  0
LINE
  8
0
 62
7
 10
-2.06910184E+02
 20
-6.36636963E+01
 11
-2.02910183E+02
 21
-6.36636963E+01
  0
LINE
  8
0
 62
7
 10
-2.02910183E+02
 20
-5.86636963E+01
 11
-2.06910184E+02
 21
-5.86636963E+01
  0
LINE
  8
0
 62
7
 10
-1.96753694E+02
 20
-1.57945617E+02
 11
-1.93572892E+02
 21
-1.52436307E+02
  0
LINE
  8
0
 62
7
 10
-1.96147476E+02
 20
-1.58295616E+02
 11
-1.92966675E+02
 21
-1.52786307E+02
  0
LINE
  8
0
  6
CENTER
 62
2
 10
-1.94860184E+02
 20
-6.68592682E+01
 11
-1.94860184E+02
 21
-1.90619147E+02
  0
LINE
  8
0
  6
CENTER
 62
2
 10
-1.96110184E+02
 20
-9.17563782E+01
 11
-1.96110184E+02
 21
-8.32937164E+01
  0
LINE
  8
0
 62
7
 10
-2.00110184E+02
 20
-7.03686981E+01
 11
-1.89610184E+02
 21
-7.03686981E+01
  0
LINE
  8
0
 62
7
 10
-1.89610184E+02
 20
-7.03686981E+01
 11
-1.89610184E+02
 21
-1.45368698E+02
  0
LINE
  8
0
 62
7
 10
-2.00110184E+02
 20
-7.03686981E+01
 11
-2.00110184E+02
 21
-1.45368698E+02
  0
LINE
  8
0
 62
7
 10
-2.00110184E+02
 20
-1.45368698E+02
 11
-1.89610184E+02
 21
-1.45368698E+02
  0
LINE
  8
0
  6
CENTER
 62
2
 10
-1.98115959E+02
 20
-1.74365959E+02
 11
-1.90896599E+02
 21
-1.74365959E+02
  0
LINE
  8
0
 62
7
 10
-1.89610184E+02
 20
-1.88365960E+02
 11
-2.00110184E+02
 21
-1.88365960E+02
  0
LINE
  8
0
 62
7
 10
-1.89610184E+02
 20
-1.45368698E+02
 11
-1.89610184E+02
 21
-1.88365960E+02
  0
LINE
  8
0
 62
7
 10
-2.00110184E+02
 20
-1.88365960E+02
 11
-2.00110184E+02
 21
-1.45368698E+02
  0
LINE
  8
0
  6
CENTER
 62
2
 10
-2.00116283E+02
 20
-8.78686981E+01
 11
-1.91953606E+02
 21
-8.78686981E+01
  0
LINE
  8
0
  6
CENTER
 62
2
 10
-1.93910183E+02
 20
-5.48824158E+01
 11
-1.93910183E+02
 21
-7.18462524E+01
  0
LINE
  8
0
 62
7
 10
-1.97910183E+02
 20
-6.96687012E+01
 11
-1.89910183E+02
 21
-6.96687012E+01
  0
LINE
  8
0
 62
7
 10
-1.90210186E+02
 20
-6.93687057E+01
 11
-1.89910186E+02
 21
-6.96687049E+01
  0
LINE
  8
0
 62
7
 10
-1.97910184E+02
 20
-6.96687049E+01
 11
-1.97610185E+02
 21
-6.93687057E+01
  0
LINE
  8
0
 62
7
 10
-1.97910183E+02
 20
-7.03686981E+01
 11
-1.97910183E+02
 21
-6.96687012E+01
  0
LINE
  8
0
 62
7
 10
-1.89910183E+02
 20
-7.03686981E+01
 11
-1.89910183E+02
 21
-6.96687012E+01
  0
LINE
  8
0
 62
7
 10
-1.97610184E+02
 20
-6.93686981E+01
 11
-1.90210184E+02
 21
-6.93686981E+01
  0
LINE
  8
0
 62
7
 10
-1.90410187E+02
 20
-6.88686998E+01
 11
-1.90910188E+02
 21
-6.93687003E+01
  0
LINE
  8
0
 62
7
 10
-1.95160183E+02
 20
-6.36636963E+01
 11
-1.95160183E+02
 21
-6.63686981E+01
  0
LINE
  8
0
 62
7
 10
-1.97410183E+02
 20
-6.88686981E+01
 11
-1.97410183E+02
 21
-6.68686981E+01
  0
LINE
  8
0
 62
7
 10
-1.96410183E+02
 20
-5.91636963E+01
 11
-1.96410183E+02
 21
-6.31636963E+01
  0
LINE
  8
0
 62
7
 10
-1.95910182E+02
 20
-6.36637030E+01
 11
-1.96410183E+02
 21
-6.31637025E+01
  0
LINE
  8
0
 62
7
 10
-1.96410188E+02
 20
-5.91637036E+01
 11
-1.95910187E+02
 21
-5.86637031E+01
  0
LINE
  8
0
 62
7
 10
-1.97410184E+02
 20
-6.68686977E+01
 11
-1.96910189E+02
 21
-6.63687025E+01
  0
LINE
  8
0
 62
7
 10
-1.97410184E+02
 20
-6.88686998E+01
 11
-1.96910183E+02
 21
-6.93687003E+01
  0
LINE
  8
0
 62
7
 10
-1.91410183E+02
 20
-5.91636963E+01
 11
-1.91410183E+02
 21
-6.31636963E+01
  0
LINE
  8
0
 62
7
 10
-1.91410183E+02
 20
-5.91637036E+01
 11
-1.91910183E+02
 21
-5.86637031E+01
  0
LINE
  8
0
 62
7
 10
-1.91410188E+02
 20
-6.31637025E+01
 11
-1.91910189E+02
 21
-6.36637030E+01
  0
LINE
  8
0
 62
7
 10
-1.90410182E+02
 20
-6.68687031E+01
 11
-1.90910182E+02
 21
-6.63687025E+01
  0
LINE
  8
0
 62
7
 10
-1.92660183E+02
 20
-6.36636963E+01
 11
-1.92660183E+02
 21
-6.63686981E+01
  0
LINE
  8
0
 62
7
 10
-1.90410183E+02
 20
-6.88686981E+01
 11
-1.90410183E+02
 21
-6.68686981E+01
  0
LINE
  8
0
 62
7
 10
-1.90910183E+02
 20
-6.63686981E+01
 11
-1.96910183E+02
 21
-6.63686981E+01
  0
LINE
  8
0
 62
7
 10
-1.95910183E+02
 20
-6.36636963E+01
 11
-1.91910183E+02
 21
-6.36636963E+01
  0
LINE
  8
0
 62
7
 10
-1.91910183E+02
 20
-5.86636963E+01
 11
-1.95910183E+02
 21
-5.86636963E+01
  0
LINE
  8
0
 62
7
 10
-1.83149770E+02
 20
-1.61665615E+02
 11
-1.78964379E+02
 21
-1.54416306E+02
  0
LINE
  8
0
 62
7
 10
-1.83755988E+02
 20
-1.61315615E+02
 11
-1.79570597E+02
 21
-1.54066306E+02
  0
LINE
  8
0
  6
CENTER
 62
2
 10
-1.88061253E+02
 20
-1.80365959E+02
 11
-1.74438942E+02
 21
-1.80365959E+02
  0
LINE
  8
0
  6
CENTER
 62
2
 10
-1.88061253E+02
 20
-8.73686981E+01
 11
-1.74548923E+02
 21
-8.73686981E+01
  0
LINE
  8
0
 62
7
 10
-1.81360184E+02
 20
-8.53686981E+01
 11
-1.85147541E+02
 21
-8.53686981E+01
  0
LINE
  8
0
 62
7
 10
-1.81360184E+02
 20
-8.53686981E+01
 11
-1.81360184E+02
 21
-8.98686981E+01
  0
LINE
  8
0
 62
7
 10
-1.85360184E+02
 20
-8.58376617E+01
 11
-1.85360184E+02
 21
-8.88997421E+01
  0
LINE
  8
0
 62
7
 10
-1.84837841E+02
 20
-8.98686981E+01
 11
-1.81360184E+02
 21
-8.98686981E+01
  0
LINE
  8
0
 62
7
 10
-1.89110184E+02
 20
-7.03686981E+01
 11
-1.73610184E+02
 21
-7.03686981E+01
  0
LINE
  8
0
 62
7
 10
-1.89110184E+02
 20
-7.03686981E+01
 11
-1.89110184E+02
 21
-1.45368698E+02
  0
LINE
  8
0
 62
7
 10
-1.73610184E+02
 20
-7.03686981E+01
 11
-1.73610184E+02
 21
-1.45368698E+02
  0
LINE
  8
0
 62
7
 10
-1.89110184E+02
 20
-1.45368698E+02
 11
-1.73610184E+02
 21
-1.45368698E+02
  0
LINE
  8
0
  6
CENTER
 62
2
 10
-1.82616508E+02
 20
-1.82665960E+02
 11
-1.80101379E+02
 21
-1.82665960E+02
  0
LINE
  8
0
 62
7
 10
-1.83360184E+02
 20
-1.76615959E+02
 11
-1.83360184E+02
 21
-1.84115960E+02
  0
LINE
  8
0
 62
7
 10
-1.79360184E+02
 20
-1.76615959E+02
 11
-1.79360184E+02
 21
-1.84115960E+02
  0
LINE
  8
0
 62
7
 10
-1.83060184E+02
 20
-1.79865959E+02
 11
-1.79660183E+02
 21
-1.79865959E+02
  0
LINE
  8
0
 62
7
 10
-1.73610184E+02
 20
-1.88365960E+02
 11
-1.89110184E+02
 21
-1.88365960E+02
  0
LINE
  8
0
 62
7
 10
-1.73610184E+02
 20
-1.45368698E+02
 11
-1.73610184E+02
 21
-1.88365960E+02
  0
LINE
  8
0
 62
7
 10
-1.89110184E+02
 20
-1.88365960E+02
 11
-1.89110184E+02
 21
-1.45368698E+02
  0
LINE
  8
0
  6
CENTER
 62
2
 10
-1.81360184E+02
 20
-6.54435425E+01
 11
-1.81360184E+02
 21
-1.90619147E+02
  0
LINE
  8
0
 62
7
 10
-1.77360184E+02
 20
-5.86636963E+01
 11
-1.81360184E+02
 21
-5.86636963E+01
  0
LINE
  8
0
 62
7
 10
-1.81360184E+02
 20
-6.36636963E+01
 11
-1.77360184E+02
 21
-6.36636963E+01
  0
LINE
  8
0
 62
7
 10
-1.76360184E+02
 20
-6.63686981E+01
 11
-1.82360184E+02
 21
-6.63686981E+01
  0
LINE
  8
0
 62
7
 10
-1.75860184E+02
 20
-6.88686981E+01
 11
-1.75860184E+02
 21
-6.68686981E+01
  0
LINE
  8
0
 62
7
 10
-1.78110184E+02
 20
-6.36636963E+01
 11
-1.78110184E+02
 21
-6.63686981E+01
  0
LINE
  8
0
 62
7
 10
-1.75860186E+02
 20
-6.68687058E+01
 11
-1.76360187E+02
 21
-6.63687052E+01
  0
LINE
  8
0
 62
7
 10
-1.76860184E+02
 20
-6.31637025E+01
 11
-1.77360185E+02
 21
-6.36637030E+01
  0
LINE
  8
0
 62
7
 10
-1.76860184E+02
 20
-5.91636982E+01
 11
-1.77360185E+02
 21
-5.86636977E+01
  0
LINE
  8
0
 62
7
 10
-1.76860184E+02
 20
-5.91636963E+01
 11
-1.76860184E+02
 21
-6.31636963E+01
  0
LINE
  8
0
 62
7
 10
-1.82860185E+02
 20
-6.88687052E+01
 11
-1.82360188E+02
 21
-6.93687030E+01
  0
LINE
  8
0
 62
7
 10
-1.82860185E+02
 20
-6.68687031E+01
 11
-1.82360185E+02
 21
-6.63687025E+01
  0
LINE
  8
0
 62
7
 10
-1.81860184E+02
 20
-5.91637036E+01
 11
-1.81360184E+02
 21
-5.86637031E+01
  0
LINE
  8
0
 62
7
 10
-1.81360184E+02
 20
-6.36636976E+01
 11
-1.81860184E+02
 21
-6.31636971E+01
  0
LINE
  8
0
 62
7
 10
-1.81860184E+02
 20
-5.91636963E+01
 11
-1.81860184E+02
 21
-6.31636963E+01
  0
LINE
  8
0
 62
7
 10
-1.82860184E+02
 20
-6.88686981E+01
 11
-1.82860184E+02
 21
-6.68686981E+01
  0
LINE
  8
0
 62
7
 10
-1.80610184E+02
 20
-6.36636963E+01
 11
-1.80610184E+02
 21
-6.63686981E+01
  0
LINE
  8
0
 62
7
 10
-1.75860183E+02
 20
-6.88686998E+01
 11
-1.76360184E+02
 21
-6.93687003E+01
  0
LINE
  8
0
 62
7
 10
-1.83060184E+02
 20
-6.93686981E+01
 11
-1.75660183E+02
 21
-6.93686981E+01
  0
LINE
  8
0
 62
7
 10
-1.75360184E+02
 20
-7.03686981E+01
 11
-1.75360184E+02
 21
-6.96687012E+01
  0
LINE
  8
0
 62
7
 10
-1.83360184E+02
 20
-7.03686981E+01
 11
-1.83360184E+02
 21
-6.96687012E+01
  0
LINE
  8
0
 62
7
 10
-1.83360183E+02
 20
-6.96687023E+01
 11
-1.83060184E+02
 21
-6.93687030E+01
  0
LINE
  8
0
 62
7
 10
-1.75660185E+02
 20
-6.93687030E+01
 11
-1.75360186E+02
 21
-6.96687023E+01
  0
LINE
  8
0
 62
7
 10
-1.83360184E+02
 20
-6.96687012E+01
 11
-1.75360184E+02
 21
-6.96687012E+01
  0
LINE
  8
0
  6
CENTER
 62
2
 10
-1.79360184E+02
 20
-5.48824158E+01
 11
-1.79360184E+02
 21
-7.18462524E+01
  0
LINE
  8
0
 62
7
 10
-1.67149770E+02
 20
-1.61665615E+02
 11
-1.62964380E+02
 21
-1.54416306E+02
  0
LINE
  8
0
 62
7
 10
-1.67755987E+02
 20
-1.61315615E+02
 11
-1.63570597E+02
 21
-1.54066307E+02
  0
LINE
  8
0
  6
CENTER
 62
2
 10
-1.72061253E+02
 20
-1.80365959E+02
 11
-1.58438942E+02
 21
-1.80365959E+02
  0
LINE
  8
0
  6
CENTER
 62
2
 10
-1.72061253E+02
 20
-8.73686981E+01
 11
-1.58548923E+02
 21
-8.73686981E+01
  0
LINE
  8
0
 62
7
 10
-1.65360184E+02
 20
-8.53686981E+01
 11
-1.69147541E+02
 21
-8.53686981E+01
  0
LINE
  8
0
 62
7
 10
-1.65360184E+02
 20
-8.53686981E+01
 11
-1.65360184E+02
 21
-8.98686981E+01
  0
LINE
  8
0
 62
7
 10
-1.69360184E+02
 20
-8.58376617E+01
 11
-1.69360184E+02
 21
-8.88997421E+01
  0
LINE
  8
0
 62
7
 10
-1.68837841E+02
 20
-8.98686981E+01
 11
-1.65360184E+02
 21
-8.98686981E+01
  0
LINE
  8
0
 62
7
 10
-1.73110184E+02
 20
-7.03686981E+01
 11
-1.57610184E+02
 21
-7.03686981E+01
  0
LINE
  8
0
 62
7
 10
-1.73110184E+02
 20
-7.03686981E+01
 11
-1.73110184E+02
 21
-1.45368698E+02
  0
LINE
  8
0
 62
7
 10
-1.57610184E+02
 20
-7.03686981E+01
 11
-1.57610184E+02
 21
-1.45368698E+02
  0
LINE
  8
0
 62
7
 10
-1.73110184E+02
 20
-1.45368698E+02
 11
-1.57610184E+02
 21
-1.45368698E+02
  0
LINE
  8
0
  6
CENTER
 62
2
 10
-1.66616508E+02
 20
-1.82665960E+02
 11
-1.64101379E+02
 21
-1.82665960E+02
  0
LINE
  8
0
 62
7
 10
-1.67360184E+02
 20
-1.76615959E+02
 11
-1.67360184E+02
 21
-1.84115960E+02
  0
LINE
  8
0
 62
7
 10
-1.63360184E+02
 20
-1.76615959E+02
 11
-1.63360184E+02
 21
-1.84115960E+02
  0
LINE
  8
0
 62
7
 10
-1.67060184E+02
 20
-1.79865959E+02
 11
-1.63660183E+02
 21
-1.79865959E+02
  0
LINE
  8
0
 62
7
 10
-1.57610184E+02
 20
-1.88365960E+02
 11
-1.73110184E+02
 21
-1.88365960E+02
  0
LINE
  8
0
 62
7
 10
-1.57610184E+02
 20
-1.45368698E+02
 11
-1.57610184E+02
 21
-1.88365960E+02
  0
LINE
  8
0
 62
7
 10
-1.73110184E+02
 20
-1.88365960E+02
 11
-1.73110184E+02
 21
-1.45368698E+02
  0
LINE
  8
0
  6
CENTER
 62
2
 10
-1.65360184E+02
 20
-6.54435425E+01
 11
-1.65360184E+02
 21
-1.90619147E+02
  0
LINE
  8
0
 62
7
 10
-1.61360184E+02
 20
-5.86636963E+01
 11
-1.65360184E+02
 21
-5.86636963E+01
  0
LINE
  8
0
 62
7
 10
-1.65360184E+02
 20
-6.36636963E+01
 11
-1.61360184E+02
 21
-6.36636963E+01
  0
LINE
  8
0
 62
7
 10
-1.60360184E+02
 20
-6.63686981E+01
 11
-1.66360184E+02
 21
-6.63686981E+01
  0
LINE
  8
0
 62
7
 10
-1.59860184E+02
 20
-6.88686981E+01
 11
-1.59860184E+02
 21
-6.68686981E+01
  0
LINE
  8
0
 62
7
 10
-1.62110184E+02
 20
-6.36636963E+01
 11
-1.62110184E+02
 21
-6.63686981E+01
  0
LINE
  8
0
 62
7
 10
-1.59860185E+02
 20
-6.68687004E+01
 11
-1.60360183E+02
 21
-6.63687025E+01
  0
LINE
  8
0
 62
7
 10
-1.60860186E+02
 20
-6.31637052E+01
 11
-1.61360187E+02
 21
-6.36637057E+01
  0
LINE
  8
0
 62
7
 10
-1.60860184E+02
 20
-5.91637036E+01
 11
-1.61360184E+02
 21
-5.86637031E+01
  0
LINE
  8
0
 62
7
 10
-1.60860184E+02
 20
-5.91636963E+01
 11
-1.60860184E+02
 21
-6.31636963E+01
  0
LINE
  8
0
 62
7
 10
-1.66860190E+02
 20
-6.88687052E+01
 11
-1.66360190E+02
 21
-6.93687057E+01
  0
LINE
  8
0
 62
7
 10
-1.66860187E+02
 20
-6.68687058E+01
 11
-1.66360187E+02
 21
-6.63687052E+01
  0
LINE
  8
0
 62
7
 10
-1.65860186E+02
 20
-5.91637063E+01
 11
-1.65360186E+02
 21
-5.86637058E+01
  0
LINE
  8
0
 62
7
 10
-1.65360188E+02
 20
-6.36637084E+01
 11
-1.65860189E+02
 21
-6.31637079E+01
  0
LINE
  8
0
 62
7
 10
-1.65860184E+02
 20
-5.91636963E+01
 11
-1.65860184E+02
 21
-6.31636963E+01
  0
LINE
  8
0
 62
7
 10
-1.66860184E+02
 20
-6.88686981E+01
 11
-1.66860184E+02
 21
-6.68686981E+01
  0
LINE
  8
0
 62
7
 10
-1.64610184E+02
 20
-6.36636963E+01
 11
-1.64610184E+02
 21
-6.63686981E+01
  0
LINE
  8
0
 62
7
 10
-1.59860185E+02
 20
-6.88687025E+01
 11
-1.60360186E+02
 21
-6.93687030E+01
  0
LINE
  8
0
 62
7
 10
-1.67060184E+02
 20
-6.93686981E+01
 11
-1.59660183E+02
 21
-6.93686981E+01
  0
LINE
  8
0
 62
7
 10
-1.59360184E+02
 20
-7.03686981E+01
 11
-1.59360184E+02
 21
-6.96687012E+01
  0
LINE
  8
0
 62
7
 10
-1.67360184E+02
 20
-7.03686981E+01
 11
-1.67360184E+02
 21
-6.96687012E+01
  0
LINE
  8
0
 62
7
 10
-1.67360185E+02
 20
-6.96687049E+01
 11
-1.67060181E+02
 21
-6.93687003E+01
  0
LINE
  8
0
 62
7
 10
-1.59660181E+02
 20
-6.93687003E+01
 11
-1.59360182E+02
 21
-6.96686996E+01
  0
LINE
  8
0
 62
7
 10
-1.67360184E+02
 20
-6.96687012E+01
 11
-1.59360184E+02
 21
-6.96687012E+01
  0
LINE
  8
0
  6
CENTER
 62
2
 10
-1.63360184E+02
 20
-5.48824158E+01
 11
-1.63360184E+02
 21
-7.18462524E+01
  0
LINE
  8
0
 62
7
 10
-1.50255987E+02
 20
-1.61318355E+02
 11
-1.46070597E+02
 21
-1.54069047E+02
  0
LINE
  8
0
 62
7
 10
-1.49649769E+02
 20
-1.61668356E+02
 11
-1.45464378E+02
 21
-1.54419047E+02
  0
LINE
  8
0
 62
7
 10
-1.57110184E+02
 20
-6.03714447E+01
 11
-1.38610184E+02
 21
-6.03714447E+01
  0
LINE
  8
0
 62
7
 10
-1.57110184E+02
 20
-6.03714447E+01
 11
-1.57110184E+02
 21
-1.88368700E+02
  0
LINE
  8
0
 62
7
 10
-1.38610184E+02
 20
-6.03714447E+01
 11
-1.38610184E+02
 21
-1.88368700E+02
  0
LINE
  8
0
 62
7
 10
-1.57110184E+02
 20
-1.45371441E+02
 11
-1.38610184E+02
 21
-1.45371441E+02
  0
LINE
  8
0
 62
7
 10
-1.45860184E+02
 20
-8.88830338E+01
 11
-1.45860184E+02
 21
-8.18511047E+01
  0
LINE
  8
0
 62
7
 10
-1.49860184E+02
 20
-8.88830338E+01
 11
-1.49860184E+02
 21
-8.18511047E+01
  0
LINE
  8
0
 62
7
 10
-1.45146881E+02
 20
-8.83670731E+01
 11
-1.45860184E+02
 21
-8.83670731E+01
  0
LINE
  8
0
 62
7
 10
-1.50573486E+02
 20
-8.83670731E+01
 11
-1.49860184E+02
 21
-8.83670731E+01
  0
LINE
  8
0
  6
CENTER
 62
2
 10
-1.55327698E+02
 20
-8.53670731E+01
 11
-1.40704414E+02
 21
-8.53670731E+01
  0
LINE
  8
0
 62
7
 10
-1.38610184E+02
 20
-1.88368700E+02
 11
-1.57110184E+02
 21
-1.88368700E+02
  0
LINE
  8
0
  6
CENTER
 62
2
 10
-1.55139023E+02
 20
-1.80368700E+02
 11
-1.40132591E+02
 21
-1.80368700E+02
  0
LINE
  8
0
 62
7
 10
-1.51347305E+02
 20
-1.80868700E+02
 11
-1.44373062E+02
 21
-1.80868700E+02
  0
LINE
  8
0
 62
7
 10
-1.45860184E+02
 20
-4.86664429E+01
 11
-1.49860184E+02
 21
-4.86664429E+01
  0
LINE
  8
0
 62
7
 10
-1.49860184E+02
 20
-5.36664429E+01
 11
-1.45860184E+02
 21
-5.36664429E+01
  0
LINE
  8
0
 62
7
 10
-1.44860184E+02
 20
-5.63714447E+01
 11
-1.50860184E+02
 21
-5.63714447E+01
  0
LINE
  8
0
 62
7
 10
-1.44360184E+02
 20
-5.88714447E+01
 11
-1.44360184E+02
 21
-5.68714447E+01
  0
LINE
  8
0
 62
7
 10
-1.46610184E+02
 20
-5.36664429E+01
 11
-1.46610184E+02
 21
-5.63714447E+01
  0
LINE
  8
0
 62
7
 10
-1.44360188E+02
 20
-5.68714438E+01
 11
-1.44860188E+02
 21
-5.63714433E+01
  0
LINE
  8
0
 62
7
 10
-1.45360189E+02
 20
-5.31664486E+01
 11
-1.45860179E+02
 21
-5.36664383E+01
  0
LINE
  8
0
 62
7
 10
-1.45360189E+02
 20
-4.91664443E+01
 11
-1.45860187E+02
 21
-4.86664465E+01
  0
LINE
  8
0
 62
7
 10
-1.45360184E+02
 20
-4.91664429E+01
 11
-1.45360184E+02
 21
-5.31664429E+01
  0
LINE
  8
0
 62
7
 10
-1.51360182E+02
 20
-5.88714378E+01
 11
-1.50860181E+02
 21
-5.93714383E+01
  0
LINE
  8
0
 62
7
 10
-1.51360179E+02
 20
-5.68714384E+01
 11
-1.50860189E+02
 21
-5.63714486E+01
  0
LINE
  8
0
 62
7
 10
-1.50360181E+02
 20
-4.91664363E+01
 11
-1.49860191E+02
 21
-4.86664465E+01
  0
LINE
  8
0
 62
7
 10
-1.49860183E+02
 20
-5.36664383E+01
 11
-1.50360181E+02
 21
-5.31664405E+01
  0
LINE
  8
0
 62
7
 10
-1.50360184E+02
 20
-4.91664429E+01
 11
-1.50360184E+02
 21
-5.31664429E+01
  0
LINE
  8
0
 62
7
 10
-1.51360184E+02
 20
-5.88714447E+01
 11
-1.51360184E+02
 21
-5.68714447E+01
  0
LINE
  8
0
 62
7
 10
-1.49110184E+02
 20
-5.36664429E+01
 11
-1.49110184E+02
 21
-5.63714447E+01
  0
LINE
  8
0
 62
7
 10
-1.44360188E+02
 20
-5.88714459E+01
 11
-1.44860188E+02
 21
-5.93714464E+01
  0
LINE
  8
0
 62
7
 10
-1.51560181E+02
 20
-5.93714447E+01
 11
-1.44160187E+02
 21
-5.93714447E+01
  0
LINE
  8
0
 62
7
 10
-1.43860184E+02
 20
-6.03714447E+01
 11
-1.43860184E+02
 21
-5.96714325E+01
  0
LINE
  8
0
 62
7
 10
-1.51860184E+02
 20
-6.03714447E+01
 11
-1.51860184E+02
 21
-5.96714325E+01
  0
LINE
  8
0
 62
7
 10
-1.51860190E+02
 20
-5.96714457E+01
 11
-1.51560186E+02
 21
-5.93714410E+01
  0
LINE
  8
0
 62
7
 10
-1.44160186E+02
 20
-5.93714410E+01
 11
-1.43860185E+02
 21
-5.96714430E+01
  0
LINE
  8
0
 62
7
 10
-1.51860184E+02
 20
-5.96714325E+01
 11
-1.43860184E+02
 21
-5.96714325E+01
  0
LINE
  8
0
  6
CENTER
 62
2
 10
-1.47860184E+02
 20
-4.48851624E+01
 11
-1.47860184E+02
 21
-1.92661738E+02
  0
LINE
  8
0
  6
CENTER
 62
2
 10
-1.60360184E+02
 20
-1.41868698E+02
 11
-1.35360184E+02
 21
-1.41868698E+02
  0
LINE
  8
0
  6
CENTER
 62
2
 10
-2.13360184E+02
 20
-7.43686981E+01
 11
-1.35360184E+02
 21
-7.43686981E+01
  0
LINE
  8
0
  6
CENTER
 62
2
 10
-2.13360184E+02
 20
-1.41865959E+02
 11
-1.55360184E+02
 21
-1.41865959E+02
  0
LINE
  8
0
 62
7
 10
-2.00610184E+02
 20
-8.03686981E+01
 11
-2.00360184E+02
 21
-8.03686981E+01
  0
LINE
  8
0
 62
7
 10
-2.00360184E+02
 20
-9.13686981E+01
 11
-2.00610184E+02
 21
-9.13686981E+01
  0
LINE
  8
0
 62
7
 10
-2.00610184E+02
 20
-9.75687027E+01
 11
-2.00360184E+02
 21
-9.75687027E+01
  0
LINE
  8
0
 62
7
 10
-2.00610184E+02
 20
-1.37668701E+02
 11
-2.00360184E+02
 21
-1.37668701E+02
  0
LINE
  8
0
 62
7
 10
-2.00360184E+02
 20
-8.03686981E+01
 11
-2.00110184E+02
 21
-8.03686981E+01
  0
LINE
  8
0
 62
7
 10
-2.00110184E+02
 20
-9.13686981E+01
 11
-2.00360184E+02
 21
-9.13686981E+01
  0
LINE
  8
0
 62
7
 10
-2.00360184E+02
 20
-9.75687027E+01
 11
-2.00110184E+02
 21
-9.75687027E+01
  0
LINE
  8
0
 62
7
 10
-2.00360184E+02
 20
-1.37668701E+02
 11
-2.00110184E+02
 21
-1.37668701E+02
  0
LINE
  8
0
 62
7
 10
-1.89610184E+02
 20
-8.03686981E+01
 11
-1.89360184E+02
 21
-8.03686981E+01
  0
LINE
  8
0
 62
7
 10
-1.89360184E+02
 20
-9.13686981E+01
 11
-1.89610184E+02
 21
-9.13686981E+01
  0
LINE
  8
0
 62
7
 10
-1.89610184E+02
 20
-9.75687027E+01
 11
-1.89360184E+02
 21
-9.75687027E+01
  0
LINE
  8
0
 62
7
 10
-1.89610184E+02
 20
-1.37668701E+02
 11
-1.89360184E+02
 21
-1.37668701E+02
  0
LINE
  8
0
 62
7
 10
-1.89360184E+02
 20
-8.03686981E+01
 11
-1.89110184E+02
 21
-8.03686981E+01
  0
LINE
  8
0
 62
7
 10
-1.89110184E+02
 20
-9.13686981E+01
 11
-1.89360184E+02
 21
-9.13686981E+01
  0
LINE
  8
0
 62
7
 10
-1.89360184E+02
 20
-9.75687027E+01
 11
-1.89110184E+02
 21
-9.75687027E+01
  0
LINE
  8
0
 62
7
 10
-1.89360184E+02
 20
-1.37668701E+02
 11
-1.89110184E+02
 21
-1.37668701E+02
  0
LINE
  8
0
 62
7
 10
-1.73610184E+02
 20
-8.03686981E+01
 11
-1.73360184E+02
 21
-8.03686981E+01
  0
LINE
  8
0
 62
7
 10
-1.73360184E+02
 20
-9.13686981E+01
 11
-1.73610184E+02
 21
-9.13686981E+01
  0
LINE
  8
0
 62
7
 10
-1.73610184E+02
 20
-9.75687027E+01
 11
-1.73360184E+02
 21
-9.75687027E+01
  0
LINE
  8
0
 62
7
 10
-1.73610184E+02
 20
-1.37668701E+02
 11
-1.73360184E+02
 21
-1.37668701E+02
  0
LINE
  8
0
 62
7
 10
-1.73360184E+02
 20
-8.03686981E+01
 11
-1.73110184E+02
 21
-8.03686981E+01
  0
LINE
  8
0
 62
7
 10
-1.73110184E+02
 20
-9.13686981E+01
 11
-1.73360184E+02
 21
-9.13686981E+01
  0
LINE
  8
0
 62
7
 10
-1.73360184E+02
 20
-9.75687027E+01
 11
-1.73110184E+02
 21
-9.75687027E+01
  0
LINE
  8
0
 62
7
 10
-1.73360184E+02
 20
-1.37668701E+02
 11
-1.73110184E+02
 21
-1.37668701E+02
  0
LINE
  8
0
 62
7
 10
-1.57610184E+02
 20
-8.03686981E+01
 11
-1.57360184E+02
 21
-8.03686981E+01
  0
LINE
  8
0
 62
7
 10
-1.57360184E+02
 20
-9.13686981E+01
 11
-1.57610184E+02
 21
-9.13686981E+01
  0
LINE
  8
0
 62
7
 10
-1.57610184E+02
 20
-9.75687027E+01
 11
-1.57360184E+02
 21
-9.75687027E+01
  0
LINE
  8
0
 62
7
 10
-1.57610184E+02
 20
-1.37668701E+02
 11
-1.57360184E+02
 21
-1.37668701E+02
  0
LINE
  8
0
 62
7
 10
-1.57360184E+02
 20
-8.03686981E+01
 11
-1.57110184E+02
 21
-8.03686981E+01
  0
LINE
  8
0
 62
7
 10
-1.57110184E+02
 20
-9.13686981E+01
 11
-1.57360184E+02
 21
-9.13686981E+01
  0
LINE
  8
0
 62
7
 10
-1.57360184E+02
 20
-9.75687027E+01
 11
-1.57110184E+02
 21
-9.75687027E+01
  0
LINE
  8
0
 62
7
 10
-1.57360184E+02
 20
-1.37668701E+02
 11
-1.57110184E+02
 21
-1.37668701E+02
  0
LINE
  8
0
  6
CENTER
 62
2
 10
-1.27860184E+02
 20
-2.02444800E+02
 11
-1.27860184E+02
 21
-1.83355546E+02
  0
LINE
  8
0
  6
CENTER
 62
2
 10
-2.21860184E+02
 20
-2.02444800E+02
 11
-2.21860184E+02
 21
-1.83355546E+02
  0
CIRCLE
  8
0
 62
7
 10
-2.05860184E+02
 20
-1.55365959E+02
 40
2.70000005E+00
  0
CIRCLE
  8
0
 62
7
 10
-2.05860184E+02
 20
-1.55365959E+02
 40
3.25000000E+00
  0
CIRCLE
  8
0
 62
7
 10
-2.05860184E+02
 20
-1.55365959E+02
 40
3.20000005E+00
  0
CIRCLE
  8
0
 62
2
 10
-2.07110184E+02
 20
-8.78686981E+01
 40
2.50000000E+00
  0
CIRCLE
  8
0
 62
7
 10
-2.07110184E+02
 20
-8.78686981E+01
 40
2.00000000E+00
  0
CIRCLE
  8
0
 62
7
 10
-2.05860184E+02
 20
-1.74365959E+02
 40
2.00000000E+00
  0
CIRCLE
  8
0
 62
2
 10
-2.05860184E+02
 20
-1.74365959E+02
 40
2.50000000E+00
  0
CIRCLE
  8
0
 62
7
 10
-1.94860184E+02
 20
-1.55365959E+02
 40
2.70000005E+00
  0
CIRCLE
  8
0
 62
7
 10
-1.94860184E+02
 20
-1.55365959E+02
 40
3.25000000E+00
  0
CIRCLE
  8
0
 62
7
 10
-1.94860184E+02
 20
-1.55365959E+02
 40
3.20000005E+00
  0
CIRCLE
  8
0
 62
2
 10
-1.96110184E+02
 20
-8.78686981E+01
 40
2.50000000E+00
  0
CIRCLE
  8
0
 62
7
 10
-1.96110184E+02
 20
-8.78686981E+01
 40
2.00000000E+00
  0
CIRCLE
  8
0
 62
7
 10
-1.94860184E+02
 20
-1.74365959E+02
 40
2.00000000E+00
  0
CIRCLE
  8
0
 62
2
 10
-1.94860184E+02
 20
-1.74365959E+02
 40
2.50000000E+00
  0
CIRCLE
  8
0
 62
7
 10
-1.81360184E+02
 20
-1.57865959E+02
 40
4.30000019E+00
  0
CIRCLE
  8
0
 62
7
 10
-1.81360184E+02
 20
-1.57865959E+02
 40
4.19999981E+00
  0
CIRCLE
  8
0
 62
7
 10
-1.81360184E+02
 20
-1.57865959E+02
 40
3.70000005E+00
  0
CIRCLE
  8
0
 62
2
 10
-1.81360184E+02
 20
-8.73686981E+01
 40
4.86399984E+00
  0
CIRCLE
  8
0
 62
7
 10
-1.81360184E+02
 20
-8.73686981E+01
 40
4.28299999E+00
  0
CIRCLE
  8
0
 62
7
 10
-1.81360184E+02
 20
-1.82665960E+02
 40
8.00000012E-01
  0
CIRCLE
  8
0
 62
7
 10
-1.81360184E+02
 20
-1.80365959E+02
 40
4.25000000E+00
  0
ARC
  8
0
 62
7
 10
-1.83060184E+02
 20
-1.79565960E+02
 40
3.00000012E-01
 50
1.79999995E+02
 51
2.70000000E+02
  0
ARC
  8
0
 62
7
 10
-1.79660183E+02
 20
-1.79565960E+02
 40
3.00000012E-01
 50
2.70000000E+02
 51
0.00000000E+00
  0
ARC
  8
0
 62
7
 10
-1.81360184E+02
 20
-1.78365959E+02
 40
2.00000000E+00
 50
0.00000000E+00
 51
1.80000005E+02
  0
CIRCLE
  8
0
 62
2
 10
-1.81360184E+02
 20
-1.80365959E+02
 40
4.86399984E+00
  0
CIRCLE
  8
0
 62
7
 10
-1.65360184E+02
 20
-1.57865959E+02
 40
4.30000019E+00
  0
CIRCLE
  8
0
 62
7
 10
-1.65360184E+02
 20
-1.57865959E+02
 40
4.19999981E+00
  0
CIRCLE
  8
0
 62
7
 10
-1.65360184E+02
 20
-1.57865959E+02
 40
3.70000005E+00
  0
CIRCLE
  8
0
 62
2
 10
-1.65360184E+02
 20
-8.73686981E+01
 40
4.86399984E+00
  0
CIRCLE
  8
0
 62
7
 10
-1.65360184E+02
 20
-8.73686981E+01
 40
4.28299999E+00
  0
CIRCLE
  8
0
 62
7
 10
-1.65360184E+02
 20
-1.82665960E+02
 40
8.00000012E-01
  0
CIRCLE
  8
0
 62
7
 10
-1.65360184E+02
 20
-1.80365959E+02
 40
4.25000000E+00
  0
ARC
  8
0
 62
7
 10
-1.67060184E+02
 20
-1.79565960E+02
 40
3.00000012E-01
 50
1.79999995E+02
 51
2.70000000E+02
  0
ARC
  8
0
 62
7
 10
-1.63660183E+02
 20
-1.79565960E+02
 40
3.00000012E-01
 50
2.70000000E+02
 51
0.00000000E+00
  0
ARC
  8
0
 62
7
 10
-1.65360184E+02
 20
-1.78365959E+02
 40
2.00000000E+00
 50
0.00000000E+00
 51
1.80000005E+02
  0
CIRCLE
  8
0
 62
2
 10
-1.65360184E+02
 20
-1.80365959E+02
 40
4.86399984E+00
  0
CIRCLE
  8
0
 62
7
 10
-1.47860184E+02
 20
-1.57868698E+02
 40
3.70000005E+00
  0
CIRCLE
  8
0
 62
7
 10
-1.47860184E+02
 20
-1.57868698E+02
 40
4.19999981E+00
  0
CIRCLE
  8
0
 62
7
 10
-1.47860184E+02
 20
-1.57868698E+02
 40
4.30000019E+00
  0
CIRCLE
  8
0
 62
2
 10
-1.47860184E+02
 20
-8.53670731E+01
 40
4.86399984E+00
  0
CIRCLE
  8
0
 62
7
 10
-1.47860184E+02
 20
-8.53670731E+01
 40
4.04500008E+00
  0
CIRCLE
  8
0
 62
2
 10
-1.47860184E+02
 20
-1.80368700E+02
 40
4.86399984E+00
  0
CIRCLE
  8
0
 62
7
 10
-1.47860184E+02
 20
-1.80368700E+02
 40
4.28299999E+00
  0
ARC
  8
0
 62
7
 10
-1.47860184E+02
 20
-1.80868700E+02
 40
3.79999995E+00
 50
4.91710014E+00
 51
1.75082897E+02
  0
ARC
  8
0
 62
7
 10
-1.51347305E+02
 20
-1.80568701E+02
 40
3.00000012E-01
 50
1.75082897E+02
 51
2.70000000E+02
  0
ARC
  8
0
 62
7
 10
-1.44373062E+02
 20
-1.80568701E+02
 40
3.00000012E-01
 50
2.70000000E+02
 51
4.91710014E+00
  0
INSERT
  8
0
  2
ARROW
  6
BYBLOCK
 62
2
 10
-2.21860184E+02
 20
1.81766968E+01
 41
1.00000000E+00
 42
1.00000000E+00
 50
0.00000000E+00
  0
LINE
  8
0
 62
2
 10
-2.21860184E+02
 20
1.81766968E+01
 11
-2.21360184E+02
 21
1.81766968E+01
  0
LINE
  8
0
 62
2
 10
-1.30360184E+02
 20
1.81766968E+01
 11
-2.21860184E+02
 21
1.81766968E+01
  0
TEXT
  8
0
 62
2
 10
-2.17946122E+02
 20
1.91766968E+01
 40
6.30000019E+00
  1
P=(L
 41
1.00000000E+00
  7
MONOTXT
  0
TEXT
  8
0
 62
2
 10
-1.93090653E+02
 20
1.81923221E+01
 40
3.15000010E+00
  1
1
 41
1.00000000E+00
  7
MONOTXT
  0
TEXT
  8
0
 62
2
 10
-1.89596121E+02
 20
1.91766968E+01
 40
6.30000019E+00
  1
+L
 41
1.00000000E+00
  7
MONOTXT
  0
TEXT
  8
0
 62
2
 10
-1.77340653E+02
 20
1.81923221E+01
 40
3.15000010E+00
  1
2
 41
1.00000000E+00
  7
MONOTXT
  0
TEXT
  8
0
 62
2
 10
-1.73846121E+02
 20
1.91766968E+01
 40
6.30000019E+00
  1
+L
 41
1.00000000E+00
  7
MONOTXT
  0
TEXT
  8
0
 62
2
 10
-1.61590652E+02
 20
1.81923221E+01
 40
3.15000010E+00
  1
3
 41
1.00000000E+00
  7
MONOTXT
  0
TEXT
  8
0
 62
2
 10
-1.58096120E+02
 20
1.91766968E+01
 40
6.30000019E+00
  1
+21)
 41
1.00000000E+00
  7
MONOTXT
  0
DIMENSION
  8
0
  2
*D1
 10
-1.27860184E+02
 20
1.81766968E+01
 11
-1.18318450E+02
 21
2.39016969E+01
 13
-1.22860184E+02
 23
5.18340416E+01
 14
-1.27860184E+02
 24
5.76340408E+01
 50
1.80000000E+02
  0
DIMENSION
  8
0
  2
*D2
 10
-2.26860184E+02
 20
1.81766968E+01
 11
-2.45102521E+02
 21
2.39016969E+01
 13
-2.21860184E+02
 23
5.76340408E+01
 14
-2.26860184E+02
 24
5.18340416E+01
 50
1.80000000E+02
  0
DIMENSION
  8
0
  2
*D3
 10
-2.11360184E+02
 20
-4.20582428E+01
 11
-2.55525120E+02
 21
-3.63332427E+01
 13
-2.26860184E+02
 23
-6.88659592E+01
 14
-2.11360184E+02
 24
-6.88659592E+01
  0
DIMENSION
  8
0
  2
*D4
 10
-1.89360184E+02
 20
-4.20582428E+01
 11
-2.02821122E+02
 21
-3.63332427E+01
 13
-2.11360184E+02
 23
-6.88659592E+01
 14
-1.89360184E+02
 24
-7.88686981E+01
  0
DIMENSION
  8
0
  2
*D5
 10
-1.57360184E+02
 20
-4.20582428E+01
 11
-1.75821122E+02
 21
-3.63332427E+01
 13
-1.89360184E+02
 23
-7.88686981E+01
 14
-1.57360184E+02
 24
-7.88686981E+01
  0
DIMENSION
  8
0
  2
*D6
 10
-1.38360184E+02
 20
-4.20582428E+01
 11
-1.50321122E+02
 21
-3.63332427E+01
 13
-1.57360184E+02
 23
-7.88686981E+01
 14
-1.38360184E+02
 24
-6.88632202E+01
  0
DIMENSION
  8
0
  2
*D7
 10
-1.22860184E+02
 20
-4.20582428E+01
 11
-1.21716350E+02
 21
-3.63332427E+01
 13
-1.38360184E+02
 23
-6.88632202E+01
 14
-1.22860184E+02
 24
-6.88632202E+01
  0
LINE
  8
0
 62
2
 10
-2.26860184E+02
 20
-3.03659592E+01
 11
-2.26860184E+02
 21
-2.88659592E+01
  0
LINE
  8
0
 62
2
 10
-2.26860184E+02
 20
-6.88659592E+01
 11
-2.26860184E+02
 21
-3.03659592E+01
  0
LINE
  8
0
 62
2
 10
-1.22860184E+02
 20
-3.03659592E+01
 11
-1.22860184E+02
 21
-2.88659592E+01
  0
LINE
  8
0
 62
2
 10
-1.22860184E+02
 20
-6.88632202E+01
 11
-1.22860184E+02
 21
-3.03659592E+01
  0
INSERT
  8
0
  2
ARROW
  6
BYBLOCK
 62
2
 10
-2.26860184E+02
 20
-3.03659592E+01
 41
1.00000000E+00
 42
1.00000000E+00
 50
0.00000000E+00
  0
LINE
  8
0
 62
2
 10
-2.26860184E+02
 20
-3.03659592E+01
 11
-2.26360184E+02
 21
-3.03659592E+01
  0
INSERT
  8
0
  2
ARROW
  6
BYBLOCK
 62
2
 10
-1.22860184E+02
 20
-3.03659592E+01
 41
1.00000000E+00
 42
1.00000000E+00
 50
1.80000000E+02
  0
LINE
  8
0
 62
2
 10
-1.22860184E+02
 20
-3.03659592E+01
 11
-1.23360184E+02
 21
-3.03659592E+01
  0
LINE
  8
0
 62
2
 10
-2.26860184E+02
 20
-3.03659592E+01
 11
-1.22860184E+02
 21
-3.03659592E+01
  0
TEXT
  8
0
 62
2
 10
-2.17360184E+02
 20
-2.93659591E+01
 40
6.40000010E+00
  1
L=(L
 41
1.00000000E+00
  7
MONOTXT
  0
TEXT
  8
0
 62
2
 10
-1.92110184E+02
 20
-3.03659590E+01
 40
3.20000005E+00
  1
1
 41
1.00000000E+00
  7
MONOTXT
  0
TEXT
  8
0
 62
2
 10
-1.88560184E+02
 20
-2.93659591E+01
 40
6.40000010E+00
  1
+L
 41
1.00000000E+00
  7
MONOTXT
  0
TEXT
  8
0
 62
2
 10
-1.76110184E+02
 20
-3.03659590E+01
 40
3.20000005E+00
  1
2
 41
1.00000000E+00
  7
MONOTXT
  0
TEXT
  8
0
 62
2
 10
-1.72560184E+02
 20
-2.93659591E+01
 40
6.40000010E+00
  1
+L
 41
1.00000000E+00
  7
MONOTXT
  0
TEXT
  8
0
 62
2
 10
-1.60110184E+02
 20
-3.03659590E+01
 40
3.20000005E+00
  1
3
 41
1.00000000E+00
  7
MONOTXT
  0
TEXT
  8
0
 62
2
 10
-1.56560183E+02
 20
-2.93659591E+01
 40
6.40000010E+00
  1
+31)
 41
1.00000000E+00
  7
MONOTXT
  0
TEXT
  8
0
 62
7
 10
-3.69850268E+02
 20
2.63100000E+02
 40
6.29999924E+00
  1
GME SERIES
 41
1.06382946E+00
  7
MONOTXT
  0
TEXT
  8
0
 62
7
 10
-3.85600561E+02
 20
2.38100000E+02
 40
6.29999924E+00
  1
MODEL:GMEM5A-EL
 41
9.99999697E-01
  7
MONOTXT
  0
TEXT
  8
0
 62
7
 10
3.15499656E+02
 20
2.63100000E+02
 40
6.29999924E+00
  1
Ver. 1.0
 41
1.08108075E+00
  7
MONOTXT
  0
TEXT
  8
0
 62
7
 10
2.87585227E+02
 20
-2.71250000E+02
 40
9.00000000E+00
  1
KOGANEI CORP.
 41
1.04838732E+00
  7
MONOTXT
  0
TEXT
  8
0
 62
7
 10
1.92307581E+02
 20
7.79887176E+01
 40
6.30000019E+00
  1
95
 41
1.00000000E+00
  7
MONOTXT
  0
TEXT
  8
0
 62
7
 10
1.92307581E+02
 20
8.79887176E+01
 40
6.30000019E+00
  1
76
 41
1.00000000E+00
  7
MONOTXT
  0
TEXT
  8
0
 62
7
 10
1.92307581E+02
 20
9.79887179E+01
 40
6.30000019E+00
  1
57
 41
1.00000000E+00
  7
MONOTXT
  0
TEXT
  8
0
 62
7
 10
1.92307581E+02
 20
1.07988718E+02
 40
6.30000019E+00
  1
38
 41
1.00000000E+00
  7
MONOTXT
  0
TEXT
  8
0
 62
7
 10
1.92307581E+02
 20
1.17988718E+02
 40
6.30000019E+00
  1
19
 41
1.00000000E+00
  7
MONOTXT
  0
TEXT
  8
0
 62
7
 10
1.34807581E+02
 20
7.80480895E+01
 40
6.30000019E+00
  1
80
 41
1.00000000E+00
  7
MONOTXT
  0
TEXT
  8
0
 62
7
 10
1.34807581E+02
 20
8.80480895E+01
 40
6.30000019E+00
  1
64
 41
1.00000000E+00
  7
MONOTXT
  0
TEXT
  8
0
 62
7
 10
1.34807581E+02
 20
9.80480899E+01
 40
6.30000019E+00
  1
48
 41
1.00000000E+00
  7
MONOTXT
  0
TEXT
  8
0
 62
7
 10
1.34807581E+02
 20
1.08048090E+02
 40
6.30000019E+00
  1
32
 41
1.00000000E+00
  7
MONOTXT
  0
TEXT
  8
0
 62
7
 10
1.34807581E+02
 20
1.18048090E+02
 40
6.30000019E+00
  1
16
 41
1.00000000E+00
  7
MONOTXT
  0
TEXT
  8
0
 62
7
 10
7.48075728E+01
 20
7.80480895E+01
 40
6.30000019E+00
  1
55
 41
1.00000000E+00
  7
MONOTXT
  0
TEXT
  8
0
 62
7
 10
7.48075728E+01
 20
8.80480895E+01
 40
6.30000019E+00
  1
44
 41
1.00000000E+00
  7
MONOTXT
  0
TEXT
  8
0
 62
7
 10
7.48075728E+01
 20
9.80480899E+01
 40
6.30000019E+00
  1
33
 41
1.00000000E+00
  7
MONOTXT
  0
TEXT
  8
0
 62
7
 10
7.48075728E+01
 20
1.08048090E+02
 40
6.30000019E+00
  1
22
 41
1.00000000E+00
  7
MONOTXT
  0
TEXT
  8
0
 62
7
 10
7.48075728E+01
 20
1.18048090E+02
 40
6.30000019E+00
  1
11
 41
1.00000000E+00
  7
MONOTXT
  0
TEXT
  8
0
 62
7
 10
-9.74242401E+00
 20
1.38166839E+02
 40
6.30000019E+00
  1
NUMBER
 41
1.00000000E+00
  7
MONOTXT
  0
TEXT
  8
0
 62
7
 10
-9.74242401E+00
 20
1.27929340E+02
 40
6.30000019E+00
  1
 OF UNITS
 41
1.15384615E+00
  7
MONOTXT
  0
TEXT
  8
0
 62
7
 10
5.43325722E+01
 20
1.33107462E+02
 40
6.30000019E+00
  1
L
 41
1.00000000E+00
  7
MONOTXT
  0
TEXT
  8
0
 62
7
 10
6.02880411E+01
 20
1.32123087E+02
 40
3.15000010E+00
  1
1
 41
1.00000000E+00
  7
MONOTXT
  0
TEXT
  8
0
 62
7
 10
6.37825725E+01
 20
1.33107462E+02
 40
6.30000019E+00
  1
(GME05)
 41
1.00000000E+00
  7
MONOTXT
  0
TEXT
  8
0
 62
7
 10
1.14332580E+02
 20
1.33107462E+02
 40
6.30000019E+00
  1
L
 41
1.00000000E+00
  7
MONOTXT
  0
TEXT
  8
0
 62
7
 10
1.20288048E+02
 20
1.32123087E+02
 40
3.15000010E+00
  1
2
 41
1.00000000E+00
  7
MONOTXT
  0
TEXT
  8
0
 62
7
 10
1.23782581E+02
 20
1.33107462E+02
 40
6.30000019E+00
  1
(GME07)
 41
1.00000000E+00
  7
MONOTXT
  0
TEXT
  8
0
 62
7
 10
1.71832580E+02
 20
1.33048090E+02
 40
6.30000019E+00
  1
L
 41
1.00000000E+00
  7
MONOTXT
  0
TEXT
  8
0
 62
7
 10
1.77788048E+02
 20
1.32063715E+02
 40
3.15000010E+00
  1
3
 41
1.00000000E+00
  7
MONOTXT
  0
TEXT
  8
0
 62
7
 10
1.81282581E+02
 20
1.33048090E+02
 40
6.30000019E+00
  1
(GME10)
 41
1.00000000E+00
  7
MONOTXT
  0
TEXT
  8
0
 62
7
 10
1.54575768E+01
 20
1.18048090E+02
 40
6.30000019E+00
  1
1
 41
1.00000000E+00
  7
MONOTXT
  0
TEXT
  8
0
 62
7
 10
1.54575768E+01
 20
1.08048090E+02
 40
6.30000019E+00
  1
2
 41
1.00000000E+00
  7
MONOTXT
  0
TEXT
  8
0
 62
7
 10
1.54575768E+01
 20
9.80480899E+01
 40
6.30000019E+00
  1
3
 41
1.00000000E+00
  7
MONOTXT
  0
TEXT
  8
0
 62
7
 10
1.54575768E+01
 20
8.80480895E+01
 40
6.30000019E+00
  1
4
 41
1.00000000E+00
  7
MONOTXT
  0
TEXT
  8
0
 62
7
 10
1.54575768E+01
 20
7.80480895E+01
 40
6.30000019E+00
  1
5
 41
1.00000000E+00
  7
MONOTXT
  0
LINE
  8
0
 62
7
 10
3.99799805E+02
 20
2.76250000E+02
 11
3.99799805E+02
 21
-2.76750000E+02
  0
LINE
  8
0
 62
7
 10
-3.99250000E+02
 20
2.76250000E+02
 11
-3.99250000E+02
 21
-2.76750000E+02
  0
LINE
  8
0
 62
7
 10
-3.99250000E+02
 20
2.76250000E+02
 11
3.99799805E+02
 21
2.76250000E+02
  0
LINE
  8
0
 62
7
 10
-3.99250000E+02
 20
-2.76750000E+02
 11
3.99799805E+02
 21
-2.76750000E+02
  0
LINE
  8
0
 62
7
 10
-2.79250000E+02
 20
2.76250000E+02
 11
-2.79250000E+02
 21
2.56250000E+02
  0
LINE
  8
0
 62
7
 10
-3.99250000E+02
 20
2.56250000E+02
 11
-2.79250000E+02
 21
2.56250000E+02
  0
LINE
  8
0
 62
7
 10
2.79799927E+02
 20
2.76250000E+02
 11
2.79799927E+02
 21
2.56250000E+02
  0
LINE
  8
0
 62
7
 10
2.79799927E+02
 20
2.56250000E+02
 11
3.99799805E+02
 21
2.56250000E+02
  0
LINE
  8
0
 62
7
 10
2.79799927E+02
 20
-2.56750000E+02
 11
2.79799927E+02
 21
-2.76750000E+02
  0
LINE
  8
0
 62
7
 10
2.79799927E+02
 20
-2.56750000E+02
 11
3.99799805E+02
 21
-2.56750000E+02
  0
LINE
  8
0
 62
7
 10
-1.20814857E+01
 20
7.61980896E+01
 11
-1.20814857E+01
 21
1.46198090E+02
  0
LINE
  8
0
 62
7
 10
-1.20814857E+01
 20
7.61980896E+01
 11
2.27918518E+02
 21
7.61980896E+01
  0
LINE
  8
0
 62
7
 10
-1.20814857E+01
 20
8.61980896E+01
 11
2.27918518E+02
 21
8.61980896E+01
  0
LINE
  8
0
 62
7
 10
-1.20814857E+01
 20
9.61980896E+01
 11
2.27918518E+02
 21
9.61980896E+01
  0
LINE
  8
0
 62
7
 10
-1.20814857E+01
 20
1.06198090E+02
 11
2.27918518E+02
 21
1.06198090E+02
  0
LINE
  8
0
 62
7
 10
-1.20814857E+01
 20
1.16198090E+02
 11
2.27918518E+02
 21
1.16198090E+02
  0
LINE
  8
0
 62
7
 10
-1.20814857E+01
 20
1.26198090E+02
 11
2.27918518E+02
 21
1.26198090E+02
  0
LINE
  8
0
 62
7
 10
4.79185143E+01
 20
7.61980896E+01
 11
4.79185143E+01
 21
1.46198090E+02
  0
LINE
  8
0
 62
7
 10
-1.20814857E+01
 20
1.46198090E+02
 11
2.27918518E+02
 21
1.46198090E+02
  0
LINE
  8
0
 62
7
 10
1.07918510E+02
 20
7.61980896E+01
 11
1.07918510E+02
 21
1.46198090E+02
  0
LINE
  8
0
 62
7
 10
1.67918518E+02
 20
7.61980896E+01
 11
1.67918518E+02
 21
1.46198090E+02
  0
LINE
  8
0
 62
7
 10
2.27918518E+02
 20
7.61980896E+01
 11
2.27918518E+02
 21
1.46198090E+02
  0
ENDSEC
  0
EOF
