  0
SECTION
  2
HEADER
  9
$ACADVER
  1
AC1012
  9
$DWGCODEPAGE
  3
dos932
  9
$INSBASE
 10
0.0
 20
0.0
 30
0.0
  9
$EXTMIN
 10
-281.25
 20
-195.0
 30
0.0
  9
$EXTMAX
 10
285.6319057062413
 20
195.5
 30
0.0
  9
$LIMMIN
 10
-281.25
 20
-195.0
  9
$LIMMAX
 10
285.6319057062413
 20
195.5
  9
$ORTHOMODE
 70
               0
  9
$REGENMODE
 70
               1
  9
$FILLMODE
 70
               1
  9
$QTEXTMODE
 70
               0
  9
$MIRRTEXT
 70
               1
  9
$DRAGMODE
 70
               2
  9
$LTSCALE
 40
1.0
  9
$OSMODE
 70
               0
  9
$ATTMODE
 70
               1
  9
$TEXTSIZE
 40
3.2000000476837158
  9
$TRACEWID
 40
0.05
  9
$TEXTSTYLE
  7
MX_NOTE_STANDARD
  9
$CLAYER
  8
0
  9
$CELTYPE
  6
CONTINUOUS
  9
$CECOLOR
 62
             256
  9
$CELTSCALE
 40
1.0
  9
$DELOBJ
 70
               1
  9
$DISPSILH
 70
               0
  9
$DIMSCALE
 40
1.0
  9
$DIMASZ
 40
2.5
  9
$DIMEXO
 40
1.5
  9
$DIMDLI
 40
3.75
  9
$DIMRND
 40
0.0
  9
$DIMDLE
 40
0.0
  9
$DIMEXE
 40
1.5
  9
$DIMTP
 40
0.0
  9
$DIMTM
 40
0.0
  9
$DIMTXT
 40
3.2000000476837158
  9
$DIMCEN
 40
2.5
  9
$DIMTSZ
 40
0.0
  9
$DIMTOL
 70
               0
  9
$DIMLIM
 70
               0
  9
$DIMTIH
 70
               0
  9
$DIMTOH
 70
               0
  9
$DIMSE1
 70
               0
  9
$DIMSE2
 70
               0
  9
$DIMTAD
 70
               1
  9
$DIMZIN
 70
               8
  9
$DIMBLK
  1

  9
$DIMASO
 70
               1
  9
$DIMSHO
 70
               1
  9
$DIMPOST
  1

  9
$DIMAPOST
  1

  9
$DIMALT
 70
               0
  9
$DIMALTD
 70
               4
  9
$DIMALTF
 40
0.03937007874016
  9
$DIMLFAC
 40
1.0
  9
$DIMTOFL
 70
               1
  9
$DIMTVP
 40
0.0
  9
$DIMTIX
 70
               0
  9
$DIMSOXD
 70
               0
  9
$DIMSAH
 70
               0
  9
$DIMBLK1
  1

  9
$DIMBLK2
  1

  9
$DIMSTYLE
  2
MXDIMSTYLE
  9
$DIMCLRD
 70
               0
  9
$DIMCLRE
 70
               0
  9
$DIMCLRT
 70
               0
  9
$DIMTFAC
 40
1.0
  9
$DIMGAP
 40
1.0
  9
$DIMJUST
 70
               0
  9
$DIMSD1
 70
               0
  9
$DIMSD2
 70
               0
  9
$DIMTOLJ
 70
               1
  9
$DIMTZIN
 70
               0
  9
$DIMALTZ
 70
               0
  9
$DIMALTTZ
 70
               0
  9
$DIMFIT
 70
               3
  9
$DIMUPT
 70
               1
  9
$DIMUNIT
 70
               2
  9
$DIMDEC
 70
               4
  9
$DIMTDEC
 70
               4
  9
$DIMALTU
 70
               2
  9
$DIMALTTD
 70
               4
  9
$DIMTXSTY
  7
MX_NOTE_STANDARD
  9
$DIMAUNIT
 70
               0
  9
$LUNITS
 70
               2
  9
$LUPREC
 70
               4
  9
$SKETCHINC
 40
0.1
  9
$FILLETRAD
 40
0.0
  9
$AUNITS
 70
               0
  9
$AUPREC
 70
               0
  9
$MENU
  1
acad
  9
$ELEVATION
 40
0.0
  9
$PELEVATION
 40
0.0
  9
$THICKNESS
 40
0.0
  9
$LIMCHECK
 70
               0
  9
$BLIPMODE
 70
               1
  9
$CHAMFERA
 40
0.0
  9
$CHAMFERB
 40
0.0
  9
$CHAMFERC
 40
0.0
  9
$CHAMFERD
 40
0.0
  9
$SKPOLY
 70
               0
  9
$TDCREATE
 40
2453378.356527778
  9
$TDUPDATE
 40
2453378.356527778
  9
$TDINDWG
 40
0.0000000000
  9
$TDUSRTIMER
 40
0.0000000000
  9
$USRTIMER
 70
               1
  9
$ANGBASE
 50
0.0
  9
$ANGDIR
 70
               0
  9
$PDMODE
 70
               0
  9
$PDSIZE
 40
0.0
  9
$PLINEWID
 40
0.0
  9
$COORDS
 70
               1
  9
$SPLFRAME
 70
               0
  9
$SPLINETYPE
 70
               6
  9
$SPLINESEGS
 70
               8
  9
$ATTDIA
 70
               0
  9
$ATTREQ
 70
               1
  9
$HANDLING
 70
               1
  9
$HANDSEED
  5
72E
  9
$SURFTAB1
 70
               6
  9
$SURFTAB2
 70
               6
  9
$SURFTYPE
 70
               6
  9
$SURFU
 70
               6
  9
$SURFV
 70
               6
  9
$UCSNAME
  2

  9
$UCSORG
 10
0.0
 20
0.0
 30
0.0
  9
$UCSXDIR
 10
1.0
 20
0.0
 30
0.0
  9
$UCSYDIR
 10
0.0
 20
1.0
 30
0.0
  9
$PUCSNAME
  2

  9
$PUCSORG
 10
0.0
 20
0.0
 30
0.0
  9
$PUCSXDIR
 10
1.0
 20
0.0
 30
0.0
  9
$PUCSYDIR
 10
0.0
 20
1.0
 30
0.0
  9
$USERI1
 70
               0
  9
$USERI2
 70
               0
  9
$USERI3
 70
               0
  9
$USERI4
 70
               0
  9
$USERI5
 70
               0
  9
$USERR1
 40
0.0
  9
$USERR2
 40
0.0
  9
$USERR3
 40
0.0
  9
$USERR4
 40
0.0
  9
$USERR5
 40
0.0
  9
$WORLDVIEW
 70
               1
  9
$SHADEDGE
 70
               3
  9
$SHADEDIF
 70
              70
  9
$TILEMODE
 70
               1
  9
$MAXACTVP
 70
              16
  9
$PINSBASE
 10
0.0
 20
0.0
 30
0.0
  9
$PLIMCHECK
 70
               0
  9
$PEXTMIN
 10
1.0000000000000000E+20
 20
1.0000000000000000E+20
 30
1.0000000000000000E+20
  9
$PEXTMAX
 10
-1.0000000000000000E+20
 20
-1.0000000000000000E+20
 30
-1.0000000000000000E+20
  9
$PLIMMIN
 10
0.0
 20
0.0
  9
$PLIMMAX
 10
12.0
 20
9.0
  9
$UNITMODE
 70
               0
  9
$VISRETAIN
 70
               0
  9
$PLINEGEN
 70
               1
  9
$PSLTSCALE
 70
               0
  9
$TREEDEPTH
 70
            3020
  9
$PICKSTYLE
 70
               1
  9
$CMLSTYLE
  2
Standard
  9
$CMLJUST
 70
               0
  9
$CMLSCALE
 40
1.0
  9
$SAVEIMAGES
 70
               0
  0
ENDSEC
  0
SECTION
  2
CLASSES
  0
CLASS
  1
LWPOLYLINE
  2
AcDbPolyline
  3
"AutoCAD"
 90
        0
280
               0
281
               1
  0
CLASS
  1
IMAGE
  2
AcDbRasterImage
  3
ISM
 90
      127
280
               0
281
               1
  0
CLASS
  1
OLE2FRAME
  2
AcDbOle2Frame
  3
""
 90
        0
280
               0
281
               1
  0
CLASS
  1
HATCH
  2
AcDbHatch
  3
"ACAD_SEDONA"
 90
        0
280
               0
281
               1
  0
CLASS
  1
DICTIONARYVAR
  2
AcDbDictionaryVar
  3
"AutoCAD"
 90
        0
280
               0
281
               0
  0
CLASS
  1
RASTERVARIABLES
  2
AcDbRasterVariables
  3
ISM
 90
        0
280
               0
281
               0
  0
CLASS
  1
IMAGEDEF
  2
AcDbRasterImageDef
  3
ISM
 90
        0
280
               0
281
               0
  0
CLASS
  1
IMAGEDEF_REACTOR
  2
AcDbRasterImageDefReactor
  3
ISM
 90
        1
280
               0
281
               0
  0
CLASS
  1
IDBUFFER
  2
AcDbIdBuffer
  3
"Acad"
 90
        0
280
               0
281
               0
  0
CLASS
  1
SPATIAL_FILTER
  2
AcDbSpatialFilter
  3
"Acad"
 90
        0
280
               0
281
               0
  0
CLASS
  1
XRECORD
  2
AcDbXrecord
  3
"<Built In>"
 90
        0
280
               0
281
               0
  0
CLASS
  1
SORTENTSTABLE
  2
AcDbSortentsTable
  3
"AutoCAD"
 90
        0
280
               0
281
               0
  0
CLASS
  1
LAYER_INDEX
  2
AcDbLayerIndex
  3
"Acad"
 90
        0
280
               0
281
               0
  0
CLASS
  1
SPATIAL_INDEX
  2
AcDbSpatialIndex
  3
"Acad"
 90
        0
280
               0
281
               0
  0
CLASS
  1
OBJECT_PTR
  2
CAseDLPNTableRecord
  3
"ASE-LPNTableRecord"
 90
        1
280
               0
281
               0
  0
CLASS
  1
LAYOUT
  2
AcDbLayout
  3
"AutoCAD 2000"
 90
        1
280
               0
281
               0
  0
CLASS
  1
PLOTSETTINGS
  2
AcDbPlotSettings
  3
"AutoCAD 2000"
 90
        1
280
               0
281
               0
  0
CLASS
  1
ACDBDICTIONARYWDFLT
  2
AcDbDictionaryWithDefault
  3
"AutoCAD 2000"
 90
        1
280
               0
281
               0
  0
CLASS
  1
ACDBPLACEHOLDER
  2
AcDbPlaceHolder
  3
"AutoCAD 2000"
 90
        1
280
               0
281
               0
  0
ENDSEC
  0
SECTION
  2
TABLES
  0
TABLE
  2
VPORT
  5
7
100
AcDbSymbolTable
 70
               1
  0
VPORT
  5
15
100
AcDbSymbolTableRecord
100
AcDbViewportTableRecord
  2
*ACTIVE
 70
               0
 10
0.0
 20
0.0
 11
1.0
 21
1.0
 12
2.1909528531206206
 22
0.25
 13
0.0
 23
0.0
 14
1.0
 24
1.0
 15
0.0
 25
0.0
 16
0.0
 26
0.0
 36
1.0
 17
0.0
 27
0.0
 37
0.0
 40
394.40500000000003
 41
1.7320508075688772
 42
50.0
 43
0.0
 44
0.0
 50
0.0
 51
0.0
 71
               0
 72
             100
 73
               1
 74
               1
 75
               0
 76
               0
 77
               0
 78
               0
  0
ENDTAB
  0
TABLE
  2
LTYPE
  5
4
100
AcDbSymbolTable
 70
               3
  0
LTYPE
  5
11
100
AcDbSymbolTableRecord
100
AcDbLinetypeTableRecord
  2
BYBLOCK
 70
              64
  3

 72
              65
 73
               0
 40
0.0
  0
LTYPE
  5
12
100
AcDbSymbolTableRecord
100
AcDbLinetypeTableRecord
  2
BYLAYER
 70
              64
  3

 72
              65
 73
               0
 40
0.0
  0
LTYPE
  5
13
100
AcDbSymbolTableRecord
100
AcDbLinetypeTableRecord
  2
CONTINUOUS
 70
              64
  3
Solid line
 72
              65
 73
               0
 40
0.0
  0
ENDTAB
  0
TABLE
  2
LAYER
  5
2
100
AcDbSymbolTable
 70
               2
  0
LAYER
  5
14
100
AcDbSymbolTableRecord
100
AcDbLayerTableRecord
  2
0
 70
               0
 62
               7
  6
CONTINUOUS
  0
LAYER
  5
1D
100
AcDbSymbolTableRecord
100
AcDbLayerTableRecord
  2
DEFPOINTS
 70
               0
 62
               7
  6
CONTINUOUS
  0
ENDTAB
  0
TABLE
  2
STYLE
  5
3
100
AcDbSymbolTable
 70
               1
  0
STYLE
  5
17
100
AcDbSymbolTableRecord
100
AcDbTextStyleTableRecord
  2
MX_NOTE_STANDARD
 70
               0
 40
0.0
 41
1.0
 50
0.0
 71
               0
 42
3.2000000476837158
  3
txt.shx
  4
extfont.shx
  0
ENDTAB
  0
TABLE
  2
VIEW
  5
5
100
AcDbSymbolTable
 70
               0
  0
ENDTAB
  0
TABLE
  2
UCS
  5
6
100
AcDbSymbolTable
 70
               0
  0
ENDTAB
  0
TABLE
  2
APPID
  5
8
100
AcDbSymbolTable
 70
               1
  0
APPID
  5
16
100
AcDbSymbolTableRecord
100
AcDbRegAppTableRecord
  2
ACAD
 70
               0
  0
ENDTAB
  0
TABLE
  2
DIMSTYLE
  5
9
100
AcDbSymbolTable
 70
               1
  0
DIMSTYLE
105
18
100
AcDbSymbolTableRecord
100
AcDbDimStyleTableRecord
  2
MXDIMSTYLE
 70
               0
  3

  4

  5

  6

  7

 40
1.0
 41
2.5
 42
1.5
 43
3.75
 44
1.5
 45
0.0
 46
0.0
 47
0.0
 48
0.0
 71
               0
 72
               0
 73
               0
 74
               0
 75
               0
 76
               0
 77
               1
 78
               8
140
3.2000000476837158
141
2.5
142
0.0
143
0.03937007874016
144
1.0
145
0.0
146
1.0
147
1.0
170
               0
171
               4
172
               1
173
               0
174
               0
175
               0
176
               0
177
               0
178
               0
270
               2
271
               4
272
               4
273
               2
274
               4
275
               0
280
               0
281
               0
282
               0
283
               1
284
               0
285
               0
286
               0
287
               3
288
               1
340
17
  0
ENDTAB
  0
TABLE
  2
BLOCK_RECORD
  5
1
100
AcDbSymbolTable
 70
               9
  0
BLOCK_RECORD
  5
A
100
AcDbSymbolTableRecord
100
AcDbBlockTableRecord
  2
*MODEL_SPACE
  0
BLOCK_RECORD
  5
B
100
AcDbSymbolTableRecord
100
AcDbBlockTableRecord
  2
*PAPER_SPACE
  0
BLOCK_RECORD
  5
1E
100
AcDbSymbolTableRecord
100
AcDbBlockTableRecord
  2
F18MPJ_SAMPLE-1
  0
BLOCK_RECORD
  5
1F
100
AcDbSymbolTableRecord
100
AcDbBlockTableRecord
  2
F18MPJ_SAMPLE-2
  0
BLOCK_RECORD
  5
20
100
AcDbSymbolTableRecord
100
AcDbBlockTableRecord
  2
F18MPJ_SAMPLE-3
  0
BLOCK_RECORD
  5
6E9
100
AcDbSymbolTableRecord
100
AcDbBlockTableRecord
  2
_OPEN30
  0
BLOCK_RECORD
  5
6F6
100
AcDbSymbolTableRecord
100
AcDbBlockTableRecord
  2
*D4
  0
BLOCK_RECORD
  5
6FC
100
AcDbSymbolTableRecord
100
AcDbBlockTableRecord
  2
_NONE
  0
BLOCK_RECORD
  5
707
100
AcDbSymbolTableRecord
100
AcDbBlockTableRecord
  2
*D6
  0
BLOCK_RECORD
  5
713
100
AcDbSymbolTableRecord
100
AcDbBlockTableRecord
  2
*D7
  0
BLOCK_RECORD
  5
71F
100
AcDbSymbolTableRecord
100
AcDbBlockTableRecord
  2
*D8
  0
ENDTAB
  0
ENDSEC
  0
SECTION
  2
BLOCKS
  0
BLOCK
  5
D
100
AcDbEntity
  8
0
100
AcDbBlockBegin
  2
*MODEL_SPACE
 70
               0
 10
0.0
 20
0.0
 30
0.0
  3
*MODEL_SPACE
  1

  0
ENDBLK
  5
E
100
AcDbEntity
  8
0
100
AcDbBlockEnd
  0
BLOCK
  5
F
100
AcDbEntity
 67
               1
  8
0
100
AcDbBlockBegin
  2
*PAPER_SPACE
 70
               0
 10
0.0
 20
0.0
 30
0.0
  3
*PAPER_SPACE
  1

  0
ENDBLK
  5
10
100
AcDbEntity
 67
               1
  8
0
100
AcDbBlockEnd
  0
BLOCK
  5
21
100
AcDbEntity
  8
0
100
AcDbBlockBegin
  2
F18MPJ_SAMPLE-1
 70
               0
 10
0.0
 20
0.0
 30
0.0
  3
F18MPJ_SAMPLE-1
  1

  0
LINE
  5
22
100
AcDbEntity
  8
0
  6
CONTINUOUS
 62
               7
100
AcDbLine
 10
6.5
 20
42.5
 30
0.0
 11
9.5
 21
42.5
 31
0.0
  0
LINE
  5
23
100
AcDbEntity
  8
0
  6
CONTINUOUS
 62
               2
100
AcDbLine
 10
40.0
 20
-90.000015258789063
 30
0.0
 11
40.0
 21
45.4432373046875
 31
0.0
  0
LINE
  5
24
100
AcDbEntity
  8
0
  6
CONTINUOUS
 62
               2
100
AcDbLine
 10
58.999984741210938
 20
-90.000015258789063
 30
0.0
 11
58.999984741210938
 21
44.999984741210937
 31
0.0
  0
LINE
  5
25
100
AcDbEntity
  8
0
  6
CONTINUOUS
 62
               2
100
AcDbLine
 10
77.999984741210937
 20
-90.000015258789063
 30
0.0
 11
77.999984741210937
 21
44.999984741210937
 31
0.0
  0
LINE
  5
26
100
AcDbEntity
  8
0
  6
CONTINUOUS
 62
               2
100
AcDbLine
 10
97.0
 20
-79.500015258789063
 30
0.0
 11
97.0
 21
44.999984741210937
 31
0.0
  0
LINE
  5
27
100
AcDbEntity
  8
0
  6
CONTINUOUS
 62
               2
100
AcDbLine
 10
117.0
 20
-84.500015258789063
 30
0.0
 11
117.0
 21
44.999984741210937
 31
0.0
  0
LINE
  5
28
100
AcDbEntity
  8
0
  6
CONTINUOUS
 62
               4
100
AcDbLine
 10
106.0
 20
-82.500015258789063
 30
0.0
 11
87.699999988079071
 21
-82.500015258789063
 31
0.0
  0
LINE
  5
29
100
AcDbEntity
  8
0
  6
CONTINUOUS
 62
               7
100
AcDbLine
 10
82.999984741210938
 20
9.4999847412109375
 30
0.0
 11
82.999984741210938
 21
-1.5000152587890625
 31
0.0
  0
LINE
  5
2A
100
AcDbEntity
  8
0
  6
CONTINUOUS
 62
               7
100
AcDbLine
 10
72.999984741210937
 20
9.4999847412109375
 30
0.0
 11
72.999984741210937
 21
-1.5000152587890625
 31
0.0
  0
LINE
  5
2B
100
AcDbEntity
  8
0
  6
CONTINUOUS
 62
               7
100
AcDbLine
 10
63.999984741210938
 20
9.4999847412109375
 30
0.0
 11
63.999984741210938
 21
-1.5000152587890625
 31
0.0
  0
LINE
  5
2C
100
AcDbEntity
  8
0
  6
CONTINUOUS
 62
               7
100
AcDbLine
 10
53.999984741210938
 20
9.4999847412109375
 30
0.0
 11
53.999984741210938
 21
-1.5000152587890625
 31
0.0
  0
LINE
  5
2D
100
AcDbEntity
  8
0
  6
CONTINUOUS
 62
               7
100
AcDbLine
 10
45.0
 20
9.4999847412109375
 30
0.0
 11
45.0
 21
-1.5
 31
0.0
  0
LINE
  5
2E
100
AcDbEntity
  8
0
  6
CONTINUOUS
 62
               7
100
AcDbLine
 10
35.0
 20
9.4999847412109375
 30
0.0
 11
35.0
 21
-1.5
 31
0.0
  0
LINE
  5
2F
100
AcDbEntity
  8
0
  6
CONTINUOUS
 62
               7
100
AcDbLine
 10
49.5
 20
5.5
 30
0.0
 11
54.0
 21
5.5
 31
0.0
  0
LINE
  5
30
100
AcDbEntity
  8
0
  6
CONTINUOUS
 62
               7
100
AcDbLine
 10
49.5
 20
-79.500015258789063
 30
0.0
 11
50.0
 21
-79.500015258789063
 31
0.0
  0
LINE
  5
31
100
AcDbEntity
  8
0
  6
CONTINUOUS
 62
               7
100
AcDbLine
 10
68.0
 20
-79.500015258789063
 30
0.0
 11
68.5
 21
-79.500015258789063
 31
0.0
  0
LINE
  5
32
100
AcDbEntity
  8
0
  6
CONTINUOUS
 62
               7
100
AcDbLine
 10
64.0
 20
5.5
 30
0.0
 11
68.5
 21
5.5
 31
0.0
  0
LINE
  5
33
100
AcDbEntity
  8
0
  6
CONTINUOUS
 62
               7
100
AcDbLine
 10
68.5
 20
-79.500015258789063
 30
0.0
 11
68.5
 21
42.5
 31
0.0
  0
LINE
  5
34
100
AcDbEntity
  8
0
  6
CONTINUOUS
 62
               7
100
AcDbLine
 10
49.75
 20
-83.000015258789063
 30
0.0
 11
49.75
 21
-82.500015258789063
 31
0.0
  0
LINE
  5
35
100
AcDbEntity
  8
0
  6
CONTINUOUS
 62
               7
100
AcDbLine
 10
50.0
 20
-82.500015258789063
 30
0.0
 11
49.75
 21
-82.500015258789063
 31
0.0
  0
LINE
  5
36
100
AcDbEntity
  8
0
  6
CONTINUOUS
 62
               7
100
AcDbLine
 10
64.5
 20
39.5
 30
0.0
 11
68.5
 21
39.5
 31
0.0
  0
LINE
  5
37
100
AcDbEntity
  8
0
  6
CONTINUOUS
 62
               7
100
AcDbLine
 10
49.5
 20
39.5
 30
0.0
 11
53.5
 21
39.5
 31
0.0
  0
LINE
  5
38
100
AcDbEntity
  8
0
  6
CONTINUOUS
 62
               7
100
AcDbLine
 10
30.5
 20
42.5
 30
0.0
 11
68.5
 21
42.5
 31
0.0
  0
LINE
  5
39
100
AcDbEntity
  8
0
  6
CONTINUOUS
 62
               7
100
AcDbLine
 10
64.0
 20
7.5
 30
0.0
 11
68.5
 21
7.5
 31
0.0
  0
LINE
  5
3A
100
AcDbEntity
  8
0
  6
CONTINUOUS
 62
               7
100
AcDbLine
 10
49.5
 20
7.5
 30
0.0
 11
54.0
 21
7.5
 31
0.0
  0
LINE
  5
3B
100
AcDbEntity
  8
0
  6
CONTINUOUS
 62
               7
100
AcDbLine
 10
53.5
 20
25.5
 30
0.0
 11
54.0
 21
25.5
 31
0.0
  0
LINE
  5
3C
100
AcDbEntity
  8
0
  6
CONTINUOUS
 62
               7
100
AcDbLine
 10
53.5
 20
25.5
 30
0.0
 11
53.5
 21
39.5
 31
0.0
  0
LINE
  5
3D
100
AcDbEntity
  8
0
  6
CONTINUOUS
 62
               7
100
AcDbLine
 10
64.0
 20
25.5
 30
0.0
 11
64.5
 21
25.5
 31
0.0
  0
LINE
  5
3E
100
AcDbEntity
  8
0
  6
CONTINUOUS
 62
               7
100
AcDbLine
 10
64.5
 20
25.5
 30
0.0
 11
64.5
 21
39.5
 31
0.0
  0
ARC
  5
3F
100
AcDbEntity
  8
0
  6
CONTINUOUS
 62
               7
100
AcDbCircle
 10
51.25
 20
-83.000015258789063
 30
0.0
 40
1.5
100
AcDbArc
 50
180.0000359721783
 51
213.55730177958446
  0
LINE
  5
40
100
AcDbEntity
  8
0
  6
CONTINUOUS
 62
               7
100
AcDbLine
 10
53.999984741210938
 20
-0.0000152587890625
 30
0.0
 11
63.999984741210938
 21
-0.0000152587890625
 31
0.0
  0
LINE
  5
41
100
AcDbEntity
  8
0
  6
CONTINUOUS
 62
               2
100
AcDbLine
 10
56.499984741210937
 20
6.199981689453125
 30
0.0
 11
61.499984741210937
 21
6.199981689453125
 31
0.0
  0
LINE
  5
42
100
AcDbEntity
  8
0
  6
CONTINUOUS
 62
             200
100
AcDbLine
 10
58.999984741210938
 20
-111.84219360351562
 30
0.0
 11
58.999984741210938
 21
-90.000015258789063
 31
0.0
  0
LINE
  5
43
100
AcDbEntity
  8
0
  6
CONTINUOUS
 62
               4
100
AcDbLine
 10
54.0
 20
33.499984741210938
 30
0.0
 11
64.0
 21
33.499984741210938
 31
0.0
  0
LINE
  5
44
100
AcDbEntity
  8
0
  6
CONTINUOUS
 62
               4
100
AcDbLine
 10
53.999984741210938
 20
9.4999847412109375
 30
0.0
 11
63.999984741210938
 21
9.4999847412109375
 31
0.0
  0
LINE
  5
45
100
AcDbEntity
  8
0
  6
CONTINUOUS
 62
               7
100
AcDbLine
 10
57.073196411132813
 20
5.8999786376953125
 30
0.0
 11
60.926773071289063
 21
5.8999786376953125
 31
0.0
  0
LINE
  5
46
100
AcDbEntity
  8
0
  6
CONTINUOUS
 62
               7
100
AcDbLine
 10
57.073196411132813
 20
6.4999847412109375
 30
0.0
 11
60.926773071289063
 21
6.4999847412109375
 31
0.0
  0
LINE
  5
47
100
AcDbEntity
  8
0
  6
CONTINUOUS
 62
               4
100
AcDbLine
 10
54.04998779296875
 20
33.499984741210938
 30
0.0
 11
54.04998779296875
 21
41.999984741210938
 31
0.0
  0
LINE
  5
48
100
AcDbEntity
  8
0
  6
CONTINUOUS
 62
             200
100
AcDbLine
 10
63.949981689453125
 20
37.999984741210937
 30
0.0
 11
54.04998779296875
 21
37.999984741210937
 31
0.0
  0
LINE
  5
49
100
AcDbEntity
  8
0
  6
CONTINUOUS
 62
               4
100
AcDbLine
 10
63.949981689453125
 20
33.499984741210938
 30
0.0
 11
63.949981689453125
 21
41.999984741210938
 31
0.0
  0
LINE
  5
4A
100
AcDbEntity
  8
0
  6
CONTINUOUS
 62
               7
100
AcDbLine
 10
49.999984741210938
 20
-14.000015258789063
 30
0.0
 11
67.999984741210937
 21
-14.000015258789063
 31
0.0
  0
LINE
  5
4B
100
AcDbEntity
  8
0
  6
CONTINUOUS
 62
               7
100
AcDbLine
 10
67.999984741210937
 20
-89.500015258789063
 30
0.0
 11
67.999984741210937
 21
-63.645645141601563
 31
0.0
  0
LINE
  5
4C
100
AcDbEntity
  8
0
  6
CONTINUOUS
 62
               7
100
AcDbLine
 10
49.999984741210938
 20
-4.0000152587890625
 30
0.0
 11
67.999984741210937
 21
-4.0000152587890625
 31
0.0
  0
LINE
  5
4D
100
AcDbEntity
  8
0
  6
CONTINUOUS
 62
               7
100
AcDbLine
 10
49.999984741210938
 20
-67.000015258789062
 30
0.0
 11
67.999984741210937
 21
-67.000015258789062
 31
0.0
  0
LINE
  5
4E
100
AcDbEntity
  8
0
  6
CONTINUOUS
 62
               7
100
AcDbLine
 10
49.999984741210938
 20
-79.000015258789063
 30
0.0
 11
67.999984741210937
 21
-79.000015258789063
 31
0.0
  0
LINE
  5
4F
100
AcDbEntity
  8
0
  6
CONTINUOUS
 62
               7
100
AcDbLine
 10
49.999984741210938
 20
-14.200027465820313
 30
0.0
 11
67.999984741210937
 21
-14.200027465820313
 31
0.0
  0
LINE
  5
50
100
AcDbEntity
  8
0
  6
CONTINUOUS
 62
               7
100
AcDbLine
 10
49.999984741210938
 20
-66.800018310546875
 30
0.0
 11
67.999984741210937
 21
-66.800018310546875
 31
0.0
  0
LINE
  5
51
100
AcDbEntity
  8
0
  6
CONTINUOUS
 62
               7
100
AcDbLine
 10
49.999984741210938
 20
-63.500015258789063
 30
0.0
 11
52.499984741210937
 21
-63.500015258789063
 31
0.0
  0
LINE
  5
52
100
AcDbEntity
  8
0
  6
CONTINUOUS
 62
               7
100
AcDbLine
 10
49.999984741210938
 20
-57.500015258789063
 30
0.0
 11
52.499984741210937
 21
-57.500015258789063
 31
0.0
  0
LINE
  5
53
100
AcDbEntity
  8
0
  6
CONTINUOUS
 62
               7
100
AcDbLine
 10
62.499984741210938
 20
-62.5
 30
0.0
 11
62.499984741210938
 21
-66.800018310546875
 31
0.0
  0
LINE
  5
54
100
AcDbEntity
  8
0
  6
CONTINUOUS
 62
               7
100
AcDbLine
 10
55.499984741210938
 20
-18.5
 30
0.0
 11
55.499984741210938
 21
-14.20001220703125
 31
0.0
  0
LINE
  5
55
100
AcDbEntity
  8
0
  6
CONTINUOUS
 62
               7
100
AcDbLine
 10
52.499984741210937
 20
-21.500015258789063
 30
0.0
 11
49.999984741210938
 21
-21.500015258789063
 31
0.0
  0
LINE
  5
56
100
AcDbEntity
  8
0
  6
CONTINUOUS
 62
               7
100
AcDbLine
 10
65.499984741210937
 20
-59.5
 30
0.0
 11
67.999984741210937
 21
-59.5
 31
0.0
  0
LINE
  5
57
100
AcDbEntity
  8
0
  6
CONTINUOUS
 62
               7
100
AcDbLine
 10
49.999984741210938
 20
-64.800018310546875
 30
0.0
 11
62.499984741210938
 21
-64.800018310546875
 31
0.0
  0
LINE
  5
58
100
AcDbEntity
  8
0
  6
CONTINUOUS
 62
               7
100
AcDbLine
 10
55.499984741210938
 20
-16.200027465820312
 30
0.0
 11
67.999984741210937
 21
-16.200027465820312
 31
0.0
  0
LINE
  5
59
100
AcDbEntity
  8
0
  6
CONTINUOUS
 62
               7
100
AcDbLine
 10
66.560654254789597
 20
-21.560661558349977
 30
0.0
 11
64.439324082378562
 21
-19.439340147844007
 31
0.0
  0
LINE
  5
5A
100
AcDbEntity
  8
0
  6
CONTINUOUS
 62
               7
100
AcDbLine
 10
53.560668429137422
 20
-19.560645447653883
 30
0.0
 11
51.439355810881807
 21
-17.439317451399916
 31
0.0
  0
LINE
  5
5B
100
AcDbEntity
  8
0
  6
CONTINUOUS
 62
               7
100
AcDbLine
 10
51.439337912145618
 20
-19.560677198249721
 30
0.0
 11
53.560660365167621
 21
-17.439359036762141
 31
0.0
  0
LINE
  5
5C
100
AcDbEntity
  8
0
  6
CONTINUOUS
 62
               7
100
AcDbLine
 10
64.439337357499994
 20
-21.560644487208322
 30
0.0
 11
66.560666605451502
 21
-19.439332941836312
 31
0.0
  0
LINE
  5
5D
100
AcDbEntity
  8
0
  6
CONTINUOUS
 62
               7
100
AcDbLine
 10
50.499984741210938
 20
-90.000015258789063
 30
0.0
 11
67.499984741210938
 21
-90.000015258789063
 31
0.0
  0
LINE
  5
5E
100
AcDbEntity
  8
0
  6
CONTINUOUS
 62
               7
100
AcDbLine
 10
64.439336302668266
 20
-63.56067925326397
 30
0.0
 11
66.560652318388634
 21
-61.439354475660821
 31
0.0
  0
LINE
  5
5F
100
AcDbEntity
  8
0
  6
CONTINUOUS
 62
               7
100
AcDbLine
 10
66.560636478813478
 20
-63.560677975886335
 30
0.0
 11
64.439317244442293
 21
-61.439356595747938
 31
0.0
  0
LINE
  5
60
100
AcDbEntity
  8
0
  6
CONTINUOUS
 62
               7
100
AcDbLine
 10
51.439344584388152
 20
-61.560657987936622
 30
0.0
 11
53.56065773908557
 21
-59.439330528124458
 31
0.0
  0
LINE
  5
61
100
AcDbEntity
  8
0
  6
CONTINUOUS
 62
               7
100
AcDbLine
 10
53.560657502913273
 20
-61.560670367289731
 30
0.0
 11
51.439340015774576
 21
-59.439348409804097
 31
0.0
  0
LINE
  5
62
100
AcDbEntity
  8
0
  6
CONTINUOUS
 62
               2
100
AcDbLine
 10
56.383323669433594
 20
-75.000015258789063
 30
0.0
 11
61.616661071777344
 21
-75.000015258789063
 31
0.0
  0
LINE
  5
63
100
AcDbEntity
  8
0
  6
CONTINUOUS
 62
               7
100
AcDbLine
 10
57.073207855224609
 20
-75.300018310546875
 30
0.0
 11
60.926773071289063
 21
-75.300018310546875
 31
0.0
  0
LINE
  5
64
100
AcDbEntity
  8
0
  6
CONTINUOUS
 62
               7
100
AcDbLine
 10
57.073207855224609
 20
-74.70001220703125
 30
0.0
 11
60.926773071289063
 21
-74.70001220703125
 31
0.0
  0
LINE
  5
65
100
AcDbEntity
  8
0
  6
CONTINUOUS
 62
               7
100
AcDbLine
 10
49.999992370605469
 20
-76.000015258789063
 30
0.0
 11
52.999992370605469
 21
-76.000015258789063
 31
0.0
  0
LINE
  5
66
100
AcDbEntity
  8
0
  6
CONTINUOUS
 62
               7
100
AcDbLine
 10
49.999992370605469
 20
-70.000015258789063
 30
0.0
 11
52.999992370605469
 21
-70.000015258789063
 31
0.0
  0
LINE
  5
67
100
AcDbEntity
  8
0
  6
CONTINUOUS
 62
               7
100
AcDbLine
 10
52.499984741210937
 20
-79.000015258789063
 30
0.0
 11
52.499984741210937
 21
-76.000015258789063
 31
0.0
  0
LINE
  5
68
100
AcDbEntity
  8
0
  6
CONTINUOUS
 62
               7
100
AcDbLine
 10
65.499984741210937
 20
-79.000015258789063
 30
0.0
 11
65.499984741210937
 21
-76.000015258789063
 31
0.0
  0
LINE
  5
69
100
AcDbEntity
  8
0
  6
CONTINUOUS
 62
               7
100
AcDbLine
 10
64.999992370605469
 20
-76.000015258789063
 30
0.0
 11
68.0
 21
-76.000015258789063
 31
0.0
  0
LINE
  5
6A
100
AcDbEntity
  8
0
  6
CONTINUOUS
 62
               7
100
AcDbLine
 10
64.999992370605469
 20
-70.000015258789063
 30
0.0
 11
68.0
 21
-70.000015258789063
 31
0.0
  0
LINE
  5
6B
100
AcDbEntity
  8
0
  6
CONTINUOUS
 62
               7
100
AcDbLine
 10
65.499984741210937
 20
-70.000015258789063
 30
0.0
 11
65.499984741210937
 21
-67.000015258789062
 31
0.0
  0
LINE
  5
6C
100
AcDbEntity
  8
0
  6
CONTINUOUS
 62
               7
100
AcDbLine
 10
52.499984741210937
 20
-70.000015258789063
 30
0.0
 11
52.499984741210937
 21
-67.000015258789062
 31
0.0
  0
LINE
  5
6D
100
AcDbEntity
  8
0
  6
CONTINUOUS
 62
               7
100
AcDbLine
 10
61.499984741210937
 20
6.1999969482421875
 30
0.0
 11
62.499984741210938
 21
6.1999969482421875
 31
0.0
  0
LINE
  5
6E
100
AcDbEntity
  8
0
  6
CONTINUOUS
 62
               7
100
AcDbLine
 10
58.999984741210938
 20
2.6999969482421875
 30
0.0
 11
58.999984741210938
 21
3.6999969482421875
 31
0.0
  0
LINE
  5
6F
100
AcDbEntity
  8
0
  6
CONTINUOUS
 62
               7
100
AcDbLine
 10
58.999979163275157
 20
3.1999875316494126
 30
0.0
 11
59.999978452679784
 21
2.9320385890831631
 31
0.0
  0
LINE
  5
70
100
AcDbEntity
  8
0
  6
CONTINUOUS
 62
               7
100
AcDbLine
 10
51.999985694885254
 20
-1.5000152587890625
 30
0.0
 11
65.999984741210938
 21
-1.5000152587890625
 31
0.0
  0
LINE
  5
71
100
AcDbEntity
  8
0
  6
CONTINUOUS
 62
               7
100
AcDbLine
 10
67.99993644733695
 20
-4.0000093503613243
 30
0.0
 11
65.999991667223185
 21
-1.5000153550545292
 31
0.0
  0
LINE
  5
72
100
AcDbEntity
  8
0
  6
CONTINUOUS
 62
               7
100
AcDbLine
 10
50.000043091166845
 20
-4.0000278374209302
 30
0.0
 11
51.999996639918209
 21
-1.5000215452309931
 31
0.0
  0
LINE
  5
73
100
AcDbEntity
  8
0
  6
CONTINUOUS
 62
               4
100
AcDbLine
 10
53.999984741210938
 20
9.4999847412109375
 30
0.0
 11
53.999984741210938
 21
33.499984741210938
 31
0.0
  0
LINE
  5
74
100
AcDbEntity
  8
0
  6
CONTINUOUS
 62
               4
100
AcDbLine
 10
63.999984741210938
 20
9.4999847412109375
 30
0.0
 11
63.999984741210938
 21
33.499984741210938
 31
0.0
  0
LINE
  5
75
100
AcDbEntity
  8
0
  6
CONTINUOUS
 62
               7
100
AcDbLine
 10
67.999984741210937
 20
-18.933975219726563
 30
0.0
 11
67.999984741210937
 21
-4.0000152587890625
 31
0.0
  0
LINE
  5
76
100
AcDbEntity
  8
0
  6
CONTINUOUS
 62
               7
100
AcDbLine
 10
67.999984741210937
 20
-61.239028930664063
 30
0.0
 11
67.999984741210937
 21
-22.066055297851563
 31
0.0
  0
LINE
  5
77
100
AcDbEntity
  8
0
  6
CONTINUOUS
 62
               7
100
AcDbLine
 10
49.999984741210938
 20
-17.239044189453125
 30
0.0
 11
49.999984741210938
 21
-4.0000152587890625
 31
0.0
  0
LINE
  5
78
100
AcDbEntity
  8
0
  6
CONTINUOUS
 62
               7
100
AcDbLine
 10
49.999984741210938
 20
-58.9339599609375
 30
0.0
 11
49.999984741210938
 21
-19.760955810546875
 31
0.0
  0
LINE
  5
79
100
AcDbEntity
  8
0
  6
CONTINUOUS
 62
               7
100
AcDbLine
 10
49.999984741210938
 20
-89.5
 30
0.0
 11
49.999984741210938
 21
-62.066009521484375
 31
0.0
  0
LINE
  5
7A
100
AcDbEntity
  8
0
  6
CONTINUOUS
 62
               7
100
AcDbLine
 10
65.499984741210937
 20
-17.500015258789063
 30
0.0
 11
67.999984741210937
 21
-17.500015258789063
 31
0.0
  0
LINE
  5
7B
100
AcDbEntity
  8
0
  6
CONTINUOUS
 62
               7
100
AcDbLine
 10
65.499984741210937
 20
-23.500015258789063
 30
0.0
 11
67.999984741210937
 21
-23.500015258789063
 31
0.0
  0
CIRCLE
  5
7C
100
AcDbEntity
  8
0
  6
CONTINUOUS
 62
               7
100
AcDbCircle
 10
58.999984741210938
 20
6.1999969482421875
 30
0.0
 40
2.0
  0
CIRCLE
  5
7D
100
AcDbEntity
  8
0
  6
CONTINUOUS
 62
               7
100
AcDbCircle
 10
58.999984741210938
 20
6.1999969482421875
 30
0.0
 40
1.9499998092651367
  0
ARC
  5
7E
100
AcDbEntity
  8
0
  6
CONTINUOUS
 62
               4
100
AcDbCircle
 10
63.449981689453125
 20
41.999984741210938
 30
0.0
 40
0.5
100
AcDbArc
 50
359.99994535848583
 51
89.999982013910454
  0
ARC
  5
7F
100
AcDbEntity
  8
0
  6
CONTINUOUS
 62
               4
100
AcDbCircle
 10
54.54998779296875
 20
41.999984741210938
 30
0.0
 40
0.5
100
AcDbArc
 50
89.999982013910454
 51
179.99996402782091
  0
CIRCLE
  5
80
100
AcDbEntity
  8
0
  6
CONTINUOUS
 62
               7
100
AcDbCircle
 10
52.499984741210937
 20
-18.5
 30
0.0
 40
2.75
  0
ARC
  5
81
100
AcDbEntity
  8
0
  6
CONTINUOUS
 62
               7
100
AcDbCircle
 10
65.499984741210937
 20
-20.5
 30
0.0
 40
3.0
100
AcDbArc
 50
89.999982013910454
 51
269.99994604173139
  0
ARC
  5
82
100
AcDbEntity
  8
0
  6
CONTINUOUS
 62
               7
100
AcDbCircle
 10
52.499984741210937
 20
-60.5
 30
0.0
 40
3.0
100
AcDbArc
 50
269.99996334457541
 51
89.999982013910454
  0
ARC
  5
83
100
AcDbEntity
  8
0
  6
CONTINUOUS
 62
               7
100
AcDbCircle
 10
52.499984741210937
 20
-18.5
 30
0.0
 40
3.0
100
AcDbArc
 50
270.00001798608872
 51
0.00001366037834
  0
ARC
  5
84
100
AcDbEntity
  8
0
  6
CONTINUOUS
 62
               7
100
AcDbCircle
 10
65.499984741210937
 20
-62.5
 30
0.0
 40
3.0
100
AcDbArc
 50
89.999982013910454
 51
179.99996402782091
  0
CIRCLE
  5
85
100
AcDbEntity
  8
0
  6
CONTINUOUS
 62
               7
100
AcDbCircle
 10
65.5
 20
-20.5
 30
0.0
 40
2.75
  0
ARC
  5
86
100
AcDbEntity
  8
0
  6
CONTINUOUS
 62
               7
100
AcDbCircle
 10
50.499984741210938
 20
-89.5
 30
0.0
 40
0.5
100
AcDbArc
 50
180.0000359721783
 51
269.99996334457541
  0
ARC
  5
87
100
AcDbEntity
  8
0
  6
CONTINUOUS
 62
               7
100
AcDbCircle
 10
67.499984741210938
 20
-89.500015258789063
 30
0.0
 40
0.5
100
AcDbArc
 50
270.00001798608872
 51
0.00001366037834
  0
CIRCLE
  5
88
100
AcDbEntity
  8
0
  6
CONTINUOUS
 62
               7
100
AcDbCircle
 10
65.499984741210937
 20
-62.5
 30
0.0
 40
2.75
  0
CIRCLE
  5
89
100
AcDbEntity
  8
0
  6
CONTINUOUS
 62
               7
100
AcDbCircle
 10
52.5
 20
-60.5
 30
0.0
 40
2.75
  0
CIRCLE
  5
8A
100
AcDbEntity
  8
0
  6
CONTINUOUS
 62
               7
100
AcDbCircle
 10
58.999992370605469
 20
-75.000015258789063
 30
0.0
 40
2.0
  0
CIRCLE
  5
8B
100
AcDbEntity
  8
0
  6
CONTINUOUS
 62
               7
100
AcDbCircle
 10
58.999992370605469
 20
-75.000015258789063
 30
0.0
 40
1.9499998092651367
  0
ARC
  5
8C
100
AcDbEntity
  8
0
  6
CONTINUOUS
 62
               7
100
AcDbCircle
 10
59.099985122680664
 20
6.1999969482421875
 30
0.0
 40
3.0
100
AcDbArc
 50
268.089805320533
 51
0.0
  0
ARC
  5
8D
100
AcDbEntity
  8
0
  6
CONTINUOUS
 62
               7
100
AcDbCircle
 10
58.999984741210938
 20
6.1999969482421875
 30
0.0
 40
3.0
100
AcDbArc
 50
266.17746163595609
 51
3.822566595416411
  0
ARC
  5
8E
100
AcDbEntity
  8
0
  6
CONTINUOUS
 62
               7
100
AcDbCircle
 10
58.899984359741211
 20
6.1999969482421875
 30
0.0
 40
3.0
100
AcDbArc
 50
271.91023065164455
 51
0.0
  0
ARC
  5
8F
100
AcDbEntity
  8
0
  6
CONTINUOUS
 62
               7
100
AcDbCircle
 10
65.000030517578125
 20
-0.9999542236328125
 30
0.0
 40
2.5000734329223633
100
AcDbArc
 50
191.53802865027069
 51
319.45890333229545
  0
CIRCLE
  5
90
100
AcDbEntity
  8
0
  6
CONTINUOUS
 62
               7
100
AcDbCircle
 10
65.499984741210937
 20
-20.500015258789063
 30
0.0
 40
2.9499998092651367
  0
CIRCLE
  5
91
100
AcDbEntity
  8
0
  6
CONTINUOUS
 62
               7
100
AcDbCircle
 10
52.5
 20
-60.499984741210937
 30
0.0
 40
2.9499998092651367
  0
LINE
  5
92
100
AcDbEntity
  8
0
  6
CONTINUOUS
 62
               7
100
AcDbLine
 10
56.49998664855957
 20
-75.000015258789063
 30
0.0
 11
55.49998664855957
 21
-75.000015258789063
 31
0.0
  0
LINE
  5
93
100
AcDbEntity
  8
0
  6
CONTINUOUS
 62
               7
100
AcDbLine
 10
58.99998446974314
 20
-72.000011808492673
 30
0.0
 11
57.999982416802595
 21
-71.73206194031718
 31
0.0
  0
LINE
  5
94
100
AcDbEntity
  8
0
  6
CONTINUOUS
 62
               7
100
AcDbLine
 10
58.999993324279785
 20
-71.500015258789063
 30
0.0
 11
58.999993324279785
 21
-72.500015258789063
 31
0.0
  0
ARC
  5
95
100
AcDbEntity
  8
0
  6
CONTINUOUS
 62
               7
100
AcDbCircle
 10
58.899986267089844
 20
-75.000015258789063
 30
0.0
 40
3.0
100
AcDbArc
 50
88.08976934835465
 51
179.99996402782091
  0
ARC
  5
96
100
AcDbEntity
  8
0
  6
CONTINUOUS
 62
               7
100
AcDbCircle
 10
58.99998664855957
 20
-75.000015258789063
 30
0.0
 40
3.0
100
AcDbArc
 50
86.177425663777811
 51
183.82257501946691
  0
ARC
  5
97
100
AcDbEntity
  8
0
  6
CONTINUOUS
 62
               7
100
AcDbCircle
 10
59.09998607635498
 20
-75.000015258789063
 30
0.0
 40
3.0
100
AcDbArc
 50
91.910194679466258
 51
179.99996402782091
  0
LINE
  5
98
100
AcDbEntity
  8
0
  6
CONTINUOUS
 62
               7
100
AcDbLine
 10
64.5
 20
41.0
 30
0.0
 11
68.5
 21
41.0
 31
0.0
  0
LINE
  5
99
100
AcDbEntity
  8
0
  6
CONTINUOUS
 62
               7
100
AcDbLine
 10
49.5
 20
41.0
 30
0.0
 11
53.5
 21
41.0
 31
0.0
  0
LINE
  5
9A
100
AcDbEntity
  8
0
  6
CONTINUOUS
 62
               7
100
AcDbLine
 10
64.5
 20
41.0
 30
0.0
 11
64.5
 21
42.5
 31
0.0
  0
LINE
  5
9B
100
AcDbEntity
  8
0
  6
CONTINUOUS
 62
               7
100
AcDbLine
 10
53.5
 20
41.0
 30
0.0
 11
53.5
 21
42.5
 31
0.0
  0
LINE
  5
9C
100
AcDbEntity
  8
0
  6
CONTINUOUS
 62
               4
100
AcDbLine
 10
67.999984741210937
 20
-98.20002650288086
 30
0.0
 11
67.999984741210937
 21
-79.500026702880859
 31
0.0
  0
LINE
  5
9D
100
AcDbEntity
  8
0
  6
CONTINUOUS
 62
               4
100
AcDbLine
 10
49.999984741210938
 20
-98.200026702880848
 30
0.0
 11
49.999984741210938
 21
-87.003321102880847
 31
0.0
  0
LINE
  5
9E
100
AcDbEntity
  8
0
  6
CONTINUOUS
 62
               4
100
AcDbLine
 10
49.999984741210938
 20
-98.20002650288086
 30
0.0
 11
67.999984741210937
 21
-98.20002650288086
 31
0.0
  0
LINE
  5
9F
100
AcDbEntity
  8
0
  6
CONTINUOUS
 62
               4
100
AcDbLine
 10
67.999984741210937
 20
-103.30002670288087
 30
0.0
 11
49.999984741210938
 21
-103.30002670288087
 31
0.0
  0
LINE
  5
A0
100
AcDbEntity
  8
0
  6
CONTINUOUS
 62
               4
100
AcDbLine
 10
67.999984741210937
 20
-104.50002670288086
 30
0.0
 11
49.999984741210938
 21
-104.50002670288086
 31
0.0
  0
LINE
  5
A1
100
AcDbEntity
  8
0
  6
CONTINUOUS
 62
               4
100
AcDbLine
 10
67.999984741210937
 20
-106.86493970288086
 30
0.0
 11
49.999984741210938
 21
-106.86493970288086
 31
0.0
  0
LINE
  5
A2
100
AcDbEntity
  8
0
  6
CONTINUOUS
 62
               4
100
AcDbLine
 10
67.24639434121093
 20
-107.30002570288087
 30
0.0
 11
50.753575141210931
 21
-107.30002570288087
 31
0.0
  0
LINE
  5
A3
100
AcDbEntity
  8
0
  6
CONTINUOUS
 62
               4
100
AcDbLine
 10
66.099984741210932
 20
-108.90002670288087
 30
0.0
 11
51.899984741210929
 21
-108.90002670288087
 31
0.0
  0
LINE
  5
A4
100
AcDbEntity
  8
0
  6
CONTINUOUS
 62
               4
100
AcDbLine
 10
52.999984741210937
 20
-109.40002670288087
 30
0.0
 11
52.999984741210937
 21
-109.00002670288086
 31
0.0
  0
LINE
  5
A5
100
AcDbEntity
  8
0
  6
CONTINUOUS
 62
               4
100
AcDbLine
 10
67.999984741210937
 20
-98.600026302880849
 30
0.0
 11
49.999984741210938
 21
-98.600026302880849
 31
0.0
  0
LINE
  5
A6
100
AcDbEntity
  8
0
  6
CONTINUOUS
 62
               4
100
AcDbLine
 10
50.199984741210926
 20
-98.400026702880865
 30
0.0
 11
49.999984741210938
 21
-98.20002650288086
 31
0.0
  0
LINE
  5
A7
100
AcDbEntity
  8
0
  6
CONTINUOUS
 62
               4
100
AcDbLine
 10
67.299984741210949
 20
-104.30002670288087
 30
0.0
 11
67.299984741210949
 21
-103.40002670288087
 31
0.0
  0
LINE
  5
A8
100
AcDbEntity
  8
0
  6
CONTINUOUS
 62
               4
100
AcDbLine
 10
50.699984741210926
 20
-104.30002670288087
 30
0.0
 11
50.699984741210926
 21
-103.40002670288087
 31
0.0
  0
LINE
  5
A9
100
AcDbEntity
  8
0
  6
CONTINUOUS
 62
               4
100
AcDbLine
 10
67.799984741210949
 20
-98.400026702880865
 30
0.0
 11
67.999984741210937
 21
-98.20002650288086
 31
0.0
  0
LINE
  5
AA
100
AcDbEntity
  8
0
  6
CONTINUOUS
 62
               4
100
AcDbLine
 10
67.999984741210937
 20
-103.30002670288087
 30
0.0
 11
67.899984741210943
 21
-103.40002670288087
 31
0.0
  0
LINE
  5
AB
100
AcDbEntity
  8
0
  6
CONTINUOUS
 62
               4
100
AcDbLine
 10
49.999984741210938
 20
-103.30002670288087
 30
0.0
 11
50.099984741210932
 21
-103.40002670288087
 31
0.0
  0
LINE
  5
AC
100
AcDbEntity
  8
0
  6
CONTINUOUS
 62
               4
100
AcDbLine
 10
67.799984741210949
 20
-98.400026102880872
 30
0.0
 11
67.999984741210937
 21
-98.600026302880849
 31
0.0
  0
LINE
  5
AD
100
AcDbEntity
  8
0
  6
CONTINUOUS
 62
               4
100
AcDbLine
 10
67.999984741210937
 20
-103.30002670288087
 30
0.0
 11
67.999984741210937
 21
-98.600026302880849
 31
0.0
  0
LINE
  5
AE
100
AcDbEntity
  8
0
  6
CONTINUOUS
 62
               4
100
AcDbLine
 10
49.999984741210938
 20
-103.30002670288087
 30
0.0
 11
49.999984741210938
 21
-98.600026302880849
 31
0.0
  0
LINE
  5
AF
100
AcDbEntity
  8
0
  6
CONTINUOUS
 62
               4
100
AcDbLine
 10
67.799984741210949
 20
-98.40002630288086
 30
0.0
 11
50.199984741210926
 21
-98.40002630288086
 31
0.0
  0
LINE
  5
B0
100
AcDbEntity
  8
0
  6
CONTINUOUS
 62
               4
100
AcDbLine
 10
50.199984741210926
 20
-98.400026102880872
 30
0.0
 11
49.999984741210938
 21
-98.600026302880849
 31
0.0
  0
LINE
  5
B1
100
AcDbEntity
  8
0
  6
CONTINUOUS
 62
               4
100
AcDbLine
 10
67.999984741210937
 20
-106.86494070288086
 30
0.0
 11
67.999984741210937
 21
-104.50002670288086
 31
0.0
  0
LINE
  5
B2
100
AcDbEntity
  8
0
  6
CONTINUOUS
 62
               4
100
AcDbLine
 10
50.199984741210926
 20
-104.30002670288087
 30
0.0
 11
49.999984741210938
 21
-104.50002670288086
 31
0.0
  0
LINE
  5
B3
100
AcDbEntity
  8
0
  6
CONTINUOUS
 62
               4
100
AcDbLine
 10
49.999984741210938
 20
-106.86494070288086
 30
0.0
 11
49.999984741210938
 21
-104.50002670288086
 31
0.0
  0
LINE
  5
B4
100
AcDbEntity
  8
0
  6
CONTINUOUS
 62
               4
100
AcDbLine
 10
50.199984741210926
 20
-104.30002670288087
 30
0.0
 11
67.799984741210949
 21
-104.30002670288087
 31
0.0
  0
LINE
  5
B5
100
AcDbEntity
  8
0
  6
CONTINUOUS
 62
               4
100
AcDbLine
 10
67.24639434121093
 20
-107.30002570288087
 30
0.0
 11
66.899983941210934
 21
-107.90002570288087
 31
0.0
  0
LINE
  5
B6
100
AcDbEntity
  8
0
  6
CONTINUOUS
 62
               4
100
AcDbLine
 10
50.753575141210931
 20
-107.30002570288087
 30
0.0
 11
51.099985541210927
 21
-107.90002570288087
 31
0.0
  0
LINE
  5
B7
100
AcDbEntity
  8
0
  6
CONTINUOUS
 62
               4
100
AcDbLine
 10
49.999984741210938
 20
-106.86493970288086
 30
0.0
 11
50.753575141210931
 21
-107.30002570288087
 31
0.0
  0
LINE
  5
B8
100
AcDbEntity
  8
0
  6
CONTINUOUS
 62
               4
100
AcDbLine
 10
67.999984741210937
 20
-106.86493970288086
 30
0.0
 11
67.24639434121093
 21
-107.30002570288087
 31
0.0
  0
LINE
  5
B9
100
AcDbEntity
  8
0
  6
CONTINUOUS
 62
               4
100
AcDbLine
 10
67.799984741210949
 20
-104.30002670288087
 30
0.0
 11
67.999984741210937
 21
-104.50002670288086
 31
0.0
  0
LINE
  5
BA
100
AcDbEntity
  8
0
  6
CONTINUOUS
 62
               4
100
AcDbLine
 10
66.899984741210943
 20
-107.90002570288087
 30
0.0
 11
51.099985541210927
 21
-107.90002570288087
 31
0.0
  0
LINE
  5
BB
100
AcDbEntity
  8
0
  6
CONTINUOUS
 62
               4
100
AcDbLine
 10
50.099984741210932
 20
-103.40002670288087
 30
0.0
 11
67.899984741210943
 21
-103.40002670288087
 31
0.0
  0
LINE
  5
BC
100
AcDbEntity
  8
0
  6
CONTINUOUS
 62
               4
100
AcDbLine
 10
66.099984741210932
 20
-108.90002670288087
 30
0.0
 11
66.099984741210932
 21
-107.90002570288087
 31
0.0
  0
LINE
  5
BD
100
AcDbEntity
  8
0
  6
CONTINUOUS
 62
               4
100
AcDbLine
 10
65.999984741210938
 20
-109.00002670288086
 30
0.0
 11
51.999984741210937
 21
-109.00002670288086
 31
0.0
  0
LINE
  5
BE
100
AcDbEntity
  8
0
  6
CONTINUOUS
 62
               4
100
AcDbLine
 10
65.999984741210938
 20
-109.00002670288086
 30
0.0
 11
66.099984741210932
 21
-108.90002670288087
 31
0.0
  0
LINE
  5
BF
100
AcDbEntity
  8
0
  6
CONTINUOUS
 62
               4
100
AcDbLine
 10
51.999984741210937
 20
-109.00002670288086
 30
0.0
 11
51.899984741210929
 21
-108.90002670288087
 31
0.0
  0
LINE
  5
C0
100
AcDbEntity
  8
0
  6
CONTINUOUS
 62
               4
100
AcDbLine
 10
51.899984741210929
 20
-108.90002670288087
 30
0.0
 11
51.899984741210929
 21
-107.90002570288087
 31
0.0
  0
LINE
  5
C1
100
AcDbEntity
  8
0
  6
CONTINUOUS
 62
               4
100
AcDbLine
 10
64.999984741210937
 20
-109.40002670288087
 30
0.0
 11
64.999984741210937
 21
-109.00002670288086
 31
0.0
  0
LINE
  5
C2
100
AcDbEntity
  8
0
  6
CONTINUOUS
 62
               4
100
AcDbLine
 10
67.399984741210943
 20
-110.80070770288086
 30
0.0
 11
67.399984741210943
 21
-109.90002670288087
 31
0.0
  0
LINE
  5
C3
100
AcDbEntity
  8
0
  6
CONTINUOUS
 62
               4
100
AcDbLine
 10
50.599984741210932
 20
-109.90002670288087
 30
0.0
 11
67.399984741210943
 21
-109.90002670288087
 31
0.0
  0
LINE
  5
C4
100
AcDbEntity
  8
0
  6
CONTINUOUS
 62
               4
100
AcDbLine
 10
67.099984741210932
 20
-111.10002670288085
 30
0.0
 11
50.899984741210929
 21
-111.10002670288085
 31
0.0
  0
LINE
  5
C5
100
AcDbEntity
  8
0
  6
CONTINUOUS
 62
               4
100
AcDbLine
 10
50.599984741210932
 20
-110.80070770288086
 30
0.0
 11
50.599984741210932
 21
-109.90002670288087
 31
0.0
  0
ARC
  5
C6
100
AcDbEntity
  8
0
  6
CONTINUOUS
 62
               4
100
AcDbCircle
 10
52.499984741210937
 20
-109.40002670288087
 30
0.0
 40
0.5
100
AcDbArc
 50
269.99999999999937
 51
0.0000000000002036
  0
ARC
  5
C7
100
AcDbEntity
  8
0
  6
CONTINUOUS
 62
               4
100
AcDbCircle
 10
67.099984741210932
 20
-110.80002670288087
 30
0.0
 40
0.3
100
AcDbArc
 50
269.99999999999937
 51
0.0000000000002036
  0
ARC
  5
C8
100
AcDbEntity
  8
0
  6
CONTINUOUS
 62
               4
100
AcDbCircle
 10
65.499984741210937
 20
-109.40002670288087
 30
0.0
 40
0.5
100
AcDbArc
 50
180.0000000000002
 51
270.00000000000023
  0
ARC
  5
C9
100
AcDbEntity
  8
0
  6
CONTINUOUS
 62
               4
100
AcDbCircle
 10
50.899984741210929
 20
-110.80002670288087
 30
0.0
 40
0.3
100
AcDbArc
 50
180.0000000000002
 51
270.00000000000023
  0
LINE
  5
CA
100
AcDbEntity
  8
0
  6
CONTINUOUS
 62
               7
100
AcDbLine
 10
68.5
 20
5.5
 30
0.0
 11
73.0
 21
5.5
 31
0.0
  0
LINE
  5
CB
100
AcDbEntity
  8
0
  6
CONTINUOUS
 62
               7
100
AcDbLine
 10
68.5
 20
-79.500015258789063
 30
0.0
 11
69.0
 21
-79.500015258789063
 31
0.0
  0
LINE
  5
CC
100
AcDbEntity
  8
0
  6
CONTINUOUS
 62
               7
100
AcDbLine
 10
87.0
 20
-79.500015258789063
 30
0.0
 11
87.5
 21
-79.500015258789063
 31
0.0
  0
LINE
  5
CD
100
AcDbEntity
  8
0
  6
CONTINUOUS
 62
               7
100
AcDbLine
 10
83.0
 20
5.5
 30
0.0
 11
87.5
 21
5.5
 31
0.0
  0
LINE
  5
CE
100
AcDbEntity
  8
0
  6
CONTINUOUS
 62
               7
100
AcDbLine
 10
87.5
 20
-79.500015258789063
 30
0.0
 11
87.5
 21
42.5
 31
0.0
  0
LINE
  5
CF
100
AcDbEntity
  8
0
  6
CONTINUOUS
 62
               7
100
AcDbLine
 10
68.75
 20
-83.000015258789063
 30
0.0
 11
68.75
 21
-82.500015258789063
 31
0.0
  0
LINE
  5
D0
100
AcDbEntity
  8
0
  6
CONTINUOUS
 62
               7
100
AcDbLine
 10
69.0
 20
-82.500015258789063
 30
0.0
 11
68.75
 21
-82.500015258789063
 31
0.0
  0
LINE
  5
D1
100
AcDbEntity
  8
0
  6
CONTINUOUS
 62
               7
100
AcDbLine
 10
83.5
 20
39.5
 30
0.0
 11
87.5
 21
39.5
 31
0.0
  0
LINE
  5
D2
100
AcDbEntity
  8
0
  6
CONTINUOUS
 62
               7
100
AcDbLine
 10
68.5
 20
39.5
 30
0.0
 11
72.5
 21
39.5
 31
0.0
  0
LINE
  5
D3
100
AcDbEntity
  8
0
  6
CONTINUOUS
 62
               7
100
AcDbLine
 10
68.5
 20
42.5
 30
0.0
 11
87.5
 21
42.5
 31
0.0
  0
LINE
  5
D4
100
AcDbEntity
  8
0
  6
CONTINUOUS
 62
               7
100
AcDbLine
 10
83.0
 20
7.5
 30
0.0
 11
87.5
 21
7.5
 31
0.0
  0
LINE
  5
D5
100
AcDbEntity
  8
0
  6
CONTINUOUS
 62
               7
100
AcDbLine
 10
68.5
 20
7.5
 30
0.0
 11
73.0
 21
7.5
 31
0.0
  0
LINE
  5
D6
100
AcDbEntity
  8
0
  6
CONTINUOUS
 62
               7
100
AcDbLine
 10
72.5
 20
25.5
 30
0.0
 11
73.0
 21
25.5
 31
0.0
  0
LINE
  5
D7
100
AcDbEntity
  8
0
  6
CONTINUOUS
 62
               7
100
AcDbLine
 10
72.5
 20
25.5
 30
0.0
 11
72.5
 21
39.5
 31
0.0
  0
LINE
  5
D8
100
AcDbEntity
  8
0
  6
CONTINUOUS
 62
               7
100
AcDbLine
 10
83.0
 20
25.5
 30
0.0
 11
83.5
 21
25.5
 31
0.0
  0
LINE
  5
D9
100
AcDbEntity
  8
0
  6
CONTINUOUS
 62
               7
100
AcDbLine
 10
83.5
 20
25.5
 30
0.0
 11
83.5
 21
39.5
 31
0.0
  0
ARC
  5
DA
100
AcDbEntity
  8
0
  6
CONTINUOUS
 62
               7
100
AcDbCircle
 10
70.25
 20
-83.000015258789063
 30
0.0
 40
1.5
100
AcDbArc
 50
180.0000359721783
 51
213.55730177958446
  0
LINE
  5
DB
100
AcDbEntity
  8
0
  6
CONTINUOUS
 62
               7
100
AcDbLine
 10
72.999984741210937
 20
-0.0000152587890625
 30
0.0
 11
82.999984741210938
 21
-0.0000152587890625
 31
0.0
  0
LINE
  5
DC
100
AcDbEntity
  8
0
  6
CONTINUOUS
 62
               2
100
AcDbLine
 10
75.499984741210938
 20
6.199981689453125
 30
0.0
 11
80.499984741210937
 21
6.199981689453125
 31
0.0
  0
LINE
  5
DD
100
AcDbEntity
  8
0
  6
CONTINUOUS
 62
             200
100
AcDbLine
 10
77.999984741210937
 20
-111.84219360351562
 30
0.0
 11
77.999984741210937
 21
-90.000015258789063
 31
0.0
  0
LINE
  5
DE
100
AcDbEntity
  8
0
  6
CONTINUOUS
 62
               4
100
AcDbLine
 10
73.0
 20
33.499984741210938
 30
0.0
 11
83.0
 21
33.499984741210938
 31
0.0
  0
LINE
  5
DF
100
AcDbEntity
  8
0
  6
CONTINUOUS
 62
               4
100
AcDbLine
 10
72.999984741210937
 20
9.4999847412109375
 30
0.0
 11
82.999984741210938
 21
9.4999847412109375
 31
0.0
  0
LINE
  5
E0
100
AcDbEntity
  8
0
  6
CONTINUOUS
 62
               7
100
AcDbLine
 10
76.073196411132812
 20
5.8999786376953125
 30
0.0
 11
79.926773071289063
 21
5.8999786376953125
 31
0.0
  0
LINE
  5
E1
100
AcDbEntity
  8
0
  6
CONTINUOUS
 62
               7
100
AcDbLine
 10
76.073196411132812
 20
6.4999847412109375
 30
0.0
 11
79.926773071289063
 21
6.4999847412109375
 31
0.0
  0
LINE
  5
E2
100
AcDbEntity
  8
0
  6
CONTINUOUS
 62
               4
100
AcDbLine
 10
73.04998779296875
 20
33.499984741210938
 30
0.0
 11
73.04998779296875
 21
41.999984741210938
 31
0.0
  0
LINE
  5
E3
100
AcDbEntity
  8
0
  6
CONTINUOUS
 62
             200
100
AcDbLine
 10
82.949981689453125
 20
37.999984741210937
 30
0.0
 11
73.04998779296875
 21
37.999984741210937
 31
0.0
  0
LINE
  5
E4
100
AcDbEntity
  8
0
  6
CONTINUOUS
 62
               4
100
AcDbLine
 10
82.949981689453125
 20
33.499984741210938
 30
0.0
 11
82.949981689453125
 21
41.999984741210938
 31
0.0
  0
LINE
  5
E5
100
AcDbEntity
  8
0
  6
CONTINUOUS
 62
               7
100
AcDbLine
 10
68.999984741210937
 20
-14.000015258789063
 30
0.0
 11
86.999984741210938
 21
-14.000015258789063
 31
0.0
  0
LINE
  5
E6
100
AcDbEntity
  8
0
  6
CONTINUOUS
 62
               7
100
AcDbLine
 10
86.999984741210938
 20
-89.500015258789063
 30
0.0
 11
86.999984741210938
 21
-63.645645141601563
 31
0.0
  0
LINE
  5
E7
100
AcDbEntity
  8
0
  6
CONTINUOUS
 62
               7
100
AcDbLine
 10
68.999984741210937
 20
-4.0000152587890625
 30
0.0
 11
86.999984741210938
 21
-4.0000152587890625
 31
0.0
  0
LINE
  5
E8
100
AcDbEntity
  8
0
  6
CONTINUOUS
 62
               7
100
AcDbLine
 10
68.999984741210937
 20
-67.000015258789062
 30
0.0
 11
86.999984741210938
 21
-67.000015258789062
 31
0.0
  0
LINE
  5
E9
100
AcDbEntity
  8
0
  6
CONTINUOUS
 62
               7
100
AcDbLine
 10
68.999984741210937
 20
-79.000015258789063
 30
0.0
 11
86.999984741210938
 21
-79.000015258789063
 31
0.0
  0
LINE
  5
EA
100
AcDbEntity
  8
0
  6
CONTINUOUS
 62
               7
100
AcDbLine
 10
68.999984741210937
 20
-14.200027465820313
 30
0.0
 11
86.999984741210938
 21
-14.200027465820313
 31
0.0
  0
LINE
  5
EB
100
AcDbEntity
  8
0
  6
CONTINUOUS
 62
               7
100
AcDbLine
 10
68.999984741210937
 20
-66.800018310546875
 30
0.0
 11
86.999984741210938
 21
-66.800018310546875
 31
0.0
  0
LINE
  5
EC
100
AcDbEntity
  8
0
  6
CONTINUOUS
 62
               7
100
AcDbLine
 10
68.999984741210937
 20
-63.500015258789063
 30
0.0
 11
71.499984741210938
 21
-63.500015258789063
 31
0.0
  0
LINE
  5
ED
100
AcDbEntity
  8
0
  6
CONTINUOUS
 62
               7
100
AcDbLine
 10
68.999984741210937
 20
-57.500015258789063
 30
0.0
 11
71.499984741210938
 21
-57.500015258789063
 31
0.0
  0
LINE
  5
EE
100
AcDbEntity
  8
0
  6
CONTINUOUS
 62
               7
100
AcDbLine
 10
81.499984741210937
 20
-62.5
 30
0.0
 11
81.499984741210937
 21
-66.800018310546875
 31
0.0
  0
LINE
  5
EF
100
AcDbEntity
  8
0
  6
CONTINUOUS
 62
               7
100
AcDbLine
 10
74.499984741210938
 20
-18.5
 30
0.0
 11
74.499984741210938
 21
-14.20001220703125
 31
0.0
  0
LINE
  5
F0
100
AcDbEntity
  8
0
  6
CONTINUOUS
 62
               7
100
AcDbLine
 10
71.499984741210938
 20
-21.500015258789063
 30
0.0
 11
68.999984741210937
 21
-21.500015258789063
 31
0.0
  0
LINE
  5
F1
100
AcDbEntity
  8
0
  6
CONTINUOUS
 62
               7
100
AcDbLine
 10
84.499984741210938
 20
-59.5
 30
0.0
 11
86.999984741210938
 21
-59.5
 31
0.0
  0
LINE
  5
F2
100
AcDbEntity
  8
0
  6
CONTINUOUS
 62
               7
100
AcDbLine
 10
68.999984741210937
 20
-64.800018310546875
 30
0.0
 11
81.499984741210937
 21
-64.800018310546875
 31
0.0
  0
LINE
  5
F3
100
AcDbEntity
  8
0
  6
CONTINUOUS
 62
               7
100
AcDbLine
 10
74.499984741210938
 20
-16.200027465820312
 30
0.0
 11
86.999984741210938
 21
-16.200027465820312
 31
0.0
  0
LINE
  5
F4
100
AcDbEntity
  8
0
  6
CONTINUOUS
 62
               7
100
AcDbLine
 10
85.560654254789597
 20
-21.560661558349977
 30
0.0
 11
83.439324082378562
 21
-19.439340147844007
 31
0.0
  0
LINE
  5
F5
100
AcDbEntity
  8
0
  6
CONTINUOUS
 62
               7
100
AcDbLine
 10
72.560668429137422
 20
-19.560645447653883
 30
0.0
 11
70.439355810881807
 21
-17.439317451399916
 31
0.0
  0
LINE
  5
F6
100
AcDbEntity
  8
0
  6
CONTINUOUS
 62
               7
100
AcDbLine
 10
70.439337912145618
 20
-19.560677198249721
 30
0.0
 11
72.560660365167621
 21
-17.439359036762141
 31
0.0
  0
LINE
  5
F7
100
AcDbEntity
  8
0
  6
CONTINUOUS
 62
               7
100
AcDbLine
 10
83.439337357499994
 20
-21.560644487208322
 30
0.0
 11
85.560666605451502
 21
-19.439332941836312
 31
0.0
  0
LINE
  5
F8
100
AcDbEntity
  8
0
  6
CONTINUOUS
 62
               7
100
AcDbLine
 10
69.499984741210937
 20
-90.000015258789063
 30
0.0
 11
86.499984741210937
 21
-90.000015258789063
 31
0.0
  0
LINE
  5
F9
100
AcDbEntity
  8
0
  6
CONTINUOUS
 62
               7
100
AcDbLine
 10
83.439336302668266
 20
-63.56067925326397
 30
0.0
 11
85.560652318388634
 21
-61.439354475660821
 31
0.0
  0
LINE
  5
FA
100
AcDbEntity
  8
0
  6
CONTINUOUS
 62
               7
100
AcDbLine
 10
85.560636478813478
 20
-63.560677975886335
 30
0.0
 11
83.439317244442293
 21
-61.439356595747938
 31
0.0
  0
LINE
  5
FB
100
AcDbEntity
  8
0
  6
CONTINUOUS
 62
               7
100
AcDbLine
 10
70.439344584388152
 20
-61.560657987936622
 30
0.0
 11
72.56065773908557
 21
-59.439330528124458
 31
0.0
  0
LINE
  5
FC
100
AcDbEntity
  8
0
  6
CONTINUOUS
 62
               7
100
AcDbLine
 10
72.560657502913273
 20
-61.560670367289731
 30
0.0
 11
70.439340015774576
 21
-59.439348409804097
 31
0.0
  0
LINE
  5
FD
100
AcDbEntity
  8
0
  6
CONTINUOUS
 62
               2
100
AcDbLine
 10
75.383323669433594
 20
-75.000015258789063
 30
0.0
 11
80.616661071777344
 21
-75.000015258789063
 31
0.0
  0
LINE
  5
FE
100
AcDbEntity
  8
0
  6
CONTINUOUS
 62
               7
100
AcDbLine
 10
76.073207855224609
 20
-75.300018310546875
 30
0.0
 11
79.926773071289063
 21
-75.300018310546875
 31
0.0
  0
LINE
  5
FF
100
AcDbEntity
  8
0
  6
CONTINUOUS
 62
               7
100
AcDbLine
 10
76.073207855224609
 20
-74.70001220703125
 30
0.0
 11
79.926773071289063
 21
-74.70001220703125
 31
0.0
  0
LINE
  5
100
100
AcDbEntity
  8
0
  6
CONTINUOUS
 62
               7
100
AcDbLine
 10
68.999992370605469
 20
-76.000015258789063
 30
0.0
 11
71.999992370605469
 21
-76.000015258789063
 31
0.0
  0
LINE
  5
101
100
AcDbEntity
  8
0
  6
CONTINUOUS
 62
               7
100
AcDbLine
 10
68.999992370605469
 20
-70.000015258789063
 30
0.0
 11
71.999992370605469
 21
-70.000015258789063
 31
0.0
  0
LINE
  5
102
100
AcDbEntity
  8
0
  6
CONTINUOUS
 62
               7
100
AcDbLine
 10
71.499984741210938
 20
-79.000015258789063
 30
0.0
 11
71.499984741210938
 21
-76.000015258789063
 31
0.0
  0
LINE
  5
103
100
AcDbEntity
  8
0
  6
CONTINUOUS
 62
               7
100
AcDbLine
 10
84.499984741210938
 20
-79.000015258789063
 30
0.0
 11
84.499984741210938
 21
-76.000015258789063
 31
0.0
  0
LINE
  5
104
100
AcDbEntity
  8
0
  6
CONTINUOUS
 62
               7
100
AcDbLine
 10
83.999992370605469
 20
-76.000015258789063
 30
0.0
 11
87.0
 21
-76.000015258789063
 31
0.0
  0
LINE
  5
105
100
AcDbEntity
  8
0
  6
CONTINUOUS
 62
               7
100
AcDbLine
 10
83.999992370605469
 20
-70.000015258789063
 30
0.0
 11
87.0
 21
-70.000015258789063
 31
0.0
  0
LINE
  5
106
100
AcDbEntity
  8
0
  6
CONTINUOUS
 62
               7
100
AcDbLine
 10
84.499984741210938
 20
-70.000015258789063
 30
0.0
 11
84.499984741210938
 21
-67.000015258789062
 31
0.0
  0
LINE
  5
107
100
AcDbEntity
  8
0
  6
CONTINUOUS
 62
               7
100
AcDbLine
 10
71.499984741210938
 20
-70.000015258789063
 30
0.0
 11
71.499984741210938
 21
-67.000015258789062
 31
0.0
  0
LINE
  5
108
100
AcDbEntity
  8
0
  6
CONTINUOUS
 62
               7
100
AcDbLine
 10
80.499984741210937
 20
6.1999969482421875
 30
0.0
 11
81.499984741210937
 21
6.1999969482421875
 31
0.0
  0
LINE
  5
109
100
AcDbEntity
  8
0
  6
CONTINUOUS
 62
               7
100
AcDbLine
 10
77.999984741210937
 20
2.6999969482421875
 30
0.0
 11
77.999984741210937
 21
3.6999969482421875
 31
0.0
  0
LINE
  5
10A
100
AcDbEntity
  8
0
  6
CONTINUOUS
 62
               7
100
AcDbLine
 10
77.999979163275157
 20
3.1999875316494126
 30
0.0
 11
78.999978452679784
 21
2.9320385890831631
 31
0.0
  0
LINE
  5
10B
100
AcDbEntity
  8
0
  6
CONTINUOUS
 62
               7
100
AcDbLine
 10
70.999985694885254
 20
-1.5000152587890625
 30
0.0
 11
84.999984741210937
 21
-1.5000152587890625
 31
0.0
  0
LINE
  5
10C
100
AcDbEntity
  8
0
  6
CONTINUOUS
 62
               7
100
AcDbLine
 10
86.99993644733695
 20
-4.0000093503613243
 30
0.0
 11
84.999991667223185
 21
-1.5000153550545292
 31
0.0
  0
LINE
  5
10D
100
AcDbEntity
  8
0
  6
CONTINUOUS
 62
               7
100
AcDbLine
 10
69.000043091166845
 20
-4.0000278374209302
 30
0.0
 11
70.999996639918209
 21
-1.5000215452309931
 31
0.0
  0
LINE
  5
10E
100
AcDbEntity
  8
0
  6
CONTINUOUS
 62
               4
100
AcDbLine
 10
72.999984741210937
 20
9.4999847412109375
 30
0.0
 11
72.999984741210937
 21
33.499984741210938
 31
0.0
  0
LINE
  5
10F
100
AcDbEntity
  8
0
  6
CONTINUOUS
 62
               4
100
AcDbLine
 10
82.999984741210938
 20
9.4999847412109375
 30
0.0
 11
82.999984741210938
 21
33.499984741210938
 31
0.0
  0
LINE
  5
110
100
AcDbEntity
  8
0
  6
CONTINUOUS
 62
               7
100
AcDbLine
 10
86.999984741210938
 20
-18.933975219726563
 30
0.0
 11
86.999984741210938
 21
-4.0000152587890625
 31
0.0
  0
LINE
  5
111
100
AcDbEntity
  8
0
  6
CONTINUOUS
 62
               7
100
AcDbLine
 10
86.999984741210938
 20
-61.239028930664063
 30
0.0
 11
86.999984741210938
 21
-22.066055297851563
 31
0.0
  0
LINE
  5
112
100
AcDbEntity
  8
0
  6
CONTINUOUS
 62
               7
100
AcDbLine
 10
68.999984741210937
 20
-17.239044189453125
 30
0.0
 11
68.999984741210937
 21
-4.0000152587890625
 31
0.0
  0
LINE
  5
113
100
AcDbEntity
  8
0
  6
CONTINUOUS
 62
               7
100
AcDbLine
 10
68.999984741210937
 20
-58.9339599609375
 30
0.0
 11
68.999984741210937
 21
-19.760955810546875
 31
0.0
  0
LINE
  5
114
100
AcDbEntity
  8
0
  6
CONTINUOUS
 62
               7
100
AcDbLine
 10
68.999984741210937
 20
-89.5
 30
0.0
 11
68.999984741210937
 21
-62.066009521484375
 31
0.0
  0
LINE
  5
115
100
AcDbEntity
  8
0
  6
CONTINUOUS
 62
               7
100
AcDbLine
 10
84.499984741210938
 20
-17.500015258789063
 30
0.0
 11
86.999984741210938
 21
-17.500015258789063
 31
0.0
  0
LINE
  5
116
100
AcDbEntity
  8
0
  6
CONTINUOUS
 62
               7
100
AcDbLine
 10
84.499984741210938
 20
-23.500015258789063
 30
0.0
 11
86.999984741210938
 21
-23.500015258789063
 31
0.0
  0
CIRCLE
  5
117
100
AcDbEntity
  8
0
  6
CONTINUOUS
 62
               7
100
AcDbCircle
 10
77.999984741210937
 20
6.1999969482421875
 30
0.0
 40
2.0
  0
CIRCLE
  5
118
100
AcDbEntity
  8
0
  6
CONTINUOUS
 62
               7
100
AcDbCircle
 10
77.999984741210937
 20
6.1999969482421875
 30
0.0
 40
1.9499998092651367
  0
ARC
  5
119
100
AcDbEntity
  8
0
  6
CONTINUOUS
 62
               4
100
AcDbCircle
 10
82.449981689453125
 20
41.999984741210938
 30
0.0
 40
0.5
100
AcDbArc
 50
359.99994535848583
 51
89.999982013910454
  0
ARC
  5
11A
100
AcDbEntity
  8
0
  6
CONTINUOUS
 62
               4
100
AcDbCircle
 10
73.54998779296875
 20
41.999984741210938
 30
0.0
 40
0.5
100
AcDbArc
 50
89.999982013910454
 51
179.99996402782091
  0
CIRCLE
  5
11B
100
AcDbEntity
  8
0
  6
CONTINUOUS
 62
               7
100
AcDbCircle
 10
71.499984741210938
 20
-18.5
 30
0.0
 40
2.75
  0
ARC
  5
11C
100
AcDbEntity
  8
0
  6
CONTINUOUS
 62
               7
100
AcDbCircle
 10
84.499984741210938
 20
-20.5
 30
0.0
 40
3.0
100
AcDbArc
 50
89.999982013910454
 51
269.99994604173139
  0
ARC
  5
11D
100
AcDbEntity
  8
0
  6
CONTINUOUS
 62
               7
100
AcDbCircle
 10
71.499984741210938
 20
-60.5
 30
0.0
 40
3.0
100
AcDbArc
 50
269.99996334457541
 51
89.999982013910454
  0
ARC
  5
11E
100
AcDbEntity
  8
0
  6
CONTINUOUS
 62
               7
100
AcDbCircle
 10
71.499984741210938
 20
-18.5
 30
0.0
 40
3.0
100
AcDbArc
 50
270.00001798608872
 51
0.00001366037834
  0
ARC
  5
11F
100
AcDbEntity
  8
0
  6
CONTINUOUS
 62
               7
100
AcDbCircle
 10
84.499984741210938
 20
-62.5
 30
0.0
 40
3.0
100
AcDbArc
 50
89.999982013910454
 51
179.99996402782091
  0
CIRCLE
  5
120
100
AcDbEntity
  8
0
  6
CONTINUOUS
 62
               7
100
AcDbCircle
 10
84.5
 20
-20.5
 30
0.0
 40
2.75
  0
ARC
  5
121
100
AcDbEntity
  8
0
  6
CONTINUOUS
 62
               7
100
AcDbCircle
 10
69.499984741210937
 20
-89.5
 30
0.0
 40
0.5
100
AcDbArc
 50
180.0000359721783
 51
269.99996334457541
  0
ARC
  5
122
100
AcDbEntity
  8
0
  6
CONTINUOUS
 62
               7
100
AcDbCircle
 10
86.499984741210937
 20
-89.500015258789063
 30
0.0
 40
0.5
100
AcDbArc
 50
270.00001798608872
 51
0.00001366037834
  0
CIRCLE
  5
123
100
AcDbEntity
  8
0
  6
CONTINUOUS
 62
               7
100
AcDbCircle
 10
84.499984741210938
 20
-62.5
 30
0.0
 40
2.75
  0
CIRCLE
  5
124
100
AcDbEntity
  8
0
  6
CONTINUOUS
 62
               7
100
AcDbCircle
 10
71.5
 20
-60.5
 30
0.0
 40
2.75
  0
CIRCLE
  5
125
100
AcDbEntity
  8
0
  6
CONTINUOUS
 62
               7
100
AcDbCircle
 10
77.999992370605469
 20
-75.000015258789063
 30
0.0
 40
2.0
  0
CIRCLE
  5
126
100
AcDbEntity
  8
0
  6
CONTINUOUS
 62
               7
100
AcDbCircle
 10
77.999992370605469
 20
-75.000015258789063
 30
0.0
 40
1.9499998092651367
  0
ARC
  5
127
100
AcDbEntity
  8
0
  6
CONTINUOUS
 62
               7
100
AcDbCircle
 10
78.099985122680664
 20
6.1999969482421875
 30
0.0
 40
3.0
100
AcDbArc
 50
268.089805320533
 51
0.0
  0
ARC
  5
128
100
AcDbEntity
  8
0
  6
CONTINUOUS
 62
               7
100
AcDbCircle
 10
77.999984741210937
 20
6.1999969482421875
 30
0.0
 40
3.0
100
AcDbArc
 50
266.17746163595609
 51
3.822566595416411
  0
ARC
  5
129
100
AcDbEntity
  8
0
  6
CONTINUOUS
 62
               7
100
AcDbCircle
 10
77.899984359741211
 20
6.1999969482421875
 30
0.0
 40
3.0
100
AcDbArc
 50
271.91023065164455
 51
0.0
  0
ARC
  5
12A
100
AcDbEntity
  8
0
  6
CONTINUOUS
 62
               7
100
AcDbCircle
 10
84.000030517578125
 20
-0.9999542236328125
 30
0.0
 40
2.5000734329223633
100
AcDbArc
 50
191.53802865027069
 51
319.45890333229545
  0
CIRCLE
  5
12B
100
AcDbEntity
  8
0
  6
CONTINUOUS
 62
               7
100
AcDbCircle
 10
84.499984741210938
 20
-20.500015258789063
 30
0.0
 40
2.9499998092651367
  0
CIRCLE
  5
12C
100
AcDbEntity
  8
0
  6
CONTINUOUS
 62
               7
100
AcDbCircle
 10
71.5
 20
-60.499984741210937
 30
0.0
 40
2.9499998092651367
  0
LINE
  5
12D
100
AcDbEntity
  8
0
  6
CONTINUOUS
 62
               7
100
AcDbLine
 10
75.49998664855957
 20
-75.000015258789063
 30
0.0
 11
74.49998664855957
 21
-75.000015258789063
 31
0.0
  0
LINE
  5
12E
100
AcDbEntity
  8
0
  6
CONTINUOUS
 62
               7
100
AcDbLine
 10
77.99998446974314
 20
-72.000011808492673
 30
0.0
 11
76.999982416802595
 21
-71.73206194031718
 31
0.0
  0
LINE
  5
12F
100
AcDbEntity
  8
0
  6
CONTINUOUS
 62
               7
100
AcDbLine
 10
77.999993324279785
 20
-71.500015258789063
 30
0.0
 11
77.999993324279785
 21
-72.500015258789063
 31
0.0
  0
ARC
  5
130
100
AcDbEntity
  8
0
  6
CONTINUOUS
 62
               7
100
AcDbCircle
 10
77.899986267089844
 20
-75.000015258789063
 30
0.0
 40
3.0
100
AcDbArc
 50
88.08976934835465
 51
179.99996402782091
  0
ARC
  5
131
100
AcDbEntity
  8
0
  6
CONTINUOUS
 62
               7
100
AcDbCircle
 10
77.99998664855957
 20
-75.000015258789063
 30
0.0
 40
3.0
100
AcDbArc
 50
86.177425663777811
 51
183.82257501946691
  0
ARC
  5
132
100
AcDbEntity
  8
0
  6
CONTINUOUS
 62
               7
100
AcDbCircle
 10
78.09998607635498
 20
-75.000015258789063
 30
0.0
 40
3.0
100
AcDbArc
 50
91.910194679466258
 51
179.99996402782091
  0
LINE
  5
133
100
AcDbEntity
  8
0
  6
CONTINUOUS
 62
               7
100
AcDbLine
 10
83.5
 20
41.0
 30
0.0
 11
87.5
 21
41.0
 31
0.0
  0
LINE
  5
134
100
AcDbEntity
  8
0
  6
CONTINUOUS
 62
               7
100
AcDbLine
 10
68.5
 20
41.0
 30
0.0
 11
72.5
 21
41.0
 31
0.0
  0
LINE
  5
135
100
AcDbEntity
  8
0
  6
CONTINUOUS
 62
               7
100
AcDbLine
 10
83.5
 20
41.0
 30
0.0
 11
83.5
 21
42.5
 31
0.0
  0
LINE
  5
136
100
AcDbEntity
  8
0
  6
CONTINUOUS
 62
               7
100
AcDbLine
 10
72.5
 20
41.0
 30
0.0
 11
72.5
 21
42.5
 31
0.0
  0
LINE
  5
137
100
AcDbEntity
  8
0
  6
CONTINUOUS
 62
               4
100
AcDbLine
 10
86.999984741210938
 20
-98.20002650288086
 30
0.0
 11
86.999984741210938
 21
-79.500026702880859
 31
0.0
  0
LINE
  5
138
100
AcDbEntity
  8
0
  6
CONTINUOUS
 62
               4
100
AcDbLine
 10
68.999984741210937
 20
-98.200026702880848
 30
0.0
 11
68.999984741210937
 21
-87.003321102880847
 31
0.0
  0
LINE
  5
139
100
AcDbEntity
  8
0
  6
CONTINUOUS
 62
               4
100
AcDbLine
 10
68.999984741210937
 20
-98.20002650288086
 30
0.0
 11
86.999984741210938
 21
-98.20002650288086
 31
0.0
  0
LINE
  5
13A
100
AcDbEntity
  8
0
  6
CONTINUOUS
 62
               4
100
AcDbLine
 10
86.999984741210938
 20
-103.30002670288087
 30
0.0
 11
68.999984741210937
 21
-103.30002670288087
 31
0.0
  0
LINE
  5
13B
100
AcDbEntity
  8
0
  6
CONTINUOUS
 62
               4
100
AcDbLine
 10
86.999984741210938
 20
-104.50002670288086
 30
0.0
 11
68.999984741210937
 21
-104.50002670288086
 31
0.0
  0
LINE
  5
13C
100
AcDbEntity
  8
0
  6
CONTINUOUS
 62
               4
100
AcDbLine
 10
86.999984741210938
 20
-106.86493970288086
 30
0.0
 11
68.999984741210937
 21
-106.86493970288086
 31
0.0
  0
LINE
  5
13D
100
AcDbEntity
  8
0
  6
CONTINUOUS
 62
               4
100
AcDbLine
 10
86.24639434121093
 20
-107.30002570288087
 30
0.0
 11
69.753575141210945
 21
-107.30002570288087
 31
0.0
  0
LINE
  5
13E
100
AcDbEntity
  8
0
  6
CONTINUOUS
 62
               4
100
AcDbLine
 10
85.099984741210932
 20
-108.90002670288087
 30
0.0
 11
70.899984741210915
 21
-108.90002670288087
 31
0.0
  0
LINE
  5
13F
100
AcDbEntity
  8
0
  6
CONTINUOUS
 62
               4
100
AcDbLine
 10
71.999984741210937
 20
-109.40002670288087
 30
0.0
 11
71.999984741210937
 21
-109.00002670288086
 31
0.0
  0
LINE
  5
140
100
AcDbEntity
  8
0
  6
CONTINUOUS
 62
               4
100
AcDbLine
 10
86.999984741210938
 20
-98.600026302880849
 30
0.0
 11
68.999984741210937
 21
-98.600026302880849
 31
0.0
  0
LINE
  5
141
100
AcDbEntity
  8
0
  6
CONTINUOUS
 62
               4
100
AcDbLine
 10
69.199984741210926
 20
-98.400026702880865
 30
0.0
 11
68.999984741210937
 21
-98.20002650288086
 31
0.0
  0
LINE
  5
142
100
AcDbEntity
  8
0
  6
CONTINUOUS
 62
               4
100
AcDbLine
 10
86.299984741210949
 20
-104.30002670288087
 30
0.0
 11
86.299984741210949
 21
-103.40002670288087
 31
0.0
  0
LINE
  5
143
100
AcDbEntity
  8
0
  6
CONTINUOUS
 62
               4
100
AcDbLine
 10
69.699984741210926
 20
-104.30002670288087
 30
0.0
 11
69.699984741210926
 21
-103.40002670288087
 31
0.0
  0
LINE
  5
144
100
AcDbEntity
  8
0
  6
CONTINUOUS
 62
               4
100
AcDbLine
 10
86.799984741210949
 20
-98.400026702880865
 30
0.0
 11
86.999984741210938
 21
-98.20002650288086
 31
0.0
  0
LINE
  5
145
100
AcDbEntity
  8
0
  6
CONTINUOUS
 62
               4
100
AcDbLine
 10
86.999984741210938
 20
-103.30002670288087
 30
0.0
 11
86.899984741210943
 21
-103.40002670288087
 31
0.0
  0
LINE
  5
146
100
AcDbEntity
  8
0
  6
CONTINUOUS
 62
               4
100
AcDbLine
 10
68.999984741210937
 20
-103.30002670288087
 30
0.0
 11
69.099984741210932
 21
-103.40002670288087
 31
0.0
  0
LINE
  5
147
100
AcDbEntity
  8
0
  6
CONTINUOUS
 62
               4
100
AcDbLine
 10
86.799984741210949
 20
-98.400026102880872
 30
0.0
 11
86.999984741210938
 21
-98.600026302880849
 31
0.0
  0
LINE
  5
148
100
AcDbEntity
  8
0
  6
CONTINUOUS
 62
               4
100
AcDbLine
 10
86.999984741210938
 20
-103.30002670288087
 30
0.0
 11
86.999984741210938
 21
-98.600026302880849
 31
0.0
  0
LINE
  5
149
100
AcDbEntity
  8
0
  6
CONTINUOUS
 62
               4
100
AcDbLine
 10
68.999984741210937
 20
-103.30002670288087
 30
0.0
 11
68.999984741210937
 21
-98.600026302880849
 31
0.0
  0
LINE
  5
14A
100
AcDbEntity
  8
0
  6
CONTINUOUS
 62
               4
100
AcDbLine
 10
86.799984741210949
 20
-98.40002630288086
 30
0.0
 11
69.199984741210926
 21
-98.40002630288086
 31
0.0
  0
LINE
  5
14B
100
AcDbEntity
  8
0
  6
CONTINUOUS
 62
               4
100
AcDbLine
 10
69.199984741210926
 20
-98.400026102880872
 30
0.0
 11
68.999984741210937
 21
-98.600026302880849
 31
0.0
  0
LINE
  5
14C
100
AcDbEntity
  8
0
  6
CONTINUOUS
 62
               4
100
AcDbLine
 10
86.999984741210938
 20
-106.86494070288086
 30
0.0
 11
86.999984741210938
 21
-104.50002670288086
 31
0.0
  0
LINE
  5
14D
100
AcDbEntity
  8
0
  6
CONTINUOUS
 62
               4
100
AcDbLine
 10
69.199984741210926
 20
-104.30002670288087
 30
0.0
 11
68.999984741210937
 21
-104.50002670288086
 31
0.0
  0
LINE
  5
14E
100
AcDbEntity
  8
0
  6
CONTINUOUS
 62
               4
100
AcDbLine
 10
68.999984741210937
 20
-106.86494070288086
 30
0.0
 11
68.999984741210937
 21
-104.50002670288086
 31
0.0
  0
LINE
  5
14F
100
AcDbEntity
  8
0
  6
CONTINUOUS
 62
               4
100
AcDbLine
 10
69.199984741210926
 20
-104.30002670288087
 30
0.0
 11
86.799984741210949
 21
-104.30002670288087
 31
0.0
  0
LINE
  5
150
100
AcDbEntity
  8
0
  6
CONTINUOUS
 62
               4
100
AcDbLine
 10
86.24639434121093
 20
-107.30002570288087
 30
0.0
 11
85.899983941210934
 21
-107.90002570288087
 31
0.0
  0
LINE
  5
151
100
AcDbEntity
  8
0
  6
CONTINUOUS
 62
               4
100
AcDbLine
 10
69.753575141210945
 20
-107.30002570288087
 30
0.0
 11
70.099985541210913
 21
-107.90002570288087
 31
0.0
  0
LINE
  5
152
100
AcDbEntity
  8
0
  6
CONTINUOUS
 62
               4
100
AcDbLine
 10
68.999984741210937
 20
-106.86493970288086
 30
0.0
 11
69.753575141210945
 21
-107.30002570288087
 31
0.0
  0
LINE
  5
153
100
AcDbEntity
  8
0
  6
CONTINUOUS
 62
               4
100
AcDbLine
 10
86.999984741210938
 20
-106.86493970288086
 30
0.0
 11
86.24639434121093
 21
-107.30002570288087
 31
0.0
  0
LINE
  5
154
100
AcDbEntity
  8
0
  6
CONTINUOUS
 62
               4
100
AcDbLine
 10
86.799984741210949
 20
-104.30002670288087
 30
0.0
 11
86.999984741210938
 21
-104.50002670288086
 31
0.0
  0
LINE
  5
155
100
AcDbEntity
  8
0
  6
CONTINUOUS
 62
               4
100
AcDbLine
 10
85.899984741210943
 20
-107.90002570288087
 30
0.0
 11
70.099985541210913
 21
-107.90002570288087
 31
0.0
  0
LINE
  5
156
100
AcDbEntity
  8
0
  6
CONTINUOUS
 62
               4
100
AcDbLine
 10
69.099984741210932
 20
-103.40002670288087
 30
0.0
 11
86.899984741210943
 21
-103.40002670288087
 31
0.0
  0
LINE
  5
157
100
AcDbEntity
  8
0
  6
CONTINUOUS
 62
               4
100
AcDbLine
 10
85.099984741210932
 20
-108.90002670288087
 30
0.0
 11
85.099984741210932
 21
-107.90002570288087
 31
0.0
  0
LINE
  5
158
100
AcDbEntity
  8
0
  6
CONTINUOUS
 62
               4
100
AcDbLine
 10
84.999984741210937
 20
-109.00002670288086
 30
0.0
 11
70.999984741210938
 21
-109.00002670288086
 31
0.0
  0
LINE
  5
159
100
AcDbEntity
  8
0
  6
CONTINUOUS
 62
               4
100
AcDbLine
 10
84.999984741210937
 20
-109.00002670288086
 30
0.0
 11
85.099984741210932
 21
-108.90002670288087
 31
0.0
  0
LINE
  5
15A
100
AcDbEntity
  8
0
  6
CONTINUOUS
 62
               4
100
AcDbLine
 10
70.999984741210938
 20
-109.00002670288086
 30
0.0
 11
70.899984741210915
 21
-108.90002670288087
 31
0.0
  0
LINE
  5
15B
100
AcDbEntity
  8
0
  6
CONTINUOUS
 62
               4
100
AcDbLine
 10
70.899984741210915
 20
-108.90002670288087
 30
0.0
 11
70.899984741210915
 21
-107.90002570288087
 31
0.0
  0
LINE
  5
15C
100
AcDbEntity
  8
0
  6
CONTINUOUS
 62
               4
100
AcDbLine
 10
83.999984741210938
 20
-109.40002670288087
 30
0.0
 11
83.999984741210938
 21
-109.00002670288086
 31
0.0
  0
LINE
  5
15D
100
AcDbEntity
  8
0
  6
CONTINUOUS
 62
               4
100
AcDbLine
 10
86.399984741210943
 20
-110.80070770288086
 30
0.0
 11
86.399984741210943
 21
-109.90002670288087
 31
0.0
  0
LINE
  5
15E
100
AcDbEntity
  8
0
  6
CONTINUOUS
 62
               4
100
AcDbLine
 10
69.599984741210932
 20
-109.90002670288087
 30
0.0
 11
86.399984741210943
 21
-109.90002670288087
 31
0.0
  0
LINE
  5
15F
100
AcDbEntity
  8
0
  6
CONTINUOUS
 62
               4
100
AcDbLine
 10
86.099984741210932
 20
-111.10002670288085
 30
0.0
 11
69.899984741210915
 21
-111.10002670288085
 31
0.0
  0
LINE
  5
160
100
AcDbEntity
  8
0
  6
CONTINUOUS
 62
               4
100
AcDbLine
 10
69.599984741210932
 20
-110.80070770288086
 30
0.0
 11
69.599984741210932
 21
-109.90002670288087
 31
0.0
  0
ARC
  5
161
100
AcDbEntity
  8
0
  6
CONTINUOUS
 62
               4
100
AcDbCircle
 10
71.499984741210938
 20
-109.40002670288087
 30
0.0
 40
0.5
100
AcDbArc
 50
269.99999999999937
 51
0.0000000000002036
  0
ARC
  5
162
100
AcDbEntity
  8
0
  6
CONTINUOUS
 62
               4
100
AcDbCircle
 10
86.099984741210932
 20
-110.80002670288087
 30
0.0
 40
0.3
100
AcDbArc
 50
269.99999999999937
 51
0.0000000000002036
  0
ARC
  5
163
100
AcDbEntity
  8
0
  6
CONTINUOUS
 62
               4
100
AcDbCircle
 10
84.499984741210938
 20
-109.40002670288087
 30
0.0
 40
0.5
100
AcDbArc
 50
180.0000000000002
 51
270.00000000000023
  0
ARC
  5
164
100
AcDbEntity
  8
0
  6
CONTINUOUS
 62
               4
100
AcDbCircle
 10
69.899984741210915
 20
-110.80002670288087
 30
0.0
 40
0.3
100
AcDbArc
 50
180.0000000000002
 51
270.00000000000023
  0
LINE
  5
165
100
AcDbEntity
  8
0
  6
CONTINUOUS
 62
               4
100
AcDbLine
 10
31.0
 20
-98.20002650288086
 30
0.0
 11
49.0
 21
-98.20002650288086
 31
0.0
  0
LINE
  5
166
100
AcDbEntity
  8
0
  6
CONTINUOUS
 62
               4
100
AcDbLine
 10
49.0
 20
-103.30002670288087
 30
0.0
 11
31.0
 21
-103.30002670288087
 31
0.0
  0
LINE
  5
167
100
AcDbEntity
  8
0
  6
CONTINUOUS
 62
               4
100
AcDbLine
 10
49.0
 20
-104.50002670288086
 30
0.0
 11
31.0
 21
-104.50002670288086
 31
0.0
  0
LINE
  5
168
100
AcDbEntity
  8
0
  6
CONTINUOUS
 62
               4
100
AcDbLine
 10
49.0
 20
-106.86493970288086
 30
0.0
 11
31.0
 21
-106.86493970288086
 31
0.0
  0
LINE
  5
169
100
AcDbEntity
  8
0
  6
CONTINUOUS
 62
               4
100
AcDbLine
 10
48.246409600000007
 20
-107.30002570288087
 30
0.0
 11
31.753590399999993
 21
-107.30002570288087
 31
0.0
  0
LINE
  5
16A
100
AcDbEntity
  8
0
  6
CONTINUOUS
 62
               4
100
AcDbLine
 10
47.099999999999994
 20
-108.90002670288087
 30
0.0
 11
32.899999999999991
 21
-108.90002670288087
 31
0.0
  0
LINE
  5
16B
100
AcDbEntity
  8
0
  6
CONTINUOUS
 62
               4
100
AcDbLine
 10
34.0
 20
-109.40002670288087
 30
0.0
 11
34.0
 21
-109.00002670288086
 31
0.0
  0
LINE
  5
16C
100
AcDbEntity
  8
0
  6
CONTINUOUS
 62
               4
100
AcDbLine
 10
49.0
 20
-98.600026302880849
 30
0.0
 11
31.0
 21
-98.600026302880849
 31
0.0
  0
LINE
  5
16D
100
AcDbEntity
  8
0
  6
CONTINUOUS
 62
               4
100
AcDbLine
 10
31.199999999999989
 20
-98.400026702880865
 30
0.0
 11
31.0
 21
-98.20002650288086
 31
0.0
  0
LINE
  5
16E
100
AcDbEntity
  8
0
  6
CONTINUOUS
 62
               4
100
AcDbLine
 10
48.299999999999997
 20
-104.30002670288087
 30
0.0
 11
48.299999999999997
 21
-103.40002670288087
 31
0.0
  0
LINE
  5
16F
100
AcDbEntity
  8
0
  6
CONTINUOUS
 62
               4
100
AcDbLine
 10
31.699999999999989
 20
-104.30002670288087
 30
0.0
 11
31.699999999999989
 21
-103.40002670288087
 31
0.0
  0
LINE
  5
170
100
AcDbEntity
  8
0
  6
CONTINUOUS
 62
               4
100
AcDbLine
 10
48.799999999999997
 20
-98.400026702880865
 30
0.0
 11
49.0
 21
-98.20002650288086
 31
0.0
  0
LINE
  5
171
100
AcDbEntity
  8
0
  6
CONTINUOUS
 62
               4
100
AcDbLine
 10
49.0
 20
-103.30002670288087
 30
0.0
 11
48.900000000000006
 21
-103.40002670288087
 31
0.0
  0
LINE
  5
172
100
AcDbEntity
  8
0
  6
CONTINUOUS
 62
               4
100
AcDbLine
 10
31.0
 20
-103.30002670288087
 30
0.0
 11
31.099999999999994
 21
-103.40002670288087
 31
0.0
  0
LINE
  5
173
100
AcDbEntity
  8
0
  6
CONTINUOUS
 62
               4
100
AcDbLine
 10
48.799999999999997
 20
-98.400026102880872
 30
0.0
 11
49.0
 21
-98.600026302880849
 31
0.0
  0
LINE
  5
174
100
AcDbEntity
  8
0
  6
CONTINUOUS
 62
               4
100
AcDbLine
 10
49.0
 20
-103.30002670288087
 30
0.0
 11
49.0
 21
-98.600026302880849
 31
0.0
  0
LINE
  5
175
100
AcDbEntity
  8
0
  6
CONTINUOUS
 62
               4
100
AcDbLine
 10
31.0
 20
-103.30002670288087
 30
0.0
 11
31.0
 21
-98.600026302880849
 31
0.0
  0
LINE
  5
176
100
AcDbEntity
  8
0
  6
CONTINUOUS
 62
               4
100
AcDbLine
 10
48.799999999999997
 20
-98.40002630288086
 30
0.0
 11
31.199999999999989
 21
-98.40002630288086
 31
0.0
  0
LINE
  5
177
100
AcDbEntity
  8
0
  6
CONTINUOUS
 62
               4
100
AcDbLine
 10
31.199999999999989
 20
-98.400026102880872
 30
0.0
 11
31.0
 21
-98.600026302880849
 31
0.0
  0
LINE
  5
178
100
AcDbEntity
  8
0
  6
CONTINUOUS
 62
               4
100
AcDbLine
 10
49.0
 20
-106.86494070288086
 30
0.0
 11
49.0
 21
-104.50002670288086
 31
0.0
  0
LINE
  5
179
100
AcDbEntity
  8
0
  6
CONTINUOUS
 62
               4
100
AcDbLine
 10
31.199999999999989
 20
-104.30002670288087
 30
0.0
 11
31.0
 21
-104.50002670288086
 31
0.0
  0
LINE
  5
17A
100
AcDbEntity
  8
0
  6
CONTINUOUS
 62
               4
100
AcDbLine
 10
31.0
 20
-106.86494070288086
 30
0.0
 11
31.0
 21
-104.50002670288086
 31
0.0
  0
LINE
  5
17B
100
AcDbEntity
  8
0
  6
CONTINUOUS
 62
               4
100
AcDbLine
 10
31.199999999999989
 20
-104.30002670288087
 30
0.0
 11
48.799999999999997
 21
-104.30002670288087
 31
0.0
  0
LINE
  5
17C
100
AcDbEntity
  8
0
  6
CONTINUOUS
 62
               4
100
AcDbLine
 10
48.246409600000007
 20
-107.30002570288087
 30
0.0
 11
47.899999199999996
 21
-107.90002570288087
 31
0.0
  0
LINE
  5
17D
100
AcDbEntity
  8
0
  6
CONTINUOUS
 62
               4
100
AcDbLine
 10
31.753590399999993
 20
-107.30002570288087
 30
0.0
 11
32.100000799999989
 21
-107.90002570288087
 31
0.0
  0
LINE
  5
17E
100
AcDbEntity
  8
0
  6
CONTINUOUS
 62
               4
100
AcDbLine
 10
31.0
 20
-106.86493970288086
 30
0.0
 11
31.753590399999993
 21
-107.30002570288087
 31
0.0
  0
LINE
  5
17F
100
AcDbEntity
  8
0
  6
CONTINUOUS
 62
               4
100
AcDbLine
 10
49.0
 20
-106.86493970288086
 30
0.0
 11
48.246409600000007
 21
-107.30002570288087
 31
0.0
  0
LINE
  5
180
100
AcDbEntity
  8
0
  6
CONTINUOUS
 62
               4
100
AcDbLine
 10
48.799999999999997
 20
-104.30002670288087
 30
0.0
 11
49.0
 21
-104.50002670288086
 31
0.0
  0
LINE
  5
181
100
AcDbEntity
  8
0
  6
CONTINUOUS
 62
               4
100
AcDbLine
 10
47.900000000000006
 20
-107.90002570288087
 30
0.0
 11
32.100000799999989
 21
-107.90002570288087
 31
0.0
  0
LINE
  5
182
100
AcDbEntity
  8
0
  6
CONTINUOUS
 62
               4
100
AcDbLine
 10
31.099999999999994
 20
-103.40002670288087
 30
0.0
 11
48.900000000000006
 21
-103.40002670288087
 31
0.0
  0
LINE
  5
183
100
AcDbEntity
  8
0
  6
CONTINUOUS
 62
               4
100
AcDbLine
 10
47.099999999999994
 20
-108.90002670288087
 30
0.0
 11
47.099999999999994
 21
-107.90002570288087
 31
0.0
  0
LINE
  5
184
100
AcDbEntity
  8
0
  6
CONTINUOUS
 62
               4
100
AcDbLine
 10
47.0
 20
-109.00002670288086
 30
0.0
 11
33.0
 21
-109.00002670288086
 31
0.0
  0
LINE
  5
185
100
AcDbEntity
  8
0
  6
CONTINUOUS
 62
               4
100
AcDbLine
 10
47.0
 20
-109.00002670288086
 30
0.0
 11
47.099999999999994
 21
-108.90002670288087
 31
0.0
  0
LINE
  5
186
100
AcDbEntity
  8
0
  6
CONTINUOUS
 62
               4
100
AcDbLine
 10
33.0
 20
-109.00002670288086
 30
0.0
 11
32.899999999999991
 21
-108.90002670288087
 31
0.0
  0
LINE
  5
187
100
AcDbEntity
  8
0
  6
CONTINUOUS
 62
               4
100
AcDbLine
 10
32.899999999999991
 20
-108.90002670288087
 30
0.0
 11
32.899999999999991
 21
-107.90002570288087
 31
0.0
  0
LINE
  5
188
100
AcDbEntity
  8
0
  6
CONTINUOUS
 62
               4
100
AcDbLine
 10
46.0
 20
-109.40002670288087
 30
0.0
 11
46.0
 21
-109.00002670288086
 31
0.0
  0
LINE
  5
189
100
AcDbEntity
  8
0
  6
CONTINUOUS
 62
               4
100
AcDbLine
 10
48.400000000000006
 20
-110.80070770288086
 30
0.0
 11
48.400000000000006
 21
-109.90002670288087
 31
0.0
  0
LINE
  5
18A
100
AcDbEntity
  8
0
  6
CONTINUOUS
 62
               4
100
AcDbLine
 10
31.599999999999994
 20
-109.90002670288087
 30
0.0
 11
48.400000000000006
 21
-109.90002670288087
 31
0.0
  0
LINE
  5
18B
100
AcDbEntity
  8
0
  6
CONTINUOUS
 62
               4
100
AcDbLine
 10
48.099999999999994
 20
-111.10002670288085
 30
0.0
 11
31.899999999999991
 21
-111.10002670288085
 31
0.0
  0
LINE
  5
18C
100
AcDbEntity
  8
0
  6
CONTINUOUS
 62
               4
100
AcDbLine
 10
31.599999999999994
 20
-110.80070770288086
 30
0.0
 11
31.599999999999994
 21
-109.90002670288087
 31
0.0
  0
ARC
  5
18D
100
AcDbEntity
  8
0
  6
CONTINUOUS
 62
               4
100
AcDbCircle
 10
33.5
 20
-109.40002670288087
 30
0.0
 40
0.5
100
AcDbArc
 50
269.99999999999937
 51
0.0000000000002036
  0
ARC
  5
18E
100
AcDbEntity
  8
0
  6
CONTINUOUS
 62
               4
100
AcDbCircle
 10
48.099999999999994
 20
-110.80002670288087
 30
0.0
 40
0.3
100
AcDbArc
 50
269.99999999999937
 51
0.0000000000002036
  0
ARC
  5
18F
100
AcDbEntity
  8
0
  6
CONTINUOUS
 62
               4
100
AcDbCircle
 10
46.5
 20
-109.40002670288087
 30
0.0
 40
0.5
100
AcDbArc
 50
180.0000000000002
 51
270.00000000000023
  0
ARC
  5
190
100
AcDbEntity
  8
0
  6
CONTINUOUS
 62
               4
100
AcDbCircle
 10
31.899999999999991
 20
-110.80002670288087
 30
0.0
 40
0.3
100
AcDbArc
 50
180.0000000000002
 51
270.00000000000023
  0
LINE
  5
191
100
AcDbEntity
  8
0
  6
CONTINUOUS
 62
               4
100
AcDbLine
 10
31.0
 20
-98.200026702880848
 30
0.0
 11
31.0
 21
-87.003321102880847
 31
0.0
  0
LINE
  5
192
100
AcDbEntity
  8
0
  6
CONTINUOUS
 62
               4
100
AcDbLine
 10
49.0
 20
-98.20002650288086
 30
0.0
 11
49.0
 21
-89.500015139579773
 31
0.0
  0
LINE
  5
193
100
AcDbEntity
  8
0
  6
CONTINUOUS
 62
               4
100
AcDbLine
 10
88.0
 20
-87.00330965878905
 30
0.0
 11
88.0
 21
-83.900007645289094
 31
0.0
  0
ARC
  5
194
100
AcDbEntity
  8
0
  6
CONTINUOUS
 62
               4
100
AcDbCircle
 10
91.699999988079071
 20
-83.000007629394531
 30
0.0
 40
1.5
100
AcDbArc
 50
269.99998633962105
 51
0.0
  0
ARC
  5
195
100
AcDbEntity
  8
0
  6
CONTINUOUS
 62
               4
100
AcDbCircle
 10
89.199999988079071
 20
-83.000007629394531
 30
0.0
 40
1.5
100
AcDbArc
 50
180.00001798608895
 51
269.99998633962105
  0
LINE
  5
196
100
AcDbEntity
  8
0
  6
CONTINUOUS
 62
               4
100
AcDbLine
 10
93.5
 20
-84.714634258789062
 30
0.0
 11
93.5
 21
-82.500015258789063
 31
0.0
  0
SPLINE
  5
197
100
AcDbEntity
  8
0
  6
CONTINUOUS
 62
               4
100
AcDbSpline
210
0.0
220
0.0
230
1.0
 70
               0
 71
               3
 72
               0
 73
               0
 74
              41
 44
0.000001
 12
-0.9936236052884185
 22
-0.1127480865187748
 32
0.0
 13
0.7599872673059155
 23
-0.6499379612954508
 33
0.0
 11
103.5
 21
-84.405275258789061
 31
0.0
 11
103.31640499118264
 21
-84.42813089700357
 31
0.0
 11
103.13333131935754
 21
-84.45490304709918
 31
0.0
 11
102.95080893667426
 21
-84.485486993893588
 31
0.0
 11
102.7689431764453
 21
-84.5197661653024
 31
0.0
 11
102.55933737594134
 21
-84.564006610915214
 31
0.0
 11
102.3508931210559
 21
-84.613426717858019
 31
0.0
 11
102.14384050894395
 21
-84.668395608097256
 31
0.0
 11
101.93844198690863
 21
-84.729265920588716
 31
0.0
 11
101.76469404999804
 21
-84.786255336421306
 31
0.0
 11
101.59282147380644
 21
-84.848646166047061
 31
0.0
 11
101.42332825032119
 21
-84.917266282051841
 31
0.0
 11
101.25682075198142
 21
-84.992871723623949
 31
0.0
 11
101.11534147612095
 21
-85.064954388416965
 31
0.0
 11
100.97797992082457
 21
-85.144591971226305
 31
0.0
 11
100.84602914559265
 21
-85.233532465354187
 31
0.0
 11
100.72165973929557
 21
-85.332716242150283
 31
0.0
 11
100.65312570761174
 21
-85.396290735382692
 31
0.0
 11
100.58945392786782
 21
-85.46474456660529
 31
0.0
 11
100.53286304885427
 21
-85.538183678909348
 31
0.0
 11
100.48500213054839
 21
-85.617454351597928
 31
0.0
 11
100.45008217054409
 21
-85.696220929162891
 31
0.0
 11
100.42448431985534
 21
-85.778584474212835
 31
0.0
 11
100.40780168670382
 21
-85.863679420255352
 31
0.0
 11
100.40000000000001
 21
-85.950015258789065
 31
0.0
 11
100.40436701720837
 21
-86.081514823903632
 31
0.0
 11
100.42608496407337
 21
-86.211474894897407
 31
0.0
 11
100.46279529195806
 21
-86.338593607694293
 31
0.0
 11
100.51199661782618
 21
-86.461385242259055
 31
0.0
 11
100.56984718661482
 21
-86.576395116067118
 31
0.0
 11
100.63634647407483
 21
-86.686607940435067
 31
0.0
 11
100.71031353761332
 21
-86.791465304361196
 31
0.0
 11
100.7909687046627
 21
-86.891276654761214
 31
0.0
 11
100.87547439013576
 21
-86.984145344591411
 31
0.0
 11
100.96470956168575
 21
-87.072480826750748
 31
0.0
 11
101.05801601257284
 21
-87.156630057198228
 31
0.0
 11
101.15467384156275
 21
-87.236884183935359
 31
0.0
 11
101.23873252207794
 21
-87.302461595128648
 31
0.0
 11
101.32351577400495
 21
-87.367132331589076
 31
0.0
 11
101.40768298090693
 21
-87.432440775052726
 31
0.0
 11
101.49000000000001
 21
-87.500015258789063
 31
0.0
  0
SPLINE
  5
198
100
AcDbEntity
  8
0
  6
CONTINUOUS
 62
               4
100
AcDbSpline
210
0.0
220
0.0
230
1.0
 70
               0
 71
               3
 72
               0
 73
               0
 74
              37
 44
0.000001
 12
0.9881349170157096
 22
0.1535883647102109
 32
0.0
 13
0.2801395722747448
 23
0.9599592804102282
 33
0.0
 11
90.5
 21
-86.714634258789062
 31
0.0
 11
90.630239857734423
 21
-86.692766845728443
 31
0.0
 11
90.759917355823774
 21
-86.667734132247944
 31
0.0
 11
90.88896516602253
 21
-86.639536847894064
 31
0.0
 11
91.017277805232595
 21
-86.608181289159887
 31
0.0
 11
91.1139410460204
 21
-86.582330321299253
 31
0.0
 11
91.210106866670969
 21
-86.554689904579021
 31
0.0
 11
91.305743296018903
 21
-86.525283434832829
 31
0.0
 11
91.400827259321602
 21
-86.49413255191034
 31
0.0
 11
91.518053363665487
 21
-86.453052238565832
 31
0.0
 11
91.634297820893096
 21
-86.409268317914538
 31
0.0
 11
91.749473434850614
 21
-86.362729433667013
 31
0.0
 11
91.863476501407973
 21
-86.313390714188714
 31
0.0
 11
91.962624520774824
 21
-86.267671447932614
 31
0.0
 11
92.06069560632821
 21
-86.219686835634405
 31
0.0
 11
92.157582309301603
 21
-86.169377370992663
 31
0.0
 11
92.253188844326104
 21
-86.116677688154411
 31
0.0
 11
92.331968774777465
 21
-86.070789293091309
 31
0.0
 11
92.409694571619212
 21
-86.023139400422465
 31
0.0
 11
92.486284221429372
 21
-85.973672882260729
 31
0.0
 11
92.561640418867597
 21
-85.922345064695776
 31
0.0
 11
92.640896249164498
 21
-85.86522729096751
 31
0.0
 11
92.718462135782929
 21
-85.805834309167523
 31
0.0
 11
92.794161947774285
 21
-85.744089459021794
 31
0.0
 11
92.867815525272903
 21
-85.679919295913578
 31
0.0
 11
92.933445783207304
 21
-85.618838476440303
 31
0.0
 11
92.997026714421366
 21
-85.555628476227938
 31
0.0
 11
93.058395450086394
 21
-85.49025627495638
 31
0.0
 11
93.117367976960509
 21
-85.422713059194493
 31
0.0
 11
93.172861489249897
 21
-85.354109266726084
 31
0.0
 11
93.225550694168916
 21
-85.283329967426525
 31
0.0
 11
93.275119239846532
 21
-85.210325963076116
 31
0.0
 11
93.321226281708391
 21
-85.135090101116376
 31
0.0
 11
93.375452053566747
 21
-85.034244030466269
 31
0.0
 11
93.42330589670236
 21
-84.930188237888473
 31
0.0
 11
93.464805589275031
 21
-84.823509487346058
 31
0.0
 11
93.5
 21
-84.714634258789062
 31
0.0
  0
LINE
  5
199
100
AcDbEntity
  8
0
  6
CONTINUOUS
 62
               4
100
AcDbLine
 10
88.0
 20
-86.714634258789062
 30
0.0
 11
90.5
 21
-86.714634258789062
 31
0.0
  0
LINE
  5
19A
100
AcDbEntity
  8
0
  6
CONTINUOUS
 62
               4
100
AcDbLine
 10
91.699999630451202
 20
-84.500007629394489
 30
0.0
 11
89.199999630451202
 21
-84.500007629394489
 31
0.0
  0
LINE
  5
19B
100
AcDbEntity
  8
0
  6
CONTINUOUS
 62
               4
100
AcDbLine
 10
100.7211605
 20
-87.500015258789063
 30
0.0
 11
106.0
 21
-87.500015258789063
 31
0.0
  0
ARC
  5
19C
100
AcDbEntity
  8
0
  6
CONTINUOUS
 62
               4
100
AcDbCircle
 10
97.0
 20
-101.19053839129305
 30
0.0
 40
14.187228732503996
100
AcDbArc
 50
74.794046190114202
 51
105.2059538098855
  0
LINE
  5
19D
100
AcDbEntity
  8
0
  6
CONTINUOUS
 62
               4
100
AcDbLine
 10
88.0
 20
-87.500015258789063
 30
0.0
 11
93.278839500000004
 21
-87.500015258789063
 31
0.0
  0
ARC
  5
19E
100
AcDbEntity
  8
0
  6
CONTINUOUS
 62
               4
100
AcDbCircle
 10
88.899999999999977
 20
-110.80001525878907
 30
0.0
 40
0.3
100
AcDbArc
 50
180.0000000000002
 51
270.00000000000023
  0
ARC
  5
19F
100
AcDbEntity
  8
0
  6
CONTINUOUS
 62
               4
100
AcDbCircle
 10
103.5
 20
-109.40001525878907
 30
0.0
 40
0.5
100
AcDbArc
 50
180.0000000000002
 51
270.00000000000023
  0
ARC
  5
1A0
100
AcDbEntity
  8
0
  6
CONTINUOUS
 62
               4
100
AcDbCircle
 10
105.09999999999999
 20
-110.80001525878907
 30
0.0
 40
0.3
100
AcDbArc
 50
269.99999999999937
 51
0.0000000000002036
  0
ARC
  5
1A1
100
AcDbEntity
  8
0
  6
CONTINUOUS
 62
               4
100
AcDbCircle
 10
90.5
 20
-109.40001525878907
 30
0.0
 40
0.5
100
AcDbArc
 50
269.99999999999937
 51
0.0000000000002036
  0
LINE
  5
1A2
100
AcDbEntity
  8
0
  6
CONTINUOUS
 62
               4
100
AcDbLine
 10
88.599999999999994
 20
-110.80069625878906
 30
0.0
 11
88.599999999999994
 21
-109.90001525878907
 31
0.0
  0
LINE
  5
1A3
100
AcDbEntity
  8
0
  6
CONTINUOUS
 62
               4
100
AcDbLine
 10
105.09999999999999
 20
-111.10001525878906
 30
0.0
 11
88.899999999999977
 21
-111.10001525878906
 31
0.0
  0
LINE
  5
1A4
100
AcDbEntity
  8
0
  6
CONTINUOUS
 62
               4
100
AcDbLine
 10
88.599999999999994
 20
-109.90001525878907
 30
0.0
 11
105.40000000000001
 21
-109.90001525878907
 31
0.0
  0
LINE
  5
1A5
100
AcDbEntity
  8
0
  6
CONTINUOUS
 62
               4
100
AcDbLine
 10
105.40000000000001
 20
-110.80069625878906
 30
0.0
 11
105.40000000000001
 21
-109.90001525878907
 31
0.0
  0
LINE
  5
1A6
100
AcDbEntity
  8
0
  6
CONTINUOUS
 62
               4
100
AcDbLine
 10
103.0
 20
-109.40001525878907
 30
0.0
 11
103.0
 21
-109.00001525878906
 31
0.0
  0
LINE
  5
1A7
100
AcDbEntity
  8
0
  6
CONTINUOUS
 62
               4
100
AcDbLine
 10
89.899999999999977
 20
-108.90001525878907
 30
0.0
 11
89.899999999999977
 21
-107.90001425878907
 31
0.0
  0
LINE
  5
1A8
100
AcDbEntity
  8
0
  6
CONTINUOUS
 62
               4
100
AcDbLine
 10
90.0
 20
-109.00001525878906
 30
0.0
 11
89.899999999999977
 21
-108.90001525878907
 31
0.0
  0
LINE
  5
1A9
100
AcDbEntity
  8
0
  6
CONTINUOUS
 62
               4
100
AcDbLine
 10
104.0
 20
-109.00001525878906
 30
0.0
 11
104.09999999999999
 21
-108.90001525878907
 31
0.0
  0
LINE
  5
1AA
100
AcDbEntity
  8
0
  6
CONTINUOUS
 62
               4
100
AcDbLine
 10
104.0
 20
-109.00001525878906
 30
0.0
 11
90.0
 21
-109.00001525878906
 31
0.0
  0
LINE
  5
1AB
100
AcDbEntity
  8
0
  6
CONTINUOUS
 62
               4
100
AcDbLine
 10
104.09999999999999
 20
-108.90001525878907
 30
0.0
 11
104.09999999999999
 21
-107.90001425878907
 31
0.0
  0
LINE
  5
1AC
100
AcDbEntity
  8
0
  6
CONTINUOUS
 62
               4
100
AcDbLine
 10
88.099999999999994
 20
-103.40001525878907
 30
0.0
 11
105.90000000000001
 21
-103.40001525878907
 31
0.0
  0
LINE
  5
1AD
100
AcDbEntity
  8
0
  6
CONTINUOUS
 62
               4
100
AcDbLine
 10
104.90000000000001
 20
-107.90001425878907
 30
0.0
 11
89.100000799999975
 21
-107.90001425878907
 31
0.0
  0
LINE
  5
1AE
100
AcDbEntity
  8
0
  6
CONTINUOUS
 62
               4
100
AcDbLine
 10
105.80000000000001
 20
-104.30001525878907
 30
0.0
 11
106.0
 21
-104.50001525878906
 31
0.0
  0
LINE
  5
1AF
100
AcDbEntity
  8
0
  6
CONTINUOUS
 62
               4
100
AcDbLine
 10
106.0
 20
-106.86492825878906
 30
0.0
 11
105.24640959999999
 21
-107.30001425878908
 31
0.0
  0
LINE
  5
1B0
100
AcDbEntity
  8
0
  6
CONTINUOUS
 62
               4
100
AcDbLine
 10
88.0
 20
-106.86492825878906
 30
0.0
 11
88.753590400000007
 21
-107.30001425878908
 31
0.0
  0
LINE
  5
1B1
100
AcDbEntity
  8
0
  6
CONTINUOUS
 62
               4
100
AcDbLine
 10
88.753590400000007
 20
-107.30001425878908
 30
0.0
 11
89.100000799999975
 21
-107.90001425878907
 31
0.0
  0
LINE
  5
1B2
100
AcDbEntity
  8
0
  6
CONTINUOUS
 62
               4
100
AcDbLine
 10
105.24640959999999
 20
-107.30001425878908
 30
0.0
 11
104.8999992
 21
-107.90001425878907
 31
0.0
  0
LINE
  5
1B3
100
AcDbEntity
  8
0
  6
CONTINUOUS
 62
               4
100
AcDbLine
 10
88.199999999999989
 20
-104.30001525878907
 30
0.0
 11
105.80000000000001
 21
-104.30001525878907
 31
0.0
  0
LINE
  5
1B4
100
AcDbEntity
  8
0
  6
CONTINUOUS
 62
               4
100
AcDbLine
 10
88.0
 20
-106.86492925878906
 30
0.0
 11
88.0
 21
-104.50001525878906
 31
0.0
  0
LINE
  5
1B5
100
AcDbEntity
  8
0
  6
CONTINUOUS
 62
               4
100
AcDbLine
 10
88.199999999999989
 20
-104.30001525878907
 30
0.0
 11
88.0
 21
-104.50001525878906
 31
0.0
  0
LINE
  5
1B6
100
AcDbEntity
  8
0
  6
CONTINUOUS
 62
               4
100
AcDbLine
 10
106.0
 20
-106.86492925878906
 30
0.0
 11
106.0
 21
-104.50001525878906
 31
0.0
  0
LINE
  5
1B7
100
AcDbEntity
  8
0
  6
CONTINUOUS
 62
               4
100
AcDbLine
 10
88.199999999999989
 20
-98.400014658789075
 30
0.0
 11
88.0
 21
-98.600014858789052
 31
0.0
  0
LINE
  5
1B8
100
AcDbEntity
  8
0
  6
CONTINUOUS
 62
               4
100
AcDbLine
 10
105.80000000000001
 20
-98.400014858789064
 30
0.0
 11
88.199999999999989
 21
-98.400014858789064
 31
0.0
  0
LINE
  5
1B9
100
AcDbEntity
  8
0
  6
CONTINUOUS
 62
               4
100
AcDbLine
 10
88.0
 20
-103.30001525878907
 30
0.0
 11
88.0
 21
-98.600014858789052
 31
0.0
  0
LINE
  5
1BA
100
AcDbEntity
  8
0
  6
CONTINUOUS
 62
               4
100
AcDbLine
 10
106.0
 20
-103.30001525878907
 30
0.0
 11
106.0
 21
-98.600014858789052
 31
0.0
  0
LINE
  5
1BB
100
AcDbEntity
  8
0
  6
CONTINUOUS
 62
               4
100
AcDbLine
 10
105.80000000000001
 20
-98.400014658789075
 30
0.0
 11
106.0
 21
-98.600014858789052
 31
0.0
  0
LINE
  5
1BC
100
AcDbEntity
  8
0
  6
CONTINUOUS
 62
               4
100
AcDbLine
 10
88.0
 20
-103.30001525878907
 30
0.0
 11
88.099999999999994
 21
-103.40001525878907
 31
0.0
  0
LINE
  5
1BD
100
AcDbEntity
  8
0
  6
CONTINUOUS
 62
               4
100
AcDbLine
 10
106.0
 20
-103.30001525878907
 30
0.0
 11
105.90000000000001
 21
-103.40001525878907
 31
0.0
  0
LINE
  5
1BE
100
AcDbEntity
  8
0
  6
CONTINUOUS
 62
               4
100
AcDbLine
 10
105.80000000000001
 20
-98.400015258789068
 30
0.0
 11
106.0
 21
-98.200015058789063
 31
0.0
  0
LINE
  5
1BF
100
AcDbEntity
  8
0
  6
CONTINUOUS
 62
               4
100
AcDbLine
 10
88.699999999999989
 20
-104.30001525878907
 30
0.0
 11
88.699999999999989
 21
-103.40001525878907
 31
0.0
  0
LINE
  5
1C0
100
AcDbEntity
  8
0
  6
CONTINUOUS
 62
               4
100
AcDbLine
 10
105.30000000000001
 20
-104.30001525878907
 30
0.0
 11
105.30000000000001
 21
-103.40001525878907
 31
0.0
  0
LINE
  5
1C1
100
AcDbEntity
  8
0
  6
CONTINUOUS
 62
               4
100
AcDbLine
 10
88.199999999999989
 20
-98.400015258789068
 30
0.0
 11
88.0
 21
-98.200015058789063
 31
0.0
  0
LINE
  5
1C2
100
AcDbEntity
  8
0
  6
CONTINUOUS
 62
               4
100
AcDbLine
 10
106.0
 20
-98.600014858789052
 30
0.0
 11
88.0
 21
-98.600014858789052
 31
0.0
  0
LINE
  5
1C3
100
AcDbEntity
  8
0
  6
CONTINUOUS
 62
               4
100
AcDbLine
 10
91.0
 20
-109.40001525878907
 30
0.0
 11
91.0
 21
-109.00001525878906
 31
0.0
  0
LINE
  5
1C4
100
AcDbEntity
  8
0
  6
CONTINUOUS
 62
               4
100
AcDbLine
 10
104.09999999999999
 20
-108.90001525878907
 30
0.0
 11
89.899999999999977
 21
-108.90001525878907
 31
0.0
  0
LINE
  5
1C5
100
AcDbEntity
  8
0
  6
CONTINUOUS
 62
               4
100
AcDbLine
 10
105.24640959999999
 20
-107.30001425878908
 30
0.0
 11
88.753590400000007
 21
-107.30001425878908
 31
0.0
  0
LINE
  5
1C6
100
AcDbEntity
  8
0
  6
CONTINUOUS
 62
               4
100
AcDbLine
 10
106.0
 20
-106.86492825878906
 30
0.0
 11
88.0
 21
-106.86492825878906
 31
0.0
  0
LINE
  5
1C7
100
AcDbEntity
  8
0
  6
CONTINUOUS
 62
               4
100
AcDbLine
 10
106.0
 20
-104.50001525878906
 30
0.0
 11
88.0
 21
-104.50001525878906
 31
0.0
  0
LINE
  5
1C8
100
AcDbEntity
  8
0
  6
CONTINUOUS
 62
               4
100
AcDbLine
 10
106.0
 20
-103.30001525878907
 30
0.0
 11
88.0
 21
-103.30001525878907
 31
0.0
  0
LINE
  5
1C9
100
AcDbEntity
  8
0
  6
CONTINUOUS
 62
               4
100
AcDbLine
 10
88.0
 20
-98.200015258789051
 30
0.0
 11
88.0
 21
-87.00330965878905
 31
0.0
  0
LINE
  5
1CA
100
AcDbEntity
  8
0
  6
CONTINUOUS
 62
               4
100
AcDbLine
 10
88.0
 20
-98.200015058789063
 30
0.0
 11
106.0
 21
-98.200015058789063
 31
0.0
  0
LINE
  5
1CB
100
AcDbEntity
  8
0
  6
CONTINUOUS
 62
               4
100
AcDbLine
 10
106.0
 20
-84.405275258789061
 30
0.0
 11
103.5
 21
-84.405275258789061
 31
0.0
  0
LINE
  5
1CC
100
AcDbEntity
  8
0
  6
CONTINUOUS
 62
               4
100
AcDbLine
 10
87.699999988079071
 20
-83.000007629394531
 30
0.0
 11
87.699999988079071
 21
-82.500007629394531
 31
0.0
  0
LINE
  5
1CD
100
AcDbEntity
  8
0
  6
CONTINUOUS
 62
               4
100
AcDbLine
 10
93.199999272823334
 20
-83.000007629394531
 30
0.0
 11
93.199999272823334
 21
-82.500007629394531
 31
0.0
  0
LINE
  5
1CE
100
AcDbEntity
  8
0
  6
CONTINUOUS
 62
               4
100
AcDbLine
 10
88.0
 20
-82.500015258789063
 30
0.0
 11
88.0
 21
-79.500015258789063
 31
0.0
  0
LINE
  5
1CF
100
AcDbEntity
  8
0
  6
CONTINUOUS
 62
               4
100
AcDbLine
 10
106.0
 20
-98.200015058789063
 30
0.0
 11
106.0
 21
-79.500015258789063
 31
0.0
  0
LINE
  5
1D0
100
AcDbEntity
  8
0
  6
CONTINUOUS
 62
             200
100
AcDbLine
 10
40.0
 20
-111.84218978881836
 30
0.0
 11
40.0
 21
-90.000015258789063
 31
0.0
  0
LINE
  5
1D1
100
AcDbEntity
  8
0
  6
CONTINUOUS
 62
               7
100
AcDbLine
 10
34.5
 20
41.0
 30
0.0
 11
34.5
 21
42.5
 31
0.0
  0
LINE
  5
1D2
100
AcDbEntity
  8
0
  6
CONTINUOUS
 62
               7
100
AcDbLine
 10
45.5
 20
41.0
 30
0.0
 11
45.5
 21
42.5
 31
0.0
  0
LINE
  5
1D3
100
AcDbEntity
  8
0
  6
CONTINUOUS
 62
               7
100
AcDbLine
 10
102.5
 20
39.5
 30
0.0
 11
102.5
 21
25.5
 31
0.0
  0
LINE
  5
1D4
100
AcDbEntity
  8
0
  6
CONTINUOUS
 62
               7
100
AcDbLine
 10
91.5
 20
41.0
 30
0.0
 11
91.5
 21
42.5
 31
0.0
  0
LINE
  5
1D5
100
AcDbEntity
  8
0
  6
CONTINUOUS
 62
               7
100
AcDbLine
 10
102.5
 20
39.5
 30
0.0
 11
127.5
 21
39.5
 31
0.0
  0
LINE
  5
1D6
100
AcDbEntity
  8
0
  6
CONTINUOUS
 62
               7
100
AcDbLine
 10
102.5
 20
35.5
 30
0.0
 11
91.5
 21
35.5
 31
0.0
  0
LINE
  5
1D7
100
AcDbEntity
  8
0
  6
CONTINUOUS
 62
               7
100
AcDbLine
 10
102.5
 20
41.0
 30
0.0
 11
127.5
 21
41.0
 31
0.0
  0
LINE
  5
1D8
100
AcDbEntity
  8
0
  6
CONTINUOUS
 62
               7
100
AcDbLine
 10
87.5
 20
41.0
 30
0.0
 11
91.5
 21
41.0
 31
0.0
  0
LINE
  5
1D9
100
AcDbEntity
  8
0
  6
CONTINUOUS
 62
               7
100
AcDbLine
 10
30.5
 20
41.0
 30
0.0
 11
34.5
 21
41.0
 31
0.0
  0
LINE
  5
1DA
100
AcDbEntity
  8
0
  6
CONTINUOUS
 62
               7
100
AcDbLine
 10
45.5
 20
41.0
 30
0.0
 11
49.5
 21
41.0
 31
0.0
  0
LINE
  5
1DB
100
AcDbEntity
  8
0
  6
CONTINUOUS
 62
               4
100
AcDbLine
 10
88.0
 20
-2.4999847412109375
 30
0.0
 11
106.0
 21
-2.4999847412109375
 31
0.0
  0
LINE
  5
1DC
100
AcDbEntity
  8
0
  6
CONTINUOUS
 62
               7
100
AcDbLine
 10
87.5
 20
42.5
 30
0.0
 11
130.5
 21
42.5
 31
0.0
  0
ELLIPSE
  5
1DD
100
AcDbEntity
  8
0
  6
CONTINUOUS
 62
               7
100
AcDbEllipse
 10
110.0
 20
-77.623077392578125
 30
0.0
 11
-2.7499999999998539
 21
0.0000008960637956
 31
0.0
210
0.0
220
0.0
230
1.0
 40
0.7071089311079546
 41
0.6668141484260537
 42
2.2447910308837891
  0
ELLIPSE
  5
1DE
100
AcDbEntity
  8
0
  6
CONTINUOUS
 62
               7
100
AcDbEllipse
 10
124.0
 20
-77.623077392578125
 30
0.0
 11
2.75
 21
0.0
 31
0.0
210
0.0
220
0.0
230
1.0
 40
0.7071089311079546
 41
4.0383980909930628
 42
5.6163740197764795
  0
ELLIPSE
  5
1DF
100
AcDbEntity
  8
0
  6
CONTINUOUS
 62
               7
100
AcDbEllipse
 10
124.0
 20
-81.300003051757812
 30
0.0
 11
-3.4999999999998148
 21
0.0000011404445106
 31
0.0
210
0.0
220
0.0
230
1.0
 40
0.7070999145507813
 41
4.7123883406267977
 42
1.5707956870370046
  0
ELLIPSE
  5
1E0
100
AcDbEntity
  8
0
  6
CONTINUOUS
 62
               7
100
AcDbEllipse
 10
110.0
 20
-81.300003051757812
 30
0.0
 11
3.5
 21
0.0
 31
0.0
210
0.0
220
0.0
230
1.0
 40
0.7070999145507813
 41
4.7123892943011709
 42
1.5707966407113778
  0
ELLIPSE
  5
1E1
100
AcDbEntity
  8
0
  6
CONTINUOUS
 62
               7
100
AcDbEllipse
 10
124.0
 20
-77.623001098632812
 30
0.0
 11
-3.4999999999998148
 21
0.0000011404445106
 31
0.0
210
0.0
220
0.0
230
1.0
 40
0.7070999145507813
 41
0.8370872735976942
 42
1.5707960128783585
  0
ELLIPSE
  5
1E2
100
AcDbEntity
  8
0
  6
CONTINUOUS
 62
               7
100
AcDbEllipse
 10
110.0
 20
-77.623001098632812
 30
0.0
 11
3.5
 21
0.0
 31
0.0
210
0.0
220
0.0
230
1.0
 40
0.7070999145507813
 41
4.7123892943011709
 42
5.4460943976985376
  0
CIRCLE
  5
1E3
100
AcDbEntity
  8
0
  6
CONTINUOUS
 62
               7
100
AcDbCircle
 10
33.5
 20
-60.499984741210937
 30
0.0
 40
2.9499998092651367
  0
CIRCLE
  5
1E4
100
AcDbEntity
  8
0
  6
CONTINUOUS
 62
               7
100
AcDbCircle
 10
46.499984741210937
 20
-20.5
 30
0.0
 40
2.9499998092651367
  0
ARC
  5
1E5
100
AcDbEntity
  8
0
  6
CONTINUOUS
 62
               7
100
AcDbCircle
 10
46.000030517578125
 20
-0.99993896484375
 30
0.0
 40
2.5000734329223633
100
AcDbArc
 50
191.53802865027069
 51
319.45890333229545
  0
ARC
  5
1E6
100
AcDbEntity
  8
0
  6
CONTINUOUS
 62
               7
100
AcDbCircle
 10
39.899978637695312
 20
6.20001220703125
 30
0.0
 40
3.0
100
AcDbArc
 50
271.91023065164455
 51
0.0
  0
ARC
  5
1E7
100
AcDbEntity
  8
0
  6
CONTINUOUS
 62
               7
100
AcDbCircle
 10
39.999984741210937
 20
6.20001220703125
 30
0.0
 40
3.0
100
AcDbArc
 50
266.17746163595609
 51
3.822566595416411
  0
ARC
  5
1E8
100
AcDbEntity
  8
0
  6
CONTINUOUS
 62
               7
100
AcDbCircle
 10
40.0999755859375
 20
6.20001220703125
 30
0.0
 40
3.0
100
AcDbArc
 50
268.089805320533
 51
0.0
  0
CIRCLE
  5
1E9
100
AcDbEntity
  8
0
  6
CONTINUOUS
 62
               4
100
AcDbCircle
 10
24.5
 20
-77.800003051757812
 30
0.0
 40
2.7999992370605469
  0
CIRCLE
  5
1EA
100
AcDbEntity
  8
0
  6
CONTINUOUS
 62
               4
100
AcDbCircle
 10
15.5
 20
-77.800003051757812
 30
0.0
 40
2.7999992370605469
  0
CIRCLE
  5
1EB
100
AcDbEntity
  8
0
  6
CONTINUOUS
 62
               4
100
AcDbCircle
 10
25.5
 20
-68.0
 30
0.0
 40
1.5
  0
CIRCLE
  5
1EC
100
AcDbEntity
  8
0
  6
CONTINUOUS
 62
               4
100
AcDbCircle
 10
25.5
 20
-68.0
 30
0.0
 40
1.5999994277954102
  0
CIRCLE
  5
1ED
100
AcDbEntity
  8
0
  6
CONTINUOUS
 62
               4
100
AcDbCircle
 10
20.0
 20
3.0
 30
0.0
 40
2.7999992370605469
  0
CIRCLE
  5
1EE
100
AcDbEntity
  8
0
  6
CONTINUOUS
 62
               4
100
AcDbCircle
 10
20.0
 20
3.0
 30
0.0
 40
3.1999998092651367
  0
ARC
  5
1EF
100
AcDbEntity
  8
0
  6
CONTINUOUS
 62
               7
100
AcDbCircle
 10
101.5
 20
26.0
 30
0.0
 40
0.5
100
AcDbArc
 50
270.00001798608872
 51
0.0
  0
ARC
  5
1F0
100
AcDbEntity
  8
0
  6
CONTINUOUS
 62
               7
100
AcDbCircle
 10
92.5
 20
26.0
 30
0.0
 40
0.5
100
AcDbArc
 50
179.99998133066492
 51
270.00001798608872
  0
ARC
  5
1F1
100
AcDbEntity
  8
0
  6
CONTINUOUS
 62
               7
100
AcDbCircle
 10
92.5
 20
34.499984741210937
 30
0.0
 40
0.5
100
AcDbArc
 50
89.999982013910454
 51
179.99996402782091
  0
ARC
  5
1F2
100
AcDbEntity
  8
0
  6
CONTINUOUS
 62
               7
100
AcDbCircle
 10
101.5
 20
34.499984741210937
 30
0.0
 40
0.5
100
AcDbArc
 50
0.0
 51
89.999982013910454
  0
ARC
  5
1F3
100
AcDbEntity
  8
0
  6
CONTINUOUS
 62
               7
100
AcDbCircle
 10
32.25
 20
-83.000015258789063
 30
0.0
 40
1.5
100
AcDbArc
 50
180.0000359721783
 51
213.55730177958446
  0
ARC
  5
1F4
100
AcDbEntity
  8
0
  6
CONTINUOUS
 62
               7
100
AcDbCircle
 10
1.0
 20
0.0
 30
0.0
 40
2.2000007629394531
100
AcDbArc
 50
270.00007262760209
 51
90.000091296937171
  0
ARC
  5
1F5
100
AcDbEntity
  8
0
  6
CONTINUOUS
 62
               7
100
AcDbCircle
 10
-1.0
 20
0.0
 30
0.0
 40
2.1999998092651367
100
AcDbArc
 50
90.000091296937171
 51
270.00005532475808
  0
ARC
  5
1F6
100
AcDbEntity
  8
0
  6
CONTINUOUS
 62
               7
100
AcDbCircle
 10
1.0
 20
-79.0
 30
0.0
 40
2.2000007629394531
100
AcDbArc
 50
270.00001798608872
 51
90.000036655423813
  0
ARC
  5
1F7
100
AcDbEntity
  8
0
  6
CONTINUOUS
 62
               7
100
AcDbCircle
 10
-1.0
 20
-79.0
 30
0.0
 40
2.1999998092651367
100
AcDbArc
 50
90.000036655423813
 51
270.00000068324471
  0
ARC
  5
1F8
100
AcDbEntity
  8
0
  6
CONTINUOUS
 62
               7
100
AcDbCircle
 10
136.0
 20
0.0
 30
0.0
 40
2.2000007629394531
100
AcDbArc
 50
89.999927372397096
 51
269.99994604173139
  0
ARC
  5
1F9
100
AcDbEntity
  8
0
  6
CONTINUOUS
 62
               7
100
AcDbCircle
 10
138.0
 20
0.0
 30
0.0
 40
2.1999998092651367
100
AcDbArc
 50
269.99996334457541
 51
89.999927372397096
  0
ARC
  5
1FA
100
AcDbEntity
  8
0
  6
CONTINUOUS
 62
               7
100
AcDbCircle
 10
136.0
 20
-79.0
 30
0.0
 40
2.2000007629394531
100
AcDbArc
 50
89.999982013910454
 51
270.00000068324471
  0
ARC
  5
1FB
100
AcDbEntity
  8
0
  6
CONTINUOUS
 62
               7
100
AcDbCircle
 10
138.0
 20
-79.0
 30
0.0
 40
2.1999998092651367
100
AcDbArc
 50
270.00001798608872
 51
89.999982013910454
  0
CIRCLE
  5
1FC
100
AcDbEntity
  8
0
  6
CONTINUOUS
 62
               7
100
AcDbCircle
 10
33.500015258789063
 20
-60.500015258789063
 30
0.0
 40
2.75
  0
CIRCLE
  5
1FD
100
AcDbEntity
  8
0
  6
CONTINUOUS
 62
               7
100
AcDbCircle
 10
46.5
 20
-62.500015258789063
 30
0.0
 40
2.75
  0
ARC
  5
1FE
100
AcDbEntity
  8
0
  6
CONTINUOUS
 62
               7
100
AcDbCircle
 10
48.5
 20
-89.500015258789063
 30
0.0
 40
0.5
100
AcDbArc
 50
270.00001798608872
 51
0.00001366037834
  0
ARC
  5
1FF
100
AcDbEntity
  8
0
  6
CONTINUOUS
 62
               7
100
AcDbCircle
 10
31.5
 20
-89.500015258789063
 30
0.0
 40
0.5
100
AcDbArc
 50
180.0000359721783
 51
269.99996334457541
  0
CIRCLE
  5
200
100
AcDbEntity
  8
0
  6
CONTINUOUS
 62
               7
100
AcDbCircle
 10
46.500015258789063
 20
-20.5
 30
0.0
 40
2.75
  0
ARC
  5
201
100
AcDbEntity
  8
0
  6
CONTINUOUS
 62
               7
100
AcDbCircle
 10
46.5
 20
-62.500015258789063
 30
0.0
 40
3.0
100
AcDbArc
 50
89.999982013910454
 51
179.99996402782091
  0
ARC
  5
202
100
AcDbEntity
  8
0
  6
CONTINUOUS
 62
               7
100
AcDbCircle
 10
33.5
 20
-18.5
 30
0.0
 40
3.0
100
AcDbArc
 50
270.00001798608872
 51
0.00001366037834
  0
ARC
  5
203
100
AcDbEntity
  8
0
  6
CONTINUOUS
 62
               7
100
AcDbCircle
 10
33.5
 20
-60.500015258789063
 30
0.0
 40
3.0
100
AcDbArc
 50
269.99996334457541
 51
89.999982013910454
  0
ARC
  5
204
100
AcDbEntity
  8
0
  6
CONTINUOUS
 62
               7
100
AcDbCircle
 10
46.5
 20
-20.5
 30
0.0
 40
3.0
100
AcDbArc
 50
89.999982013910454
 51
269.99994604173139
  0
CIRCLE
  5
205
100
AcDbEntity
  8
0
  6
CONTINUOUS
 62
               7
100
AcDbCircle
 10
33.5
 20
-18.5
 30
0.0
 40
2.75
  0
ARC
  5
206
100
AcDbEntity
  8
0
  6
CONTINUOUS
 62
               4
100
AcDbCircle
 10
35.550003051757813
 20
41.999984741210938
 30
0.0
 40
0.5
100
AcDbArc
 50
89.999982013910454
 51
179.99996402782091
  0
ARC
  5
207
100
AcDbEntity
  8
0
  6
CONTINUOUS
 62
               4
100
AcDbCircle
 10
44.449996948242188
 20
41.999984741210938
 30
0.0
 40
0.5
100
AcDbArc
 50
359.99994535848583
 51
89.999982013910454
  0
CIRCLE
  5
208
100
AcDbEntity
  8
0
  6
CONTINUOUS
 62
               7
100
AcDbCircle
 10
40.0
 20
6.1999969482421875
 30
0.0
 40
1.9499998092651367
  0
CIRCLE
  5
209
100
AcDbEntity
  8
0
  6
CONTINUOUS
 62
               7
100
AcDbCircle
 10
40.0
 20
6.1999969482421875
 30
0.0
 40
2.0
  0
CIRCLE
  5
20A
100
AcDbEntity
  8
0
  6
CONTINUOUS
 62
               4
100
AcDbCircle
 10
103.5
 20
-20.5
 30
0.0
 40
2.7999992370605469
  0
CIRCLE
  5
20B
100
AcDbEntity
  8
0
  6
CONTINUOUS
 62
               4
100
AcDbCircle
 10
90.500015258789063
 20
-60.499984741210937
 30
0.0
 40
2.7999992370605469
  0
LINE
  5
20C
100
AcDbEntity
  8
0
  6
CONTINUOUS
 62
               7
100
AcDbLine
 10
46.499984741210937
 20
-23.5
 30
0.0
 11
48.999984741210937
 21
-23.5
 31
0.0
  0
LINE
  5
20D
100
AcDbEntity
  8
0
  6
CONTINUOUS
 62
               7
100
AcDbLine
 10
46.499984741210937
 20
-17.5
 30
0.0
 11
48.999984741210937
 21
-17.5
 31
0.0
  0
LINE
  5
20E
100
AcDbEntity
  8
0
  6
CONTINUOUS
 62
               7
100
AcDbLine
 10
30.999984741210938
 20
-89.5
 30
0.0
 11
30.999984741210938
 21
-62.066009521484375
 31
0.0
  0
LINE
  5
20F
100
AcDbEntity
  8
0
  6
CONTINUOUS
 62
               7
100
AcDbLine
 10
30.999984741210938
 20
-58.933975219726563
 30
0.0
 11
30.999984741210938
 21
-19.760940551757813
 31
0.0
  0
LINE
  5
210
100
AcDbEntity
  8
0
  6
CONTINUOUS
 62
               7
100
AcDbLine
 10
30.999984741210938
 20
-17.239028930664062
 30
0.0
 11
30.999984741210938
 21
-4.0
 31
0.0
  0
LINE
  5
211
100
AcDbEntity
  8
0
  6
CONTINUOUS
 62
               7
100
AcDbLine
 10
48.999984741210937
 20
-61.239028930664063
 30
0.0
 11
48.999984741210937
 21
-22.066055297851563
 31
0.0
  0
LINE
  5
212
100
AcDbEntity
  8
0
  6
CONTINUOUS
 62
               7
100
AcDbLine
 10
48.999984741210937
 20
-18.9339599609375
 30
0.0
 11
48.999984741210937
 21
-4.0
 31
0.0
  0
LINE
  5
213
100
AcDbEntity
  8
0
  6
CONTINUOUS
 62
               4
100
AcDbLine
 10
44.999984741210937
 20
9.4999847412109375
 30
0.0
 11
44.999984741210937
 21
33.5
 31
0.0
  0
LINE
  5
214
100
AcDbEntity
  8
0
  6
CONTINUOUS
 62
               4
100
AcDbLine
 10
34.999984741210938
 20
9.4999847412109375
 30
0.0
 11
34.999984741210938
 21
33.5
 31
0.0
  0
LINE
  5
215
100
AcDbEntity
  8
0
  6
CONTINUOUS
 62
               7
100
AcDbLine
 10
31.000036440002532
 20
-4.0000035028182879
 30
0.0
 11
32.999989988753896
 21
-1.4999972106283508
 31
0.0
  0
LINE
  5
216
100
AcDbEntity
  8
0
  6
CONTINUOUS
 62
               7
100
AcDbLine
 10
48.999962302134804
 20
-3.9999788168022405
 30
0.0
 11
47.000016926274554
 21
-1.4999840767935666
 31
0.0
  0
LINE
  5
217
100
AcDbEntity
  8
0
  6
CONTINUOUS
 62
               7
100
AcDbLine
 10
32.999984741210938
 20
-1.5
 30
0.0
 11
46.999984741210937
 21
-1.5
 31
0.0
  0
LINE
  5
218
100
AcDbEntity
  8
0
  6
CONTINUOUS
 62
               7
100
AcDbLine
 10
39.999981301523803
 20
3.1999939674678899
 30
0.0
 11
40.999983354464348
 21
2.9320442844145873
 31
0.0
  0
LINE
  5
219
100
AcDbEntity
  8
0
  6
CONTINUOUS
 62
               7
100
AcDbLine
 10
39.999984741210937
 20
2.70001220703125
 30
0.0
 11
39.999984741210937
 21
3.70001220703125
 31
0.0
  0
LINE
  5
21A
100
AcDbEntity
  8
0
  6
CONTINUOUS
 62
               7
100
AcDbLine
 10
42.499984741210937
 20
6.20001220703125
 30
0.0
 11
43.499984741210938
 21
6.20001220703125
 31
0.0
  0
LINE
  5
21B
100
AcDbEntity
  8
0
  6
CONTINUOUS
 62
               4
100
AcDbLine
 10
23.439342670832957
 20
-76.739339402502992
 30
0.0
 11
25.560662978087748
 21
-78.860659888571718
 31
0.0
  0
LINE
  5
21C
100
AcDbEntity
  8
0
  6
CONTINUOUS
 62
               4
100
AcDbLine
 10
23.43934258142599
 20
-78.86065979916475
 30
0.0
 11
25.560663067494716
 21
-76.739339491909959
 31
0.0
  0
LINE
  5
21D
100
AcDbEntity
  8
0
  6
CONTINUOUS
 62
               4
100
AcDbLine
 10
14.439332737205405
 20
-76.739339023180946
 30
0.0
 11
16.560653044460196
 21
-78.860659509249672
 31
0.0
  0
LINE
  5
21E
100
AcDbEntity
  8
0
  6
CONTINUOUS
 62
               4
100
AcDbLine
 10
14.439343437392381
 20
-78.860648630249671
 30
0.0
 11
16.560663923461107
 21
-76.739328322994879
 31
0.0
  0
LINE
  5
21F
100
AcDbEntity
  8
0
  6
CONTINUOUS
 62
               4
100
AcDbLine
 10
21.839996337890625
 20
-31.680007934570313
 30
0.0
 11
21.839996337890625
 21
-32.32000732421875
 31
0.0
  0
LINE
  5
220
100
AcDbEntity
  8
0
  6
CONTINUOUS
 62
               4
100
AcDbLine
 10
21.199996948242188
 20
-31.680007934570313
 30
0.0
 11
21.199996948242188
 21
-32.32000732421875
 31
0.0
  0
LINE
  5
221
100
AcDbEntity
  8
0
  6
CONTINUOUS
 62
               4
100
AcDbLine
 10
21.199996948242188
 20
-31.680007934570313
 30
0.0
 11
21.839996337890625
 21
-31.680007934570313
 31
0.0
  0
LINE
  5
222
100
AcDbEntity
  8
0
  6
CONTINUOUS
 62
               4
100
AcDbLine
 10
21.199996948242188
 20
-32.32000732421875
 30
0.0
 11
21.839996337890625
 21
-32.32000732421875
 31
0.0
  0
LINE
  5
223
100
AcDbEntity
  8
0
  6
CONTINUOUS
 62
               4
100
AcDbLine
 10
21.839996337890625
 20
-34.220001220703125
 30
0.0
 11
21.839996337890625
 21
-34.860000610351562
 31
0.0
  0
LINE
  5
224
100
AcDbEntity
  8
0
  6
CONTINUOUS
 62
               4
100
AcDbLine
 10
21.199996948242188
 20
-34.220001220703125
 30
0.0
 11
21.199996948242188
 21
-34.860000610351562
 31
0.0
  0
LINE
  5
225
100
AcDbEntity
  8
0
  6
CONTINUOUS
 62
               4
100
AcDbLine
 10
21.199996948242188
 20
-34.220001220703125
 30
0.0
 11
21.839996337890625
 21
-34.220001220703125
 31
0.0
  0
LINE
  5
226
100
AcDbEntity
  8
0
  6
CONTINUOUS
 62
               4
100
AcDbLine
 10
21.199996948242188
 20
-34.860000610351562
 30
0.0
 11
21.839996337890625
 21
-34.860000610351562
 31
0.0
  0
LINE
  5
227
100
AcDbEntity
  8
0
  6
CONTINUOUS
 62
               4
100
AcDbLine
 10
21.839996337890625
 20
-36.760009765625
 30
0.0
 11
21.839996337890625
 21
-37.400009155273437
 31
0.0
  0
LINE
  5
228
100
AcDbEntity
  8
0
  6
CONTINUOUS
 62
               4
100
AcDbLine
 10
21.199996948242188
 20
-36.760009765625
 30
0.0
 11
21.199996948242188
 21
-37.400009155273437
 31
0.0
  0
LINE
  5
229
100
AcDbEntity
  8
0
  6
CONTINUOUS
 62
               4
100
AcDbLine
 10
21.199996948242188
 20
-36.760009765625
 30
0.0
 11
21.839996337890625
 21
-36.760009765625
 31
0.0
  0
LINE
  5
22A
100
AcDbEntity
  8
0
  6
CONTINUOUS
 62
               4
100
AcDbLine
 10
21.199996948242188
 20
-37.400009155273437
 30
0.0
 11
21.839996337890625
 21
-37.400009155273437
 31
0.0
  0
LINE
  5
22B
100
AcDbEntity
  8
0
  6
CONTINUOUS
 62
               4
100
AcDbLine
 10
19.300003051757813
 20
-36.760009765625
 30
0.0
 11
19.300003051757813
 21
-37.400009155273437
 31
0.0
  0
LINE
  5
22C
100
AcDbEntity
  8
0
  6
CONTINUOUS
 62
               4
100
AcDbLine
 10
18.660003662109375
 20
-36.760009765625
 30
0.0
 11
18.660003662109375
 21
-37.400009155273437
 31
0.0
  0
LINE
  5
22D
100
AcDbEntity
  8
0
  6
CONTINUOUS
 62
               4
100
AcDbLine
 10
18.660003662109375
 20
-36.760009765625
 30
0.0
 11
19.300003051757813
 21
-36.760009765625
 31
0.0
  0
LINE
  5
22E
100
AcDbEntity
  8
0
  6
CONTINUOUS
 62
               4
100
AcDbLine
 10
18.660003662109375
 20
-37.400009155273437
 30
0.0
 11
19.300003051757813
 21
-37.400009155273437
 31
0.0
  0
LINE
  5
22F
100
AcDbEntity
  8
0
  6
CONTINUOUS
 62
               4
100
AcDbLine
 10
19.300003051757813
 20
-34.220001220703125
 30
0.0
 11
19.300003051757813
 21
-34.860000610351562
 31
0.0
  0
LINE
  5
230
100
AcDbEntity
  8
0
  6
CONTINUOUS
 62
               4
100
AcDbLine
 10
18.660003662109375
 20
-34.220001220703125
 30
0.0
 11
18.660003662109375
 21
-34.860000610351562
 31
0.0
  0
LINE
  5
231
100
AcDbEntity
  8
0
  6
CONTINUOUS
 62
               4
100
AcDbLine
 10
18.660003662109375
 20
-34.220001220703125
 30
0.0
 11
19.300003051757813
 21
-34.220001220703125
 31
0.0
  0
LINE
  5
232
100
AcDbEntity
  8
0
  6
CONTINUOUS
 62
               4
100
AcDbLine
 10
18.660003662109375
 20
-34.860000610351562
 30
0.0
 11
19.300003051757813
 21
-34.860000610351562
 31
0.0
  0
LINE
  5
233
100
AcDbEntity
  8
0
  6
CONTINUOUS
 62
               4
100
AcDbLine
 10
19.300003051757813
 20
-31.680007934570313
 30
0.0
 11
19.300003051757813
 21
-32.32000732421875
 31
0.0
  0
LINE
  5
234
100
AcDbEntity
  8
0
  6
CONTINUOUS
 62
               4
100
AcDbLine
 10
18.660003662109375
 20
-31.680007934570313
 30
0.0
 11
18.660003662109375
 21
-32.32000732421875
 31
0.0
  0
LINE
  5
235
100
AcDbEntity
  8
0
  6
CONTINUOUS
 62
               4
100
AcDbLine
 10
18.660003662109375
 20
-31.680007934570313
 30
0.0
 11
19.300003051757813
 21
-31.680007934570313
 31
0.0
  0
LINE
  5
236
100
AcDbEntity
  8
0
  6
CONTINUOUS
 62
               4
100
AcDbLine
 10
18.660003662109375
 20
-32.32000732421875
 30
0.0
 11
19.300003051757813
 21
-32.32000732421875
 31
0.0
  0
LINE
  5
237
100
AcDbEntity
  8
0
  6
CONTINUOUS
 62
               4
100
AcDbLine
 10
19.300003051757813
 20
-29.139999389648437
 30
0.0
 11
19.300003051757813
 21
-29.779998779296875
 31
0.0
  0
LINE
  5
238
100
AcDbEntity
  8
0
  6
CONTINUOUS
 62
               4
100
AcDbLine
 10
18.660003662109375
 20
-29.139999389648437
 30
0.0
 11
18.660003662109375
 21
-29.779998779296875
 31
0.0
  0
LINE
  5
239
100
AcDbEntity
  8
0
  6
CONTINUOUS
 62
               4
100
AcDbLine
 10
18.660003662109375
 20
-29.139999389648437
 30
0.0
 11
19.300003051757813
 21
-29.139999389648437
 31
0.0
  0
LINE
  5
23A
100
AcDbEntity
  8
0
  6
CONTINUOUS
 62
               4
100
AcDbLine
 10
18.660003662109375
 20
-29.779998779296875
 30
0.0
 11
19.300003051757813
 21
-29.779998779296875
 31
0.0
  0
LINE
  5
23B
100
AcDbEntity
  8
0
  6
CONTINUOUS
 62
               4
100
AcDbLine
 10
19.300003051757813
 20
-26.600006103515625
 30
0.0
 11
19.300003051757813
 21
-27.240005493164062
 31
0.0
  0
LINE
  5
23C
100
AcDbEntity
  8
0
  6
CONTINUOUS
 62
               4
100
AcDbLine
 10
18.660003662109375
 20
-26.600006103515625
 30
0.0
 11
18.660003662109375
 21
-27.240005493164062
 31
0.0
  0
LINE
  5
23D
100
AcDbEntity
  8
0
  6
CONTINUOUS
 62
               4
100
AcDbLine
 10
18.660003662109375
 20
-26.600006103515625
 30
0.0
 11
19.300003051757813
 21
-26.600006103515625
 31
0.0
  0
LINE
  5
23E
100
AcDbEntity
  8
0
  6
CONTINUOUS
 62
               4
100
AcDbLine
 10
18.660003662109375
 20
-27.240005493164062
 30
0.0
 11
19.300003051757813
 21
-27.240005493164062
 31
0.0
  0
LINE
  5
23F
100
AcDbEntity
  8
0
  6
CONTINUOUS
 62
               4
100
AcDbLine
 10
21.839996337890625
 20
-26.600006103515625
 30
0.0
 11
21.839996337890625
 21
-27.240005493164062
 31
0.0
  0
LINE
  5
240
100
AcDbEntity
  8
0
  6
CONTINUOUS
 62
               4
100
AcDbLine
 10
21.199996948242188
 20
-26.600006103515625
 30
0.0
 11
21.199996948242188
 21
-27.240005493164062
 31
0.0
  0
LINE
  5
241
100
AcDbEntity
  8
0
  6
CONTINUOUS
 62
               4
100
AcDbLine
 10
21.199996948242188
 20
-26.600006103515625
 30
0.0
 11
21.839996337890625
 21
-26.600006103515625
 31
0.0
  0
LINE
  5
242
100
AcDbEntity
  8
0
  6
CONTINUOUS
 62
               4
100
AcDbLine
 10
21.199996948242188
 20
-27.240005493164062
 30
0.0
 11
21.839996337890625
 21
-27.240005493164062
 31
0.0
  0
LINE
  5
243
100
AcDbEntity
  8
0
  6
CONTINUOUS
 62
               4
100
AcDbLine
 10
21.839996337890625
 20
-29.139999389648437
 30
0.0
 11
21.839996337890625
 21
-29.779998779296875
 31
0.0
  0
LINE
  5
244
100
AcDbEntity
  8
0
  6
CONTINUOUS
 62
               4
100
AcDbLine
 10
21.199996948242188
 20
-29.139999389648437
 30
0.0
 11
21.199996948242188
 21
-29.779998779296875
 31
0.0
  0
LINE
  5
245
100
AcDbEntity
  8
0
  6
CONTINUOUS
 62
               4
100
AcDbLine
 10
21.199996948242188
 20
-29.139999389648437
 30
0.0
 11
21.839996337890625
 21
-29.139999389648437
 31
0.0
  0
LINE
  5
246
100
AcDbEntity
  8
0
  6
CONTINUOUS
 62
               4
100
AcDbLine
 10
21.199996948242188
 20
-29.779998779296875
 30
0.0
 11
21.839996337890625
 21
-29.779998779296875
 31
0.0
  0
LINE
  5
247
100
AcDbEntity
  8
0
  6
CONTINUOUS
 62
               4
100
AcDbLine
 10
18.25
 20
-41.600006103515625
 30
0.0
 11
22.25
 21
-41.600006103515625
 31
0.0
  0
LINE
  5
248
100
AcDbEntity
  8
0
  6
CONTINUOUS
 62
               4
100
AcDbLine
 10
18.25
 20
-41.900009155273438
 30
0.0
 11
22.25
 21
-41.900009155273438
 31
0.0
  0
LINE
  5
249
100
AcDbEntity
  8
0
  6
CONTINUOUS
 62
               4
100
AcDbLine
 10
18.25
 20
-42.20001220703125
 30
0.0
 11
22.25
 21
-42.20001220703125
 31
0.0
  0
LINE
  5
24A
100
AcDbEntity
  8
0
  6
CONTINUOUS
 62
               4
100
AcDbLine
 10
18.25
 20
-42.5
 30
0.0
 11
22.25
 21
-42.5
 31
0.0
  0
LINE
  5
24B
100
AcDbEntity
  8
0
  6
CONTINUOUS
 62
               4
100
AcDbLine
 10
18.25
 20
-42.800003051757813
 30
0.0
 11
22.25
 21
-42.800003051757813
 31
0.0
  0
LINE
  5
24C
100
AcDbEntity
  8
0
  6
CONTINUOUS
 62
               4
100
AcDbLine
 10
18.25
 20
-43.100006103515625
 30
0.0
 11
22.25
 21
-43.100006103515625
 31
0.0
  0
LINE
  5
24D
100
AcDbEntity
  8
0
  6
CONTINUOUS
 62
               4
100
AcDbLine
 10
18.25
 20
-43.400009155273437
 30
0.0
 11
22.25
 21
-43.400009155273437
 31
0.0
  0
LINE
  5
24E
100
AcDbEntity
  8
0
  6
CONTINUOUS
 62
               4
100
AcDbLine
 10
18.25
 20
-22.399993896484375
 30
0.0
 11
22.25
 21
-22.399993896484375
 31
0.0
  0
LINE
  5
24F
100
AcDbEntity
  8
0
  6
CONTINUOUS
 62
               4
100
AcDbLine
 10
18.25
 20
-22.100006103515625
 30
0.0
 11
22.25
 21
-22.100006103515625
 31
0.0
  0
LINE
  5
250
100
AcDbEntity
  8
0
  6
CONTINUOUS
 62
               4
100
AcDbLine
 10
18.25
 20
-21.800003051757813
 30
0.0
 11
22.25
 21
-21.800003051757813
 31
0.0
  0
LINE
  5
251
100
AcDbEntity
  8
0
  6
CONTINUOUS
 62
               4
100
AcDbLine
 10
18.25
 20
-21.5
 30
0.0
 11
22.25
 21
-21.5
 31
0.0
  0
LINE
  5
252
100
AcDbEntity
  8
0
  6
CONTINUOUS
 62
               4
100
AcDbLine
 10
18.25
 20
-21.199996948242188
 30
0.0
 11
22.25
 21
-21.199996948242188
 31
0.0
  0
LINE
  5
253
100
AcDbEntity
  8
0
  6
CONTINUOUS
 62
               4
100
AcDbLine
 10
18.25
 20
-20.899993896484375
 30
0.0
 11
22.25
 21
-20.899993896484375
 31
0.0
  0
LINE
  5
254
100
AcDbEntity
  8
0
  6
CONTINUOUS
 62
               4
100
AcDbLine
 10
18.25
 20
-20.600006103515625
 30
0.0
 11
22.25
 21
-20.600006103515625
 31
0.0
  0
LINE
  5
255
100
AcDbEntity
  8
0
  6
CONTINUOUS
 62
               4
100
AcDbLine
 10
18.25
 20
-20.300003051757813
 30
0.0
 11
22.25
 21
-20.300003051757813
 31
0.0
  0
LINE
  5
256
100
AcDbEntity
  8
0
  6
CONTINUOUS
 62
               4
100
AcDbLine
 10
18.25
 20
-43.70001220703125
 30
0.0
 11
22.25
 21
-43.70001220703125
 31
0.0
  0
LINE
  5
257
100
AcDbEntity
  8
0
  6
CONTINUOUS
 62
               4
100
AcDbLine
 10
18.25
 20
-44.5
 30
0.0
 11
22.25
 21
-44.5
 31
0.0
  0
LINE
  5
258
100
AcDbEntity
  8
0
  6
CONTINUOUS
 62
               4
100
AcDbLine
 10
18.25
 20
-19.5
 30
0.0
 11
22.25
 21
-19.5
 31
0.0
  0
LINE
  5
259
100
AcDbEntity
  8
0
  6
CONTINUOUS
 62
               4
100
AcDbLine
 10
18.25
 20
-39.0
 30
0.0
 11
22.25
 21
-39.0
 31
0.0
  0
LINE
  5
25A
100
AcDbEntity
  8
0
  6
CONTINUOUS
 62
               4
100
AcDbLine
 10
18.25
 20
-25.0
 30
0.0
 11
22.25
 21
-25.0
 31
0.0
  0
LINE
  5
25B
100
AcDbEntity
  8
0
  6
CONTINUOUS
 62
               4
100
AcDbLine
 10
23.5
 20
-34.0
 30
0.0
 11
23.5
 21
-41.0
 31
0.0
  0
LINE
  5
25C
100
AcDbEntity
  8
0
  6
CONTINUOUS
 62
               4
100
AcDbLine
 10
22.5
 20
-30.0
 30
0.0
 11
22.5
 21
-34.0
 31
0.0
  0
LINE
  5
25D
100
AcDbEntity
  8
0
  6
CONTINUOUS
 62
               4
100
AcDbLine
 10
22.5
 20
-34.0
 30
0.0
 11
24.5
 21
-34.0
 31
0.0
  0
LINE
  5
25E
100
AcDbEntity
  8
0
  6
CONTINUOUS
 62
               4
100
AcDbLine
 10
22.5
 20
-30.0
 30
0.0
 11
24.5
 21
-30.0
 31
0.0
  0
LINE
  5
25F
100
AcDbEntity
  8
0
  6
CONTINUOUS
 62
               4
100
AcDbLine
 10
22.25
 20
-19.25
 30
0.0
 11
24.5
 21
-19.25
 31
0.0
  0
LINE
  5
260
100
AcDbEntity
  8
0
  6
CONTINUOUS
 62
               4
100
AcDbLine
 10
16.0
 20
-19.25
 30
0.0
 11
18.25
 21
-19.25
 31
0.0
  0
LINE
  5
261
100
AcDbEntity
  8
0
  6
CONTINUOUS
 62
               4
100
AcDbLine
 10
22.25
 20
-44.75
 30
0.0
 11
24.5
 21
-44.75
 31
0.0
  0
LINE
  5
262
100
AcDbEntity
  8
0
  6
CONTINUOUS
 62
               4
100
AcDbLine
 10
16.0
 20
-44.75
 30
0.0
 11
18.25
 21
-44.75
 31
0.0
  0
LINE
  5
263
100
AcDbEntity
  8
0
  6
CONTINUOUS
 62
               4
100
AcDbLine
 10
22.25
 20
-43.5
 30
0.0
 11
24.5
 21
-43.5
 31
0.0
  0
LINE
  5
264
100
AcDbEntity
  8
0
  6
CONTINUOUS
 62
               4
100
AcDbLine
 10
16.0
 20
-43.5
 30
0.0
 11
18.25
 21
-43.5
 31
0.0
  0
LINE
  5
265
100
AcDbEntity
  8
0
  6
CONTINUOUS
 62
               4
100
AcDbLine
 10
22.25
 20
-20.5
 30
0.0
 11
24.5
 21
-20.5
 31
0.0
  0
LINE
  5
266
100
AcDbEntity
  8
0
  6
CONTINUOUS
 62
               4
100
AcDbLine
 10
16.0
 20
-20.5
 30
0.0
 11
18.25
 21
-20.5
 31
0.0
  0
LINE
  5
267
100
AcDbEntity
  8
0
  6
CONTINUOUS
 62
               4
100
AcDbLine
 10
22.25
 20
-16.0
 30
0.0
 11
22.25
 21
-26.0
 31
0.0
  0
LINE
  5
268
100
AcDbEntity
  8
0
  6
CONTINUOUS
 62
               4
100
AcDbLine
 10
18.25
 20
-16.0
 30
0.0
 11
18.25
 21
-26.0
 31
0.0
  0
LINE
  5
269
100
AcDbEntity
  8
0
  6
CONTINUOUS
 62
               4
100
AcDbLine
 10
18.25
 20
-38.0
 30
0.0
 11
18.25
 21
-48.0
 31
0.0
  0
LINE
  5
26A
100
AcDbEntity
  8
0
  6
CONTINUOUS
 62
               4
100
AcDbLine
 10
22.25
 20
-38.0
 30
0.0
 11
22.25
 21
-48.0
 31
0.0
  0
LINE
  5
26B
100
AcDbEntity
  8
0
  6
CONTINUOUS
 62
               4
100
AcDbLine
 10
16.0
 20
-42.0
 30
0.0
 11
18.25
 21
-42.0
 31
0.0
  0
LINE
  5
26C
100
AcDbEntity
  8
0
  6
CONTINUOUS
 62
               4
100
AcDbLine
 10
22.25
 20
-42.0
 30
0.0
 11
24.5
 21
-42.0
 31
0.0
  0
LINE
  5
26D
100
AcDbEntity
  8
0
  6
CONTINUOUS
 62
               4
100
AcDbLine
 10
22.25
 20
-22.0
 30
0.0
 11
24.5
 21
-22.0
 31
0.0
  0
LINE
  5
26E
100
AcDbEntity
  8
0
  6
CONTINUOUS
 62
               4
100
AcDbLine
 10
16.0
 20
-22.0
 30
0.0
 11
18.25
 21
-22.0
 31
0.0
  0
LINE
  5
26F
100
AcDbEntity
  8
0
  6
CONTINUOUS
 62
               4
100
AcDbLine
 10
23.5
 20
-23.0
 30
0.0
 11
23.5
 21
-30.0
 31
0.0
  0
LINE
  5
270
100
AcDbEntity
  8
0
  6
CONTINUOUS
 62
               4
100
AcDbLine
 10
17.0
 20
-23.0
 30
0.0
 11
17.0
 21
-41.0
 31
0.0
  0
LINE
  5
271
100
AcDbEntity
  8
0
  6
CONTINUOUS
 62
               4
100
AcDbLine
 10
22.25
 20
-41.0
 30
0.0
 11
24.5
 21
-41.0
 31
0.0
  0
LINE
  5
272
100
AcDbEntity
  8
0
  6
CONTINUOUS
 62
               4
100
AcDbLine
 10
22.25
 20
-23.0
 30
0.0
 11
24.5
 21
-23.0
 31
0.0
  0
LINE
  5
273
100
AcDbEntity
  8
0
  6
CONTINUOUS
 62
               4
100
AcDbLine
 10
18.25
 20
-26.0
 30
0.0
 11
22.25
 21
-26.0
 31
0.0
  0
LINE
  5
274
100
AcDbEntity
  8
0
  6
CONTINUOUS
 62
               4
100
AcDbLine
 10
18.25
 20
-38.0
 30
0.0
 11
22.25
 21
-38.0
 31
0.0
  0
LINE
  5
275
100
AcDbEntity
  8
0
  6
CONTINUOUS
 62
               4
100
AcDbLine
 10
16.0
 20
-41.0
 30
0.0
 11
18.25
 21
-41.0
 31
0.0
  0
LINE
  5
276
100
AcDbEntity
  8
0
  6
CONTINUOUS
 62
               4
100
AcDbLine
 10
16.0
 20
-23.0
 30
0.0
 11
18.25
 21
-23.0
 31
0.0
  0
LINE
  5
277
100
AcDbEntity
  8
0
  6
CONTINUOUS
 62
               4
100
AcDbLine
 10
18.25
 20
-47.0
 30
0.0
 11
22.25
 21
-47.0
 31
0.0
  0
LINE
  5
278
100
AcDbEntity
  8
0
  6
CONTINUOUS
 62
               4
100
AcDbLine
 10
18.25
 20
-17.0
 30
0.0
 11
22.25
 21
-17.0
 31
0.0
  0
LINE
  5
279
100
AcDbEntity
  8
0
  6
CONTINUOUS
 62
               4
100
AcDbLine
 10
16.0
 20
-16.0
 30
0.0
 11
16.0
 21
-48.0
 31
0.0
  0
LINE
  5
27A
100
AcDbEntity
  8
0
  6
CONTINUOUS
 62
               4
100
AcDbLine
 10
16.0
 20
-16.0
 30
0.0
 11
24.5
 21
-16.0
 31
0.0
  0
LINE
  5
27B
100
AcDbEntity
  8
0
  6
CONTINUOUS
 62
               4
100
AcDbLine
 10
16.0
 20
-48.0
 30
0.0
 11
24.5
 21
-48.0
 31
0.0
  0
LINE
  5
27C
100
AcDbEntity
  8
0
  6
CONTINUOUS
 62
               4
100
AcDbLine
 10
28.199996948242188
 20
-2.8000030517578125
 30
0.0
 11
28.199996948242188
 21
-61.20001220703125
 31
0.0
  0
LINE
  5
27D
100
AcDbEntity
  8
0
  6
CONTINUOUS
 62
               4
100
AcDbLine
 10
11.800003051757813
 20
-2.8000030517578125
 30
0.0
 11
11.800003051757813
 21
-61.20001220703125
 31
0.0
  0
LINE
  5
27E
100
AcDbEntity
  8
0
  6
CONTINUOUS
 62
               4
100
AcDbLine
 10
11.800003051757813
 20
-2.8000030517578125
 30
0.0
 11
28.199996948242188
 21
-2.8000030517578125
 31
0.0
  0
LINE
  5
27F
100
AcDbEntity
  8
0
  6
CONTINUOUS
 62
               4
100
AcDbLine
 10
11.800003051757813
 20
-61.20001220703125
 30
0.0
 11
28.199996948242188
 21
-61.20001220703125
 31
0.0
  0
LINE
  5
280
100
AcDbEntity
  8
0
  6
CONTINUOUS
 62
               4
100
AcDbLine
 10
15.5
 20
-15.650009155273438
 30
0.0
 11
24.5
 21
-15.650009155273438
 31
0.0
  0
LINE
  5
281
100
AcDbEntity
  8
0
  6
CONTINUOUS
 62
               4
100
AcDbLine
 10
15.5
 20
-48.350006103515625
 30
0.0
 11
24.5
 21
-48.350006103515625
 31
0.0
  0
LINE
  5
282
100
AcDbEntity
  8
0
  6
CONTINUOUS
 62
               4
100
AcDbLine
 10
15.5
 20
-15.650009155273438
 30
0.0
 11
15.5
 21
-48.350006103515625
 31
0.0
  0
LINE
  5
283
100
AcDbEntity
  8
0
  6
CONTINUOUS
 62
               4
100
AcDbLine
 10
24.5
 20
-15.650009155273438
 30
0.0
 11
24.5
 21
-48.350006103515625
 31
0.0
  0
LINE
  5
284
100
AcDbEntity
  8
0
  6
CONTINUOUS
 62
               4
100
AcDbLine
 10
11.5
 20
-2.5
 30
0.0
 11
11.5
 21
-61.5
 31
0.0
  0
LINE
  5
285
100
AcDbEntity
  8
0
  6
CONTINUOUS
 62
               4
100
AcDbLine
 10
28.5
 20
-2.5
 30
0.0
 11
28.5
 21
-61.5
 31
0.0
  0
LINE
  5
286
100
AcDbEntity
  8
0
  6
CONTINUOUS
 62
               4
100
AcDbLine
 10
11.5
 20
-2.5
 30
0.0
 11
28.5
 21
-2.5
 31
0.0
  0
LINE
  5
287
100
AcDbEntity
  8
0
  6
CONTINUOUS
 62
               4
100
AcDbLine
 10
11.5
 20
-61.5
 30
0.0
 11
28.5
 21
-61.5
 31
0.0
  0
LINE
  5
288
100
AcDbEntity
  8
0
  6
CONTINUOUS
 62
               4
100
AcDbLine
 10
28.899993896484375
 20
-84.5
 30
0.0
 11
30.5
 21
-84.5
 31
0.0
  0
LINE
  5
289
100
AcDbEntity
  8
0
  6
CONTINUOUS
 62
               4
100
AcDbLine
 10
11.099990844726563
 20
-84.75
 30
0.0
 11
28.899993896484375
 21
-84.75
 31
0.0
  0
LINE
  5
28A
100
AcDbEntity
  8
0
  6
CONTINUOUS
 62
               4
100
AcDbLine
 10
11.099990844726563
 20
-63.75
 30
0.0
 11
28.899993896484375
 21
-63.75
 31
0.0
  0
LINE
  5
28B
100
AcDbEntity
  8
0
  6
CONTINUOUS
 62
               4
100
AcDbLine
 10
28.899993896484375
 20
-63.75
 30
0.0
 11
28.899993896484375
 21
-84.75
 31
0.0
  0
LINE
  5
28C
100
AcDbEntity
  8
0
  6
CONTINUOUS
 62
               4
100
AcDbLine
 10
11.099990844726563
 20
-63.75
 30
0.0
 11
11.099990844726563
 21
-84.75
 31
0.0
  0
LINE
  5
28D
100
AcDbEntity
  8
0
  6
CONTINUOUS
 62
               4
100
AcDbLine
 10
21.25
 20
-71.0
 30
0.0
 11
22.0
 21
-71.0
 31
0.0
  0
LINE
  5
28E
100
AcDbEntity
  8
0
  6
CONTINUOUS
 62
               4
100
AcDbLine
 10
21.25
 20
-70.5
 30
0.0
 11
22.0
 21
-70.5
 31
0.0
  0
LINE
  5
28F
100
AcDbEntity
  8
0
  6
CONTINUOUS
 62
               4
100
AcDbLine
 10
21.25
 20
-71.0
 30
0.0
 11
21.25
 21
-71.75
 31
0.0
  0
LINE
  5
290
100
AcDbEntity
  8
0
  6
CONTINUOUS
 62
               4
100
AcDbLine
 10
20.75
 20
-71.0
 30
0.0
 11
20.75
 21
-71.75
 31
0.0
  0
LINE
  5
291
100
AcDbEntity
  8
0
  6
CONTINUOUS
 62
               4
100
AcDbLine
 10
20.75
 20
-69.75
 30
0.0
 11
21.25
 21
-69.75
 31
0.0
  0
LINE
  5
292
100
AcDbEntity
  8
0
  6
CONTINUOUS
 62
               4
100
AcDbLine
 10
20.75
 20
-71.75
 30
0.0
 11
21.25
 21
-71.75
 31
0.0
  0
LINE
  5
293
100
AcDbEntity
  8
0
  6
CONTINUOUS
 62
               4
100
AcDbLine
 10
22.0
 20
-70.5
 30
0.0
 11
22.0
 21
-71.0
 31
0.0
  0
LINE
  5
294
100
AcDbEntity
  8
0
  6
CONTINUOUS
 62
               4
100
AcDbLine
 10
12.5
 20
-70.5
 30
0.0
 11
12.5
 21
-71.0
 31
0.0
  0
LINE
  5
295
100
AcDbEntity
  8
0
  6
CONTINUOUS
 62
               4
100
AcDbLine
 10
14.5
 20
-70.5
 30
0.0
 11
14.5
 21
-71.0
 31
0.0
  0
LINE
  5
296
100
AcDbEntity
  8
0
  6
CONTINUOUS
 62
               4
100
AcDbLine
 10
12.5
 20
-71.0
 30
0.0
 11
14.5
 21
-71.0
 31
0.0
  0
LINE
  5
297
100
AcDbEntity
  8
0
  6
CONTINUOUS
 62
               4
100
AcDbLine
 10
12.5
 20
-70.5
 30
0.0
 11
14.5
 21
-70.5
 31
0.0
  0
LINE
  5
298
100
AcDbEntity
  8
0
  6
CONTINUOUS
 62
               4
100
AcDbLine
 10
20.75
 20
-69.75
 30
0.0
 11
20.75
 21
-70.5
 31
0.0
  0
LINE
  5
299
100
AcDbEntity
  8
0
  6
CONTINUOUS
 62
               4
100
AcDbLine
 10
21.25
 20
-69.75
 30
0.0
 11
21.25
 21
-70.5
 31
0.0
  0
LINE
  5
29A
100
AcDbEntity
  8
0
  6
CONTINUOUS
 62
               4
100
AcDbLine
 10
20.0
 20
-70.5
 30
0.0
 11
20.75
 21
-70.5
 31
0.0
  0
LINE
  5
29B
100
AcDbEntity
  8
0
  6
CONTINUOUS
 62
               4
100
AcDbLine
 10
20.0
 20
-71.0
 30
0.0
 11
20.75
 21
-71.0
 31
0.0
  0
LINE
  5
29C
100
AcDbEntity
  8
0
  6
CONTINUOUS
 62
               4
100
AcDbLine
 10
19.5
 20
-72.0
 30
0.0
 11
22.5
 21
-72.0
 31
0.0
  0
LINE
  5
29D
100
AcDbEntity
  8
0
  6
CONTINUOUS
 62
               4
100
AcDbLine
 10
19.5
 20
-69.5
 30
0.0
 11
22.5
 21
-69.5
 31
0.0
  0
LINE
  5
29E
100
AcDbEntity
  8
0
  6
CONTINUOUS
 62
               4
100
AcDbLine
 10
12.0
 20
-69.5
 30
0.0
 11
12.0
 21
-72.0
 31
0.0
  0
LINE
  5
29F
100
AcDbEntity
  8
0
  6
CONTINUOUS
 62
               4
100
AcDbLine
 10
19.5
 20
-69.5
 30
0.0
 11
19.5
 21
-72.0
 31
0.0
  0
LINE
  5
2A0
100
AcDbEntity
  8
0
  6
CONTINUOUS
 62
               4
100
AcDbLine
 10
15.0
 20
-69.5
 30
0.0
 11
15.0
 21
-72.0
 31
0.0
  0
LINE
  5
2A1
100
AcDbEntity
  8
0
  6
CONTINUOUS
 62
               4
100
AcDbLine
 10
22.5
 20
-69.5
 30
0.0
 11
22.5
 21
-72.0
 31
0.0
  0
LINE
  5
2A2
100
AcDbEntity
  8
0
  6
CONTINUOUS
 62
               4
100
AcDbLine
 10
12.0
 20
-69.5
 30
0.0
 11
15.0
 21
-69.5
 31
0.0
  0
LINE
  5
2A3
100
AcDbEntity
  8
0
  6
CONTINUOUS
 62
               4
100
AcDbLine
 10
12.0
 20
-72.0
 30
0.0
 11
15.0
 21
-72.0
 31
0.0
  0
LINE
  5
2A4
100
AcDbEntity
  8
0
  6
CONTINUOUS
 62
               4
100
AcDbLine
 10
21.550003051757813
 20
-75.100006103515625
 30
0.0
 11
22.349990844726563
 21
-75.100006103515625
 31
0.0
  0
LINE
  5
2A5
100
AcDbEntity
  8
0
  6
CONTINUOUS
 62
               4
100
AcDbLine
 10
26.649993896484375
 20
-75.100006103515625
 30
0.0
 11
27.449996948242187
 21
-75.100006103515625
 31
0.0
  0
LINE
  5
2A6
100
AcDbEntity
  8
0
  6
CONTINUOUS
 62
               4
100
AcDbLine
 10
26.649993896484375
 20
-80.5
 30
0.0
 11
27.449996948242187
 21
-80.5
 31
0.0
  0
LINE
  5
2A7
100
AcDbEntity
  8
0
  6
CONTINUOUS
 62
               4
100
AcDbLine
 10
21.550003051757813
 20
-80.5
 30
0.0
 11
22.349990844726563
 21
-80.5
 31
0.0
  0
LINE
  5
2A8
100
AcDbEntity
  8
0
  6
CONTINUOUS
 62
               4
100
AcDbLine
 10
17.649993896484375
 20
-80.5
 30
0.0
 11
18.449996948242188
 21
-80.5
 31
0.0
  0
LINE
  5
2A9
100
AcDbEntity
  8
0
  6
CONTINUOUS
 62
               4
100
AcDbLine
 10
12.550003051757812
 20
-80.5
 30
0.0
 11
13.349990844726562
 21
-80.5
 31
0.0
  0
LINE
  5
2AA
100
AcDbEntity
  8
0
  6
CONTINUOUS
 62
               4
100
AcDbLine
 10
12.550003051757812
 20
-75.100006103515625
 30
0.0
 11
13.349990844726562
 21
-75.100006103515625
 31
0.0
  0
LINE
  5
2AB
100
AcDbEntity
  8
0
  6
CONTINUOUS
 62
               4
100
AcDbLine
 10
17.649993896484375
 20
-75.100006103515625
 30
0.0
 11
18.449996948242188
 21
-75.100006103515625
 31
0.0
  0
LINE
  5
2AC
100
AcDbEntity
  8
0
  6
CONTINUOUS
 62
               4
100
AcDbLine
 10
12.550003051757812
 20
-75.100006103515625
 30
0.0
 11
12.550003051757812
 21
-80.5
 31
0.0
  0
LINE
  5
2AD
100
AcDbEntity
  8
0
  6
CONTINUOUS
 62
               4
100
AcDbLine
 10
18.449996948242188
 20
-75.100006103515625
 30
0.0
 11
18.449996948242188
 21
-80.5
 31
0.0
  0
LINE
  5
2AE
100
AcDbEntity
  8
0
  6
CONTINUOUS
 62
               4
100
AcDbLine
 10
27.449996948242187
 20
-75.100006103515625
 30
0.0
 11
27.449996948242187
 21
-80.5
 31
0.0
  0
LINE
  5
2AF
100
AcDbEntity
  8
0
  6
CONTINUOUS
 62
               4
100
AcDbLine
 10
21.550003051757813
 20
-75.100006103515625
 30
0.0
 11
21.550003051757813
 21
-80.5
 31
0.0
  0
LINE
  5
2B0
100
AcDbEntity
  8
0
  6
CONTINUOUS
 62
               4
100
AcDbLine
 10
26.649993896484375
 20
-80.5
 30
0.0
 11
26.649993896484375
 21
-81.300003051757812
 31
0.0
  0
LINE
  5
2B1
100
AcDbEntity
  8
0
  6
CONTINUOUS
 62
               4
100
AcDbLine
 10
22.349990844726563
 20
-80.5
 30
0.0
 11
22.349990844726563
 21
-81.300003051757812
 31
0.0
  0
LINE
  5
2B2
100
AcDbEntity
  8
0
  6
CONTINUOUS
 62
               4
100
AcDbLine
 10
17.649993896484375
 20
-80.5
 30
0.0
 11
17.649993896484375
 21
-81.300003051757812
 31
0.0
  0
LINE
  5
2B3
100
AcDbEntity
  8
0
  6
CONTINUOUS
 62
               4
100
AcDbLine
 10
13.349990844726562
 20
-80.5
 30
0.0
 11
13.349990844726562
 21
-81.300003051757812
 31
0.0
  0
LINE
  5
2B4
100
AcDbEntity
  8
0
  6
CONTINUOUS
 62
               4
100
AcDbLine
 10
22.349990844726563
 20
-81.300003051757812
 30
0.0
 11
26.649993896484375
 21
-81.300003051757812
 31
0.0
  0
LINE
  5
2B5
100
AcDbEntity
  8
0
  6
CONTINUOUS
 62
               4
100
AcDbLine
 10
22.349990844726563
 20
-74.300003051757813
 30
0.0
 11
26.649993896484375
 21
-74.300003051757813
 31
0.0
  0
LINE
  5
2B6
100
AcDbEntity
  8
0
  6
CONTINUOUS
 62
               4
100
AcDbLine
 10
28.0
 20
-72.5
 30
0.0
 11
28.0
 21
-82.800003051757813
 31
0.0
  0
LINE
  5
2B7
100
AcDbEntity
  8
0
  6
CONTINUOUS
 62
               4
100
AcDbLine
 10
12.0
 20
-72.5
 30
0.0
 11
12.0
 21
-82.800003051757813
 31
0.0
  0
LINE
  5
2B8
100
AcDbEntity
  8
0
  6
CONTINUOUS
 62
               4
100
AcDbLine
 10
26.649993896484375
 20
-74.300003051757813
 30
0.0
 11
26.649993896484375
 21
-75.100006103515625
 31
0.0
  0
LINE
  5
2B9
100
AcDbEntity
  8
0
  6
CONTINUOUS
 62
               4
100
AcDbLine
 10
13.349990844726562
 20
-74.300003051757813
 30
0.0
 11
13.349990844726562
 21
-75.100006103515625
 31
0.0
  0
LINE
  5
2BA
100
AcDbEntity
  8
0
  6
CONTINUOUS
 62
               4
100
AcDbLine
 10
17.649993896484375
 20
-74.300003051757813
 30
0.0
 11
17.649993896484375
 21
-75.100006103515625
 31
0.0
  0
LINE
  5
2BB
100
AcDbEntity
  8
0
  6
CONTINUOUS
 62
               4
100
AcDbLine
 10
22.349990844726563
 20
-74.300003051757813
 30
0.0
 11
22.349990844726563
 21
-75.100006103515625
 31
0.0
  0
LINE
  5
2BC
100
AcDbEntity
  8
0
  6
CONTINUOUS
 62
               4
100
AcDbLine
 10
13.349990844726562
 20
-74.300003051757813
 30
0.0
 11
17.649993896484375
 21
-74.300003051757813
 31
0.0
  0
LINE
  5
2BD
100
AcDbEntity
  8
0
  6
CONTINUOUS
 62
               4
100
AcDbLine
 10
13.349990844726562
 20
-81.300003051757812
 30
0.0
 11
17.649993896484375
 21
-81.300003051757812
 31
0.0
  0
LINE
  5
2BE
100
AcDbEntity
  8
0
  6
CONTINUOUS
 62
               4
100
AcDbLine
 10
19.0
 20
-72.5
 30
0.0
 11
19.0
 21
-82.300003051757812
 31
0.0
  0
LINE
  5
2BF
100
AcDbEntity
  8
0
  6
CONTINUOUS
 62
               4
100
AcDbLine
 10
21.0
 20
-72.5
 30
0.0
 11
21.0
 21
-82.300003051757812
 31
0.0
  0
LINE
  5
2C0
100
AcDbEntity
  8
0
  6
CONTINUOUS
 62
               4
100
AcDbLine
 10
19.0
 20
-82.300003051757812
 30
0.0
 11
21.0
 21
-82.300003051757812
 31
0.0
  0
LINE
  5
2C1
100
AcDbEntity
  8
0
  6
CONTINUOUS
 62
               4
100
AcDbLine
 10
11.0
 20
-63.5
 30
0.0
 11
29.0
 21
-63.5
 31
0.0
  0
LINE
  5
2C2
100
AcDbEntity
  8
0
  6
CONTINUOUS
 62
               4
100
AcDbLine
 10
11.0
 20
-72.5
 30
0.0
 11
29.0
 21
-72.5
 31
0.0
  0
LINE
  5
2C3
100
AcDbEntity
  8
0
  6
CONTINUOUS
 62
               4
100
AcDbLine
 10
16.5
 20
-82.800003051757813
 30
0.0
 11
16.5
 21
-83.0
 31
0.0
  0
LINE
  5
2C4
100
AcDbEntity
  8
0
  6
CONTINUOUS
 62
               4
100
AcDbLine
 10
23.5
 20
-82.800003051757813
 30
0.0
 11
23.5
 21
-83.0
 31
0.0
  0
LINE
  5
2C5
100
AcDbEntity
  8
0
  6
CONTINUOUS
 62
               4
100
AcDbLine
 10
20.0
 20
-70.5
 30
0.0
 11
20.0
 21
-71.0
 31
0.0
  0
LINE
  5
2C6
100
AcDbEntity
  8
0
  6
CONTINUOUS
 62
               4
100
AcDbLine
 10
29.0
 20
-63.5
 30
0.0
 11
29.0
 21
-84.5
 31
0.0
  0
LINE
  5
2C7
100
AcDbEntity
  8
0
  6
CONTINUOUS
 62
               4
100
AcDbLine
 10
11.0
 20
-63.5
 30
0.0
 11
11.0
 21
-84.5
 31
0.0
  0
LINE
  5
2C8
100
AcDbEntity
  8
0
  6
CONTINUOUS
 62
               4
100
AcDbLine
 10
11.0
 20
-83.0
 30
0.0
 11
29.0
 21
-83.0
 31
0.0
  0
LINE
  5
2C9
100
AcDbEntity
  8
0
  6
CONTINUOUS
 62
               4
100
AcDbLine
 10
11.0
 20
-82.800003051757813
 30
0.0
 11
29.0
 21
-82.800003051757813
 31
0.0
  0
LINE
  5
2CA
100
AcDbEntity
  8
0
  6
CONTINUOUS
 62
               4
100
AcDbLine
 10
18.939362688671281
 20
4.0606571785538108
 30
0.0
 11
21.060680298527814
 21
1.9393393898835711
 31
0.0
  0
LINE
  5
2CB
100
AcDbEntity
  8
0
  6
CONTINUOUS
 62
               4
100
AcDbLine
 10
18.939341020078245
 20
1.9393583610799396
 30
0.0
 11
21.060661506146971
 21
4.0606786683347309
 31
0.0
  0
LINE
  5
2CC
100
AcDbEntity
  8
0
  6
CONTINUOUS
 62
               4
100
AcDbLine
 10
9.5
 20
8.5
 30
0.0
 11
30.5
 21
8.5
 31
0.0
  0
LINE
  5
2CD
100
AcDbEntity
  8
0
  6
CONTINUOUS
 62
               4
100
AcDbLine
 10
9.5
 20
9.0
 30
0.0
 11
30.5
 21
9.0
 31
0.0
  0
LINE
  5
2CE
100
AcDbEntity
  8
0
  6
CONTINUOUS
 62
               7
100
AcDbLine
 10
92.0
 20
26.0
 30
0.0
 11
92.0
 21
34.499984741210937
 31
0.0
  0
LINE
  5
2CF
100
AcDbEntity
  8
0
  6
CONTINUOUS
 62
               7
100
AcDbLine
 10
102.0
 20
26.0
 30
0.0
 11
102.0
 21
34.499984741210937
 31
0.0
  0
LINE
  5
2D0
100
AcDbEntity
  8
0
  6
CONTINUOUS
 62
               7
100
AcDbLine
 10
92.5
 20
34.999984741210938
 30
0.0
 11
101.5
 21
34.999984741210938
 31
0.0
  0
LINE
  5
2D1
100
AcDbEntity
  8
0
  6
CONTINUOUS
 62
               7
100
AcDbLine
 10
130.5
 20
5.5
 30
0.0
 11
130.5
 21
42.5
 31
0.0
  0
LINE
  5
2D2
100
AcDbEntity
  8
0
  6
CONTINUOUS
 62
               7
100
AcDbLine
 10
6.5
 20
5.5
 30
0.0
 11
6.5
 21
42.5
 31
0.0
  0
LINE
  5
2D3
100
AcDbEntity
  8
0
  6
CONTINUOUS
 62
               2
100
AcDbLine
 10
1.0
 20
-83.014633178710952
 30
0.0
 11
1.0
 21
-75.216247558593764
 31
0.0
  0
LINE
  5
2D4
100
AcDbEntity
  8
0
  6
CONTINUOUS
 62
               2
100
AcDbLine
 10
137.0
 20
4.0146331787109375
 30
0.0
 11
137.0
 21
-3.78375244140625
 31
0.0
  0
LINE
  5
2D5
100
AcDbEntity
  8
0
  6
CONTINUOUS
 62
               7
100
AcDbLine
 10
45.5
 20
25.5
 30
0.0
 11
45.5
 21
39.5
 31
0.0
  0
LINE
  5
2D6
100
AcDbEntity
  8
0
  6
CONTINUOUS
 62
               7
100
AcDbLine
 10
45.0
 20
25.5
 30
0.0
 11
45.5
 21
25.5
 31
0.0
  0
LINE
  5
2D7
100
AcDbEntity
  8
0
  6
CONTINUOUS
 62
               7
100
AcDbLine
 10
34.5
 20
25.5
 30
0.0
 11
34.5
 21
39.5
 31
0.0
  0
LINE
  5
2D8
100
AcDbEntity
  8
0
  6
CONTINUOUS
 62
               7
100
AcDbLine
 10
34.5
 20
25.5
 30
0.0
 11
35.0
 21
25.5
 31
0.0
  0
LINE
  5
2D9
100
AcDbEntity
  8
0
  6
CONTINUOUS
 62
               7
100
AcDbLine
 10
102.5
 20
42.5
 30
0.0
 11
102.5
 21
41.0
 31
0.0
  0
LINE
  5
2DA
100
AcDbEntity
  8
0
  6
CONTINUOUS
 62
               7
100
AcDbLine
 10
91.5
 20
25.5
 30
0.0
 11
102.5
 21
25.5
 31
0.0
  0
LINE
  5
2DB
100
AcDbEntity
  8
0
  6
CONTINUOUS
 62
               7
100
AcDbLine
 10
91.5
 20
25.500000000000028
 30
0.0
 11
91.5
 21
39.5
 31
0.0
  0
LINE
  5
2DC
100
AcDbEntity
  8
0
  6
CONTINUOUS
 62
               7
100
AcDbLine
 10
100.86789136375046
 20
34.999984928072081
 30
0.0
 11
101.00187311642912
 21
35.500015709958461
 31
0.0
  0
LINE
  5
2DD
100
AcDbEntity
  8
0
  6
CONTINUOUS
 62
               7
100
AcDbLine
 10
93.132090889844221
 20
34.999974391389514
 30
0.0
 11
92.998112129907895
 21
35.499990187572621
 31
0.0
  0
LINE
  5
2DE
100
AcDbEntity
  8
0
  6
CONTINUOUS
 62
               7
100
AcDbLine
 10
101.69999694824219
 20
34.958236694335938
 30
0.0
 11
101.69999694824219
 21
35.5
 31
0.0
  0
LINE
  5
2DF
100
AcDbEntity
  8
0
  6
CONTINUOUS
 62
               7
100
AcDbLine
 10
92.300003051757813
 20
34.999984741210938
 30
0.0
 11
92.300003051757813
 21
35.5
 31
0.0
  0
LINE
  5
2E0
100
AcDbEntity
  8
0
  6
CONTINUOUS
 62
               7
100
AcDbLine
 10
30.5
 20
7.5
 30
0.0
 11
35.0
 21
7.5
 31
0.0
  0
LINE
  5
2E1
100
AcDbEntity
  8
0
  6
CONTINUOUS
 62
               7
100
AcDbLine
 10
45.0
 20
7.5
 30
0.0
 11
49.5
 21
7.5
 31
0.0
  0
LINE
  5
2E2
100
AcDbEntity
  8
0
  6
CONTINUOUS
 62
               7
100
AcDbLine
 10
30.5
 20
39.5
 30
0.0
 11
34.5
 21
39.5
 31
0.0
  0
LINE
  5
2E3
100
AcDbEntity
  8
0
  6
CONTINUOUS
 62
               4
100
AcDbLine
 10
9.5
 20
42.5
 30
0.0
 11
30.5
 21
42.5
 31
0.0
  0
LINE
  5
2E4
100
AcDbEntity
  8
0
  6
CONTINUOUS
 62
               7
100
AcDbLine
 10
45.5
 20
39.5
 30
0.0
 11
49.5
 21
39.5
 31
0.0
  0
LINE
  5
2E5
100
AcDbEntity
  8
0
  6
CONTINUOUS
 62
               7
100
AcDbLine
 10
87.5
 20
39.5
 30
0.0
 11
91.5
 21
39.5
 31
0.0
  0
LINE
  5
2E6
100
AcDbEntity
  8
0
  6
CONTINUOUS
 62
               7
100
AcDbLine
 10
87.5
 20
7.5
 30
0.0
 11
127.5
 21
7.5
 31
0.0
  0
LINE
  5
2E7
100
AcDbEntity
  8
0
  6
CONTINUOUS
 62
               7
100
AcDbLine
 10
30.5
 20
5.5
 30
0.0
 11
35.0
 21
5.5
 31
0.0
  0
LINE
  5
2E8
100
AcDbEntity
  8
0
  6
CONTINUOUS
 62
               7
100
AcDbLine
 10
9.5
 20
-84.500015258789063
 30
0.0
 11
9.5
 21
42.5
 31
0.0
  0
LINE
  5
2E9
100
AcDbEntity
  8
0
  6
CONTINUOUS
 62
               7
100
AcDbLine
 10
31.0
 20
-82.500015258789063
 30
0.0
 11
30.75
 21
-82.500015258789063
 31
0.0
  0
LINE
  5
2EA
100
AcDbEntity
  8
0
  6
CONTINUOUS
 62
               7
100
AcDbLine
 10
30.75
 20
-83.000015258789063
 30
0.0
 11
30.75
 21
-82.500015258789063
 31
0.0
  0
LINE
  5
2EB
100
AcDbEntity
  8
0
  6
CONTINUOUS
 62
               4
100
AcDbLine
 10
125.0
 20
-103.09999694824219
 30
0.0
 11
125.0
 21
-102.09999694824219
 31
0.0
  0
LINE
  5
2EC
100
AcDbEntity
  8
0
  6
CONTINUOUS
 62
               4
100
AcDbLine
 10
109.0
 20
-103.09999694824219
 30
0.0
 11
109.0
 21
-102.09999694824219
 31
0.0
  0
LINE
  5
2ED
100
AcDbEntity
  8
0
  6
CONTINUOUS
 62
               4
100
AcDbLine
 10
110.0
 20
-104.10000457763672
 30
0.0
 11
110.0
 21
-103.09999694824219
 31
0.0
  0
LINE
  5
2EE
100
AcDbEntity
  8
0
  6
CONTINUOUS
 62
               4
100
AcDbLine
 10
124.0
 20
-104.10000457763672
 30
0.0
 11
124.0
 21
-103.09999694824219
 31
0.0
  0
LINE
  5
2EF
100
AcDbEntity
  8
0
  6
CONTINUOUS
 62
               4
100
AcDbLine
 10
107.0
 20
-100.59999694824219
 30
0.0
 11
127.0
 21
-100.59999694824219
 31
0.0
  0
LINE
  5
2F0
100
AcDbEntity
  8
0
  6
CONTINUOUS
 62
               4
100
AcDbLine
 10
127.0000635604747
 20
-100.60001871095429
 30
0.0
 11
125.50006196809045
 21
-102.10002030333854
 31
0.0
  0
LINE
  5
2F1
100
AcDbEntity
  8
0
  6
CONTINUOUS
 62
               4
100
AcDbLine
 10
108.50001978778619
 20
-102.10000956432341
 30
0.0
 11
107.00001832184262
 21
-100.6000077190578
 31
0.0
  0
LINE
  5
2F2
100
AcDbEntity
  8
0
  6
CONTINUOUS
 62
               4
100
AcDbLine
 10
109.0
 20
-103.09999694824219
 30
0.0
 11
125.0
 21
-103.09999694824219
 31
0.0
  0
LINE
  5
2F3
100
AcDbEntity
  8
0
  6
CONTINUOUS
 62
               4
100
AcDbLine
 10
108.5
 20
-102.09999694824219
 30
0.0
 11
125.5
 21
-102.09999694824219
 31
0.0
  0
LINE
  5
2F4
100
AcDbEntity
  8
0
  6
CONTINUOUS
 62
               4
100
AcDbLine
 10
108.0
 20
-104.10000457763672
 30
0.0
 11
126.0
 21
-104.10000457763672
 31
0.0
  0
LINE
  5
2F5
100
AcDbEntity
  8
0
  6
CONTINUOUS
 62
               4
100
AcDbLine
 10
127.0
 20
-84.500015258789063
 30
0.0
 11
127.0
 21
-100.59999694824219
 31
0.0
  0
LINE
  5
2F6
100
AcDbEntity
  8
0
  6
CONTINUOUS
 62
               4
100
AcDbLine
 10
126.0
 20
-104.10000457763672
 30
0.0
 11
126.0
 21
-106.30000534057618
 31
0.0
  0
LINE
  5
2F7
100
AcDbEntity
  8
0
  6
CONTINUOUS
 62
               4
100
AcDbLine
 10
108.0
 20
-104.10000457763672
 30
0.0
 11
108.0
 21
-106.30000534057618
 31
0.0
  0
LINE
  5
2F8
100
AcDbEntity
  8
0
  6
CONTINUOUS
 62
               4
100
AcDbLine
 10
107.0
 20
-84.500015258789063
 30
0.0
 11
107.0
 21
-100.59999694824219
 31
0.0
  0
LINE
  5
2F9
100
AcDbEntity
  8
0
  6
CONTINUOUS
 62
               4
100
AcDbLine
 10
108.0
 20
-106.30000534057618
 30
0.0
 11
126.0
 21
-106.30000534057618
 31
0.0
  0
LINE
  5
2FA
100
AcDbEntity
  8
0
  6
CONTINUOUS
 62
             200
100
AcDbLine
 10
117.0
 20
-107.30001425878908
 30
0.0
 11
117.0
 21
-84.500015258789063
 31
0.0
  0
LINE
  5
2FB
100
AcDbEntity
  8
0
  6
CONTINUOUS
 62
               7
100
AcDbLine
 10
127.5
 20
-83.774871826171875
 30
0.0
 11
124.0
 21
-83.774871826171875
 31
0.0
  0
LINE
  5
2FC
100
AcDbEntity
  8
0
  6
CONTINUOUS
 62
               7
100
AcDbLine
 10
106.5
 20
-83.774871826171875
 30
0.0
 11
110.0
 21
-83.774871826171875
 31
0.0
  0
LINE
  5
2FD
100
AcDbEntity
  8
0
  6
CONTINUOUS
 62
               7
100
AcDbLine
 10
127.5
 20
-80.097869873046875
 30
0.0
 11
124.0
 21
-80.097869873046875
 31
0.0
  0
LINE
  5
2FE
100
AcDbEntity
  8
0
  6
CONTINUOUS
 62
               7
100
AcDbLine
 10
127.5
 20
-78.82513427734375
 30
0.0
 11
124.0
 21
-78.82513427734375
 31
0.0
  0
LINE
  5
2FF
100
AcDbEntity
  8
0
  6
CONTINUOUS
 62
               7
100
AcDbLine
 10
106.5
 20
-80.097869873046875
 30
0.0
 11
110.0
 21
-80.097869873046875
 31
0.0
  0
LINE
  5
300
100
AcDbEntity
  8
0
  6
CONTINUOUS
 62
               7
100
AcDbLine
 10
106.5
 20
-78.82513427734375
 30
0.0
 11
110.0
 21
-78.82513427734375
 31
0.0
  0
LINE
  5
301
100
AcDbEntity
  8
0
  6
CONTINUOUS
 62
               2
100
AcDbLine
 10
0.0
 20
4.0146331787109375
 30
0.0
 11
0.0
 21
-3.78375244140625
 31
0.0
  0
LINE
  5
302
100
AcDbEntity
  8
0
  6
CONTINUOUS
 62
               7
100
AcDbLine
 10
1.0
 20
2.1999969482421875
 30
0.0
 11
-1.0
 21
2.1999969482421875
 31
0.0
  0
LINE
  5
303
100
AcDbEntity
  8
0
  6
CONTINUOUS
 62
               7
100
AcDbLine
 10
1.0
 20
-2.1999969482421875
 30
0.0
 11
-1.0
 21
-2.1999969482421875
 31
0.0
  0
LINE
  5
304
100
AcDbEntity
  8
0
  6
CONTINUOUS
 62
               2
100
AcDbLine
 10
4.7909698486328125
 20
0.0
 30
0.0
 11
-5.0516510009765625
 21
0.0
 31
0.0
  0
LINE
  5
305
100
AcDbEntity
  8
0
  6
CONTINUOUS
 62
               7
100
AcDbLine
 10
6.5
 20
5.5
 30
0.0
 11
6.5
 21
-5.5
 31
0.0
  0
LINE
  5
306
100
AcDbEntity
  8
0
  6
CONTINUOUS
 62
               7
100
AcDbLine
 10
6.5
 20
-5.5
 30
0.0
 11
-6.5
 21
-5.5
 31
0.0
  0
LINE
  5
307
100
AcDbEntity
  8
0
  6
CONTINUOUS
 62
               2
100
AcDbLine
 10
0.0
 20
-83.0146484375
 30
0.0
 11
0.0
 21
-75.216262817382813
 31
0.0
  0
LINE
  5
308
100
AcDbEntity
  8
0
  6
CONTINUOUS
 62
               7
100
AcDbLine
 10
1.0
 20
-81.20001220703125
 30
0.0
 11
-1.0
 21
-81.20001220703125
 31
0.0
  0
LINE
  5
309
100
AcDbEntity
  8
0
  6
CONTINUOUS
 62
               7
100
AcDbLine
 10
1.0
 20
-76.800003051757813
 30
0.0
 11
-1.0
 21
-76.800003051757813
 31
0.0
  0
LINE
  5
30A
100
AcDbEntity
  8
0
  6
CONTINUOUS
 62
               2
100
AcDbLine
 10
4.7909698486328125
 20
-79.0
 30
0.0
 11
-5.0516510009765625
 21
-79.0
 31
0.0
  0
LINE
  5
30B
100
AcDbEntity
  8
0
  6
CONTINUOUS
 62
               7
100
AcDbLine
 10
6.5
 20
-84.500015258789063
 30
0.0
 11
6.5
 21
-73.500015258789063
 31
0.0
  0
LINE
  5
30C
100
AcDbEntity
  8
0
  6
CONTINUOUS
 62
               7
100
AcDbLine
 10
-6.5
 20
-84.500015258789063
 30
0.0
 11
-6.5
 21
5.5
 31
0.0
  0
LINE
  5
30D
100
AcDbEntity
  8
0
  6
CONTINUOUS
 62
               7
100
AcDbLine
 10
6.5
 20
-73.500015258789063
 30
0.0
 11
-6.5
 21
-73.500015258789063
 31
0.0
  0
LINE
  5
30E
100
AcDbEntity
  8
0
  6
CONTINUOUS
 62
               7
100
AcDbLine
 10
11.099990844726563
 20
-84.500015258789063
 30
0.0
 11
-6.5
 21
-84.500015258789063
 31
0.0
  0
LINE
  5
30F
100
AcDbEntity
  8
0
  6
CONTINUOUS
 62
               2
100
AcDbLine
 10
-1.0
 20
-83.014633178710952
 30
0.0
 11
-1.0
 21
-75.216247558593764
 31
0.0
  0
LINE
  5
310
100
AcDbEntity
  8
0
  6
CONTINUOUS
 62
               7
100
AcDbLine
 10
136.0
 20
2.1999969482421875
 30
0.0
 11
138.0
 21
2.1999969482421875
 31
0.0
  0
LINE
  5
311
100
AcDbEntity
  8
0
  6
CONTINUOUS
 62
               7
100
AcDbLine
 10
136.0
 20
-2.1999969482421875
 30
0.0
 11
138.0
 21
-2.1999969482421875
 31
0.0
  0
LINE
  5
312
100
AcDbEntity
  8
0
  6
CONTINUOUS
 62
               2
100
AcDbLine
 10
132.20903015136719
 20
0.0
 30
0.0
 11
142.05165100097656
 21
0.0
 31
0.0
  0
LINE
  5
313
100
AcDbEntity
  8
0
  6
CONTINUOUS
 62
               7
100
AcDbLine
 10
130.5
 20
5.5
 30
0.0
 11
130.5
 21
-5.5
 31
0.0
  0
LINE
  5
314
100
AcDbEntity
  8
0
  6
CONTINUOUS
 62
               7
100
AcDbLine
 10
130.5
 20
-5.5
 30
0.0
 11
143.5
 21
-5.5
 31
0.0
  0
LINE
  5
315
100
AcDbEntity
  8
0
  6
CONTINUOUS
 62
               2
100
AcDbLine
 10
137.0
 20
-83.0146484375
 30
0.0
 11
137.0
 21
-75.216262817382813
 31
0.0
  0
LINE
  5
316
100
AcDbEntity
  8
0
  6
CONTINUOUS
 62
               7
100
AcDbLine
 10
136.0
 20
-81.20001220703125
 30
0.0
 11
138.0
 21
-81.20001220703125
 31
0.0
  0
LINE
  5
317
100
AcDbEntity
  8
0
  6
CONTINUOUS
 62
               7
100
AcDbLine
 10
136.0
 20
-76.800003051757813
 30
0.0
 11
138.0
 21
-76.800003051757813
 31
0.0
  0
LINE
  5
318
100
AcDbEntity
  8
0
  6
CONTINUOUS
 62
               2
100
AcDbLine
 10
132.20903015136719
 20
-79.0
 30
0.0
 11
142.05165100097656
 21
-79.0
 31
0.0
  0
LINE
  5
319
100
AcDbEntity
  8
0
  6
CONTINUOUS
 62
               7
100
AcDbLine
 10
130.5
 20
-84.500015258789063
 30
0.0
 11
130.5
 21
-73.500015258789063
 31
0.0
  0
LINE
  5
31A
100
AcDbEntity
  8
0
  6
CONTINUOUS
 62
               7
100
AcDbLine
 10
143.5
 20
-84.500015258789063
 30
0.0
 11
143.5
 21
5.5
 31
0.0
  0
LINE
  5
31B
100
AcDbEntity
  8
0
  6
CONTINUOUS
 62
               7
100
AcDbLine
 10
130.5
 20
-73.500015258789063
 30
0.0
 11
143.5
 21
-73.500015258789063
 31
0.0
  0
LINE
  5
31C
100
AcDbEntity
  8
0
  6
CONTINUOUS
 62
               7
100
AcDbLine
 10
106.5
 20
-78.100006103515625
 30
0.0
 11
127.5
 21
-78.100006103515625
 31
0.0
  0
LINE
  5
31D
100
AcDbEntity
  8
0
  6
CONTINUOUS
 62
               7
100
AcDbLine
 10
112.0
 20
-29.5
 30
0.0
 11
122.0
 21
-29.5
 31
0.0
  0
LINE
  5
31E
100
AcDbEntity
  8
0
  6
CONTINUOUS
 62
               7
100
AcDbLine
 10
122.0
 20
-30.5
 30
0.0
 11
127.5
 21
-30.5
 31
0.0
  0
LINE
  5
31F
100
AcDbEntity
  8
0
  6
CONTINUOUS
 62
               7
100
AcDbLine
 10
112.0
 20
-30.5
 30
0.0
 11
112.0
 21
-29.300003051757813
 31
0.0
  0
LINE
  5
320
100
AcDbEntity
  8
0
  6
CONTINUOUS
 62
               7
100
AcDbLine
 10
122.0
 20
-30.5
 30
0.0
 11
122.0
 21
-29.300003051757813
 31
0.0
  0
LINE
  5
321
100
AcDbEntity
  8
0
  6
CONTINUOUS
 62
               7
100
AcDbLine
 10
112.0
 20
-29.300003051757813
 30
0.0
 11
122.0
 21
-29.300003051757813
 31
0.0
  0
LINE
  5
322
100
AcDbEntity
  8
0
  6
CONTINUOUS
 62
               7
100
AcDbLine
 10
106.5
 20
-30.5
 30
0.0
 11
112.0
 21
-30.5
 31
0.0
  0
LINE
  5
323
100
AcDbEntity
  8
0
  6
CONTINUOUS
 62
               7
100
AcDbLine
 10
106.5
 20
-84.500015258789063
 30
0.0
 11
143.5
 21
-84.500015258789063
 31
0.0
  0
LINE
  5
324
100
AcDbEntity
  8
0
  6
CONTINUOUS
 62
               7
100
AcDbLine
 10
30.5
 20
-84.5
 30
0.0
 11
30.5
 21
42.5
 31
0.0
  0
LINE
  5
325
100
AcDbEntity
  8
0
  6
CONTINUOUS
 62
               7
100
AcDbLine
 10
49.5
 20
-79.500015258789063
 30
0.0
 11
49.5
 21
42.5
 31
0.0
  0
LINE
  5
326
100
AcDbEntity
  8
0
  6
CONTINUOUS
 62
               7
100
AcDbLine
 10
127.5
 20
-84.500015258789063
 30
0.0
 11
127.5
 21
42.5
 31
0.0
  0
LINE
  5
327
100
AcDbEntity
  8
0
  6
CONTINUOUS
 62
               7
100
AcDbLine
 10
106.5
 20
-84.500015258789063
 30
0.0
 11
106.5
 21
42.5
 31
0.0
  0
LINE
  5
328
100
AcDbEntity
  8
0
  6
CONTINUOUS
 62
             200
100
AcDbLine
 10
97.0
 20
-111.84219360351562
 30
0.0
 11
97.0
 21
-79.500015258789063
 31
0.0
  0
LINE
  5
329
100
AcDbEntity
  8
0
  6
CONTINUOUS
 62
               7
100
AcDbLine
 10
-6.5
 20
5.5
 30
0.0
 11
9.5
 21
5.5
 31
0.0
  0
LINE
  5
32A
100
AcDbEntity
  8
0
  6
CONTINUOUS
 62
               7
100
AcDbLine
 10
34.560685212121825
 20
-61.560672827864437
 30
0.0
 11
32.439367050634246
 21
-59.439350196028499
 31
0.0
  0
LINE
  5
32B
100
AcDbEntity
  8
0
  6
CONTINUOUS
 62
               7
100
AcDbLine
 10
32.439351895513028
 20
-61.560662007223073
 30
0.0
 11
34.560665050210446
 21
-59.439334547410908
 31
0.0
  0
LINE
  5
32C
100
AcDbEntity
  8
0
  6
CONTINUOUS
 62
               7
100
AcDbLine
 10
47.560648425028376
 20
-63.560671964983158
 30
0.0
 11
45.43932919065719
 21
-61.43935058484476
 31
0.0
  0
LINE
  5
32D
100
AcDbEntity
  8
0
  6
CONTINUOUS
 62
               7
100
AcDbLine
 10
45.439355709278061
 20
-63.560687319111821
 30
0.0
 11
47.560671724998429
 21
-61.439362541508672
 31
0.0
  0
LINE
  5
32E
100
AcDbEntity
  8
0
  6
CONTINUOUS
 62
               7
100
AcDbLine
 10
47.5
 20
-76.000030517578125
 30
0.0
 11
49.0
 21
-76.000030517578125
 31
0.0
  0
LINE
  5
32F
100
AcDbEntity
  8
0
  6
CONTINUOUS
 62
               7
100
AcDbLine
 10
46.5
 20
-79.000045776367188
 30
0.0
 11
46.5
 21
-78.000030517578125
 31
0.0
  0
LINE
  5
330
100
AcDbEntity
  8
0
  6
CONTINUOUS
 62
               7
100
AcDbLine
 10
47.5
 20
-70.000030517578125
 30
0.0
 11
49.0
 21
-70.000030517578125
 31
0.0
  0
LINE
  5
331
100
AcDbEntity
  8
0
  6
CONTINUOUS
 62
               7
100
AcDbLine
 10
46.5
 20
-68.000030517578125
 30
0.0
 11
46.5
 21
-67.000030517578125
 31
0.0
  0
LINE
  5
332
100
AcDbEntity
  8
0
  6
CONTINUOUS
 62
               7
100
AcDbLine
 10
31.0
 20
-70.000030517578125
 30
0.0
 11
32.5
 21
-70.000030517578125
 31
0.0
  0
LINE
  5
333
100
AcDbEntity
  8
0
  6
CONTINUOUS
 62
               7
100
AcDbLine
 10
33.5
 20
-68.000030517578125
 30
0.0
 11
33.5
 21
-67.000030517578125
 31
0.0
  0
LINE
  5
334
100
AcDbEntity
  8
0
  6
CONTINUOUS
 62
               7
100
AcDbLine
 10
31.0
 20
-76.000030517578125
 30
0.0
 11
32.5
 21
-76.000030517578125
 31
0.0
  0
LINE
  5
335
100
AcDbEntity
  8
0
  6
CONTINUOUS
 62
               7
100
AcDbLine
 10
33.5
 20
-79.000030517578125
 30
0.0
 11
33.5
 21
-78.000030517578125
 31
0.0
  0
LINE
  5
336
100
AcDbEntity
  8
0
  6
CONTINUOUS
 62
               7
100
AcDbLine
 10
33.49998453567332
 20
-76.999984604432939
 30
0.0
 11
32.499977742106239
 21
-77.999979934044859
 31
0.0
  0
LINE
  5
337
100
AcDbEntity
  8
0
  6
CONTINUOUS
 62
               7
100
AcDbLine
 10
32.500002605773261
 20
-68.000009484963812
 30
0.0
 11
33.500001728605639
 21
-69.000012485310435
 31
0.0
  0
LINE
  5
338
100
AcDbEntity
  8
0
  6
CONTINUOUS
 62
               7
100
AcDbLine
 10
46.499958693993904
 20
-68.999992444621057
 30
0.0
 11
47.499958828351737
 21
-67.999990371506101
 31
0.0
  0
LINE
  5
339
100
AcDbEntity
  8
0
  6
CONTINUOUS
 62
               7
100
AcDbLine
 10
47.499979164109391
 20
-78.000014495455616
 30
0.0
 11
46.49997810251989
 21
-77.000013433866116
 31
0.0
  0
LINE
  5
33A
100
AcDbEntity
  8
0
  6
CONTINUOUS
 62
               7
100
AcDbLine
 10
33.5
 20
-77.000030517578125
 30
0.0
 11
33.5
 21
-69.000030517578125
 31
0.0
  0
LINE
  5
33B
100
AcDbEntity
  8
0
  6
CONTINUOUS
 62
               7
100
AcDbLine
 10
46.5
 20
-77.000030517578125
 30
0.0
 11
46.5
 21
-69.000030517578125
 31
0.0
  0
LINE
  5
33C
100
AcDbEntity
  8
0
  6
CONTINUOUS
 62
               7
100
AcDbLine
 10
33.5
 20
-69.000030517578125
 30
0.0
 11
46.5
 21
-69.000030517578125
 31
0.0
  0
LINE
  5
33D
100
AcDbEntity
  8
0
  6
CONTINUOUS
 62
               7
100
AcDbLine
 10
46.5
 20
-77.000030517578125
 30
0.0
 11
33.5
 21
-77.000030517578125
 31
0.0
  0
LINE
  5
33E
100
AcDbEntity
  8
0
  6
CONTINUOUS
 62
               7
100
AcDbLine
 10
32.5
 20
-68.000030517578125
 30
0.0
 11
47.5
 21
-68.000030517578125
 31
0.0
  0
LINE
  5
33F
100
AcDbEntity
  8
0
  6
CONTINUOUS
 62
               7
100
AcDbLine
 10
32.5
 20
-78.000030517578125
 30
0.0
 11
32.5
 21
-68.000030517578125
 31
0.0
  0
LINE
  5
340
100
AcDbEntity
  8
0
  6
CONTINUOUS
 62
               7
100
AcDbLine
 10
47.5
 20
-78.000030517578125
 30
0.0
 11
47.5
 21
-68.000030517578125
 31
0.0
  0
LINE
  5
341
100
AcDbEntity
  8
0
  6
CONTINUOUS
 62
               7
100
AcDbLine
 10
47.5
 20
-78.000030517578125
 30
0.0
 11
32.5
 21
-78.000030517578125
 31
0.0
  0
LINE
  5
342
100
AcDbEntity
  8
0
  6
CONTINUOUS
 62
               7
100
AcDbLine
 10
31.5
 20
-90.000015258789063
 30
0.0
 11
48.5
 21
-90.000015258789063
 31
0.0
  0
LINE
  5
343
100
AcDbEntity
  8
0
  6
CONTINUOUS
 62
               7
100
AcDbLine
 10
45.439357861167991
 20
-21.560639318193353
 30
0.0
 11
47.560687109119499
 21
-19.439327772821343
 31
0.0
  0
LINE
  5
344
100
AcDbEntity
  8
0
  6
CONTINUOUS
 62
               7
100
AcDbLine
 10
32.439345390867572
 20
-19.560675654866088
 30
0.0
 11
34.560667843889576
 21
-17.439357493378509
 31
0.0
  0
LINE
  5
345
100
AcDbEntity
  8
0
  6
CONTINUOUS
 62
               7
100
AcDbLine
 10
34.560714304919202
 20
-19.560612251373414
 30
0.0
 11
32.439401686663587
 21
-17.439284255119446
 31
0.0
  0
LINE
  5
346
100
AcDbEntity
  8
0
  6
CONTINUOUS
 62
               7
100
AcDbLine
 10
47.56067568437993
 20
-21.560636581063591
 30
0.0
 11
45.439361696392552
 21
-19.43933135491443
 31
0.0
  0
LINE
  5
347
100
AcDbEntity
  8
0
  6
CONTINUOUS
 62
               7
100
AcDbLine
 10
36.5
 20
-16.200027465820312
 30
0.0
 11
49.0
 21
-16.200027465820312
 31
0.0
  0
LINE
  5
348
100
AcDbEntity
  8
0
  6
CONTINUOUS
 62
               7
100
AcDbLine
 10
31.0
 20
-64.800033569335938
 30
0.0
 11
43.5
 21
-64.800033569335938
 31
0.0
  0
LINE
  5
349
100
AcDbEntity
  8
0
  6
CONTINUOUS
 62
               7
100
AcDbLine
 10
46.5
 20
-59.500015258789063
 30
0.0
 11
49.0
 21
-59.500015258789063
 31
0.0
  0
LINE
  5
34A
100
AcDbEntity
  8
0
  6
CONTINUOUS
 62
               7
100
AcDbLine
 10
33.5
 20
-21.500015258789063
 30
0.0
 11
31.0
 21
-21.500015258789063
 31
0.0
  0
LINE
  5
34B
100
AcDbEntity
  8
0
  6
CONTINUOUS
 62
               7
100
AcDbLine
 10
36.5
 20
-18.5
 30
0.0
 11
36.5
 21
-14.20001220703125
 31
0.0
  0
LINE
  5
34C
100
AcDbEntity
  8
0
  6
CONTINUOUS
 62
               7
100
AcDbLine
 10
43.5
 20
-62.500015258789063
 30
0.0
 11
43.5
 21
-66.800033569335937
 31
0.0
  0
LINE
  5
34D
100
AcDbEntity
  8
0
  6
CONTINUOUS
 62
               7
100
AcDbLine
 10
31.0
 20
-57.500030517578125
 30
0.0
 11
33.5
 21
-57.500030517578125
 31
0.0
  0
LINE
  5
34E
100
AcDbEntity
  8
0
  6
CONTINUOUS
 62
               7
100
AcDbLine
 10
31.0
 20
-63.500030517578125
 30
0.0
 11
33.5
 21
-63.500030517578125
 31
0.0
  0
LINE
  5
34F
100
AcDbEntity
  8
0
  6
CONTINUOUS
 62
               7
100
AcDbLine
 10
31.0
 20
-66.800033569335937
 30
0.0
 11
49.0
 21
-66.800033569335937
 31
0.0
  0
LINE
  5
350
100
AcDbEntity
  8
0
  6
CONTINUOUS
 62
               7
100
AcDbLine
 10
31.0
 20
-14.200027465820313
 30
0.0
 11
49.0
 21
-14.200027465820313
 31
0.0
  0
LINE
  5
351
100
AcDbEntity
  8
0
  6
CONTINUOUS
 62
               7
100
AcDbLine
 10
31.0
 20
-79.000030517578125
 30
0.0
 11
49.0
 21
-79.000030517578125
 31
0.0
  0
LINE
  5
352
100
AcDbEntity
  8
0
  6
CONTINUOUS
 62
               7
100
AcDbLine
 10
31.0
 20
-67.000030517578125
 30
0.0
 11
49.0
 21
-67.000030517578125
 31
0.0
  0
LINE
  5
353
100
AcDbEntity
  8
0
  6
CONTINUOUS
 62
               7
100
AcDbLine
 10
31.0
 20
-4.0000152587890625
 30
0.0
 11
49.0
 21
-4.0000152587890625
 31
0.0
  0
LINE
  5
354
100
AcDbEntity
  8
0
  6
CONTINUOUS
 62
               7
100
AcDbLine
 10
49.0
 20
-89.500030517578125
 30
0.0
 11
49.0
 21
-63.645660400390625
 31
0.0
  0
LINE
  5
355
100
AcDbEntity
  8
0
  6
CONTINUOUS
 62
               7
100
AcDbLine
 10
31.0
 20
-14.000015258789063
 30
0.0
 11
49.0
 21
-14.000015258789063
 31
0.0
  0
LINE
  5
356
100
AcDbEntity
  8
0
  6
CONTINUOUS
 62
               4
100
AcDbLine
 10
44.949996948242188
 20
33.499984741210938
 30
0.0
 11
44.949996948242188
 21
41.999984741210938
 31
0.0
  0
LINE
  5
357
100
AcDbEntity
  8
0
  6
CONTINUOUS
 62
             200
100
AcDbLine
 10
44.949996948242188
 20
37.999984741210937
 30
0.0
 11
35.050003051757813
 21
37.999984741210937
 31
0.0
  0
LINE
  5
358
100
AcDbEntity
  8
0
  6
CONTINUOUS
 62
               4
100
AcDbLine
 10
35.050003051757813
 20
33.499984741210938
 30
0.0
 11
35.050003051757813
 21
41.999984741210938
 31
0.0
  0
LINE
  5
359
100
AcDbEntity
  8
0
  6
CONTINUOUS
 62
               7
100
AcDbLine
 10
38.073211669921875
 20
6.4999847412109375
 30
0.0
 11
41.926788330078125
 21
6.4999847412109375
 31
0.0
  0
LINE
  5
35A
100
AcDbEntity
  8
0
  6
CONTINUOUS
 62
               7
100
AcDbLine
 10
38.073211669921875
 20
5.8999786376953125
 30
0.0
 11
41.926788330078125
 21
5.8999786376953125
 31
0.0
  0
LINE
  5
35B
100
AcDbEntity
  8
0
  6
CONTINUOUS
 62
               4
100
AcDbLine
 10
35.0
 20
9.4999847412109375
 30
0.0
 11
45.0
 21
9.4999847412109375
 31
0.0
  0
LINE
  5
35C
100
AcDbEntity
  8
0
  6
CONTINUOUS
 62
               4
100
AcDbLine
 10
35.000015258789063
 20
33.499984741210938
 30
0.0
 11
45.000015258789063
 21
33.499984741210938
 31
0.0
  0
LINE
  5
35D
100
AcDbEntity
  8
0
  6
CONTINUOUS
 62
               2
100
AcDbLine
 10
37.5
 20
6.199981689453125
 30
0.0
 11
42.5
 21
6.199981689453125
 31
0.0
  0
LINE
  5
35E
100
AcDbEntity
  8
0
  6
CONTINUOUS
 62
               7
100
AcDbLine
 10
35.0
 20
-0.0000152587890625
 30
0.0
 11
45.0
 21
-0.0000152587890625
 31
0.0
  0
LINE
  5
35F
100
AcDbEntity
  8
0
  6
CONTINUOUS
 62
               7
100
AcDbLine
 10
87.5
 20
-79.500015258789063
 30
0.0
 11
106.5
 21
-79.500015258789063
 31
0.0
  0
LINE
  5
360
100
AcDbEntity
  8
0
  6
CONTINUOUS
 62
               7
100
AcDbLine
 10
49.0
 20
-79.500015258789063
 30
0.0
 11
49.5
 21
-79.500015258789063
 31
0.0
  0
LINE
  5
361
100
AcDbEntity
  8
0
  6
CONTINUOUS
 62
               7
100
AcDbLine
 10
87.5
 20
5.5
 30
0.0
 11
143.5
 21
5.5
 31
0.0
  0
LINE
  5
362
100
AcDbEntity
  8
0
  6
CONTINUOUS
 62
               7
100
AcDbLine
 10
45.0
 20
5.5
 30
0.0
 11
49.5
 21
5.5
 31
0.0
  0
LINE
  5
363
100
AcDbEntity
  8
0
  6
CONTINUOUS
 62
               7
100
AcDbLine
 10
30.5
 20
-79.500015258789063
 30
0.0
 11
31.0
 21
-79.500015258789063
 31
0.0
  0
LINE
  5
364
100
AcDbEntity
  8
0
  6
CONTINUOUS
 62
               7
100
AcDbLine
 10
105.76219177246094
 20
-22.149993896484375
 30
0.0
 11
106.0
 21
-22.149993896484375
 31
0.0
  0
LINE
  5
365
100
AcDbEntity
  8
0
  6
CONTINUOUS
 62
               7
100
AcDbLine
 10
105.76217651367187
 20
-18.849990844726563
 30
0.0
 11
106.0
 21
-18.849990844726563
 31
0.0
  0
LINE
  5
366
100
AcDbEntity
  8
0
  6
CONTINUOUS
 62
               7
100
AcDbLine
 10
88.0
 20
-62.149993896484375
 30
0.0
 11
88.237823486328125
 21
-62.149993896484375
 31
0.0
  0
LINE
  5
367
100
AcDbEntity
  8
0
  6
CONTINUOUS
 62
               7
100
AcDbLine
 10
88.0
 20
-58.849990844726563
 30
0.0
 11
88.237823486328125
 21
-58.849990844726563
 31
0.0
  0
LINE
  5
368
100
AcDbEntity
  8
0
  6
CONTINUOUS
 62
               4
100
AcDbLine
 10
88.0
 20
-67.499984741210938
 30
0.0
 11
106.0
 21
-67.499984741210938
 31
0.0
  0
LINE
  5
369
100
AcDbEntity
  8
0
  6
CONTINUOUS
 62
               4
100
AcDbLine
 10
106.0
 20
-67.499984741210938
 30
0.0
 11
106.0
 21
-22.149993896484375
 31
0.0
  0
LINE
  5
36A
100
AcDbEntity
  8
0
  6
CONTINUOUS
 62
               4
100
AcDbLine
 10
106.0
 20
-18.849990844726563
 30
0.0
 11
106.0
 21
-2.4999847412109375
 31
0.0
  0
LINE
  5
36B
100
AcDbEntity
  8
0
  6
CONTINUOUS
 62
               4
100
AcDbLine
 10
88.0
 20
-58.849990844726563
 30
0.0
 11
88.0
 21
-2.4999847412109375
 31
0.0
  0
LINE
  5
36C
100
AcDbEntity
  8
0
  6
CONTINUOUS
 62
               4
100
AcDbLine
 10
102.43941070183701
 20
-19.43930754095436
 30
0.0
 11
104.5607310090918
 21
-21.560628027023085
 31
0.0
  0
LINE
  5
36D
100
AcDbEntity
  8
0
  6
CONTINUOUS
 62
               4
100
AcDbLine
 10
102.43937824364821
 20
-21.560660306395221
 30
0.0
 11
104.56069872971693
 21
-19.439339999140429
 31
0.0
  0
LINE
  5
36E
100
AcDbEntity
  8
0
  6
CONTINUOUS
 62
               4
100
AcDbLine
 10
89.439394667391753
 20
-59.439264825752616
 30
0.0
 11
91.560714974646544
 21
-61.560585311821342
 31
0.0
  0
LINE
  5
36F
100
AcDbEntity
  8
0
  6
CONTINUOUS
 62
               4
100
AcDbLine
 10
89.439383788388113
 20
-61.560660749568342
 30
0.0
 11
91.560693484862895
 21
-59.439351231906585
 31
0.0
  0
LINE
  5
370
100
AcDbEntity
  8
0
  6
CONTINUOUS
 62
               4
100
AcDbLine
 10
88.0
 20
-67.499984741210938
 30
0.0
 11
88.0
 21
-62.149993896484375
 31
0.0
  0
ENDBLK
  5
371
100
AcDbEntity
  8
0
100
AcDbBlockEnd
  0
BLOCK
  5
372
100
AcDbEntity
  8
0
100
AcDbBlockBegin
  2
F18MPJ_SAMPLE-2
 70
               0
 10
0.0
 20
0.0
 30
0.0
  3
F18MPJ_SAMPLE-2
  1

  0
LINE
  5
373
100
AcDbEntity
  8
0
  6
CONTINUOUS
 62
               2
100
AcDbLine
 10
17.0
 20
-78.500015258789063
 30
0.0
 11
17.0
 21
-60.500015258789063
 31
0.0
  0
LINE
  5
374
100
AcDbEntity
  8
0
  6
CONTINUOUS
 62
               2
100
AcDbLine
 10
23.0
 20
-20.5
 30
0.0
 11
23.0
 21
-2.5
 31
0.0
  0
LINE
  5
375
100
AcDbEntity
  8
0
  6
CONTINUOUS
 62
               2
100
AcDbLine
 10
8.0
 20
-69.500015258789063
 30
0.0
 11
26.0
 21
-69.500015258789063
 31
0.0
  0
LINE
  5
376
100
AcDbEntity
  8
0
  6
CONTINUOUS
 62
               2
100
AcDbLine
 10
14.0
 20
-11.5
 30
0.0
 11
32.0
 21
-11.5
 31
0.0
  0
LINE
  5
377
100
AcDbEntity
  8
0
  6
CONTINUOUS
 62
               2
100
AcDbLine
 10
15.0
 20
-45.5
 30
0.0
 11
15.0
 21
-25.5
 31
0.0
  0
LINE
  5
378
100
AcDbEntity
  8
0
  6
CONTINUOUS
 62
               2
100
AcDbLine
 10
28.0
 20
-66.500015258789063
 30
0.0
 11
28.0
 21
-46.500015258789063
 31
0.0
  0
LINE
  5
379
100
AcDbEntity
  8
0
  6
CONTINUOUS
 62
               2
100
AcDbLine
 10
18.0
 20
-56.500015258789063
 30
0.0
 11
38.0
 21
-56.500015258789063
 31
0.0
  0
LINE
  5
37A
100
AcDbEntity
  8
0
  6
CONTINUOUS
 62
               2
100
AcDbLine
 10
5.0
 20
-35.5
 30
0.0
 11
25.0
 21
-35.5
 31
0.0
  0
LINE
  5
37B
100
AcDbEntity
  8
0
  6
CONTINUOUS
 62
             200
100
AcDbLine
 10
18.000015258789063
 20
-113.50565960555153
 30
0.0
 11
18.000015258789063
 21
-87.500022888183594
 31
0.0
  0
LINE
  5
37C
100
AcDbEntity
  8
0
  6
CONTINUOUS
 62
             200
100
AcDbLine
 10
37.000015258789063
 20
-113.50565960555153
 30
0.0
 11
37.000015258789063
 21
-87.500022888183594
 31
0.0
  0
LINE
  5
37D
100
AcDbEntity
  8
0
  6
CONTINUOUS
 62
             200
100
AcDbLine
 10
56.800003051757812
 20
-113.50565960555153
 30
0.0
 11
56.800003051757812
 21
-90.000015258789063
 31
0.0
  0
LINE
  5
37E
100
AcDbEntity
  8
0
  6
CONTINUOUS
 62
               2
100
AcDbLine
 10
-5.0
 20
-79.0
 30
0.0
 11
5.0
 21
-79.0
 31
0.0
  0
LINE
  5
37F
100
AcDbEntity
  8
0
  6
CONTINUOUS
 62
               2
100
AcDbLine
 10
-5.0
 20
0.0
 30
0.0
 11
5.0
 21
0.0
 31
0.0
  0
LINE
  5
380
100
AcDbEntity
  8
0
  6
CONTINUOUS
 62
               7
100
AcDbLine
 10
0.0
 20
-20.0
 30
0.0
 11
0.0
 21
5.0
 31
0.0
  0
LINE
  5
381
100
AcDbEntity
  8
0
  6
CONTINUOUS
 62
               4
100
AcDbLine
 10
28.000015258789063
 20
-98.200022688183594
 30
0.0
 11
28.000015258789063
 21
-87.500022888183594
 31
0.0
  0
LINE
  5
382
100
AcDbEntity
  8
0
  6
CONTINUOUS
 62
               4
100
AcDbLine
 10
27.000015258789063
 20
-98.200022688183594
 30
0.0
 11
27.000015258789063
 21
-87.500022888183594
 31
0.0
  0
LINE
  5
383
100
AcDbEntity
  8
0
  6
CONTINUOUS
 62
               4
100
AcDbLine
 10
28.000015258789063
 20
-103.30002288818361
 30
0.0
 11
46.000015258789063
 21
-103.30002288818361
 31
0.0
  0
LINE
  5
384
100
AcDbEntity
  8
0
  6
CONTINUOUS
 62
               4
100
AcDbLine
 10
28.000015258789063
 20
-104.50002288818359
 30
0.0
 11
46.000015258789063
 21
-104.50002288818359
 31
0.0
  0
LINE
  5
385
100
AcDbEntity
  8
0
  6
CONTINUOUS
 62
               4
100
AcDbLine
 10
28.000015258789063
 20
-106.8649358881836
 30
0.0
 11
46.000015258789063
 21
-106.8649358881836
 31
0.0
  0
LINE
  5
386
100
AcDbEntity
  8
0
  6
CONTINUOUS
 62
               4
100
AcDbLine
 10
28.753605658789049
 20
-107.30002188818361
 30
0.0
 11
45.246424858789055
 21
-107.30002188818361
 31
0.0
  0
LINE
  5
387
100
AcDbEntity
  8
0
  6
CONTINUOUS
 62
               4
100
AcDbLine
 10
29.900015258789061
 20
-108.9000228881836
 30
0.0
 11
44.100015258789057
 21
-108.9000228881836
 31
0.0
  0
LINE
  5
388
100
AcDbEntity
  8
0
  6
CONTINUOUS
 62
               4
100
AcDbLine
 10
43.000015258789063
 20
-109.4000228881836
 30
0.0
 11
43.000015258789063
 21
-109.00002288818359
 31
0.0
  0
LINE
  5
389
100
AcDbEntity
  8
0
  6
CONTINUOUS
 62
               4
100
AcDbLine
 10
28.000015258789063
 20
-98.600022488183583
 30
0.0
 11
46.000015258789063
 21
-98.600022488183583
 31
0.0
  0
LINE
  5
38A
100
AcDbEntity
  8
0
  6
CONTINUOUS
 62
               4
100
AcDbLine
 10
45.800015258789045
 20
-98.400022888183599
 30
0.0
 11
46.000015258789063
 21
-98.200022688183594
 31
0.0
  0
LINE
  5
38B
100
AcDbEntity
  8
0
  6
CONTINUOUS
 62
               4
100
AcDbLine
 10
46.000015258789063
 20
-98.200022688183594
 30
0.0
 11
27.500015258789062
 21
-98.200022688183594
 31
0.0
  0
LINE
  5
38C
100
AcDbEntity
  8
0
  6
CONTINUOUS
 62
               4
100
AcDbLine
 10
28.700015258789058
 20
-104.30002288818361
 30
0.0
 11
28.700015258789058
 21
-103.4000228881836
 31
0.0
  0
LINE
  5
38D
100
AcDbEntity
  8
0
  6
CONTINUOUS
 62
               4
100
AcDbLine
 10
45.300015258789045
 20
-104.30002288818361
 30
0.0
 11
45.300015258789045
 21
-103.4000228881836
 31
0.0
  0
LINE
  5
38E
100
AcDbEntity
  8
0
  6
CONTINUOUS
 62
               4
100
AcDbLine
 10
46.000015258789063
 20
-98.200022888183582
 30
0.0
 11
46.000015258789063
 21
-87.003317288183581
 31
0.0
  0
LINE
  5
38F
100
AcDbEntity
  8
0
  6
CONTINUOUS
 62
               7
100
AcDbLine
 10
46.000015258789063
 20
-87.003317288183581
 30
0.0
 11
46.704566958789059
 21
-86.596543888183589
 31
0.0
  0
LINE
  5
390
100
AcDbEntity
  8
0
  6
CONTINUOUS
 62
               4
100
AcDbLine
 10
28.200015258789051
 20
-98.400022888183599
 30
0.0
 11
28.000015258789063
 21
-98.200022688183594
 31
0.0
  0
LINE
  5
391
100
AcDbEntity
  8
0
  6
CONTINUOUS
 62
               4
100
AcDbLine
 10
28.000015258789063
 20
-103.30002288818361
 30
0.0
 11
28.100015258789057
 21
-103.4000228881836
 31
0.0
  0
LINE
  5
392
100
AcDbEntity
  8
0
  6
CONTINUOUS
 62
               4
100
AcDbLine
 10
46.000015258789063
 20
-103.30002288818361
 30
0.0
 11
45.900015258789054
 21
-103.4000228881836
 31
0.0
  0
LINE
  5
393
100
AcDbEntity
  8
0
  6
CONTINUOUS
 62
               4
100
AcDbLine
 10
28.200015258789051
 20
-98.400022288183607
 30
0.0
 11
28.000015258789063
 21
-98.600022488183583
 31
0.0
  0
LINE
  5
394
100
AcDbEntity
  8
0
  6
CONTINUOUS
 62
               4
100
AcDbLine
 10
28.000015258789063
 20
-103.30002288818361
 30
0.0
 11
28.000015258789063
 21
-98.600022488183583
 31
0.0
  0
LINE
  5
395
100
AcDbEntity
  8
0
  6
CONTINUOUS
 62
               4
100
AcDbLine
 10
46.000015258789063
 20
-103.30002288818361
 30
0.0
 11
46.000015258789063
 21
-98.600022488183583
 31
0.0
  0
LINE
  5
396
100
AcDbEntity
  8
0
  6
CONTINUOUS
 62
               4
100
AcDbLine
 10
28.200015258789051
 20
-98.400022488183595
 30
0.0
 11
45.800015258789045
 21
-98.400022488183595
 31
0.0
  0
LINE
  5
397
100
AcDbEntity
  8
0
  6
CONTINUOUS
 62
               4
100
AcDbLine
 10
45.800015258789045
 20
-98.400022288183607
 30
0.0
 11
46.000015258789063
 21
-98.600022488183583
 31
0.0
  0
LINE
  5
398
100
AcDbEntity
  8
0
  6
CONTINUOUS
 62
               4
100
AcDbLine
 10
28.000015258789063
 20
-106.86493688818359
 30
0.0
 11
28.000015258789063
 21
-104.50002288818359
 31
0.0
  0
LINE
  5
399
100
AcDbEntity
  8
0
  6
CONTINUOUS
 62
               4
100
AcDbLine
 10
45.800015258789045
 20
-104.30002288818361
 30
0.0
 11
46.000015258789063
 21
-104.50002288818359
 31
0.0
  0
LINE
  5
39A
100
AcDbEntity
  8
0
  6
CONTINUOUS
 62
               4
100
AcDbLine
 10
46.000015258789063
 20
-106.86493688818359
 30
0.0
 11
46.000015258789063
 21
-104.50002288818359
 31
0.0
  0
LINE
  5
39B
100
AcDbEntity
  8
0
  6
CONTINUOUS
 62
               4
100
AcDbLine
 10
45.800015258789045
 20
-104.30002288818361
 30
0.0
 11
28.200015258789051
 21
-104.30002288818361
 31
0.0
  0
LINE
  5
39C
100
AcDbEntity
  8
0
  6
CONTINUOUS
 62
               4
100
AcDbLine
 10
28.753605658789049
 20
-107.30002188818361
 30
0.0
 11
29.100016058789059
 21
-107.9000218881836
 31
0.0
  0
LINE
  5
39D
100
AcDbEntity
  8
0
  6
CONTINUOUS
 62
               4
100
AcDbLine
 10
45.246424858789055
 20
-107.30002188818361
 30
0.0
 11
44.900014458789059
 21
-107.9000218881836
 31
0.0
  0
LINE
  5
39E
100
AcDbEntity
  8
0
  6
CONTINUOUS
 62
               4
100
AcDbLine
 10
46.000015258789063
 20
-106.8649358881836
 30
0.0
 11
45.246424858789055
 21
-107.30002188818361
 31
0.0
  0
LINE
  5
39F
100
AcDbEntity
  8
0
  6
CONTINUOUS
 62
               4
100
AcDbLine
 10
28.000015258789063
 20
-106.8649358881836
 30
0.0
 11
28.753605658789049
 21
-107.30002188818361
 31
0.0
  0
LINE
  5
3A0
100
AcDbEntity
  8
0
  6
CONTINUOUS
 62
               4
100
AcDbLine
 10
28.200015258789051
 20
-104.30002288818361
 30
0.0
 11
28.000015258789063
 21
-104.50002288818359
 31
0.0
  0
LINE
  5
3A1
100
AcDbEntity
  8
0
  6
CONTINUOUS
 62
               4
100
AcDbLine
 10
29.10001525878905
 20
-107.9000218881836
 30
0.0
 11
44.900014458789059
 21
-107.9000218881836
 31
0.0
  0
LINE
  5
3A2
100
AcDbEntity
  8
0
  6
CONTINUOUS
 62
               4
100
AcDbLine
 10
45.900015258789054
 20
-103.4000228881836
 30
0.0
 11
28.100015258789057
 21
-103.4000228881836
 31
0.0
  0
LINE
  5
3A3
100
AcDbEntity
  8
0
  6
CONTINUOUS
 62
               4
100
AcDbLine
 10
29.900015258789061
 20
-108.9000228881836
 30
0.0
 11
29.900015258789061
 21
-107.9000218881836
 31
0.0
  0
LINE
  5
3A4
100
AcDbEntity
  8
0
  6
CONTINUOUS
 62
               4
100
AcDbLine
 10
30.000015258789055
 20
-109.00002288818359
 30
0.0
 11
44.000015258789063
 21
-109.00002288818359
 31
0.0
  0
LINE
  5
3A5
100
AcDbEntity
  8
0
  6
CONTINUOUS
 62
               4
100
AcDbLine
 10
30.000015258789055
 20
-109.00002288818359
 30
0.0
 11
29.900015258789061
 21
-108.9000228881836
 31
0.0
  0
LINE
  5
3A6
100
AcDbEntity
  8
0
  6
CONTINUOUS
 62
               4
100
AcDbLine
 10
44.000015258789063
 20
-109.00002288818359
 30
0.0
 11
44.100015258789057
 21
-108.9000228881836
 31
0.0
  0
LINE
  5
3A7
100
AcDbEntity
  8
0
  6
CONTINUOUS
 62
               4
100
AcDbLine
 10
44.100015258789057
 20
-108.9000228881836
 30
0.0
 11
44.100015258789057
 21
-107.9000218881836
 31
0.0
  0
LINE
  5
3A8
100
AcDbEntity
  8
0
  6
CONTINUOUS
 62
               4
100
AcDbLine
 10
31.000015258789055
 20
-109.4000228881836
 30
0.0
 11
31.000015258789055
 21
-109.00002288818359
 31
0.0
  0
LINE
  5
3A9
100
AcDbEntity
  8
0
  6
CONTINUOUS
 62
               4
100
AcDbLine
 10
28.60001525878905
 20
-110.80070388818359
 30
0.0
 11
28.60001525878905
 21
-109.9000228881836
 31
0.0
  0
LINE
  5
3AA
100
AcDbEntity
  8
0
  6
CONTINUOUS
 62
               4
100
AcDbLine
 10
45.400015258789054
 20
-109.9000228881836
 30
0.0
 11
28.60001525878905
 21
-109.9000228881836
 31
0.0
  0
LINE
  5
3AB
100
AcDbEntity
  8
0
  6
CONTINUOUS
 62
               4
100
AcDbLine
 10
28.900015258789061
 20
-111.10002288818359
 30
0.0
 11
45.100015258789057
 21
-111.10002288818359
 31
0.0
  0
LINE
  5
3AC
100
AcDbEntity
  8
0
  6
CONTINUOUS
 62
               4
100
AcDbLine
 10
45.400015258789054
 20
-110.80070388818359
 30
0.0
 11
45.400015258789054
 21
-109.9000228881836
 31
0.0
  0
ARC
  5
3AD
100
AcDbEntity
  8
0
  6
CONTINUOUS
 62
               4
100
AcDbCircle
 10
43.500015258789063
 20
-109.4000228881836
 30
0.0
 40
0.5
100
AcDbArc
 50
179.9999999999994
 51
269.99999999999937
  0
ARC
  5
3AE
100
AcDbEntity
  8
0
  6
CONTINUOUS
 62
               4
100
AcDbCircle
 10
28.900015258789061
 20
-110.80002288818361
 30
0.0
 40
0.3
100
AcDbArc
 50
179.9999999999994
 51
269.99999999999937
  0
ARC
  5
3AF
100
AcDbEntity
  8
0
  6
CONTINUOUS
 62
               4
100
AcDbCircle
 10
30.500015258789055
 20
-109.4000228881836
 30
0.0
 40
0.5
100
AcDbArc
 50
269.99999999999858
 51
359.99999999999858
  0
ARC
  5
3B0
100
AcDbEntity
  8
0
  6
CONTINUOUS
 62
               4
100
AcDbCircle
 10
45.100015258789057
 20
-110.80002288818361
 30
0.0
 40
0.3
100
AcDbArc
 50
269.99999999999858
 51
359.99999999999858
  0
LINE
  5
3B1
100
AcDbEntity
  8
0
  6
CONTINUOUS
 62
               4
100
AcDbLine
 10
46.500015258789063
 20
-86.714679853267853
 30
0.0
 11
46.500015258789063
 21
-84.500015258789063
 31
0.0
  0
LINE
  5
3B2
100
AcDbEntity
  8
0
  6
CONTINUOUS
 62
               4
100
AcDbLine
 10
45.139761220944649
 20
-87.500022888183594
 30
0.0
 11
27.500015258789062
 21
-87.500022888183594
 31
0.0
  0
LINE
  5
3B3
100
AcDbEntity
  8
0
  6
CONTINUOUS
 62
               4
100
AcDbLine
 10
9.0000152587890625
 20
-98.200022688183594
 30
0.0
 11
27.500015258789062
 21
-98.200022688183594
 31
0.0
  0
LINE
  5
3B4
100
AcDbEntity
  8
0
  6
CONTINUOUS
 62
               4
100
AcDbLine
 10
9.8602692966334615
 20
-87.500022888183594
 30
0.0
 11
27.500015258789062
 21
-87.500022888183594
 31
0.0
  0
ARC
  5
3B5
100
AcDbEntity
  8
0
  6
CONTINUOUS
 62
               4
100
AcDbCircle
 10
9.900015258789054
 20
-110.80002288818361
 30
0.0
 40
0.3
100
AcDbArc
 50
180.0000000000002
 51
270.00000000000023
  0
ARC
  5
3B6
100
AcDbEntity
  8
0
  6
CONTINUOUS
 62
               4
100
AcDbCircle
 10
24.500015258789063
 20
-109.4000228881836
 30
0.0
 40
0.5
100
AcDbArc
 50
180.0000000000002
 51
270.00000000000023
  0
ARC
  5
3B7
100
AcDbEntity
  8
0
  6
CONTINUOUS
 62
               4
100
AcDbCircle
 10
26.100015258789057
 20
-110.80002288818361
 30
0.0
 40
0.3
100
AcDbArc
 50
269.99999999999937
 51
0.0000000000002036
  0
ARC
  5
3B8
100
AcDbEntity
  8
0
  6
CONTINUOUS
 62
               4
100
AcDbCircle
 10
11.500015258789063
 20
-109.4000228881836
 30
0.0
 40
0.5
100
AcDbArc
 50
269.99999999999937
 51
0.0000000000002036
  0
LINE
  5
3B9
100
AcDbEntity
  8
0
  6
CONTINUOUS
 62
               4
100
AcDbLine
 10
9.6000152587890568
 20
-110.80070388818359
 30
0.0
 11
9.6000152587890568
 21
-109.9000228881836
 31
0.0
  0
LINE
  5
3BA
100
AcDbEntity
  8
0
  6
CONTINUOUS
 62
               4
100
AcDbLine
 10
26.100015258789057
 20
-111.10002288818359
 30
0.0
 11
9.900015258789054
 21
-111.10002288818359
 31
0.0
  0
LINE
  5
3BB
100
AcDbEntity
  8
0
  6
CONTINUOUS
 62
               4
100
AcDbLine
 10
9.6000152587890568
 20
-109.9000228881836
 30
0.0
 11
26.400015258789068
 21
-109.9000228881836
 31
0.0
  0
LINE
  5
3BC
100
AcDbEntity
  8
0
  6
CONTINUOUS
 62
               4
100
AcDbLine
 10
26.400015258789068
 20
-110.80070388818359
 30
0.0
 11
26.400015258789068
 21
-109.9000228881836
 31
0.0
  0
LINE
  5
3BD
100
AcDbEntity
  8
0
  6
CONTINUOUS
 62
               4
100
AcDbLine
 10
24.000015258789063
 20
-109.4000228881836
 30
0.0
 11
24.000015258789063
 21
-109.00002288818359
 31
0.0
  0
LINE
  5
3BE
100
AcDbEntity
  8
0
  6
CONTINUOUS
 62
               4
100
AcDbLine
 10
10.900015258789054
 20
-108.9000228881836
 30
0.0
 11
10.900015258789054
 21
-107.9000218881836
 31
0.0
  0
LINE
  5
3BF
100
AcDbEntity
  8
0
  6
CONTINUOUS
 62
               4
100
AcDbLine
 10
11.000015258789063
 20
-109.00002288818359
 30
0.0
 11
10.900015258789054
 21
-108.9000228881836
 31
0.0
  0
LINE
  5
3C0
100
AcDbEntity
  8
0
  6
CONTINUOUS
 62
               4
100
AcDbLine
 10
25.000015258789063
 20
-109.00002288818359
 30
0.0
 11
25.100015258789057
 21
-108.9000228881836
 31
0.0
  0
LINE
  5
3C1
100
AcDbEntity
  8
0
  6
CONTINUOUS
 62
               4
100
AcDbLine
 10
25.000015258789063
 20
-109.00002288818359
 30
0.0
 11
11.000015258789063
 21
-109.00002288818359
 31
0.0
  0
LINE
  5
3C2
100
AcDbEntity
  8
0
  6
CONTINUOUS
 62
               4
100
AcDbLine
 10
25.100015258789057
 20
-108.9000228881836
 30
0.0
 11
25.100015258789057
 21
-107.9000218881836
 31
0.0
  0
LINE
  5
3C3
100
AcDbEntity
  8
0
  6
CONTINUOUS
 62
               4
100
AcDbLine
 10
9.1000152587890568
 20
-103.4000228881836
 30
0.0
 11
26.900015258789068
 21
-103.4000228881836
 31
0.0
  0
LINE
  5
3C4
100
AcDbEntity
  8
0
  6
CONTINUOUS
 62
               4
100
AcDbLine
 10
25.900015258789068
 20
-107.9000218881836
 30
0.0
 11
10.100016058789052
 21
-107.9000218881836
 31
0.0
  0
LINE
  5
3C5
100
AcDbEntity
  8
0
  6
CONTINUOUS
 62
               4
100
AcDbLine
 10
26.800015258789045
 20
-104.30002288818361
 30
0.0
 11
27.000015258789063
 21
-104.50002288818359
 31
0.0
  0
LINE
  5
3C6
100
AcDbEntity
  8
0
  6
CONTINUOUS
 62
               4
100
AcDbLine
 10
27.000015258789063
 20
-106.8649358881836
 30
0.0
 11
26.246424858789055
 21
-107.30002188818361
 31
0.0
  0
LINE
  5
3C7
100
AcDbEntity
  8
0
  6
CONTINUOUS
 62
               4
100
AcDbLine
 10
9.0000152587890625
 20
-106.8649358881836
 30
0.0
 11
9.7536056587890556
 21
-107.30002188818361
 31
0.0
  0
LINE
  5
3C8
100
AcDbEntity
  8
0
  6
CONTINUOUS
 62
               4
100
AcDbLine
 10
9.7536056587890556
 20
-107.30002188818361
 30
0.0
 11
10.100016058789052
 21
-107.9000218881836
 31
0.0
  0
LINE
  5
3C9
100
AcDbEntity
  8
0
  6
CONTINUOUS
 62
               4
100
AcDbLine
 10
26.246424858789055
 20
-107.30002188818361
 30
0.0
 11
25.900014458789059
 21
-107.9000218881836
 31
0.0
  0
LINE
  5
3CA
100
AcDbEntity
  8
0
  6
CONTINUOUS
 62
               4
100
AcDbLine
 10
9.2000152587890511
 20
-104.30002288818361
 30
0.0
 11
26.800015258789045
 21
-104.30002288818361
 31
0.0
  0
LINE
  5
3CB
100
AcDbEntity
  8
0
  6
CONTINUOUS
 62
               4
100
AcDbLine
 10
9.0000152587890625
 20
-106.86493688818359
 30
0.0
 11
9.0000152587890625
 21
-104.50002288818359
 31
0.0
  0
LINE
  5
3CC
100
AcDbEntity
  8
0
  6
CONTINUOUS
 62
               4
100
AcDbLine
 10
9.2000152587890511
 20
-104.30002288818361
 30
0.0
 11
9.0000152587890625
 21
-104.50002288818359
 31
0.0
  0
LINE
  5
3CD
100
AcDbEntity
  8
0
  6
CONTINUOUS
 62
               4
100
AcDbLine
 10
27.000015258789063
 20
-106.86493688818359
 30
0.0
 11
27.000015258789063
 21
-104.50002288818359
 31
0.0
  0
LINE
  5
3CE
100
AcDbEntity
  8
0
  6
CONTINUOUS
 62
               4
100
AcDbLine
 10
9.2000152587890511
 20
-98.400022288183607
 30
0.0
 11
9.0000152587890625
 21
-98.600022488183583
 31
0.0
  0
LINE
  5
3CF
100
AcDbEntity
  8
0
  6
CONTINUOUS
 62
               4
100
AcDbLine
 10
26.800015258789045
 20
-98.400022488183595
 30
0.0
 11
9.2000152587890511
 21
-98.400022488183595
 31
0.0
  0
LINE
  5
3D0
100
AcDbEntity
  8
0
  6
CONTINUOUS
 62
               4
100
AcDbLine
 10
9.0000152587890625
 20
-103.30002288818361
 30
0.0
 11
9.0000152587890625
 21
-98.600022488183583
 31
0.0
  0
LINE
  5
3D1
100
AcDbEntity
  8
0
  6
CONTINUOUS
 62
               4
100
AcDbLine
 10
27.000015258789063
 20
-103.30002288818361
 30
0.0
 11
27.000015258789063
 21
-98.600022488183583
 31
0.0
  0
LINE
  5
3D2
100
AcDbEntity
  8
0
  6
CONTINUOUS
 62
               4
100
AcDbLine
 10
26.800015258789045
 20
-98.400022288183607
 30
0.0
 11
27.000015258789063
 21
-98.600022488183583
 31
0.0
  0
LINE
  5
3D3
100
AcDbEntity
  8
0
  6
CONTINUOUS
 62
               4
100
AcDbLine
 10
9.0000152587890625
 20
-103.30002288818361
 30
0.0
 11
9.1000152587890568
 21
-103.4000228881836
 31
0.0
  0
LINE
  5
3D4
100
AcDbEntity
  8
0
  6
CONTINUOUS
 62
               4
100
AcDbLine
 10
27.000015258789063
 20
-103.30002288818361
 30
0.0
 11
26.900015258789068
 21
-103.4000228881836
 31
0.0
  0
LINE
  5
3D5
100
AcDbEntity
  8
0
  6
CONTINUOUS
 62
               4
100
AcDbLine
 10
26.800015258789045
 20
-98.400022888183599
 30
0.0
 11
27.000015258789063
 21
-98.200022688183594
 31
0.0
  0
LINE
  5
3D6
100
AcDbEntity
  8
0
  6
CONTINUOUS
 62
               4
100
AcDbLine
 10
9.0000152587890625
 20
-98.200022888183582
 30
0.0
 11
9.0000152587890625
 21
-87.003317288183581
 31
0.0
  0
LINE
  5
3D7
100
AcDbEntity
  8
0
  6
CONTINUOUS
 62
               4
100
AcDbLine
 10
9.7000152587890511
 20
-104.30002288818361
 30
0.0
 11
9.7000152587890511
 21
-103.4000228881836
 31
0.0
  0
LINE
  5
3D8
100
AcDbEntity
  8
0
  6
CONTINUOUS
 62
               4
100
AcDbLine
 10
26.300015258789045
 20
-104.30002288818361
 30
0.0
 11
26.300015258789045
 21
-103.4000228881836
 31
0.0
  0
LINE
  5
3D9
100
AcDbEntity
  8
0
  6
CONTINUOUS
 62
               4
100
AcDbLine
 10
9.2000152587890511
 20
-98.400022888183599
 30
0.0
 11
9.0000152587890625
 21
-98.200022688183594
 31
0.0
  0
LINE
  5
3DA
100
AcDbEntity
  8
0
  6
CONTINUOUS
 62
               4
100
AcDbLine
 10
27.000015258789063
 20
-98.600022488183583
 30
0.0
 11
9.0000152587890625
 21
-98.600022488183583
 31
0.0
  0
LINE
  5
3DB
100
AcDbEntity
  8
0
  6
CONTINUOUS
 62
               4
100
AcDbLine
 10
12.000015258789063
 20
-109.4000228881836
 30
0.0
 11
12.000015258789063
 21
-109.00002288818359
 31
0.0
  0
LINE
  5
3DC
100
AcDbEntity
  8
0
  6
CONTINUOUS
 62
               4
100
AcDbLine
 10
25.100015258789057
 20
-108.9000228881836
 30
0.0
 11
10.900015258789054
 21
-108.9000228881836
 31
0.0
  0
LINE
  5
3DD
100
AcDbEntity
  8
0
  6
CONTINUOUS
 62
               4
100
AcDbLine
 10
26.246424858789055
 20
-107.30002188818361
 30
0.0
 11
9.7536056587890556
 21
-107.30002188818361
 31
0.0
  0
LINE
  5
3DE
100
AcDbEntity
  8
0
  6
CONTINUOUS
 62
               4
100
AcDbLine
 10
27.000015258789063
 20
-106.8649358881836
 30
0.0
 11
9.0000152587890625
 21
-106.8649358881836
 31
0.0
  0
LINE
  5
3DF
100
AcDbEntity
  8
0
  6
CONTINUOUS
 62
               4
100
AcDbLine
 10
27.000015258789063
 20
-104.50002288818359
 30
0.0
 11
9.0000152587890625
 21
-104.50002288818359
 31
0.0
  0
LINE
  5
3E0
100
AcDbEntity
  8
0
  6
CONTINUOUS
 62
               4
100
AcDbLine
 10
27.000015258789063
 20
-103.30002288818361
 30
0.0
 11
9.0000152587890625
 21
-103.30002288818361
 31
0.0
  0
LINE
  5
3E1
100
AcDbEntity
  8
0
  6
CONTINUOUS
 62
               4
100
AcDbLine
 10
50.33592685815033
 20
-84.50001525878902
 30
0.0
 11
45.139761220944649
 21
-87.500022888183594
 31
0.0
  0
LINE
  5
3E2
100
AcDbEntity
  8
0
  6
CONTINUOUS
 62
               4
100
AcDbLine
 10
4.664103659427866
 20
-84.500015258789063
 30
0.0
 11
9.8602692966334757
 21
-87.500022888183594
 31
0.0
  0
LINE
  5
3E3
100
AcDbEntity
  8
0
  6
CONTINUOUS
 62
               7
100
AcDbLine
 10
9.0000152587890625
 20
-87.003317288183581
 30
0.0
 11
8.2954635587890522
 21
-86.596543888183589
 31
0.0
  0
LINE
  5
3E4
100
AcDbEntity
  8
0
  6
CONTINUOUS
 62
               4
100
AcDbLine
 10
10.500022888183594
 20
-87.500022888183594
 30
0.0
 11
10.500022888183594
 21
-84.500015258789063
 31
0.0
  0
LINE
  5
3E5
100
AcDbEntity
  8
0
  6
CONTINUOUS
 62
               4
100
AcDbLine
 10
27.000015258789063
 20
-106.30000534057618
 30
0.0
 11
28.000015258789063
 21
-106.30000534057618
 31
0.0
  0
LINE
  5
3E6
100
AcDbEntity
  8
0
  6
CONTINUOUS
 62
               4
100
AcDbLine
 10
26.300015258789045
 20
-104.10000457763672
 30
0.0
 11
28.700015258789058
 21
-104.10000457763672
 31
0.0
  0
LINE
  5
3E7
100
AcDbEntity
  8
0
  6
CONTINUOUS
 62
               4
100
AcDbLine
 10
27.000015258789063
 20
-102.09999694824219
 30
0.0
 11
28.000015258789063
 21
-102.09999694824219
 31
0.0
  0
LINE
  5
3E8
100
AcDbEntity
  8
0
  6
CONTINUOUS
 62
               4
100
AcDbLine
 10
27.000015258789063
 20
-103.09999694824219
 30
0.0
 11
28.000015258789063
 21
-103.09999694824219
 31
0.0
  0
LINE
  5
3E9
100
AcDbEntity
  8
0
  6
CONTINUOUS
 62
               4
100
AcDbLine
 10
27.000015258789063
 20
-100.59999694824219
 30
0.0
 11
28.000015258789063
 21
-100.59999694824219
 31
0.0
  0
LINE
  5
3EA
100
AcDbEntity
  8
0
  6
CONTINUOUS
 62
               4
100
AcDbLine
 10
83.5
 20
37.684984654947868
 30
0.0
 11
83.5
 21
33.499984654947895
 31
0.0
  0
LINE
  5
3EB
100
AcDbEntity
  8
0
  6
CONTINUOUS
 62
               4
100
AcDbLine
 10
81.174999999999997
 20
42.499984654947895
 30
0.0
 11
53.996919099966703
 21
42.499984654947895
 31
0.0
  0
LINE
  5
3EC
100
AcDbEntity
  8
0
  6
CONTINUOUS
 62
               4
100
AcDbLine
 10
68.75
 20
33.999984654947895
 30
0.0
 11
68.75
 21
33.499984654947895
 31
0.0
  0
LINE
  5
3ED
100
AcDbEntity
  8
0
  6
CONTINUOUS
 62
               4
100
AcDbLine
 10
71.25
 20
33.999984654947895
 30
0.0
 11
71.25
 21
33.499984654947895
 31
0.0
  0
LINE
  5
3EE
100
AcDbEntity
  8
0
  6
CONTINUOUS
 62
               4
100
AcDbLine
 10
71.25
 20
33.999984654947895
 30
0.0
 11
68.75
 21
33.999984654947895
 31
0.0
  0
LINE
  5
3EF
100
AcDbEntity
  8
0
  6
CONTINUOUS
 62
               4
100
AcDbLine
 10
81.629999999999995
 20
42.204984654947879
 30
0.0
 11
83.370000000000005
 21
38.289984654947887
 31
0.0
  0
ARC
  5
3F0
100
AcDbEntity
  8
0
  6
CONTINUOUS
 62
               4
100
AcDbCircle
 10
81.175687863874501
 20
42.002655767025487
 30
0.0
 40
0.4973293636201366
100
AcDbArc
 50
24.005903588636794
 51
90.079246697133684
  0
ARC
  5
3F1
100
AcDbEntity
  8
0
  6
CONTINUOUS
 62
               4
100
AcDbCircle
 10
82.001123948313889
 20
37.679379057064921
 30
0.0
 40
1.4988865337462252
100
AcDbArc
 50
0.2142776266259142
 51
24.039904443234629
  0
LINE
  5
3F2
100
AcDbEntity
  8
0
  6
CONTINUOUS
 62
               4
100
AcDbLine
 10
76.399999999999991
 20
35.8999846549479
 30
0.0
 11
76.399999999999991
 21
34.949984654947883
 31
0.0
  0
LINE
  5
3F3
100
AcDbEntity
  8
0
  6
CONTINUOUS
 62
               4
100
AcDbLine
 10
63.5
 20
35.8999846549479
 30
0.0
 11
63.5
 21
34.949984654947883
 31
0.0
  0
LINE
  5
3F4
100
AcDbEntity
  8
0
  6
CONTINUOUS
 62
               4
100
AcDbLine
 10
78.5
 20
35.8999846549479
 30
0.0
 11
76.399999999999991
 21
35.8999846549479
 31
0.0
  0
LINE
  5
3F5
100
AcDbEntity
  8
0
  6
CONTINUOUS
 62
               4
100
AcDbLine
 10
63.5
 20
35.8999846549479
 30
0.0
 11
61.399999999999991
 21
35.8999846549479
 31
0.0
  0
LINE
  5
3F6
100
AcDbEntity
  8
0
  6
CONTINUOUS
 62
               4
100
AcDbLine
 10
78.5
 20
35.8999846549479
 30
0.0
 11
78.5
 21
34.949984654947883
 31
0.0
  0
LINE
  5
3F7
100
AcDbEntity
  8
0
  6
CONTINUOUS
 62
               4
100
AcDbLine
 10
61.399999999999991
 20
35.8999846549479
 30
0.0
 11
61.399999999999991
 21
34.949984654947883
 31
0.0
  0
LINE
  5
3F8
100
AcDbEntity
  8
0
  6
CONTINUOUS
 62
               4
100
AcDbLine
 10
63.5
 20
34.949984654947883
 30
0.0
 11
61.399999999999991
 21
34.949984654947883
 31
0.0
  0
LINE
  5
3F9
100
AcDbEntity
  8
0
  6
CONTINUOUS
 62
               4
100
AcDbLine
 10
78.5
 20
34.949984654947883
 30
0.0
 11
76.399999999999991
 21
34.949984654947883
 31
0.0
  0
LINE
  5
3FA
100
AcDbEntity
  8
0
  6
CONTINUOUS
 62
               4
100
AcDbLine
 10
58.0
 20
35.099984654947889
 30
0.0
 11
58.0
 21
33.499984654947895
 31
0.0
  0
ARC
  5
3FB
100
AcDbEntity
  8
0
  6
CONTINUOUS
 62
               7
100
AcDbCircle
 10
53.998459549981717
 20
42.001525104966163
 30
0.0
 40
0.4984619302958243
100
AcDbArc
 50
89.822932465397855
 51
119.97105163791471
  0
LINE
  5
3FC
100
AcDbEntity
  8
0
  6
CONTINUOUS
 62
               4
100
AcDbLine
 10
58.0
 20
35.099984654947889
 30
0.0
 11
54.0
 21
35.099984654947889
 31
0.0
  0
LINE
  5
3FD
100
AcDbEntity
  8
0
  6
CONTINUOUS
 62
               4
100
AcDbLine
 10
83.5
 20
33.499984654947895
 30
0.0
 11
57.899999999999991
 21
33.499984654947895
 31
0.0
  0
LINE
  5
3FE
100
AcDbEntity
  8
0
  6
CONTINUOUS
 62
               4
100
AcDbLine
 10
54.0
 20
26.499984654947895
 30
0.0
 11
57.899999999999991
 21
26.499984654947895
 31
0.0
  0
LINE
  5
3FF
100
AcDbEntity
  8
0
  6
CONTINUOUS
 62
               4
100
AcDbLine
 10
54.0
 20
34.999984654947895
 30
0.0
 11
57.899999999999991
 21
34.999984654947895
 31
0.0
  0
LINE
  5
400
100
AcDbEntity
  8
0
  6
CONTINUOUS
 62
               4
100
AcDbLine
 10
57.899999999999991
 20
26.499984654947895
 30
0.0
 11
57.899999999999991
 21
34.999984650656359
 31
0.0
  0
LINE
  5
401
100
AcDbEntity
  8
0
  6
CONTINUOUS
 62
               4
100
AcDbLine
 10
56.5
 20
26.499984654947895
 30
0.0
 11
56.500000000000007
 21
9.4999897412109249
 31
0.0
  0
LINE
  5
402
100
AcDbEntity
  8
0
  6
CONTINUOUS
 62
               7
100
AcDbLine
 10
83.5
 20
9.4999847412109375
 30
0.0
 11
56.500000000000007
 21
9.4999847412109375
 31
0.0
  0
LINE
  5
403
100
AcDbEntity
  8
0
  6
CONTINUOUS
 62
               4
100
AcDbLine
 10
83.5
 20
33.499984654947895
 30
0.0
 11
83.5
 21
9.4999846549478946
 31
0.0
  0
ARC
  5
404
100
AcDbEntity
  8
0
  6
CONTINUOUS
 62
               7
100
AcDbCircle
 10
87.20001220703125
 20
-59.250030517578125
 30
0.0
 40
1.5
100
AcDbArc
 50
0.0
 51
89.999982013910454
  0
ARC
  5
405
100
AcDbEntity
  8
0
  6
CONTINUOUS
 62
               7
100
AcDbCircle
 10
87.20001220703125
 20
-61.750030517578125
 30
0.0
 40
1.5
100
AcDbArc
 50
270.00001798608872
 51
0.0
  0
ARC
  5
406
100
AcDbEntity
  8
0
  6
CONTINUOUS
 62
               7
100
AcDbCircle
 10
56.999969482421875
 20
-0.9999542236328125
 30
0.0
 40
2.5000734329223633
100
AcDbArc
 50
220.54201714937955
 51
348.46196975586639
  0
ARC
  5
407
100
AcDbEntity
  8
0
  6
CONTINUOUS
 62
               4
100
AcDbCircle
 10
72.132904052734375
 20
-44.132919311523438
 30
0.0
 40
0.3670958876609802
100
AcDbArc
 50
250.0001859075376
 51
39.805761916754761
  0
ARC
  5
408
100
AcDbEntity
  8
0
  6
CONTINUOUS
 62
               4
100
AcDbCircle
 10
72.132904052734375
 20
-19.867095947265625
 30
0.0
 40
0.367095947265625
100
AcDbArc
 50
320.19435419646032
 51
109.99992337548835
  0
ARC
  5
409
100
AcDbEntity
  8
0
  6
CONTINUOUS
 62
               4
100
AcDbCircle
 10
68.690994262695312
 20
-39.5
 30
0.0
 40
0.5
100
AcDbArc
 50
26.565050889902395
 51
89.999982013910454
  0
ARC
  5
40A
100
AcDbEntity
  8
0
  6
CONTINUOUS
 62
               4
100
AcDbCircle
 10
68.69097900390625
 20
-24.5
 30
0.0
 40
0.5
100
AcDbArc
 50
270.00001798608872
 51
333.4349491100968
  0
ARC
  5
40B
100
AcDbEntity
  8
0
  6
CONTINUOUS
 62
               4
100
AcDbCircle
 10
68.5
 20
-39.5
 30
0.0
 40
0.5
100
AcDbArc
 50
89.999982013910454
 51
179.99996402782091
  0
ARC
  5
40C
100
AcDbEntity
  8
0
  6
CONTINUOUS
 62
               4
100
AcDbCircle
 10
68.5
 20
-24.5
 30
0.0
 40
0.5
100
AcDbArc
 50
179.99998133066492
 51
270.00001798608872
  0
ARC
  5
40D
100
AcDbEntity
  8
0
  6
CONTINUOUS
 62
               4
100
AcDbCircle
 10
68.5
 20
-39.5
 30
0.0
 40
0.5
100
AcDbArc
 50
179.99998133066492
 51
270.00001798608872
  0
ARC
  5
40E
100
AcDbEntity
  8
0
  6
CONTINUOUS
 62
               4
100
AcDbCircle
 10
68.5
 20
-24.5
 30
0.0
 40
0.5
100
AcDbArc
 50
89.999982013910454
 51
179.99996402782091
  0
ARC
  5
40F
100
AcDbEntity
  8
0
  6
CONTINUOUS
 62
               4
100
AcDbCircle
 10
61.5
 20
-43.895660400390625
 30
0.0
 40
0.5
100
AcDbArc
 50
0.0
 51
66.421731866919615
  0
ARC
  5
410
100
AcDbEntity
  8
0
  6
CONTINUOUS
 62
               4
100
AcDbCircle
 10
61.5
 20
-20.104354858398438
 30
0.0
 40
0.5
100
AcDbArc
 50
293.5782134915662
 51
0.0
  0
ARC
  5
411
100
AcDbEntity
  8
0
  6
CONTINUOUS
 62
               4
100
AcDbCircle
 10
62.0
 20
-42.750015258789063
 30
0.0
 40
0.75
100
AcDbArc
 50
89.999982013910454
 51
246.4218598192806
  0
ARC
  5
412
100
AcDbEntity
  8
0
  6
CONTINUOUS
 62
               4
100
AcDbCircle
 10
62.0
 20
-21.25
 30
0.0
 40
0.75
100
AcDbArc
 50
113.57812287787458
 51
270.00000068324471
  0
ARC
  5
413
100
AcDbEntity
  8
0
  6
CONTINUOUS
 62
               4
100
AcDbCircle
 10
61.0
 20
-44.2529296875
 30
0.0
 40
1.0
100
AcDbArc
 50
290.92443911220613
 51
0.0
  0
ARC
  5
414
100
AcDbEntity
  8
0
  6
CONTINUOUS
 62
               4
100
AcDbCircle
 10
61.0
 20
-19.7470703125
 30
0.0
 40
1.0
100
AcDbArc
 50
0.0
 51
69.075560887793046
  0
ARC
  5
415
100
AcDbEntity
  8
0
  6
CONTINUOUS
 62
               4
100
AcDbCircle
 10
62.0
 20
-41.377166748046875
 30
0.0
 40
0.5
100
AcDbArc
 50
0.0
 51
74.05471415121896
  0
ARC
  5
416
100
AcDbEntity
  8
0
  6
CONTINUOUS
 62
               4
100
AcDbCircle
 10
62.0
 20
-22.62286376953125
 30
0.0
 40
0.5
100
AcDbArc
 50
285.94528584878026
 51
0.0
  0
ARC
  5
417
100
AcDbEntity
  8
0
  6
CONTINUOUS
 62
               4
100
AcDbCircle
 10
60.5
 20
-38.868545532226563
 30
0.0
 40
1.5
100
AcDbArc
 50
179.99998133066492
 51
254.0546954818839
  0
ARC
  5
418
100
AcDbEntity
  8
0
  6
CONTINUOUS
 62
               4
100
AcDbCircle
 10
60.5
 20
-25.131454467773438
 30
0.0
 40
1.5
100
AcDbArc
 50
105.94524987660195
 51
179.99996402782091
  0
ARC
  5
419
100
AcDbEntity
  8
0
  6
CONTINUOUS
 62
               7
100
AcDbCircle
 10
53.5
 20
42.0
 30
0.0
 40
0.5
100
AcDbArc
 50
0.0
 51
89.999982013910454
  0
CIRCLE
  5
41A
100
AcDbEntity
  8
0
  6
CONTINUOUS
 62
               7
100
AcDbCircle
 10
23.0
 20
-11.5
 30
0.0
 40
3.5
  0
CIRCLE
  5
41B
100
AcDbEntity
  8
0
  6
CONTINUOUS
 62
               7
100
AcDbCircle
 10
17.0
 20
-69.500015258789063
 30
0.0
 40
3.5
  0
CIRCLE
  5
41C
100
AcDbEntity
  8
0
  6
CONTINUOUS
 62
               7
100
AcDbCircle
 10
28.0
 20
-56.500015258789063
 30
0.0
 40
8.0
  0
CIRCLE
  5
41D
100
AcDbEntity
  8
0
  6
CONTINUOUS
 62
               7
100
AcDbCircle
 10
15.0
 20
-35.5
 30
0.0
 40
8.0
  0
CIRCLE
  5
41E
100
AcDbEntity
  8
0
  6
CONTINUOUS
 62
               7
100
AcDbCircle
 10
28.0
 20
-56.500015258789063
 30
0.0
 40
7.0
  0
CIRCLE
  5
41F
100
AcDbEntity
  8
0
  6
CONTINUOUS
 62
               7
100
AcDbCircle
 10
15.0
 20
-35.5
 30
0.0
 40
7.0
  0
CIRCLE
  5
420
100
AcDbEntity
  8
0
  6
CONTINUOUS
 62
               7
100
AcDbCircle
 10
17.0
 20
-69.500015258789063
 30
0.0
 40
5.0
  0
CIRCLE
  5
421
100
AcDbEntity
  8
0
  6
CONTINUOUS
 62
               7
100
AcDbCircle
 10
23.0
 20
-11.5
 30
0.0
 40
5.0
  0
CIRCLE
  5
422
100
AcDbEntity
  8
0
  6
CONTINUOUS
 62
               7
100
AcDbCircle
 10
17.0
 20
-69.500015258789063
 30
0.0
 40
4.0
  0
CIRCLE
  5
423
100
AcDbEntity
  8
0
  6
CONTINUOUS
 62
               7
100
AcDbCircle
 10
23.0
 20
-11.5
 30
0.0
 40
4.0
  0
ARC
  5
424
100
AcDbEntity
  8
0
  6
CONTINUOUS
 62
               7
100
AcDbCircle
 10
0.5
 20
-84.000015258789063
 30
0.0
 40
0.5
100
AcDbArc
 50
179.99998133066492
 51
270.00001798608872
  0
ARC
  5
425
100
AcDbEntity
  8
0
  6
CONTINUOUS
 62
               7
100
AcDbCircle
 10
0.5
 20
5.0
 30
0.0
 40
0.5
100
AcDbArc
 50
89.999982013910454
 51
179.99996402782091
  0
ARC
  5
426
100
AcDbEntity
  8
0
  6
CONTINUOUS
 62
               7
100
AcDbCircle
 10
89.5
 20
-19.750045776367188
 30
0.0
 40
1.5
100
AcDbArc
 50
270.00001798608872
 51
0.0
  0
ARC
  5
427
100
AcDbEntity
  8
0
  6
CONTINUOUS
 62
               7
100
AcDbCircle
 10
89.5
 20
-17.250045776367188
 30
0.0
 40
1.5
100
AcDbArc
 50
0.0
 51
89.999982013910454
  0
ARC
  5
428
100
AcDbEntity
  8
0
  6
CONTINUOUS
 62
               7
100
AcDbCircle
 10
84.25
 20
-88.000030517578125
 30
0.0
 40
1.5
100
AcDbArc
 50
270.00001798608872
 51
0.0
  0
ARC
  5
429
100
AcDbEntity
  8
0
  6
CONTINUOUS
 62
               7
100
AcDbCircle
 10
81.75
 20
-88.000030517578125
 30
0.0
 40
1.5
100
AcDbArc
 50
179.99998133066492
 51
270.00001798608872
  0
ARC
  5
42A
100
AcDbEntity
  8
0
  6
CONTINUOUS
 62
               7
100
AcDbCircle
 10
87.5
 20
-89.500015258789063
 30
0.0
 40
0.5
100
AcDbArc
 50
270.00007262760209
 51
0.0000409811350201
  0
ARC
  5
42B
100
AcDbEntity
  8
0
  6
CONTINUOUS
 62
               7
100
AcDbCircle
 10
54.5
 20
-89.500015258789063
 30
0.0
 40
0.5
100
AcDbArc
 50
180.0000359721783
 51
270.00007262760209
  0
LINE
  5
42C
100
AcDbEntity
  8
0
  6
CONTINUOUS
 62
               7
100
AcDbLine
 10
83.999962638701618
 20
-1.5000221494437938
 30
0.0
 11
85.99996693812227
 21
-4.0000075345442383
 31
0.0
  0
LINE
  5
42D
100
AcDbEntity
  8
0
  6
CONTINUOUS
 62
               7
100
AcDbLine
 10
54.000055103448176
 20
-4.0001449506271456
 30
0.0
 11
56.000059345816226
 21
-1.5000424660092904
 31
0.0
  0
LINE
  5
42E
100
AcDbEntity
  8
0
  6
CONTINUOUS
 62
               7
100
AcDbLine
 10
83.999984741210938
 20
-1.5000152587890625
 30
0.0
 11
56.00006103515625
 21
-1.5000152587890625
 31
0.0
  0
LINE
  5
42F
100
AcDbEntity
  8
0
  6
CONTINUOUS
 62
               7
100
AcDbLine
 10
86.000005918046554
 20
-60.207127629797469
 30
0.0
 11
86.700004392522715
 21
-59.802983390865847
 31
0.0
  0
LINE
  5
430
100
AcDbEntity
  8
0
  6
CONTINUOUS
 62
               7
100
AcDbLine
 10
86.000011459640518
 20
-61.197066561891916
 30
0.0
 11
86.700009934116679
 21
-60.792922322960294
 31
0.0
  0
LINE
  5
431
100
AcDbEntity
  8
0
  6
CONTINUOUS
 62
               7
100
AcDbLine
 10
87.20001220703125
 20
-57.750030517578125
 30
0.0
 11
86.70001220703125
 21
-57.750030517578125
 31
0.0
  0
LINE
  5
432
100
AcDbEntity
  8
0
  6
CONTINUOUS
 62
               7
100
AcDbLine
 10
86.70001220703125
 20
-63.450027465820313
 30
0.0
 11
86.0
 21
-63.450027465820313
 31
0.0
  0
LINE
  5
433
100
AcDbEntity
  8
0
  6
CONTINUOUS
 62
               7
100
AcDbLine
 10
86.70001220703125
 20
-57.550033569335938
 30
0.0
 11
86.0
 21
-57.550033569335938
 31
0.0
  0
LINE
  5
434
100
AcDbEntity
  8
0
  6
CONTINUOUS
 62
               7
100
AcDbLine
 10
86.70001220703125
 20
-63.450027465820313
 30
0.0
 11
86.70001220703125
 21
-57.550033569335938
 31
0.0
  0
LINE
  5
435
100
AcDbEntity
  8
0
  6
CONTINUOUS
 62
               7
100
AcDbLine
 10
88.70001220703125
 20
-61.750030517578125
 30
0.0
 11
88.70001220703125
 21
-59.250030517578125
 31
0.0
  0
LINE
  5
436
100
AcDbEntity
  8
0
  6
CONTINUOUS
 62
               7
100
AcDbLine
 10
87.20001220703125
 20
-63.250030517578125
 30
0.0
 11
86.70001220703125
 21
-63.250030517578125
 31
0.0
  0
LINE
  5
437
100
AcDbEntity
  8
0
  6
CONTINUOUS
 62
               4
100
AcDbLine
 10
72.249996583930624
 20
-43.699988748308897
 30
0.0
 11
72.414917135487485
 21
-43.897893404035131
 31
0.0
  0
LINE
  5
438
100
AcDbEntity
  8
0
  6
CONTINUOUS
 62
               4
100
AcDbLine
 10
70.75
 20
-41.600006103515625
 30
0.0
 11
70.75
 21
-41.900009155273438
 31
0.0
  0
LINE
  5
439
100
AcDbEntity
  8
0
  6
CONTINUOUS
 62
               4
100
AcDbLine
 10
71.0
 20
-41.900009155273438
 30
0.0
 11
71.0
 21
-42.20001220703125
 31
0.0
  0
LINE
  5
43A
100
AcDbEntity
  8
0
  6
CONTINUOUS
 62
               4
100
AcDbLine
 10
71.25
 20
-42.20001220703125
 30
0.0
 11
71.25
 21
-42.500015258789063
 31
0.0
  0
LINE
  5
43B
100
AcDbEntity
  8
0
  6
CONTINUOUS
 62
               4
100
AcDbLine
 10
71.5
 20
-42.500015258789063
 30
0.0
 11
71.5
 21
-42.800003051757813
 31
0.0
  0
LINE
  5
43C
100
AcDbEntity
  8
0
  6
CONTINUOUS
 62
               4
100
AcDbLine
 10
71.75
 20
-42.800003051757813
 30
0.0
 11
71.75
 21
-43.100006103515625
 31
0.0
  0
LINE
  5
43D
100
AcDbEntity
  8
0
  6
CONTINUOUS
 62
               4
100
AcDbLine
 10
72.0
 20
-43.100006103515625
 30
0.0
 11
72.0
 21
-43.400009155273437
 31
0.0
  0
LINE
  5
43E
100
AcDbEntity
  8
0
  6
CONTINUOUS
 62
               4
100
AcDbLine
 10
72.25
 20
-43.400009155273437
 30
0.0
 11
72.25
 21
-43.70001220703125
 31
0.0
  0
LINE
  5
43F
100
AcDbEntity
  8
0
  6
CONTINUOUS
 62
               4
100
AcDbLine
 10
72.0
 20
-43.400009155273437
 30
0.0
 11
72.25
 21
-43.400009155273437
 31
0.0
  0
LINE
  5
440
100
AcDbEntity
  8
0
  6
CONTINUOUS
 62
               4
100
AcDbLine
 10
71.75
 20
-43.100006103515625
 30
0.0
 11
72.0
 21
-43.100006103515625
 31
0.0
  0
LINE
  5
441
100
AcDbEntity
  8
0
  6
CONTINUOUS
 62
               4
100
AcDbLine
 10
71.5
 20
-42.800003051757813
 30
0.0
 11
71.75
 21
-42.800003051757813
 31
0.0
  0
LINE
  5
442
100
AcDbEntity
  8
0
  6
CONTINUOUS
 62
               4
100
AcDbLine
 10
71.25
 20
-42.500015258789063
 30
0.0
 11
71.5
 21
-42.500015258789063
 31
0.0
  0
LINE
  5
443
100
AcDbEntity
  8
0
  6
CONTINUOUS
 62
               4
100
AcDbLine
 10
71.0
 20
-42.20001220703125
 30
0.0
 11
71.25
 21
-42.20001220703125
 31
0.0
  0
LINE
  5
444
100
AcDbEntity
  8
0
  6
CONTINUOUS
 62
               4
100
AcDbLine
 10
70.75
 20
-41.900009155273438
 30
0.0
 11
71.0
 21
-41.900009155273438
 31
0.0
  0
LINE
  5
445
100
AcDbEntity
  8
0
  6
CONTINUOUS
 62
               4
100
AcDbLine
 10
70.5
 20
-41.600006103515625
 30
0.0
 11
70.75
 21
-41.600006103515625
 31
0.0
  0
LINE
  5
446
100
AcDbEntity
  8
0
  6
CONTINUOUS
 62
               4
100
AcDbLine
 10
72.25
 20
-20.300003051757813
 30
0.0
 11
72.25
 21
-20.600006103515625
 31
0.0
  0
LINE
  5
447
100
AcDbEntity
  8
0
  6
CONTINUOUS
 62
               4
100
AcDbLine
 10
72.250014441857275
 20
-20.300023686393615
 30
0.0
 11
72.414925224975377
 21
-20.102130752793528
 31
0.0
  0
LINE
  5
448
100
AcDbEntity
  8
0
  6
CONTINUOUS
 62
               4
100
AcDbLine
 10
72.0
 20
-20.600006103515625
 30
0.0
 11
72.0
 21
-20.900009155273438
 31
0.0
  0
LINE
  5
449
100
AcDbEntity
  8
0
  6
CONTINUOUS
 62
               4
100
AcDbLine
 10
71.75
 20
-20.900009155273438
 30
0.0
 11
71.75
 21
-21.199996948242188
 31
0.0
  0
LINE
  5
44A
100
AcDbEntity
  8
0
  6
CONTINUOUS
 62
               4
100
AcDbLine
 10
71.5
 20
-21.199996948242188
 30
0.0
 11
71.5
 21
-21.5
 31
0.0
  0
LINE
  5
44B
100
AcDbEntity
  8
0
  6
CONTINUOUS
 62
               4
100
AcDbLine
 10
71.25
 20
-21.5
 30
0.0
 11
71.25
 21
-21.800003051757813
 31
0.0
  0
LINE
  5
44C
100
AcDbEntity
  8
0
  6
CONTINUOUS
 62
               4
100
AcDbLine
 10
71.0
 20
-21.800003051757813
 30
0.0
 11
71.0
 21
-22.100006103515625
 31
0.0
  0
LINE
  5
44D
100
AcDbEntity
  8
0
  6
CONTINUOUS
 62
               4
100
AcDbLine
 10
70.75
 20
-22.100006103515625
 30
0.0
 11
70.75
 21
-22.400009155273438
 31
0.0
  0
LINE
  5
44E
100
AcDbEntity
  8
0
  6
CONTINUOUS
 62
               4
100
AcDbLine
 10
72.0
 20
-20.600006103515625
 30
0.0
 11
72.25
 21
-20.600006103515625
 31
0.0
  0
LINE
  5
44F
100
AcDbEntity
  8
0
  6
CONTINUOUS
 62
               4
100
AcDbLine
 10
71.75
 20
-20.900009155273438
 30
0.0
 11
72.0
 21
-20.900009155273438
 31
0.0
  0
LINE
  5
450
100
AcDbEntity
  8
0
  6
CONTINUOUS
 62
               4
100
AcDbLine
 10
71.5
 20
-21.199996948242188
 30
0.0
 11
71.75
 21
-21.199996948242188
 31
0.0
  0
LINE
  5
451
100
AcDbEntity
  8
0
  6
CONTINUOUS
 62
               4
100
AcDbLine
 10
71.25
 20
-21.5
 30
0.0
 11
71.5
 21
-21.5
 31
0.0
  0
LINE
  5
452
100
AcDbEntity
  8
0
  6
CONTINUOUS
 62
               4
100
AcDbLine
 10
71.0
 20
-21.800003051757813
 30
0.0
 11
71.25
 21
-21.800003051757813
 31
0.0
  0
LINE
  5
453
100
AcDbEntity
  8
0
  6
CONTINUOUS
 62
               4
100
AcDbLine
 10
70.75
 20
-22.100006103515625
 30
0.0
 11
71.0
 21
-22.100006103515625
 31
0.0
  0
LINE
  5
454
100
AcDbEntity
  8
0
  6
CONTINUOUS
 62
               4
100
AcDbLine
 10
70.5
 20
-22.400009155273438
 30
0.0
 11
70.75
 21
-22.400009155273438
 31
0.0
  0
LINE
  5
455
100
AcDbEntity
  8
0
  6
CONTINUOUS
 62
               4
100
AcDbLine
 10
69.320705223040477
 20
-20.500012709668908
 30
0.0
 11
72.007352026810167
 21
-19.522153378508619
 31
0.0
  0
LINE
  5
456
100
AcDbEntity
  8
0
  6
CONTINUOUS
 62
               4
100
AcDbLine
 10
69.320685933360437
 20
-43.500027191316804
 30
0.0
 11
72.007347075701546
 21
-44.477891741289568
 31
0.0
  0
LINE
  5
457
100
AcDbEntity
  8
0
  6
CONTINUOUS
 62
               4
100
AcDbLine
 10
70.000002779408533
 20
-40.999996266677044
 30
0.0
 11
70.50000031725358
 21
-41.599993293470106
 31
0.0
  0
LINE
  5
458
100
AcDbEntity
  8
0
  6
CONTINUOUS
 62
               4
100
AcDbLine
 10
70.000010868896425
 20
-23.000027890151614
 30
0.0
 11
70.50001817518023
 21
-22.400019141232406
 31
0.0
  0
LINE
  5
459
100
AcDbEntity
  8
0
  6
CONTINUOUS
 62
               4
100
AcDbLine
 10
69.138207868296377
 20
-24.723618359001193
 30
0.0
 11
70.000009801783563
 21
-23.000014492026821
 31
0.0
  0
LINE
  5
45A
100
AcDbEntity
  8
0
  6
CONTINUOUS
 62
               4
100
AcDbLine
 10
69.138211280265295
 20
-39.276404489610059
 30
0.0
 11
70.000013213752482
 21
-41.000008356584431
 31
0.0
  0
LINE
  5
45B
100
AcDbEntity
  8
0
  6
CONTINUOUS
 62
               4
100
AcDbLine
 10
68.5
 20
-39.0
 30
0.0
 11
68.690994262695312
 21
-39.0
 31
0.0
  0
LINE
  5
45C
100
AcDbEntity
  8
0
  6
CONTINUOUS
 62
               4
100
AcDbLine
 10
68.5
 20
-25.0
 30
0.0
 11
68.69097900390625
 21
-25.0
 31
0.0
  0
LINE
  5
45D
100
AcDbEntity
  8
0
  6
CONTINUOUS
 62
               4
100
AcDbLine
 10
68.5
 20
-40.0
 30
0.0
 11
68.5
 21
-41.000015258789063
 31
0.0
  0
LINE
  5
45E
100
AcDbEntity
  8
0
  6
CONTINUOUS
 62
               4
100
AcDbLine
 10
68.5
 20
-23.0
 30
0.0
 11
68.5
 21
-24.0
 31
0.0
  0
LINE
  5
45F
100
AcDbEntity
  8
0
  6
CONTINUOUS
 62
               4
100
AcDbLine
 10
63.0
 20
-19.441177368164062
 30
0.0
 11
63.0
 21
-23.0
 31
0.0
  0
LINE
  5
460
100
AcDbEntity
  8
0
  6
CONTINUOUS
 62
               4
100
AcDbLine
 10
63.0
 20
-41.000015258789063
 30
0.0
 11
63.0
 21
-44.558837890625
 31
0.0
  0
LINE
  5
461
100
AcDbEntity
  8
0
  6
CONTINUOUS
 62
               4
100
AcDbLine
 10
65.76922607421875
 20
-20.5
 30
0.0
 11
69.320709228515625
 21
-20.5
 31
0.0
  0
LINE
  5
462
100
AcDbEntity
  8
0
  6
CONTINUOUS
 62
               4
100
AcDbLine
 10
65.76922607421875
 20
-43.500015258789063
 30
0.0
 11
69.320693969726562
 21
-43.500015258789063
 31
0.0
  0
LINE
  5
463
100
AcDbEntity
  8
0
  6
CONTINUOUS
 62
               4
100
AcDbLine
 10
62.328277587890625
 20
-23.0
 30
0.0
 11
68.5
 21
-23.0
 31
0.0
  0
LINE
  5
464
100
AcDbEntity
  8
0
  6
CONTINUOUS
 62
               4
100
AcDbLine
 10
62.328262329101563
 20
-41.000015258789063
 30
0.0
 11
68.5
 21
-41.000015258789063
 31
0.0
  0
LINE
  5
465
100
AcDbEntity
  8
0
  6
CONTINUOUS
 62
               4
100
AcDbLine
 10
62.0
 20
-22.0
 30
0.0
 11
62.5
 21
-22.0
 31
0.0
  0
LINE
  5
466
100
AcDbEntity
  8
0
  6
CONTINUOUS
 62
               4
100
AcDbLine
 10
62.0
 20
-42.000015258789063
 30
0.0
 11
62.5
 21
-42.000015258789063
 31
0.0
  0
LINE
  5
467
100
AcDbEntity
  8
0
  6
CONTINUOUS
 62
               4
100
AcDbLine
 10
62.0
 20
-19.7470703125
 30
0.0
 11
62.0
 21
-20.104354858398438
 31
0.0
  0
LINE
  5
468
100
AcDbEntity
  8
0
  6
CONTINUOUS
 62
               4
100
AcDbLine
 10
62.0
 20
-43.895660400390625
 30
0.0
 11
62.0
 21
-44.2529296875
 31
0.0
  0
LINE
  5
469
100
AcDbEntity
  8
0
  6
CONTINUOUS
 62
               4
100
AcDbLine
 10
62.5
 20
-41.377166748046875
 30
0.0
 11
62.5
 21
-42.000015258789063
 31
0.0
  0
LINE
  5
46A
100
AcDbEntity
  8
0
  6
CONTINUOUS
 62
               4
100
AcDbLine
 10
60.087922274510674
 20
-40.310853784535539
 30
0.0
 11
62.137366793822366
 21
-40.896409270735603
 31
0.0
  0
LINE
  5
46B
100
AcDbEntity
  8
0
  6
CONTINUOUS
 62
               4
100
AcDbLine
 10
60.087930609209366
 20
-23.689167207191417
 30
0.0
 11
62.137360456829924
 21
-23.103615912902455
 31
0.0
  0
LINE
  5
46C
100
AcDbEntity
  8
0
  6
CONTINUOUS
 62
               4
100
AcDbLine
 10
65.76923475359763
 20
-20.500028753504012
 30
0.0
 11
54.000005195244739
 21
-16.000029415288736
 31
0.0
  0
LINE
  5
46D
100
AcDbEntity
  8
0
  6
CONTINUOUS
 62
               4
100
AcDbLine
 10
59.0
 20
-25.131454467773438
 30
0.0
 11
59.0
 21
-38.868545532226563
 31
0.0
  0
LINE
  5
46E
100
AcDbEntity
  8
0
  6
CONTINUOUS
 62
               4
100
AcDbLine
 10
54.000015835494764
 20
-48.000021984171781
 30
0.0
 11
65.769251629316216
 21
-43.500020261806867
 31
0.0
  0
LINE
  5
46F
100
AcDbEntity
  8
0
  6
CONTINUOUS
 62
               4
100
AcDbLine
 10
62.5
 20
-22.0
 30
0.0
 11
62.5
 21
-22.62286376953125
 31
0.0
  0
LINE
  5
470
100
AcDbEntity
  8
0
  6
CONTINUOUS
 62
               7
100
AcDbLine
 10
79.199996948242187
 20
-0.0000152587890625
 30
0.0
 11
60.0
 21
-0.0000152587890625
 31
0.0
  0
LINE
  5
471
100
AcDbEntity
  8
0
  6
CONTINUOUS
 62
               7
100
AcDbLine
 10
1.0
 20
42.5
 30
0.0
 11
53.5
 21
42.5
 31
0.0
  0
LINE
  5
472
100
AcDbEntity
  8
0
  6
CONTINUOUS
 62
               7
100
AcDbLine
 10
40.0
 20
-5.5
 30
0.0
 11
40.0
 21
5.5
 31
0.0
  0
LINE
  5
473
100
AcDbEntity
  8
0
  6
CONTINUOUS
 62
               7
100
AcDbLine
 10
40.0
 20
-73.500015258789063
 30
0.0
 11
54.0
 21
-73.500015258789063
 31
0.0
  0
LINE
  5
474
100
AcDbEntity
  8
0
  6
CONTINUOUS
 62
               7
100
AcDbLine
 10
40.0
 20
-5.5
 30
0.0
 11
54.0
 21
-5.5
 31
0.0
  0
LINE
  5
475
100
AcDbEntity
  8
0
  6
CONTINUOUS
 62
               7
100
AcDbLine
 10
40.0
 20
-84.500015258789063
 30
0.0
 11
40.0
 21
-73.500015258789063
 31
0.0
  0
LINE
  5
476
100
AcDbEntity
  8
0
  6
CONTINUOUS
 62
               7
100
AcDbLine
 10
1.0
 20
5.5
 30
0.0
 11
1.0
 21
42.5
 31
0.0
  0
LINE
  5
477
100
AcDbEntity
  8
0
  6
CONTINUOUS
 62
               4
100
AcDbLine
 10
64.800003051757812
 20
-103.09999694824219
 30
0.0
 11
64.800003051757812
 21
-102.09999694824219
 31
0.0
  0
LINE
  5
478
100
AcDbEntity
  8
0
  6
CONTINUOUS
 62
               4
100
AcDbLine
 10
48.800003051757813
 20
-103.09999694824219
 30
0.0
 11
48.800003051757813
 21
-102.09999694824219
 31
0.0
  0
LINE
  5
479
100
AcDbEntity
  8
0
  6
CONTINUOUS
 62
               4
100
AcDbLine
 10
49.800003051757813
 20
-104.10000457763672
 30
0.0
 11
49.800003051757813
 21
-103.09999694824219
 31
0.0
  0
LINE
  5
47A
100
AcDbEntity
  8
0
  6
CONTINUOUS
 62
               4
100
AcDbLine
 10
63.800003051757813
 20
-104.10000457763672
 30
0.0
 11
63.800003051757813
 21
-103.09999694824219
 31
0.0
  0
LINE
  5
47B
100
AcDbEntity
  8
0
  6
CONTINUOUS
 62
               4
100
AcDbLine
 10
46.800003051757813
 20
-100.59999694824219
 30
0.0
 11
66.800003051757813
 21
-100.59999694824219
 31
0.0
  0
LINE
  5
47C
100
AcDbEntity
  8
0
  6
CONTINUOUS
 62
               4
100
AcDbLine
 10
66.800025586155698
 20
-100.60001331615777
 30
0.0
 11
65.300026691169705
 21
-102.10001221114376
 31
0.0
  0
LINE
  5
47D
100
AcDbEntity
  8
0
  6
CONTINUOUS
 62
               4
100
AcDbLine
 10
48.300010401670988
 20
-102.10000361740313
 30
0.0
 11
46.800008935727419
 21
-100.60000177213752
 31
0.0
  0
LINE
  5
47E
100
AcDbEntity
  8
0
  6
CONTINUOUS
 62
               4
100
AcDbLine
 10
48.800003051757813
 20
-103.09999694824219
 30
0.0
 11
64.800003051757812
 21
-103.09999694824219
 31
0.0
  0
LINE
  5
47F
100
AcDbEntity
  8
0
  6
CONTINUOUS
 62
               4
100
AcDbLine
 10
48.300003051757813
 20
-102.09999694824219
 30
0.0
 11
65.300003051757812
 21
-102.09999694824219
 31
0.0
  0
LINE
  5
480
100
AcDbEntity
  8
0
  6
CONTINUOUS
 62
               4
100
AcDbLine
 10
47.800003051757813
 20
-104.10000457763672
 30
0.0
 11
65.800003051757812
 21
-104.10000457763672
 31
0.0
  0
LINE
  5
481
100
AcDbEntity
  8
0
  6
CONTINUOUS
 62
               4
100
AcDbLine
 10
66.800003051757813
 20
-90.000015258789063
 30
0.0
 11
66.800003051757813
 21
-100.59999694824219
 31
0.0
  0
LINE
  5
482
100
AcDbEntity
  8
0
  6
CONTINUOUS
 62
               4
100
AcDbLine
 10
65.800003051757812
 20
-104.10000457763672
 30
0.0
 11
65.800003051757812
 21
-106.30000534057618
 31
0.0
  0
LINE
  5
483
100
AcDbEntity
  8
0
  6
CONTINUOUS
 62
               4
100
AcDbLine
 10
47.800003051757813
 20
-104.10000457763672
 30
0.0
 11
47.800003051757813
 21
-106.30000534057618
 31
0.0
  0
LINE
  5
484
100
AcDbEntity
  8
0
  6
CONTINUOUS
 62
               4
100
AcDbLine
 10
46.800003051757813
 20
-86.541481820243746
 30
0.0
 11
46.800003051757813
 21
-100.59999694824219
 31
0.0
  0
LINE
  5
485
100
AcDbEntity
  8
0
  6
CONTINUOUS
 62
               4
100
AcDbLine
 10
47.800003051757813
 20
-106.30000534057618
 30
0.0
 11
65.800003051757812
 21
-106.30000534057618
 31
0.0
  0
LINE
  5
486
100
AcDbEntity
  8
0
  6
CONTINUOUS
 62
               7
100
AcDbLine
 10
24.732041477428766
 20
-11.500004176766652
 30
0.0
 11
23.866013851874641
 21
-9.9999997913650986
 31
0.0
  0
LINE
  5
487
100
AcDbEntity
  8
0
  6
CONTINUOUS
 62
               7
100
AcDbLine
 10
23.866005974106884
 20
-13.000003244311301
 30
0.0
 11
24.732026279981255
 21
-11.500012279885595
 31
0.0
  0
LINE
  5
488
100
AcDbEntity
  8
0
  6
CONTINUOUS
 62
               7
100
AcDbLine
 10
22.13397216796875
 20
-13.0
 30
0.0
 11
23.86602783203125
 21
-13.0
 31
0.0
  0
LINE
  5
489
100
AcDbEntity
  8
0
  6
CONTINUOUS
 62
               7
100
AcDbLine
 10
22.133964955078454
 20
-13.000003819138783
 30
0.0
 11
21.267944958917042
 21
-11.500012648237771
 31
0.0
  0
LINE
  5
48A
100
AcDbEntity
  8
0
  6
CONTINUOUS
 62
               7
100
AcDbLine
 10
21.267929809384441
 20
-11.500003065497367
 30
0.0
 11
22.133957744654253
 21
-9.9999988865729392
 31
0.0
  0
LINE
  5
48B
100
AcDbEntity
  8
0
  6
CONTINUOUS
 62
               7
100
AcDbLine
 10
22.13397216796875
 20
-10.0
 30
0.0
 11
23.866012573242187
 21
-10.0
 31
0.0
  0
LINE
  5
48C
100
AcDbEntity
  8
0
  6
CONTINUOUS
 62
               7
100
AcDbLine
 10
17.866009856806272
 20
-70.999992353163293
 30
0.0
 11
18.732029685843429
 21
-69.500002214643757
 31
0.0
  0
LINE
  5
48D
100
AcDbEntity
  8
0
  6
CONTINUOUS
 62
               7
100
AcDbLine
 10
15.26793369208383
 20
-69.499992174349359
 30
0.0
 11
16.133961150516427
 21
-67.999988821331101
 31
0.0
  0
LINE
  5
48E
100
AcDbEntity
  8
0
  6
CONTINUOUS
 62
               7
100
AcDbLine
 10
16.13397216796875
 20
-71.000015258789063
 30
0.0
 11
17.86602783203125
 21
-71.000015258789063
 31
0.0
  0
LINE
  5
48F
100
AcDbEntity
  8
0
  6
CONTINUOUS
 62
               7
100
AcDbLine
 10
16.13397216796875
 20
-68.000015258789063
 30
0.0
 11
17.866012573242188
 21
-68.000015258789063
 31
0.0
  0
LINE
  5
490
100
AcDbEntity
  8
0
  6
CONTINUOUS
 62
               7
100
AcDbLine
 10
18.732018135709041
 20
-69.500017227497665
 30
0.0
 11
17.865982880762203
 21
-67.999999627595571
 31
0.0
  0
LINE
  5
491
100
AcDbEntity
  8
0
  6
CONTINUOUS
 62
               7
100
AcDbLine
 10
16.133941613358729
 20
-71.000016869869796
 30
0.0
 11
15.267921617197317
 21
-69.500025698968784
 31
0.0
  0
LINE
  5
492
100
AcDbEntity
  8
0
  6
CONTINUOUS
 62
               7
100
AcDbLine
 10
3.0
 20
-2.4000091552734375
 30
0.0
 11
3.0
 21
2.399993896484375
 31
0.0
  0
LINE
  5
493
100
AcDbEntity
  8
0
  6
CONTINUOUS
 62
               7
100
AcDbLine
 10
3.0
 20
-81.400009155273438
 30
0.0
 11
3.0
 21
-76.600006103515625
 31
0.0
  0
LINE
  5
494
100
AcDbEntity
  8
0
  6
CONTINUOUS
 62
               7
100
AcDbLine
 10
0.0
 20
2.399993896484375
 30
0.0
 11
3.0
 21
2.399993896484375
 31
0.0
  0
LINE
  5
495
100
AcDbEntity
  8
0
  6
CONTINUOUS
 62
               7
100
AcDbLine
 10
0.0
 20
-2.4000091552734375
 30
0.0
 11
3.0
 21
-2.4000091552734375
 31
0.0
  0
LINE
  5
496
100
AcDbEntity
  8
0
  6
CONTINUOUS
 62
               7
100
AcDbLine
 10
0.0
 20
-76.600006103515625
 30
0.0
 11
3.0
 21
-76.600006103515625
 31
0.0
  0
LINE
  5
497
100
AcDbEntity
  8
0
  6
CONTINUOUS
 62
               7
100
AcDbLine
 10
0.0
 20
-81.400009155273438
 30
0.0
 11
3.0
 21
-81.400009155273438
 31
0.0
  0
LINE
  5
498
100
AcDbEntity
  8
0
  6
CONTINUOUS
 62
               7
100
AcDbLine
 10
3.0
 20
-56.000015258789063
 30
0.0
 11
3.0
 21
-20.0
 31
0.0
  0
LINE
  5
499
100
AcDbEntity
  8
0
  6
CONTINUOUS
 62
               7
100
AcDbLine
 10
0.0
 20
-20.0
 30
0.0
 11
3.0
 21
-20.0
 31
0.0
  0
LINE
  5
49A
100
AcDbEntity
  8
0
  6
CONTINUOUS
 62
               7
100
AcDbLine
 10
0.0
 20
-56.000015258789063
 30
0.0
 11
3.0
 21
-56.000015258789063
 31
0.0
  0
LINE
  5
49B
100
AcDbEntity
  8
0
  6
CONTINUOUS
 62
               7
100
AcDbLine
 10
0.0
 20
-84.000015258789063
 30
0.0
 11
0.0
 21
-56.000015258789063
 31
0.0
  0
LINE
  5
49C
100
AcDbEntity
  8
0
  6
CONTINUOUS
 62
               7
100
AcDbLine
 10
0.5
 20
-84.500015258789063
 30
0.0
 11
54.0
 21
-84.500015258789063
 31
0.0
  0
LINE
  5
49D
100
AcDbEntity
  8
0
  6
CONTINUOUS
 62
               7
100
AcDbLine
 10
0.5
 20
5.5
 30
0.0
 11
54.0
 21
5.5
 31
0.0
  0
LINE
  5
49E
100
AcDbEntity
  8
0
  6
CONTINUOUS
 62
               7
100
AcDbLine
 10
83.5
 20
-0.0000152587890625
 30
0.0
 11
82.199996948242188
 21
-0.0000152587890625
 31
0.0
  0
LINE
  5
49F
100
AcDbEntity
  8
0
  6
CONTINUOUS
 62
               7
100
AcDbLine
 10
82.199996948242188
 20
-1.5000152587890625
 30
0.0
 11
82.199996948242188
 21
-0.0000152587890625
 31
0.0
  0
LINE
  5
4A0
100
AcDbEntity
  8
0
  6
CONTINUOUS
 62
               7
100
AcDbLine
 10
79.199996948242187
 20
-1.5000152587890625
 30
0.0
 11
79.199996948242187
 21
-0.0000152587890625
 31
0.0
  0
LINE
  5
4A1
100
AcDbEntity
  8
0
  6
CONTINUOUS
 62
               7
100
AcDbLine
 10
60.0
 20
-1.5000152587890625
 30
0.0
 11
60.0
 21
-0.0000152587890625
 31
0.0
  0
LINE
  5
4A2
100
AcDbEntity
  8
0
  6
CONTINUOUS
 62
               7
100
AcDbLine
 10
57.5
 20
-1.5000152587890625
 30
0.0
 11
57.5
 21
-0.0000152587890625
 31
0.0
  0
LINE
  5
4A3
100
AcDbEntity
  8
0
  6
CONTINUOUS
 62
               7
100
AcDbLine
 10
57.5
 20
-0.0000152587890625
 30
0.0
 11
56.5
 21
-0.0000152587890625
 31
0.0
  0
LINE
  5
4A4
100
AcDbEntity
  8
0
  6
CONTINUOUS
 62
               7
100
AcDbLine
 10
89.5
 20
-15.750045776367188
 30
0.0
 11
89.0
 21
-15.750045776367188
 31
0.0
  0
LINE
  5
4A5
100
AcDbEntity
  8
0
  6
CONTINUOUS
 62
               7
100
AcDbLine
 10
89.5
 20
-21.250045776367188
 30
0.0
 11
89.0
 21
-21.250045776367188
 31
0.0
  0
LINE
  5
4A6
100
AcDbEntity
  8
0
  6
CONTINUOUS
 62
               7
100
AcDbLine
 10
89.0
 20
-21.500030517578125
 30
0.0
 11
89.0
 21
-14.200027465820313
 31
0.0
  0
LINE
  5
4A7
100
AcDbEntity
  8
0
  6
CONTINUOUS
 62
               7
100
AcDbLine
 10
80.25
 20
-88.000030517578125
 30
0.0
 11
80.25
 21
-87.500030517578125
 31
0.0
  0
LINE
  5
4A8
100
AcDbEntity
  8
0
  6
CONTINUOUS
 62
               7
100
AcDbLine
 10
85.75
 20
-88.000030517578125
 30
0.0
 11
85.75
 21
-87.500030517578125
 31
0.0
  0
LINE
  5
4A9
100
AcDbEntity
  8
0
  6
CONTINUOUS
 62
               7
100
AcDbLine
 10
84.25
 20
-89.500015258789063
 30
0.0
 11
81.75
 21
-89.500015258789063
 31
0.0
  0
LINE
  5
4AA
100
AcDbEntity
  8
0
  6
CONTINUOUS
 62
               7
100
AcDbLine
 10
86.199996948242188
 20
-87.500030517578125
 30
0.0
 11
79.800003051757813
 21
-87.500030517578125
 31
0.0
  0
LINE
  5
4AB
100
AcDbEntity
  8
0
  6
CONTINUOUS
 62
               7
100
AcDbLine
 10
79.800003051757813
 20
-90.000015258789063
 30
0.0
 11
79.800003051757813
 21
-87.500030517578125
 31
0.0
  0
LINE
  5
4AC
100
AcDbEntity
  8
0
  6
CONTINUOUS
 62
               7
100
AcDbLine
 10
86.199996948242188
 20
-90.000015258789063
 30
0.0
 11
86.199996948242188
 21
-87.500030517578125
 31
0.0
  0
LINE
  5
4AD
100
AcDbEntity
  8
0
  6
CONTINUOUS
 62
               7
100
AcDbLine
 10
86.0
 20
-4.0000152587890625
 30
0.0
 11
54.0
 21
-4.0000152587890625
 31
0.0
  0
LINE
  5
4AE
100
AcDbEntity
  8
0
  6
CONTINUOUS
 62
               7
100
AcDbLine
 10
91.0
 20
-63.500030517578125
 30
0.0
 11
86.0
 21
-63.500030517578125
 31
0.0
  0
LINE
  5
4AF
100
AcDbEntity
  8
0
  6
CONTINUOUS
 62
               7
100
AcDbLine
 10
91.0
 20
-57.500030517578125
 30
0.0
 11
86.0
 21
-57.500030517578125
 31
0.0
  0
LINE
  5
4B0
100
AcDbEntity
  8
0
  6
CONTINUOUS
 62
               7
100
AcDbLine
 10
91.0
 20
-21.500030517578125
 30
0.0
 11
89.0
 21
-21.500030517578125
 31
0.0
  0
LINE
  5
4B1
100
AcDbEntity
  8
0
  6
CONTINUOUS
 62
               7
100
AcDbLine
 10
87.0
 20
-68.000030517578125
 30
0.0
 11
87.0
 21
-67.000030517578125
 31
0.0
  0
LINE
  5
4B2
100
AcDbEntity
  8
0
  6
CONTINUOUS
 62
               7
100
AcDbLine
 10
87.0
 20
-76.100021362304688
 30
0.0
 11
87.0
 21
-76.000030517578125
 31
0.0
  0
LINE
  5
4B3
100
AcDbEntity
  8
0
  6
CONTINUOUS
 62
               7
100
AcDbLine
 10
88.0
 20
-68.000030517578125
 30
0.0
 11
88.0
 21
-67.000030517578125
 31
0.0
  0
LINE
  5
4B4
100
AcDbEntity
  8
0
  6
CONTINUOUS
 62
               7
100
AcDbLine
 10
89.0
 20
-68.000030517578125
 30
0.0
 11
86.100006103515625
 21
-68.000030517578125
 31
0.0
  0
LINE
  5
4B5
100
AcDbEntity
  8
0
  6
CONTINUOUS
 62
               7
100
AcDbLine
 10
89.0
 20
-78.000030517578125
 30
0.0
 11
86.100006103515625
 21
-78.000030517578125
 31
0.0
  0
LINE
  5
4B6
100
AcDbEntity
  8
0
  6
CONTINUOUS
 62
               7
100
AcDbLine
 10
86.100006103515625
 20
-69.9000244140625
 30
0.0
 11
86.100006103515625
 21
-68.000030517578125
 31
0.0
  0
LINE
  5
4B7
100
AcDbEntity
  8
0
  6
CONTINUOUS
 62
               7
100
AcDbLine
 10
88.800003051757813
 20
-76.100021362304688
 30
0.0
 11
86.100006103515625
 21
-76.100021362304688
 31
0.0
  0
LINE
  5
4B8
100
AcDbEntity
  8
0
  6
CONTINUOUS
 62
               7
100
AcDbLine
 10
88.800003051757813
 20
-69.9000244140625
 30
0.0
 11
86.100006103515625
 21
-69.9000244140625
 31
0.0
  0
LINE
  5
4B9
100
AcDbEntity
  8
0
  6
CONTINUOUS
 62
               7
100
AcDbLine
 10
86.100006103515625
 20
-78.000030517578125
 30
0.0
 11
86.100006103515625
 21
-76.100021362304688
 31
0.0
  0
LINE
  5
4BA
100
AcDbEntity
  8
0
  6
CONTINUOUS
 62
               7
100
AcDbLine
 10
87.0
 20
-70.000030517578125
 30
0.0
 11
87.0
 21
-69.9000244140625
 31
0.0
  0
LINE
  5
4BB
100
AcDbEntity
  8
0
  6
CONTINUOUS
 62
               7
100
AcDbLine
 10
86.0
 20
-79.000030517578125
 30
0.0
 11
86.0
 21
-76.000030517578125
 31
0.0
  0
LINE
  5
4BC
100
AcDbEntity
  8
0
  6
CONTINUOUS
 62
               7
100
AcDbLine
 10
87.0
 20
-79.000030517578125
 30
0.0
 11
87.0
 21
-78.000030517578125
 31
0.0
  0
LINE
  5
4BD
100
AcDbEntity
  8
0
  6
CONTINUOUS
 62
               7
100
AcDbLine
 10
88.0
 20
-70.000030517578125
 30
0.0
 11
86.0
 21
-70.000030517578125
 31
0.0
  0
LINE
  5
4BE
100
AcDbEntity
  8
0
  6
CONTINUOUS
 62
               7
100
AcDbLine
 10
88.0
 20
-76.000030517578125
 30
0.0
 11
86.0
 21
-76.000030517578125
 31
0.0
  0
LINE
  5
4BF
100
AcDbEntity
  8
0
  6
CONTINUOUS
 62
               7
100
AcDbLine
 10
89.0
 20
-78.000030517578125
 30
0.0
 11
89.0
 21
-68.000030517578125
 31
0.0
  0
LINE
  5
4C0
100
AcDbEntity
  8
0
  6
CONTINUOUS
 62
               7
100
AcDbLine
 10
88.800003051757813
 20
-76.100021362304688
 30
0.0
 11
88.800003051757813
 21
-69.9000244140625
 31
0.0
  0
LINE
  5
4C1
100
AcDbEntity
  8
0
  6
CONTINUOUS
 62
               7
100
AcDbLine
 10
89.000070695223258
 20
-78.000094003376034
 30
0.0
 11
90.000053380860663
 21
-77.000096060727628
 31
0.0
  0
LINE
  5
4C2
100
AcDbEntity
  8
0
  6
CONTINUOUS
 62
               7
100
AcDbLine
 10
88.999958331288326
 20
-68.000052116575716
 30
0.0
 11
89.999972121248902
 21
-69.000062113274907
 31
0.0
  0
LINE
  5
4C3
100
AcDbEntity
  8
0
  6
CONTINUOUS
 62
               7
100
AcDbLine
 10
90.0
 20
-77.000030517578125
 30
0.0
 11
90.0
 21
-69.000030517578125
 31
0.0
  0
LINE
  5
4C4
100
AcDbEntity
  8
0
  6
CONTINUOUS
 62
               7
100
AcDbLine
 10
88.0
 20
-76.100021362304688
 30
0.0
 11
88.0
 21
-69.9000244140625
 31
0.0
  0
LINE
  5
4C5
100
AcDbEntity
  8
0
  6
CONTINUOUS
 62
               7
100
AcDbLine
 10
56.5
 20
-1.5000152587890625
 30
0.0
 11
56.5
 21
9.4999847412109375
 31
0.0
  0
LINE
  5
4C6
100
AcDbEntity
  8
0
  6
CONTINUOUS
 62
               7
100
AcDbLine
 10
83.5
 20
-1.5000152587890625
 30
0.0
 11
83.5
 21
9.4999847412109375
 31
0.0
  0
LINE
  5
4C7
100
AcDbEntity
  8
0
  6
CONTINUOUS
 62
               7
100
AcDbLine
 10
84.5
 20
6.4999847412109375
 30
0.0
 11
84.5
 21
8.1499786376953125
 31
0.0
  0
LINE
  5
4C8
100
AcDbEntity
  8
0
  6
CONTINUOUS
 62
               7
100
AcDbLine
 10
84.5
 20
6.4999847412109375
 30
0.0
 11
83.899993896484375
 21
6.4999847412109375
 31
0.0
  0
LINE
  5
4C9
100
AcDbEntity
  8
0
  6
CONTINUOUS
 62
               7
100
AcDbLine
 10
84.5
 20
5.8999786376953125
 30
0.0
 11
83.899993896484375
 21
5.8999786376953125
 31
0.0
  0
LINE
  5
4CA
100
AcDbEntity
  8
0
  6
CONTINUOUS
 62
               7
100
AcDbLine
 10
83.899993896484375
 20
5.8999786376953125
 30
0.0
 11
83.899993896484375
 21
6.4999847412109375
 31
0.0
  0
LINE
  5
4CB
100
AcDbEntity
  8
0
  6
CONTINUOUS
 62
               7
100
AcDbLine
 10
84.5
 20
8.1499786376953125
 30
0.0
 11
83.5
 21
8.1499786376953125
 31
0.0
  0
LINE
  5
4CC
100
AcDbEntity
  8
0
  6
CONTINUOUS
 62
               7
100
AcDbLine
 10
84.5
 20
4.2499847412109375
 30
0.0
 11
83.5
 21
4.2499847412109375
 31
0.0
  0
LINE
  5
4CD
100
AcDbEntity
  8
0
  6
CONTINUOUS
 62
               7
100
AcDbLine
 10
84.5
 20
4.2499847412109375
 30
0.0
 11
84.5
 21
5.8999786376953125
 31
0.0
  0
LINE
  5
4CE
100
AcDbEntity
  8
0
  6
CONTINUOUS
 62
               7
100
AcDbLine
 10
87.5
 20
-90.000015258789063
 30
0.0
 11
54.5
 21
-90.000015258789063
 31
0.0
  0
LINE
  5
4CF
100
AcDbEntity
  8
0
  6
CONTINUOUS
 62
               7
100
AcDbLine
 10
91.000000818366971
 20
-64.800023469215375
 30
0.0
 11
88.999994817673723
 21
-66.800021714880131
 31
0.0
  0
LINE
  5
4D0
100
AcDbEntity
  8
0
  6
CONTINUOUS
 62
               7
100
AcDbLine
 10
90.999994331920789
 20
-16.200022658041235
 30
0.0
 11
89.000008898868145
 21
-14.200025255335277
 31
0.0
  0
LINE
  5
4D1
100
AcDbEntity
  8
0
  6
CONTINUOUS
 62
               7
100
AcDbLine
 10
89.0
 20
-14.200027465820313
 30
0.0
 11
86.0
 21
-14.200027465820313
 31
0.0
  0
LINE
  5
4D2
100
AcDbEntity
  8
0
  6
CONTINUOUS
 62
               7
100
AcDbLine
 10
89.0
 20
-66.800033569335937
 30
0.0
 11
86.0
 21
-66.800033569335937
 31
0.0
  0
LINE
  5
4D3
100
AcDbEntity
  8
0
  6
CONTINUOUS
 62
               7
100
AcDbLine
 10
91.0
 20
-64.800033569335938
 30
0.0
 11
91.0
 21
-16.200027465820312
 31
0.0
  0
LINE
  5
4D4
100
AcDbEntity
  8
0
  6
CONTINUOUS
 62
               7
100
AcDbLine
 10
88.0
 20
-89.500030517578125
 30
0.0
 11
88.0
 21
-78.000030517578125
 31
0.0
  0
LINE
  5
4D5
100
AcDbEntity
  8
0
  6
CONTINUOUS
 62
               7
100
AcDbLine
 10
88.0
 20
-79.000030517578125
 30
0.0
 11
54.0
 21
-79.000030517578125
 31
0.0
  0
LINE
  5
4D6
100
AcDbEntity
  8
0
  6
CONTINUOUS
 62
               7
100
AcDbLine
 10
88.0
 20
-67.000030517578125
 30
0.0
 11
54.0
 21
-67.000030517578125
 31
0.0
  0
LINE
  5
4D7
100
AcDbEntity
  8
0
  6
CONTINUOUS
 62
               7
100
AcDbLine
 10
86.0
 20
-70.000030517578125
 30
0.0
 11
86.0
 21
-4.0000152587890625
 31
0.0
  0
LINE
  5
4D8
100
AcDbEntity
  8
0
  6
CONTINUOUS
 62
               7
100
AcDbLine
 10
54.0
 20
-89.500030517578125
 30
0.0
 11
54.0
 21
42.0
 31
0.0
  0
LINE
  5
4D9
100
AcDbEntity
  8
0
  6
CONTINUOUS
 62
               7
100
AcDbLine
 10
86.0
 20
-14.000015258789063
 30
0.0
 11
54.0
 21
-14.000015258789063
 31
0.0
  0
ENDBLK
  5
4DA
100
AcDbEntity
  8
0
100
AcDbBlockEnd
  0
BLOCK
  5
4DB
100
AcDbEntity
  8
0
100
AcDbBlockBegin
  2
F18MPJ_SAMPLE-3
 70
               0
 10
0.0
 20
0.0
 30
0.0
  3
F18MPJ_SAMPLE-3
  1

  0
LINE
  5
4DC
100
AcDbEntity
  8
0
  6
CONTINUOUS
 62
               2
100
AcDbLine
 10
117.0
 20
78.652313232421875
 30
0.0
 11
117.0
 21
-3.372222900390625
 31
0.0
  0
LINE
  5
4DD
100
AcDbEntity
  8
0
  6
CONTINUOUS
 62
               2
100
AcDbLine
 10
137.0
 20
5.0
 30
0.0
 11
137.0
 21
-5.0
 31
0.0
  0
LINE
  5
4DE
100
AcDbEntity
  8
0
  6
CONTINUOUS
 62
               2
100
AcDbLine
 10
0.0
 20
5.0
 30
0.0
 11
0.0
 21
-5.0
 31
0.0
  0
LINE
  5
4DF
100
AcDbEntity
  8
0
  6
CONTINUOUS
 62
               2
100
AcDbLine
 10
40.00006103515625
 20
-0.38555908203125
 30
0.0
 11
40.0
 21
94.31121826171875
 31
0.0
  0
LINE
  5
4E0
100
AcDbEntity
  8
0
  6
CONTINUOUS
 62
               2
100
AcDbLine
 10
58.999969482421875
 20
94.311222076416016
 30
0.0
 11
59.000030517578125
 21
0.042144775390625
 31
0.0
  0
LINE
  5
4E1
100
AcDbEntity
  8
0
  6
CONTINUOUS
 62
               2
100
AcDbLine
 10
77.999969482421875
 20
94.311222076416016
 30
0.0
 11
78.000030517578125
 21
0.042144775390625
 31
0.0
  0
LINE
  5
4E2
100
AcDbEntity
  8
0
  6
CONTINUOUS
 62
               2
100
AcDbLine
 10
97.00006103515625
 20
-0.38555908203125
 30
0.0
 11
97.00006103515625
 21
59.59344482421875
 31
0.0
  0
LINE
  5
4E3
100
AcDbEntity
  8
0
  6
CONTINUOUS
 62
               4
100
AcDbLine
 10
106.00006103515625
 20
1.20001220703125
 30
0.0
 11
106.00006103515625
 21
4.3543548583984375
 31
0.0
  0
LINE
  5
4E4
100
AcDbEntity
  8
0
  6
CONTINUOUS
 62
               4
100
AcDbLine
 10
88.00006103515625
 20
1.20001220703125
 30
0.0
 11
88.00006103515625
 21
4.5
 31
0.0
  0
LINE
  5
4E5
100
AcDbEntity
  8
0
  6
CONTINUOUS
 62
               4
100
AcDbLine
 10
88.000061988830566
 20
53.799999237060547
 30
0.0
 11
106.00006103515625
 21
53.799999237060547
 31
0.0
  0
LINE
  5
4E6
100
AcDbEntity
  8
0
  6
CONTINUOUS
 62
               4
100
AcDbLine
 10
88.000058174133301
 20
1.20001220703125
 30
0.0
 11
106.00005722045898
 21
1.20001220703125
 31
0.0
  0
LINE
  5
4E7
100
AcDbEntity
  8
0
  6
CONTINUOUS
 62
               4
100
AcDbLine
 10
103.5000581741333
 20
8.5
 30
0.0
 11
106.0000581741333
 21
8.5
 31
0.0
  0
LINE
  5
4E8
100
AcDbEntity
  8
0
  6
CONTINUOUS
 62
               4
100
AcDbLine
 10
100.50006103515625
 20
1.20001220703125
 30
0.0
 11
100.50006103515625
 21
5.5
 31
0.0
  0
LINE
  5
4E9
100
AcDbEntity
  8
0
  6
CONTINUOUS
 62
               4
100
AcDbLine
 10
93.50006103515625
 20
49.499999773506318
 30
0.0
 11
93.50006103515625
 21
53.799999237060547
 31
0.0
  0
LINE
  5
4EA
100
AcDbEntity
  8
0
  6
CONTINUOUS
 62
               4
100
AcDbLine
 10
88.00006103515625
 20
46.5
 30
0.0
 11
90.500060808662568
 21
46.5
 31
0.0
  0
LINE
  5
4EB
100
AcDbEntity
  8
0
  6
CONTINUOUS
 62
               4
100
AcDbLine
 10
104.56071909497314
 20
4.4393434073972458
 30
0.0
 11
102.43939896653228
 21
6.5606640722799057
 31
0.0
  0
LINE
  5
4EC
100
AcDbEntity
  8
0
  6
CONTINUOUS
 62
               4
100
AcDbLine
 10
91.560719211946036
 20
48.439337780128497
 30
0.0
 11
89.43939908350518
 21
50.560658445011157
 31
0.0
  0
LINE
  5
4ED
100
AcDbEntity
  8
0
  6
CONTINUOUS
 62
               4
100
AcDbLine
 10
89.439400993271136
 20
48.439339645223342
 30
0.0
 11
91.560721479339861
 21
50.560659952478133
 31
0.0
  0
LINE
  5
4EE
100
AcDbEntity
  8
0
  6
CONTINUOUS
 62
               4
100
AcDbLine
 10
102.43940249664047
 20
4.4393446820295139
 30
0.0
 11
104.56072298270919
 21
6.5606649892843052
 31
0.0
  0
LINE
  5
4EF
100
AcDbEntity
  8
0
  6
CONTINUOUS
 62
               4
100
AcDbLine
 10
106.00006103515625
 20
6.6456451416015625
 30
0.0
 11
106.00006103515625
 21
44.499999046325684
 31
0.0
  0
LINE
  5
4F0
100
AcDbEntity
  8
0
  6
CONTINUOUS
 62
               4
100
AcDbLine
 10
88.00006103515625
 20
50.645644187927246
 30
0.0
 11
88.00006103515625
 21
53.799999237060547
 31
0.0
  0
LINE
  5
4F1
100
AcDbEntity
  8
0
  6
CONTINUOUS
 62
               4
100
AcDbLine
 10
88.000058174133301
 20
4.5
 30
0.0
 11
90.500057637750615
 21
4.5
 31
0.0
  0
LINE
  5
4F2
100
AcDbEntity
  8
0
  6
CONTINUOUS
 62
               4
100
AcDbLine
 10
88.000058174133301
 20
10.5
 30
0.0
 11
90.500058090738094
 21
10.5
 31
0.0
  0
LINE
  5
4F3
100
AcDbEntity
  8
0
  6
CONTINUOUS
 62
               4
100
AcDbLine
 10
103.50006103515625
 20
44.5
 30
0.0
 11
106.00006103515625
 21
44.5
 31
0.0
  0
LINE
  5
4F4
100
AcDbEntity
  8
0
  6
CONTINUOUS
 62
               4
100
AcDbLine
 10
103.50006103515625
 20
50.5
 30
0.0
 11
106.00006103515625
 21
50.5
 31
0.0
  0
LINE
  5
4F5
100
AcDbEntity
  8
0
  6
CONTINUOUS
 62
               4
100
AcDbLine
 10
88.00006103515625
 20
10.5
 30
0.0
 11
88.00006103515625
 21
48.35435676574707
 31
0.0
  0
LINE
  5
4F6
100
AcDbEntity
  8
0
  6
CONTINUOUS
 62
               4
100
AcDbLine
 10
106.00006103515625
 20
50.499998807907104
 30
0.0
 11
106.00006103515625
 21
53.79999828338623
 31
0.0
  0
LINE
  5
4F7
100
AcDbEntity
  8
0
  6
CONTINUOUS
 62
             200
100
AcDbLine
 10
87.500059127807617
 20
18.0
 30
0.0
 11
106.50005912780762
 21
18.0
 31
0.0
  0
LINE
  5
4F8
100
AcDbEntity
  8
0
  6
CONTINUOUS
 62
             200
100
AcDbLine
 10
87.500060081481934
 20
37.0
 30
0.0
 11
106.50006008148193
 21
37.0
 31
0.0
  0
ARC
  5
4F9
100
AcDbEntity
  8
0
  6
CONTINUOUS
 62
               4
100
AcDbCircle
 10
103.5000581741333
 20
5.5
 30
0.0
 40
3.0
100
AcDbArc
 50
89.999982013910454
 51
179.99996402782091
  0
ARC
  5
4FA
100
AcDbEntity
  8
0
  6
CONTINUOUS
 62
               4
100
AcDbCircle
 10
90.50006103515625
 20
49.5
 30
0.0
 40
3.0
100
AcDbArc
 50
270.00001798608872
 51
0.00001366037834
  0
CIRCLE
  5
4FB
100
AcDbEntity
  8
0
  6
CONTINUOUS
 62
               4
100
AcDbCircle
 10
103.5000581741333
 20
5.5
 30
0.0
 40
2.75
  0
CIRCLE
  5
4FC
100
AcDbEntity
  8
0
  6
CONTINUOUS
 62
               4
100
AcDbCircle
 10
90.50006103515625
 20
49.5
 30
0.0
 40
2.75
  0
ARC
  5
4FD
100
AcDbEntity
  8
0
  6
CONTINUOUS
 62
               4
100
AcDbCircle
 10
90.500057864244809
 20
7.5
 30
0.0
 40
3.0
100
AcDbArc
 50
270.00001798608872
 51
89.999982013910454
  0
ARC
  5
4FE
100
AcDbEntity
  8
0
  6
CONTINUOUS
 62
               4
100
AcDbCircle
 10
103.50006103515625
 20
47.499999046325684
 30
0.0
 40
3.0
100
AcDbArc
 50
89.999982013910454
 51
269.99994604173139
  0
CIRCLE
  5
4FF
100
AcDbEntity
  8
0
  6
CONTINUOUS
 62
               4
100
AcDbCircle
 10
97.00006103515625
 20
37.0
 30
0.0
 40
8.9499999999999993
  0
ARC
  5
500
100
AcDbEntity
  8
0
  6
CONTINUOUS
 62
               4
100
AcDbCircle
 10
97.00006103515625
 20
37.0
 30
0.0
 40
8.4000000000000004
100
AcDbArc
 50
7.1848403149542479
 51
172.81515968504539
  0
ARC
  5
501
100
AcDbEntity
  8
0
  6
CONTINUOUS
 62
               4
100
AcDbCircle
 10
97.00006103515625
 20
37.0
 30
0.0
 40
8.4000000000000004
100
AcDbArc
 50
187.18484031495382
 51
352.81515968504499
  0
CIRCLE
  5
502
100
AcDbEntity
  8
0
  6
CONTINUOUS
 62
               4
100
AcDbCircle
 10
97.00006103515625
 20
37.0
 30
0.0
 40
5.0499999999999998
  0
CIRCLE
  5
503
100
AcDbEntity
  8
0
  6
CONTINUOUS
 62
               4
100
AcDbCircle
 10
97.00006103515625
 20
37.0
 30
0.0
 40
4.0499999999999998
  0
CIRCLE
  5
504
100
AcDbEntity
  8
0
  6
CONTINUOUS
 62
               4
100
AcDbCircle
 10
97.00006103515625
 20
18.0
 30
0.0
 40
8.9499999999999993
  0
ARC
  5
505
100
AcDbEntity
  8
0
  6
CONTINUOUS
 62
               4
100
AcDbCircle
 10
97.00006103515625
 20
18.0
 30
0.0
 40
8.4000000000000004
100
AcDbArc
 50
7.1848403149542479
 51
172.81515968504539
  0
CIRCLE
  5
506
100
AcDbEntity
  8
0
  6
CONTINUOUS
 62
               4
100
AcDbCircle
 10
97.00006103515625
 20
18.0
 30
0.0
 40
5.0499999999999998
  0
CIRCLE
  5
507
100
AcDbEntity
  8
0
  6
CONTINUOUS
 62
               4
100
AcDbCircle
 10
97.00006103515625
 20
18.0
 30
0.0
 40
4.0499999999999998
  0
ARC
  5
508
100
AcDbEntity
  8
0
  6
CONTINUOUS
 62
               4
100
AcDbCircle
 10
97.00006103515625
 20
18.0
 30
0.0
 40
8.4000000000000004
100
AcDbArc
 50
187.18484031495382
 51
352.81515968504499
  0
LINE
  5
509
100
AcDbEntity
  8
0
  6
CONTINUOUS
 62
               4
100
AcDbLine
 10
97.75006103515625
 20
27.190212184710433
 30
0.0
 11
97.75006103515625
 21
27.809787815289582
 31
0.0
  0
LINE
  5
50A
100
AcDbEntity
  8
0
  6
CONTINUOUS
 62
               4
100
AcDbLine
 10
96.25006103515625
 20
27.190212184710433
 30
0.0
 11
96.25006103515625
 21
27.809787815289582
 31
0.0
  0
ARC
  5
50B
100
AcDbEntity
  8
0
  6
CONTINUOUS
 62
               4
100
AcDbCircle
 10
95.950061035156239
 20
27.809787815289582
 30
0.0
 40
0.3
100
AcDbArc
 50
0.0
 51
83.482105791022562
  0
ARC
  5
50C
100
AcDbEntity
  8
0
  6
CONTINUOUS
 62
               4
100
AcDbCircle
 10
95.950061035156239
 20
27.190212184710433
 30
0.0
 40
0.3
100
AcDbArc
 50
276.5178942089774
 51
0.0
  0
ARC
  5
50D
100
AcDbEntity
  8
0
  6
CONTINUOUS
 62
               4
100
AcDbCircle
 10
98.050061035156233
 20
27.809787815289582
 30
0.0
 40
0.3
100
AcDbArc
 50
96.517894208978376
 51
179.99999999999963
  0
ARC
  5
50E
100
AcDbEntity
  8
0
  6
CONTINUOUS
 62
               4
100
AcDbCircle
 10
98.050061035156233
 20
27.190212184710433
 30
0.0
 40
0.3
100
AcDbArc
 50
179.99999999999963
 51
263.48210579102226
  0
LINE
  5
50F
100
AcDbEntity
  8
0
  6
CONTINUOUS
 62
               4
100
AcDbLine
 10
104.90006103515623
 20
36.200000000000003
 30
0.0
 11
105.33410279084671
 21
35.949405875512568
 31
0.0
  0
LINE
  5
510
100
AcDbEntity
  8
0
  6
CONTINUOUS
 62
               4
100
AcDbLine
 10
104.90006103515623
 20
37.799999999999997
 30
0.0
 11
105.33410279084671
 21
38.050594124487432
 31
0.0
  0
LINE
  5
511
100
AcDbEntity
  8
0
  6
CONTINUOUS
 62
               4
100
AcDbLine
 10
104.90006103515623
 20
36.200000000000003
 30
0.0
 11
104.90006103515623
 21
37.799999994039538
 31
0.0
  0
LINE
  5
512
100
AcDbEntity
  8
0
  6
CONTINUOUS
 62
               4
100
AcDbLine
 10
89.100061035156244
 20
37.799999999999997
 30
0.0
 11
88.666019279465758
 21
38.050594124487432
 31
0.0
  0
LINE
  5
513
100
AcDbEntity
  8
0
  6
CONTINUOUS
 62
               4
100
AcDbLine
 10
89.100061035156244
 20
36.200000000000003
 30
0.0
 11
88.666019279465758
 21
35.949405875512568
 31
0.0
  0
LINE
  5
514
100
AcDbEntity
  8
0
  6
CONTINUOUS
 62
               4
100
AcDbLine
 10
89.100061035156244
 20
36.200000000000003
 30
0.0
 11
89.100061035156244
 21
37.799999994039538
 31
0.0
  0
LINE
  5
515
100
AcDbEntity
  8
0
  6
CONTINUOUS
 62
               4
100
AcDbLine
 10
89.100061035156244
 20
17.200000000000003
 30
0.0
 11
88.666019279465758
 21
16.949405875512568
 31
0.0
  0
LINE
  5
516
100
AcDbEntity
  8
0
  6
CONTINUOUS
 62
               4
100
AcDbLine
 10
89.100061035156244
 20
18.800000000000011
 30
0.0
 11
88.666019279465758
 21
19.050594124487432
 31
0.0
  0
LINE
  5
517
100
AcDbEntity
  8
0
  6
CONTINUOUS
 62
               4
100
AcDbLine
 10
89.100061035156244
 20
17.200000000000003
 30
0.0
 11
89.100061035156244
 21
18.799999994039538
 31
0.0
  0
LINE
  5
518
100
AcDbEntity
  8
0
  6
CONTINUOUS
 62
               4
100
AcDbLine
 10
104.90006103515623
 20
17.200000000000003
 30
0.0
 11
105.33410279084671
 21
16.949405875512568
 31
0.0
  0
LINE
  5
519
100
AcDbEntity
  8
0
  6
CONTINUOUS
 62
               4
100
AcDbLine
 10
104.90006103515623
 20
18.800000000000011
 30
0.0
 11
105.33410279084671
 21
19.050594124487432
 31
0.0
  0
LINE
  5
51A
100
AcDbEntity
  8
0
  6
CONTINUOUS
 62
               4
100
AcDbLine
 10
104.90006103515623
 20
17.200000000000003
 30
0.0
 11
104.90006103515623
 21
18.799999994039538
 31
0.0
  0
LINE
  5
51B
100
AcDbEntity
  8
0
  6
CONTINUOUS
 62
               4
100
AcDbLine
 10
88.00006103515625
 20
45.139745962155587
 30
0.0
 11
93.278900507636394
 21
45.139745962155587
 31
0.0
  0
LINE
  5
51C
100
AcDbEntity
  8
0
  6
CONTINUOUS
 62
               4
100
AcDbLine
 10
100.72122156620026
 20
9.8602540378444132
 30
0.0
 11
106.00006103515625
 21
9.8602540378444132
 31
0.0
  0
LINE
  5
51D
100
AcDbEntity
  8
0
  6
CONTINUOUS
 62
               4
100
AcDbLine
 10
100.72122156267608
 20
45.139745962155587
 30
0.0
 11
101.64827518362557
 21
45.139745962155587
 31
0.0
  0
LINE
  5
51E
100
AcDbEntity
  8
0
  6
CONTINUOUS
 62
               4
100
AcDbLine
 10
92.351895507516446
 20
9.8602540378444132
 30
0.0
 11
93.278900504112244
 21
9.8602540378444132
 31
0.0
  0
LINE
  5
51F
100
AcDbEntity
  8
0
  6
CONTINUOUS
 62
               4
100
AcDbLine
 10
49.00006103515625
 20
1.20001220703125
 30
0.0
 11
49.00006103515625
 21
4.3543548583984375
 31
0.0
  0
LINE
  5
520
100
AcDbEntity
  8
0
  6
CONTINUOUS
 62
               4
100
AcDbLine
 10
31.00006103515625
 20
1.20001220703125
 30
0.0
 11
31.00006103515625
 21
4.5
 31
0.0
  0
LINE
  5
521
100
AcDbEntity
  8
0
  6
CONTINUOUS
 62
               4
100
AcDbLine
 10
31.000061988830566
 20
53.799999237060547
 30
0.0
 11
49.00006103515625
 21
53.799999237060547
 31
0.0
  0
LINE
  5
522
100
AcDbEntity
  8
0
  6
CONTINUOUS
 62
               4
100
AcDbLine
 10
31.000058174133301
 20
1.20001220703125
 30
0.0
 11
49.000057220458984
 21
1.20001220703125
 31
0.0
  0
LINE
  5
523
100
AcDbEntity
  8
0
  6
CONTINUOUS
 62
               4
100
AcDbLine
 10
46.500058174133301
 20
8.5
 30
0.0
 11
49.000058174133301
 21
8.5
 31
0.0
  0
LINE
  5
524
100
AcDbEntity
  8
0
  6
CONTINUOUS
 62
               4
100
AcDbLine
 10
43.50006103515625
 20
1.20001220703125
 30
0.0
 11
43.50006103515625
 21
5.5
 31
0.0
  0
LINE
  5
525
100
AcDbEntity
  8
0
  6
CONTINUOUS
 62
               4
100
AcDbLine
 10
36.50006103515625
 20
49.499999773506318
 30
0.0
 11
36.50006103515625
 21
53.799999237060547
 31
0.0
  0
LINE
  5
526
100
AcDbEntity
  8
0
  6
CONTINUOUS
 62
               4
100
AcDbLine
 10
31.00006103515625
 20
46.5
 30
0.0
 11
33.500060808662568
 21
46.5
 31
0.0
  0
LINE
  5
527
100
AcDbEntity
  8
0
  6
CONTINUOUS
 62
               4
100
AcDbLine
 10
47.560719094973138
 20
4.4393434073972458
 30
0.0
 11
45.439398966532281
 21
6.5606640722799057
 31
0.0
  0
LINE
  5
528
100
AcDbEntity
  8
0
  6
CONTINUOUS
 62
               4
100
AcDbLine
 10
34.560719211946036
 20
48.439337780128497
 30
0.0
 11
32.43939908350518
 21
50.560658445011157
 31
0.0
  0
LINE
  5
529
100
AcDbEntity
  8
0
  6
CONTINUOUS
 62
               4
100
AcDbLine
 10
32.439400993271136
 20
48.439339645223342
 30
0.0
 11
34.560721479339861
 21
50.560659952478133
 31
0.0
  0
LINE
  5
52A
100
AcDbEntity
  8
0
  6
CONTINUOUS
 62
               4
100
AcDbLine
 10
45.439402496640469
 20
4.4393446820295139
 30
0.0
 11
47.560722982709194
 21
6.5606649892843052
 31
0.0
  0
LINE
  5
52B
100
AcDbEntity
  8
0
  6
CONTINUOUS
 62
               4
100
AcDbLine
 10
49.00006103515625
 20
6.6456451416015625
 30
0.0
 11
49.00006103515625
 21
44.499999046325684
 31
0.0
  0
LINE
  5
52C
100
AcDbEntity
  8
0
  6
CONTINUOUS
 62
               4
100
AcDbLine
 10
31.00006103515625
 20
50.645644187927246
 30
0.0
 11
31.00006103515625
 21
53.799999237060547
 31
0.0
  0
LINE
  5
52D
100
AcDbEntity
  8
0
  6
CONTINUOUS
 62
               4
100
AcDbLine
 10
31.000058174133301
 20
4.5
 30
0.0
 11
33.500057637750615
 21
4.5
 31
0.0
  0
LINE
  5
52E
100
AcDbEntity
  8
0
  6
CONTINUOUS
 62
               4
100
AcDbLine
 10
31.000058174133301
 20
10.5
 30
0.0
 11
33.500058090738094
 21
10.5
 31
0.0
  0
LINE
  5
52F
100
AcDbEntity
  8
0
  6
CONTINUOUS
 62
               4
100
AcDbLine
 10
46.50006103515625
 20
44.5
 30
0.0
 11
49.00006103515625
 21
44.5
 31
0.0
  0
LINE
  5
530
100
AcDbEntity
  8
0
  6
CONTINUOUS
 62
               4
100
AcDbLine
 10
46.50006103515625
 20
50.5
 30
0.0
 11
49.00006103515625
 21
50.5
 31
0.0
  0
LINE
  5
531
100
AcDbEntity
  8
0
  6
CONTINUOUS
 62
               4
100
AcDbLine
 10
31.00006103515625
 20
10.5
 30
0.0
 11
31.00006103515625
 21
48.35435676574707
 31
0.0
  0
LINE
  5
532
100
AcDbEntity
  8
0
  6
CONTINUOUS
 62
               4
100
AcDbLine
 10
49.00006103515625
 20
50.499998807907104
 30
0.0
 11
49.00006103515625
 21
53.79999828338623
 31
0.0
  0
LINE
  5
533
100
AcDbEntity
  8
0
  6
CONTINUOUS
 62
             200
100
AcDbLine
 10
30.500059127807617
 20
18.0
 30
0.0
 11
49.500059127807617
 21
18.0
 31
0.0
  0
LINE
  5
534
100
AcDbEntity
  8
0
  6
CONTINUOUS
 62
             200
100
AcDbLine
 10
30.500060081481934
 20
37.0
 30
0.0
 11
49.500060081481934
 21
37.0
 31
0.0
  0
ARC
  5
535
100
AcDbEntity
  8
0
  6
CONTINUOUS
 62
               4
100
AcDbCircle
 10
46.500058174133301
 20
5.5
 30
0.0
 40
3.0
100
AcDbArc
 50
89.999982013910454
 51
179.99996402782091
  0
ARC
  5
536
100
AcDbEntity
  8
0
  6
CONTINUOUS
 62
               4
100
AcDbCircle
 10
33.50006103515625
 20
49.5
 30
0.0
 40
3.0
100
AcDbArc
 50
270.00001798608872
 51
0.00001366037834
  0
CIRCLE
  5
537
100
AcDbEntity
  8
0
  6
CONTINUOUS
 62
               4
100
AcDbCircle
 10
46.500058174133301
 20
5.5
 30
0.0
 40
2.75
  0
CIRCLE
  5
538
100
AcDbEntity
  8
0
  6
CONTINUOUS
 62
               4
100
AcDbCircle
 10
33.50006103515625
 20
49.5
 30
0.0
 40
2.75
  0
ARC
  5
539
100
AcDbEntity
  8
0
  6
CONTINUOUS
 62
               4
100
AcDbCircle
 10
33.500057864244809
 20
7.5
 30
0.0
 40
3.0
100
AcDbArc
 50
270.00001798608872
 51
89.999982013910454
  0
ARC
  5
53A
100
AcDbEntity
  8
0
  6
CONTINUOUS
 62
               4
100
AcDbCircle
 10
46.50006103515625
 20
47.499999046325684
 30
0.0
 40
3.0
100
AcDbArc
 50
89.999982013910454
 51
269.99994604173139
  0
CIRCLE
  5
53B
100
AcDbEntity
  8
0
  6
CONTINUOUS
 62
               4
100
AcDbCircle
 10
40.000061035156236
 20
37.0
 30
0.0
 40
8.9499999999999993
  0
ARC
  5
53C
100
AcDbEntity
  8
0
  6
CONTINUOUS
 62
               4
100
AcDbCircle
 10
40.000061035156236
 20
37.0
 30
0.0
 40
8.4000000000000004
100
AcDbArc
 50
7.1848403149542479
 51
172.81515968504539
  0
ARC
  5
53D
100
AcDbEntity
  8
0
  6
CONTINUOUS
 62
               4
100
AcDbCircle
 10
40.000061035156236
 20
37.0
 30
0.0
 40
8.4000000000000004
100
AcDbArc
 50
187.18484031495382
 51
352.81515968504499
  0
CIRCLE
  5
53E
100
AcDbEntity
  8
0
  6
CONTINUOUS
 62
               4
100
AcDbCircle
 10
40.000061035156236
 20
37.0
 30
0.0
 40
5.0499999999999998
  0
CIRCLE
  5
53F
100
AcDbEntity
  8
0
  6
CONTINUOUS
 62
               4
100
AcDbCircle
 10
40.000061035156236
 20
37.0
 30
0.0
 40
4.0499999999999998
  0
CIRCLE
  5
540
100
AcDbEntity
  8
0
  6
CONTINUOUS
 62
               4
100
AcDbCircle
 10
40.000061035156236
 20
18.0
 30
0.0
 40
8.9499999999999993
  0
ARC
  5
541
100
AcDbEntity
  8
0
  6
CONTINUOUS
 62
               4
100
AcDbCircle
 10
40.000061035156236
 20
18.0
 30
0.0
 40
8.4000000000000004
100
AcDbArc
 50
7.1848403149542479
 51
172.81515968504539
  0
CIRCLE
  5
542
100
AcDbEntity
  8
0
  6
CONTINUOUS
 62
               4
100
AcDbCircle
 10
40.000061035156236
 20
18.0
 30
0.0
 40
5.0499999999999998
  0
CIRCLE
  5
543
100
AcDbEntity
  8
0
  6
CONTINUOUS
 62
               4
100
AcDbCircle
 10
40.000061035156236
 20
18.0
 30
0.0
 40
4.0499999999999998
  0
ARC
  5
544
100
AcDbEntity
  8
0
  6
CONTINUOUS
 62
               4
100
AcDbCircle
 10
40.000061035156236
 20
18.0
 30
0.0
 40
8.4000000000000004
100
AcDbArc
 50
187.18484031495382
 51
352.81515968504499
  0
LINE
  5
545
100
AcDbEntity
  8
0
  6
CONTINUOUS
 62
               4
100
AcDbLine
 10
40.750061035156236
 20
27.190212184710433
 30
0.0
 11
40.750061035156236
 21
27.809787815289582
 31
0.0
  0
LINE
  5
546
100
AcDbEntity
  8
0
  6
CONTINUOUS
 62
               4
100
AcDbLine
 10
39.250061035156236
 20
27.190212184710433
 30
0.0
 11
39.250061035156236
 21
27.809787815289582
 31
0.0
  0
ARC
  5
547
100
AcDbEntity
  8
0
  6
CONTINUOUS
 62
               4
100
AcDbCircle
 10
38.950061035156239
 20
27.809787815289582
 30
0.0
 40
0.3
100
AcDbArc
 50
0.0
 51
83.482105791022562
  0
ARC
  5
548
100
AcDbEntity
  8
0
  6
CONTINUOUS
 62
               4
100
AcDbCircle
 10
38.950061035156239
 20
27.190212184710433
 30
0.0
 40
0.3
100
AcDbArc
 50
276.5178942089774
 51
0.0
  0
ARC
  5
549
100
AcDbEntity
  8
0
  6
CONTINUOUS
 62
               4
100
AcDbCircle
 10
41.050061035156233
 20
27.809787815289582
 30
0.0
 40
0.3
100
AcDbArc
 50
96.517894208978376
 51
179.99999999999963
  0
ARC
  5
54A
100
AcDbEntity
  8
0
  6
CONTINUOUS
 62
               4
100
AcDbCircle
 10
41.050061035156233
 20
27.190212184710433
 30
0.0
 40
0.3
100
AcDbArc
 50
179.99999999999963
 51
263.48210579102226
  0
LINE
  5
54B
100
AcDbEntity
  8
0
  6
CONTINUOUS
 62
               4
100
AcDbLine
 10
47.900061035156241
 20
36.200000000000003
 30
0.0
 11
48.334102790846714
 21
35.949405875512568
 31
0.0
  0
LINE
  5
54C
100
AcDbEntity
  8
0
  6
CONTINUOUS
 62
               4
100
AcDbLine
 10
47.900061035156241
 20
37.799999999999997
 30
0.0
 11
48.334102790846714
 21
38.050594124487432
 31
0.0
  0
LINE
  5
54D
100
AcDbEntity
  8
0
  6
CONTINUOUS
 62
               4
100
AcDbLine
 10
47.900061035156241
 20
36.200000000000003
 30
0.0
 11
47.900061035156241
 21
37.799999994039538
 31
0.0
  0
LINE
  5
54E
100
AcDbEntity
  8
0
  6
CONTINUOUS
 62
               4
100
AcDbLine
 10
32.100061035156244
 20
37.799999999999997
 30
0.0
 11
31.666019279465758
 21
38.050594124487432
 31
0.0
  0
LINE
  5
54F
100
AcDbEntity
  8
0
  6
CONTINUOUS
 62
               4
100
AcDbLine
 10
32.100061035156244
 20
36.200000000000003
 30
0.0
 11
31.666019279465758
 21
35.949405875512568
 31
0.0
  0
LINE
  5
550
100
AcDbEntity
  8
0
  6
CONTINUOUS
 62
               4
100
AcDbLine
 10
32.100061035156244
 20
36.200000000000003
 30
0.0
 11
32.100061035156244
 21
37.799999994039538
 31
0.0
  0
LINE
  5
551
100
AcDbEntity
  8
0
  6
CONTINUOUS
 62
               4
100
AcDbLine
 10
32.100061035156244
 20
17.200000000000003
 30
0.0
 11
31.666019279465758
 21
16.949405875512568
 31
0.0
  0
LINE
  5
552
100
AcDbEntity
  8
0
  6
CONTINUOUS
 62
               4
100
AcDbLine
 10
32.100061035156244
 20
18.800000000000011
 30
0.0
 11
31.666019279465758
 21
19.050594124487432
 31
0.0
  0
LINE
  5
553
100
AcDbEntity
  8
0
  6
CONTINUOUS
 62
               4
100
AcDbLine
 10
32.100061035156244
 20
17.200000000000003
 30
0.0
 11
32.100061035156244
 21
18.799999994039538
 31
0.0
  0
LINE
  5
554
100
AcDbEntity
  8
0
  6
CONTINUOUS
 62
               4
100
AcDbLine
 10
47.900061035156241
 20
17.200000000000003
 30
0.0
 11
48.334102790846714
 21
16.949405875512568
 31
0.0
  0
LINE
  5
555
100
AcDbEntity
  8
0
  6
CONTINUOUS
 62
               4
100
AcDbLine
 10
47.900061035156241
 20
18.800000000000011
 30
0.0
 11
48.334102790846714
 21
19.050594124487432
 31
0.0
  0
LINE
  5
556
100
AcDbEntity
  8
0
  6
CONTINUOUS
 62
               4
100
AcDbLine
 10
47.900061035156241
 20
17.200000000000003
 30
0.0
 11
47.900061035156241
 21
18.799999994039538
 31
0.0
  0
LINE
  5
557
100
AcDbEntity
  8
0
  6
CONTINUOUS
 62
               4
100
AcDbLine
 10
31.00006103515625
 20
45.139745962155587
 30
0.0
 11
36.278900507636394
 21
45.139745962155587
 31
0.0
  0
LINE
  5
558
100
AcDbEntity
  8
0
  6
CONTINUOUS
 62
               4
100
AcDbLine
 10
43.721221566200242
 20
9.8602540378444132
 30
0.0
 11
49.000061035156236
 21
9.8602540378444132
 31
0.0
  0
LINE
  5
559
100
AcDbEntity
  8
0
  6
CONTINUOUS
 62
               4
100
AcDbLine
 10
43.721221562676078
 20
45.139745962155587
 30
0.0
 11
44.648275183625586
 21
45.139745962155587
 31
0.0
  0
LINE
  5
55A
100
AcDbEntity
  8
0
  6
CONTINUOUS
 62
               4
100
AcDbLine
 10
35.351895507516446
 20
9.8602540378444132
 30
0.0
 11
36.278900504112244
 21
9.8602540378444132
 31
0.0
  0
LINE
  5
55B
100
AcDbEntity
  8
0
  6
CONTINUOUS
 62
               7
100
AcDbLine
 10
68.5
 20
54.0
 30
0.0
 11
68.5
 21
1.0
 31
0.0
  0
LINE
  5
55C
100
AcDbEntity
  8
0
  6
CONTINUOUS
 62
               7
100
AcDbLine
 10
30.5
 20
1.0
 30
0.0
 11
68.5
 21
1.0
 31
0.0
  0
LINE
  5
55D
100
AcDbEntity
  8
0
  6
CONTINUOUS
 62
               7
100
AcDbLine
 10
49.5
 20
54.0
 30
0.0
 11
68.5
 21
54.0
 31
0.0
  0
LINE
  5
55E
100
AcDbEntity
  8
0
  6
CONTINUOUS
 62
               7
100
AcDbLine
 10
53.00006103515625
 20
80.000015258789063
 30
0.0
 11
50.00006103515625
 21
80.000015258789063
 31
0.0
  0
LINE
  5
55F
100
AcDbEntity
  8
0
  6
CONTINUOUS
 62
               7
100
AcDbLine
 10
68.000045776367188
 20
90.500015258789063
 30
0.0
 11
68.000045776367188
 21
90.329177856445312
 31
0.0
  0
LINE
  5
560
100
AcDbEntity
  8
0
  6
CONTINUOUS
 62
               7
100
AcDbLine
 10
50.000045776367188
 20
90.500015258789063
 30
0.0
 11
50.000045776367188
 21
54.0
 31
0.0
  0
LINE
  5
561
100
AcDbEntity
  8
0
  6
CONTINUOUS
 62
               7
100
AcDbLine
 10
67.50006103515625
 20
88.0
 30
0.0
 11
50.50006103515625
 21
88.0
 31
0.0
  0
LINE
  5
562
100
AcDbEntity
  8
0
  6
CONTINUOUS
 62
               7
100
AcDbLine
 10
54.060721669104169
 20
81.93934499666284
 30
0.0
 11
51.939402255919049
 21
84.060666376801237
 31
0.0
  0
LINE
  5
563
100
AcDbEntity
  8
0
  6
CONTINUOUS
 62
               7
100
AcDbLine
 10
51.939509168337281
 20
81.939259663341545
 30
0.0
 11
54.060819758877187
 21
84.060568286938178
 31
0.0
  0
LINE
  5
564
100
AcDbEntity
  8
0
  6
CONTINUOUS
 62
               7
100
AcDbLine
 10
65.000076293945313
 20
60.0
 30
0.0
 11
68.000076293945313
 21
60.0
 31
0.0
  0
LINE
  5
565
100
AcDbEntity
  8
0
  6
CONTINUOUS
 62
               7
100
AcDbLine
 10
62.00006103515625
 20
57.0
 30
0.0
 11
62.00006103515625
 21
54.0
 31
0.0
  0
LINE
  5
566
100
AcDbEntity
  8
0
  6
CONTINUOUS
 62
               7
100
AcDbLine
 10
66.060866373791214
 20
58.060507821297676
 30
0.0
 11
63.939534561684013
 21
55.939177260894382
 31
0.0
  0
LINE
  5
567
100
AcDbEntity
  8
0
  6
CONTINUOUS
 62
               7
100
AcDbLine
 10
63.939394248503049
 20
58.060617017475693
 30
0.0
 11
66.060714019316038
 21
55.939295994965164
 31
0.0
  0
LINE
  5
568
100
AcDbEntity
  8
0
  6
CONTINUOUS
 62
               7
100
AcDbLine
 10
53.000076293945312
 20
86.0
 30
0.0
 11
50.000076293945313
 21
86.0
 31
0.0
  0
LINE
  5
569
100
AcDbEntity
  8
0
  6
CONTINUOUS
 62
               7
100
AcDbLine
 10
50.50006103515625
 20
91.0
 30
0.0
 11
67.50006103515625
 21
91.0
 31
0.0
  0
LINE
  5
56A
100
AcDbEntity
  8
0
  6
CONTINUOUS
 62
               7
100
AcDbLine
 10
50.000045776367188
 20
89.0
 30
0.0
 11
68.25006103515625
 21
89.0
 31
0.0
  0
LINE
  5
56B
100
AcDbEntity
  8
0
  6
CONTINUOUS
 62
               7
100
AcDbLine
 10
62.50006103515625
 20
91.0
 30
0.0
 11
62.50006103515625
 21
89.0
 31
0.0
  0
LINE
  5
56C
100
AcDbEntity
  8
0
  6
CONTINUOUS
 62
               7
100
AcDbLine
 10
68.25006103515625
 20
89.5
 30
0.0
 11
68.25006103515625
 21
89.0
 31
0.0
  0
LINE
  5
56D
100
AcDbEntity
  8
0
  6
CONTINUOUS
 62
               7
100
AcDbLine
 10
68.000045776367188
 20
89.0
 30
0.0
 11
68.000045776367188
 21
54.0
 31
0.0
  0
LINE
  5
56E
100
AcDbEntity
  8
0
  6
CONTINUOUS
 62
               7
100
AcDbLine
 10
57.050067901611328
 20
89.0
 30
0.0
 11
57.050067901611328
 21
88.0
 31
0.0
  0
LINE
  5
56F
100
AcDbEntity
  8
0
  6
CONTINUOUS
 62
               7
100
AcDbLine
 10
60.950065612792969
 20
89.0
 30
0.0
 11
60.950065612792969
 21
88.0
 31
0.0
  0
LINE
  5
570
100
AcDbEntity
  8
0
  6
CONTINUOUS
 62
               7
100
AcDbLine
 10
62.75006103515625
 20
89.5
 30
0.0
 11
62.75006103515625
 21
89.0
 31
0.0
  0
ARC
  5
571
100
AcDbEntity
  8
0
  6
CONTINUOUS
 62
               7
100
AcDbCircle
 10
53.00006103515625
 20
83.000015258789063
 30
0.0
 40
3.0
100
AcDbArc
 50
270.00001798608872
 51
90.00014593845053
  0
ARC
  5
572
100
AcDbEntity
  8
0
  6
CONTINUOUS
 62
               7
100
AcDbCircle
 10
67.50006103515625
 20
87.500015258789063
 30
0.0
 40
0.5
100
AcDbArc
 50
0.00001366037834
 51
89.999982013910454
  0
ARC
  5
573
100
AcDbEntity
  8
0
  6
CONTINUOUS
 62
               7
100
AcDbCircle
 10
50.50006103515625
 20
87.500015258789063
 30
0.0
 40
0.5
100
AcDbArc
 50
89.999982013910454
 51
180.00001866933428
  0
CIRCLE
  5
574
100
AcDbEntity
  8
0
  6
CONTINUOUS
 62
               7
100
AcDbCircle
 10
53.00006103515625
 20
83.000015258789063
 30
0.0
 40
2.7999992370605469
  0
ARC
  5
575
100
AcDbEntity
  8
0
  6
CONTINUOUS
 62
               7
100
AcDbCircle
 10
65.00006103515625
 20
57.0
 30
0.0
 40
3.0
100
AcDbArc
 50
89.999982013910454
 51
179.99996402782091
  0
CIRCLE
  5
576
100
AcDbEntity
  8
0
  6
CONTINUOUS
 62
               7
100
AcDbCircle
 10
65.00006103515625
 20
57.0
 30
0.0
 40
2.7999992370605469
  0
ARC
  5
577
100
AcDbEntity
  8
0
  6
CONTINUOUS
 62
               7
100
AcDbCircle
 10
67.50006103515625
 20
90.5
 30
0.0
 40
0.5
100
AcDbArc
 50
0.0
 51
89.999982013910454
  0
ARC
  5
578
100
AcDbEntity
  8
0
  6
CONTINUOUS
 62
               7
100
AcDbCircle
 10
50.50006103515625
 20
90.5
 30
0.0
 40
0.5
100
AcDbArc
 50
89.999982013910454
 51
179.99996402782091
  0
ARC
  5
579
100
AcDbEntity
  8
0
  6
CONTINUOUS
 62
               7
100
AcDbCircle
 10
66.75006103515625
 20
89.5
 30
0.0
 40
1.5
100
AcDbArc
 50
0.0
 51
89.999982013910454
  0
ARC
  5
57A
100
AcDbEntity
  8
0
  6
CONTINUOUS
 62
               7
100
AcDbCircle
 10
64.25006103515625
 20
89.5
 30
0.0
 40
1.5
100
AcDbArc
 50
89.999982013910454
 51
179.99996402782091
  0
LINE
  5
57B
100
AcDbEntity
  8
0
  6
CONTINUOUS
 62
               4
100
AcDbLine
 10
68.00006103515625
 20
1.20001220703125
 30
0.0
 11
68.00006103515625
 21
4.3543548583984375
 31
0.0
  0
LINE
  5
57C
100
AcDbEntity
  8
0
  6
CONTINUOUS
 62
               4
100
AcDbLine
 10
50.00006103515625
 20
1.20001220703125
 30
0.0
 11
50.00006103515625
 21
4.5
 31
0.0
  0
LINE
  5
57D
100
AcDbEntity
  8
0
  6
CONTINUOUS
 62
               4
100
AcDbLine
 10
50.000061988830566
 20
53.800003051757813
 30
0.0
 11
68.00006103515625
 21
53.800003051757813
 31
0.0
  0
LINE
  5
57E
100
AcDbEntity
  8
0
  6
CONTINUOUS
 62
               4
100
AcDbLine
 10
50.000058174133301
 20
1.20001220703125
 30
0.0
 11
68.00006103515625
 21
1.20001220703125
 31
0.0
  0
LINE
  5
57F
100
AcDbEntity
  8
0
  6
CONTINUOUS
 62
               4
100
AcDbLine
 10
65.50006103515625
 20
8.5
 30
0.0
 11
68.00006103515625
 21
8.5
 31
0.0
  0
LINE
  5
580
100
AcDbEntity
  8
0
  6
CONTINUOUS
 62
               4
100
AcDbLine
 10
62.50006103515625
 20
1.20001220703125
 30
0.0
 11
62.50006103515625
 21
5.5
 31
0.0
  0
LINE
  5
581
100
AcDbEntity
  8
0
  6
CONTINUOUS
 62
               4
100
AcDbLine
 10
55.50006103515625
 20
49.5
 30
0.0
 11
55.50006103515625
 21
53.800003051757813
 31
0.0
  0
LINE
  5
582
100
AcDbEntity
  8
0
  6
CONTINUOUS
 62
               4
100
AcDbLine
 10
50.00006103515625
 20
46.5
 30
0.0
 11
52.50006103515625
 21
46.5
 31
0.0
  0
LINE
  5
583
100
AcDbEntity
  8
0
  6
CONTINUOUS
 62
               4
100
AcDbLine
 10
66.560723495481852
 20
4.4393403362846584
 30
0.0
 11
64.439403367040995
 21
6.5606610011673183
 31
0.0
  0
LINE
  5
584
100
AcDbEntity
  8
0
  6
CONTINUOUS
 62
               4
100
AcDbLine
 10
53.56071605899092
 20
48.43933524774809
 30
0.0
 11
51.439395930550063
 21
50.56065591263075
 31
0.0
  0
LINE
  5
585
100
AcDbEntity
  8
0
  6
CONTINUOUS
 62
               4
100
AcDbLine
 10
51.439406035568254
 20
48.439345120341386
 30
0.0
 11
53.56072652163698
 21
50.560665427596177
 31
0.0
  0
LINE
  5
586
100
AcDbEntity
  8
0
  6
CONTINUOUS
 62
               4
100
AcDbLine
 10
64.439405717037744
 20
4.4393425381528573
 30
0.0
 11
66.560726203106469
 21
6.5606628454076485
 31
0.0
  0
LINE
  5
587
100
AcDbEntity
  8
0
  6
CONTINUOUS
 62
               4
100
AcDbLine
 10
68.00006103515625
 20
6.6456451416015625
 30
0.0
 11
68.00006103515625
 21
44.5
 31
0.0
  0
LINE
  5
588
100
AcDbEntity
  8
0
  6
CONTINUOUS
 62
               4
100
AcDbLine
 10
50.00006103515625
 20
50.645645141601562
 30
0.0
 11
50.00006103515625
 21
53.800003051757813
 31
0.0
  0
LINE
  5
589
100
AcDbEntity
  8
0
  6
CONTINUOUS
 62
               4
100
AcDbLine
 10
50.000058174133301
 20
4.5
 30
0.0
 11
52.500057220458984
 21
4.5
 31
0.0
  0
LINE
  5
58A
100
AcDbEntity
  8
0
  6
CONTINUOUS
 62
               4
100
AcDbLine
 10
50.000058174133301
 20
10.5
 30
0.0
 11
52.500058174133301
 21
10.5
 31
0.0
  0
LINE
  5
58B
100
AcDbEntity
  8
0
  6
CONTINUOUS
 62
               4
100
AcDbLine
 10
65.50006103515625
 20
44.5
 30
0.0
 11
68.00006103515625
 21
44.5
 31
0.0
  0
LINE
  5
58C
100
AcDbEntity
  8
0
  6
CONTINUOUS
 62
               4
100
AcDbLine
 10
65.50006103515625
 20
50.5
 30
0.0
 11
68.00006103515625
 21
50.5
 31
0.0
  0
LINE
  5
58D
100
AcDbEntity
  8
0
  6
CONTINUOUS
 62
               4
100
AcDbLine
 10
50.00006103515625
 20
10.5
 30
0.0
 11
50.00006103515625
 21
48.354354858398437
 31
0.0
  0
LINE
  5
58E
100
AcDbEntity
  8
0
  6
CONTINUOUS
 62
               4
100
AcDbLine
 10
68.00006103515625
 20
50.5
 30
0.0
 11
68.00006103515625
 21
53.800003051757813
 31
0.0
  0
LINE
  5
58F
100
AcDbEntity
  8
0
  6
CONTINUOUS
 62
             200
100
AcDbLine
 10
49.500059127807617
 20
18.0
 30
0.0
 11
68.50006103515625
 21
18.0
 31
0.0
  0
LINE
  5
590
100
AcDbEntity
  8
0
  6
CONTINUOUS
 62
             200
100
AcDbLine
 10
49.500060081481934
 20
37.0
 30
0.0
 11
68.50006103515625
 21
37.0
 31
0.0
  0
ARC
  5
591
100
AcDbEntity
  8
0
  6
CONTINUOUS
 62
               4
100
AcDbCircle
 10
65.50006103515625
 20
5.5
 30
0.0
 40
3.0
100
AcDbArc
 50
89.999982013910454
 51
179.99996402782091
  0
ARC
  5
592
100
AcDbEntity
  8
0
  6
CONTINUOUS
 62
               4
100
AcDbCircle
 10
52.50006103515625
 20
49.5
 30
0.0
 40
3.0
100
AcDbArc
 50
270.00001798608872
 51
0.00001366037834
  0
CIRCLE
  5
593
100
AcDbEntity
  8
0
  6
CONTINUOUS
 62
               4
100
AcDbCircle
 10
65.50006103515625
 20
5.5
 30
0.0
 40
2.75
  0
CIRCLE
  5
594
100
AcDbEntity
  8
0
  6
CONTINUOUS
 62
               4
100
AcDbCircle
 10
52.50006103515625
 20
49.5
 30
0.0
 40
2.75
  0
ARC
  5
595
100
AcDbEntity
  8
0
  6
CONTINUOUS
 62
               4
100
AcDbCircle
 10
52.500058174133301
 20
7.5
 30
0.0
 40
3.0
100
AcDbArc
 50
270.00001798608872
 51
89.999982013910454
  0
ARC
  5
596
100
AcDbEntity
  8
0
  6
CONTINUOUS
 62
               4
100
AcDbCircle
 10
65.50006103515625
 20
47.5
 30
0.0
 40
3.0
100
AcDbArc
 50
89.999982013910454
 51
269.99994604173139
  0
CIRCLE
  5
597
100
AcDbEntity
  8
0
  6
CONTINUOUS
 62
               4
100
AcDbCircle
 10
59.000030517578111
 20
37.0
 30
0.0
 40
8.9499999999999993
  0
ARC
  5
598
100
AcDbEntity
  8
0
  6
CONTINUOUS
 62
               4
100
AcDbCircle
 10
59.000030517578111
 20
37.0
 30
0.0
 40
8.4000000000000004
100
AcDbArc
 50
7.1848403149542479
 51
172.81515968504539
  0
ARC
  5
599
100
AcDbEntity
  8
0
  6
CONTINUOUS
 62
               4
100
AcDbCircle
 10
59.000030517578111
 20
37.0
 30
0.0
 40
8.4000000000000004
100
AcDbArc
 50
187.18484031495382
 51
352.81515968504499
  0
CIRCLE
  5
59A
100
AcDbEntity
  8
0
  6
CONTINUOUS
 62
               4
100
AcDbCircle
 10
59.000030517578111
 20
37.0
 30
0.0
 40
5.0499999999999998
  0
CIRCLE
  5
59B
100
AcDbEntity
  8
0
  6
CONTINUOUS
 62
               4
100
AcDbCircle
 10
59.000030517578111
 20
37.0
 30
0.0
 40
4.0499999999999998
  0
CIRCLE
  5
59C
100
AcDbEntity
  8
0
  6
CONTINUOUS
 62
               4
100
AcDbCircle
 10
59.000030517578111
 20
18.0
 30
0.0
 40
8.9499999999999993
  0
ARC
  5
59D
100
AcDbEntity
  8
0
  6
CONTINUOUS
 62
               4
100
AcDbCircle
 10
59.000030517578111
 20
18.0
 30
0.0
 40
8.4000000000000004
100
AcDbArc
 50
7.1848403149542479
 51
172.81515968504539
  0
CIRCLE
  5
59E
100
AcDbEntity
  8
0
  6
CONTINUOUS
 62
               4
100
AcDbCircle
 10
59.000030517578111
 20
18.0
 30
0.0
 40
5.0499999999999998
  0
CIRCLE
  5
59F
100
AcDbEntity
  8
0
  6
CONTINUOUS
 62
               4
100
AcDbCircle
 10
59.000030517578111
 20
18.0
 30
0.0
 40
4.0499999999999998
  0
ARC
  5
5A0
100
AcDbEntity
  8
0
  6
CONTINUOUS
 62
               4
100
AcDbCircle
 10
59.000030517578111
 20
18.0
 30
0.0
 40
8.4000000000000004
100
AcDbArc
 50
187.18484031495382
 51
352.81515968504499
  0
LINE
  5
5A1
100
AcDbEntity
  8
0
  6
CONTINUOUS
 62
               4
100
AcDbLine
 10
59.750030517578111
 20
27.190212184710433
 30
0.0
 11
59.750030517578111
 21
27.809787815289582
 31
0.0
  0
LINE
  5
5A2
100
AcDbEntity
  8
0
  6
CONTINUOUS
 62
               4
100
AcDbLine
 10
58.250030517578111
 20
27.190212184710433
 30
0.0
 11
58.250030517578111
 21
27.809787815289582
 31
0.0
  0
ARC
  5
5A3
100
AcDbEntity
  8
0
  6
CONTINUOUS
 62
               4
100
AcDbCircle
 10
57.950030517578114
 20
27.809787815289582
 30
0.0
 40
0.3
100
AcDbArc
 50
0.0
 51
83.482105791022562
  0
ARC
  5
5A4
100
AcDbEntity
  8
0
  6
CONTINUOUS
 62
               4
100
AcDbCircle
 10
57.950030517578114
 20
27.190212184710433
 30
0.0
 40
0.3
100
AcDbArc
 50
276.5178942089774
 51
0.0
  0
ARC
  5
5A5
100
AcDbEntity
  8
0
  6
CONTINUOUS
 62
               4
100
AcDbCircle
 10
60.050030517578108
 20
27.809787815289582
 30
0.0
 40
0.3
100
AcDbArc
 50
96.517894208978376
 51
179.99999999999963
  0
ARC
  5
5A6
100
AcDbEntity
  8
0
  6
CONTINUOUS
 62
               4
100
AcDbCircle
 10
60.050030517578108
 20
27.190212184710433
 30
0.0
 40
0.3
100
AcDbArc
 50
179.99999999999963
 51
263.48210579102226
  0
LINE
  5
5A7
100
AcDbEntity
  8
0
  6
CONTINUOUS
 62
               4
100
AcDbLine
 10
66.900030517578102
 20
36.200000000000003
 30
0.0
 11
67.334072273268589
 21
35.949405875512568
 31
0.0
  0
LINE
  5
5A8
100
AcDbEntity
  8
0
  6
CONTINUOUS
 62
               4
100
AcDbLine
 10
66.900030517578102
 20
37.799999999999997
 30
0.0
 11
67.334072273268589
 21
38.050594124487432
 31
0.0
  0
LINE
  5
5A9
100
AcDbEntity
  8
0
  6
CONTINUOUS
 62
               4
100
AcDbLine
 10
66.900030517578102
 20
36.200000000000003
 30
0.0
 11
66.900030517578102
 21
37.799999994039538
 31
0.0
  0
LINE
  5
5AA
100
AcDbEntity
  8
0
  6
CONTINUOUS
 62
               4
100
AcDbLine
 10
51.100030517578119
 20
37.799999999999997
 30
0.0
 11
50.665988761887633
 21
38.050594124487432
 31
0.0
  0
LINE
  5
5AB
100
AcDbEntity
  8
0
  6
CONTINUOUS
 62
               4
100
AcDbLine
 10
51.100030517578119
 20
36.200000000000003
 30
0.0
 11
50.665988761887633
 21
35.949405875512568
 31
0.0
  0
LINE
  5
5AC
100
AcDbEntity
  8
0
  6
CONTINUOUS
 62
               4
100
AcDbLine
 10
51.100030517578119
 20
36.200000000000003
 30
0.0
 11
51.100030517578119
 21
37.799999994039538
 31
0.0
  0
LINE
  5
5AD
100
AcDbEntity
  8
0
  6
CONTINUOUS
 62
               4
100
AcDbLine
 10
51.100030517578119
 20
17.200000000000003
 30
0.0
 11
50.665988761887633
 21
16.949405875512568
 31
0.0
  0
LINE
  5
5AE
100
AcDbEntity
  8
0
  6
CONTINUOUS
 62
               4
100
AcDbLine
 10
51.100030517578119
 20
18.800000000000011
 30
0.0
 11
50.665988761887633
 21
19.050594124487432
 31
0.0
  0
LINE
  5
5AF
100
AcDbEntity
  8
0
  6
CONTINUOUS
 62
               4
100
AcDbLine
 10
51.100030517578119
 20
17.200000000000003
 30
0.0
 11
51.100030517578119
 21
18.799999994039538
 31
0.0
  0
LINE
  5
5B0
100
AcDbEntity
  8
0
  6
CONTINUOUS
 62
               4
100
AcDbLine
 10
66.900030517578102
 20
17.200000000000003
 30
0.0
 11
67.334072273268589
 21
16.949405875512568
 31
0.0
  0
LINE
  5
5B1
100
AcDbEntity
  8
0
  6
CONTINUOUS
 62
               4
100
AcDbLine
 10
66.900030517578102
 20
18.800000000000011
 30
0.0
 11
67.334072273268589
 21
19.050594124487432
 31
0.0
  0
LINE
  5
5B2
100
AcDbEntity
  8
0
  6
CONTINUOUS
 62
               4
100
AcDbLine
 10
66.900030517578102
 20
17.200000000000003
 30
0.0
 11
66.900030517578102
 21
18.799999994039538
 31
0.0
  0
LINE
  5
5B3
100
AcDbEntity
  8
0
  6
CONTINUOUS
 62
               4
100
AcDbLine
 10
50.000030517578125
 20
45.139745962155587
 30
0.0
 11
55.278869990058269
 21
45.139745962155587
 31
0.0
  0
LINE
  5
5B4
100
AcDbEntity
  8
0
  6
CONTINUOUS
 62
               4
100
AcDbLine
 10
62.721191048622117
 20
9.8602540378444132
 30
0.0
 11
68.000030517578125
 21
9.8602540378444132
 31
0.0
  0
LINE
  5
5B5
100
AcDbEntity
  8
0
  6
CONTINUOUS
 62
               4
100
AcDbLine
 10
62.721191045097953
 20
45.139745962155587
 30
0.0
 11
63.648244666047447
 21
45.139745962155587
 31
0.0
  0
LINE
  5
5B6
100
AcDbEntity
  8
0
  6
CONTINUOUS
 62
               4
100
AcDbLine
 10
54.351864989938321
 20
9.8602540378444132
 30
0.0
 11
55.278869986534119
 21
9.8602540378444132
 31
0.0
  0
LINE
  5
5B7
100
AcDbEntity
  8
0
  6
CONTINUOUS
 62
               7
100
AcDbLine
 10
87.5
 20
54.0
 30
0.0
 11
87.5
 21
1.0
 31
0.0
  0
LINE
  5
5B8
100
AcDbEntity
  8
0
  6
CONTINUOUS
 62
               7
100
AcDbLine
 10
68.5
 20
1.0
 30
0.0
 11
87.5
 21
1.0
 31
0.0
  0
LINE
  5
5B9
100
AcDbEntity
  8
0
  6
CONTINUOUS
 62
               7
100
AcDbLine
 10
68.5
 20
54.0
 30
0.0
 11
87.5
 21
54.0
 31
0.0
  0
LINE
  5
5BA
100
AcDbEntity
  8
0
  6
CONTINUOUS
 62
               7
100
AcDbLine
 10
72.00006103515625
 20
80.000015258789063
 30
0.0
 11
69.00006103515625
 21
80.000015258789063
 31
0.0
  0
LINE
  5
5BB
100
AcDbEntity
  8
0
  6
CONTINUOUS
 62
               7
100
AcDbLine
 10
87.000045776367188
 20
90.500015258789063
 30
0.0
 11
87.000045776367188
 21
90.329177856445312
 31
0.0
  0
LINE
  5
5BC
100
AcDbEntity
  8
0
  6
CONTINUOUS
 62
               7
100
AcDbLine
 10
69.000045776367188
 20
90.500015258789063
 30
0.0
 11
69.000045776367188
 21
54.0
 31
0.0
  0
LINE
  5
5BD
100
AcDbEntity
  8
0
  6
CONTINUOUS
 62
               7
100
AcDbLine
 10
86.50006103515625
 20
88.0
 30
0.0
 11
69.50006103515625
 21
88.0
 31
0.0
  0
LINE
  5
5BE
100
AcDbEntity
  8
0
  6
CONTINUOUS
 62
               7
100
AcDbLine
 10
73.060721669104169
 20
81.93934499666284
 30
0.0
 11
70.939402255919049
 21
84.060666376801237
 31
0.0
  0
LINE
  5
5BF
100
AcDbEntity
  8
0
  6
CONTINUOUS
 62
               7
100
AcDbLine
 10
70.939509168337281
 20
81.939259663341545
 30
0.0
 11
73.060819758877187
 21
84.060568286938178
 31
0.0
  0
LINE
  5
5C0
100
AcDbEntity
  8
0
  6
CONTINUOUS
 62
               7
100
AcDbLine
 10
84.000076293945313
 20
60.0
 30
0.0
 11
87.000076293945313
 21
60.0
 31
0.0
  0
LINE
  5
5C1
100
AcDbEntity
  8
0
  6
CONTINUOUS
 62
               7
100
AcDbLine
 10
81.00006103515625
 20
57.0
 30
0.0
 11
81.00006103515625
 21
54.0
 31
0.0
  0
LINE
  5
5C2
100
AcDbEntity
  8
0
  6
CONTINUOUS
 62
               7
100
AcDbLine
 10
85.060866373791214
 20
58.060507821297676
 30
0.0
 11
82.939534561684013
 21
55.939177260894382
 31
0.0
  0
LINE
  5
5C3
100
AcDbEntity
  8
0
  6
CONTINUOUS
 62
               7
100
AcDbLine
 10
82.939394248503049
 20
58.060617017475693
 30
0.0
 11
85.060714019316038
 21
55.939295994965164
 31
0.0
  0
LINE
  5
5C4
100
AcDbEntity
  8
0
  6
CONTINUOUS
 62
               7
100
AcDbLine
 10
72.000076293945313
 20
86.0
 30
0.0
 11
69.000076293945313
 21
86.0
 31
0.0
  0
LINE
  5
5C5
100
AcDbEntity
  8
0
  6
CONTINUOUS
 62
               7
100
AcDbLine
 10
69.50006103515625
 20
91.0
 30
0.0
 11
86.50006103515625
 21
91.0
 31
0.0
  0
LINE
  5
5C6
100
AcDbEntity
  8
0
  6
CONTINUOUS
 62
               7
100
AcDbLine
 10
69.000045776367188
 20
89.0
 30
0.0
 11
87.25006103515625
 21
89.0
 31
0.0
  0
LINE
  5
5C7
100
AcDbEntity
  8
0
  6
CONTINUOUS
 62
               7
100
AcDbLine
 10
81.50006103515625
 20
91.0
 30
0.0
 11
81.50006103515625
 21
89.0
 31
0.0
  0
LINE
  5
5C8
100
AcDbEntity
  8
0
  6
CONTINUOUS
 62
               7
100
AcDbLine
 10
87.25006103515625
 20
89.5
 30
0.0
 11
87.25006103515625
 21
89.0
 31
0.0
  0
LINE
  5
5C9
100
AcDbEntity
  8
0
  6
CONTINUOUS
 62
               7
100
AcDbLine
 10
87.000045776367188
 20
89.0
 30
0.0
 11
87.000045776367188
 21
54.0
 31
0.0
  0
LINE
  5
5CA
100
AcDbEntity
  8
0
  6
CONTINUOUS
 62
               7
100
AcDbLine
 10
76.050067901611328
 20
89.0
 30
0.0
 11
76.050067901611328
 21
88.0
 31
0.0
  0
LINE
  5
5CB
100
AcDbEntity
  8
0
  6
CONTINUOUS
 62
               7
100
AcDbLine
 10
79.950065612792969
 20
89.0
 30
0.0
 11
79.950065612792969
 21
88.0
 31
0.0
  0
LINE
  5
5CC
100
AcDbEntity
  8
0
  6
CONTINUOUS
 62
               7
100
AcDbLine
 10
81.75006103515625
 20
89.5
 30
0.0
 11
81.75006103515625
 21
89.0
 31
0.0
  0
ARC
  5
5CD
100
AcDbEntity
  8
0
  6
CONTINUOUS
 62
               7
100
AcDbCircle
 10
72.00006103515625
 20
83.000015258789063
 30
0.0
 40
3.0
100
AcDbArc
 50
270.00001798608872
 51
90.00014593845053
  0
ARC
  5
5CE
100
AcDbEntity
  8
0
  6
CONTINUOUS
 62
               7
100
AcDbCircle
 10
86.50006103515625
 20
87.500015258789063
 30
0.0
 40
0.5
100
AcDbArc
 50
0.00001366037834
 51
89.999982013910454
  0
ARC
  5
5CF
100
AcDbEntity
  8
0
  6
CONTINUOUS
 62
               7
100
AcDbCircle
 10
69.50006103515625
 20
87.500015258789063
 30
0.0
 40
0.5
100
AcDbArc
 50
89.999982013910454
 51
180.00001866933428
  0
CIRCLE
  5
5D0
100
AcDbEntity
  8
0
  6
CONTINUOUS
 62
               7
100
AcDbCircle
 10
72.00006103515625
 20
83.000015258789063
 30
0.0
 40
2.7999992370605469
  0
ARC
  5
5D1
100
AcDbEntity
  8
0
  6
CONTINUOUS
 62
               7
100
AcDbCircle
 10
84.00006103515625
 20
57.0
 30
0.0
 40
3.0
100
AcDbArc
 50
89.999982013910454
 51
179.99996402782091
  0
CIRCLE
  5
5D2
100
AcDbEntity
  8
0
  6
CONTINUOUS
 62
               7
100
AcDbCircle
 10
84.00006103515625
 20
57.0
 30
0.0
 40
2.7999992370605469
  0
ARC
  5
5D3
100
AcDbEntity
  8
0
  6
CONTINUOUS
 62
               7
100
AcDbCircle
 10
86.50006103515625
 20
90.5
 30
0.0
 40
0.5
100
AcDbArc
 50
0.0
 51
89.999982013910454
  0
ARC
  5
5D4
100
AcDbEntity
  8
0
  6
CONTINUOUS
 62
               7
100
AcDbCircle
 10
69.50006103515625
 20
90.5
 30
0.0
 40
0.5
100
AcDbArc
 50
89.999982013910454
 51
179.99996402782091
  0
ARC
  5
5D5
100
AcDbEntity
  8
0
  6
CONTINUOUS
 62
               7
100
AcDbCircle
 10
85.75006103515625
 20
89.5
 30
0.0
 40
1.5
100
AcDbArc
 50
0.0
 51
89.999982013910454
  0
ARC
  5
5D6
100
AcDbEntity
  8
0
  6
CONTINUOUS
 62
               7
100
AcDbCircle
 10
83.25006103515625
 20
89.5
 30
0.0
 40
1.5
100
AcDbArc
 50
89.999982013910454
 51
179.99996402782091
  0
LINE
  5
5D7
100
AcDbEntity
  8
0
  6
CONTINUOUS
 62
               4
100
AcDbLine
 10
87.00006103515625
 20
1.20001220703125
 30
0.0
 11
87.00006103515625
 21
4.3543548583984375
 31
0.0
  0
LINE
  5
5D8
100
AcDbEntity
  8
0
  6
CONTINUOUS
 62
               4
100
AcDbLine
 10
69.00006103515625
 20
1.20001220703125
 30
0.0
 11
69.00006103515625
 21
4.5
 31
0.0
  0
LINE
  5
5D9
100
AcDbEntity
  8
0
  6
CONTINUOUS
 62
               4
100
AcDbLine
 10
69.000061988830566
 20
53.800003051757813
 30
0.0
 11
87.00006103515625
 21
53.800003051757813
 31
0.0
  0
LINE
  5
5DA
100
AcDbEntity
  8
0
  6
CONTINUOUS
 62
               4
100
AcDbLine
 10
69.000058174133301
 20
1.20001220703125
 30
0.0
 11
87.00006103515625
 21
1.20001220703125
 31
0.0
  0
LINE
  5
5DB
100
AcDbEntity
  8
0
  6
CONTINUOUS
 62
               4
100
AcDbLine
 10
84.50006103515625
 20
8.5
 30
0.0
 11
87.00006103515625
 21
8.5
 31
0.0
  0
LINE
  5
5DC
100
AcDbEntity
  8
0
  6
CONTINUOUS
 62
               4
100
AcDbLine
 10
81.50006103515625
 20
1.20001220703125
 30
0.0
 11
81.50006103515625
 21
5.5
 31
0.0
  0
LINE
  5
5DD
100
AcDbEntity
  8
0
  6
CONTINUOUS
 62
               4
100
AcDbLine
 10
74.50006103515625
 20
49.5
 30
0.0
 11
74.50006103515625
 21
53.800003051757813
 31
0.0
  0
LINE
  5
5DE
100
AcDbEntity
  8
0
  6
CONTINUOUS
 62
               4
100
AcDbLine
 10
69.00006103515625
 20
46.5
 30
0.0
 11
71.50006103515625
 21
46.5
 31
0.0
  0
LINE
  5
5DF
100
AcDbEntity
  8
0
  6
CONTINUOUS
 62
               4
100
AcDbLine
 10
85.560723495481852
 20
4.4393403362846584
 30
0.0
 11
83.439403367040995
 21
6.5606610011673183
 31
0.0
  0
LINE
  5
5E0
100
AcDbEntity
  8
0
  6
CONTINUOUS
 62
               4
100
AcDbLine
 10
72.56071605899092
 20
48.43933524774809
 30
0.0
 11
70.439395930550063
 21
50.56065591263075
 31
0.0
  0
LINE
  5
5E1
100
AcDbEntity
  8
0
  6
CONTINUOUS
 62
               4
100
AcDbLine
 10
70.439406035568254
 20
48.439345120341386
 30
0.0
 11
72.56072652163698
 21
50.560665427596177
 31
0.0
  0
LINE
  5
5E2
100
AcDbEntity
  8
0
  6
CONTINUOUS
 62
               4
100
AcDbLine
 10
83.439405717037744
 20
4.4393425381528573
 30
0.0
 11
85.560726203106469
 21
6.5606628454076485
 31
0.0
  0
LINE
  5
5E3
100
AcDbEntity
  8
0
  6
CONTINUOUS
 62
               4
100
AcDbLine
 10
87.00006103515625
 20
6.6456451416015625
 30
0.0
 11
87.00006103515625
 21
44.5
 31
0.0
  0
LINE
  5
5E4
100
AcDbEntity
  8
0
  6
CONTINUOUS
 62
               7
100
AcDbLine
 10
69.00006103515625
 20
50.645645141601562
 30
0.0
 11
69.00006103515625
 21
53.800003051757813
 31
0.0
  0
LINE
  5
5E5
100
AcDbEntity
  8
0
  6
CONTINUOUS
 62
               4
100
AcDbLine
 10
69.000058174133301
 20
4.5
 30
0.0
 11
71.500057220458984
 21
4.5
 31
0.0
  0
LINE
  5
5E6
100
AcDbEntity
  8
0
  6
CONTINUOUS
 62
               4
100
AcDbLine
 10
69.000058174133301
 20
10.5
 30
0.0
 11
71.500058174133301
 21
10.5
 31
0.0
  0
LINE
  5
5E7
100
AcDbEntity
  8
0
  6
CONTINUOUS
 62
               4
100
AcDbLine
 10
84.50006103515625
 20
44.5
 30
0.0
 11
87.00006103515625
 21
44.5
 31
0.0
  0
LINE
  5
5E8
100
AcDbEntity
  8
0
  6
CONTINUOUS
 62
               4
100
AcDbLine
 10
84.50006103515625
 20
50.5
 30
0.0
 11
87.00006103515625
 21
50.5
 31
0.0
  0
LINE
  5
5E9
100
AcDbEntity
  8
0
  6
CONTINUOUS
 62
               4
100
AcDbLine
 10
69.00006103515625
 20
10.5
 30
0.0
 11
69.00006103515625
 21
48.354354858398437
 31
0.0
  0
LINE
  5
5EA
100
AcDbEntity
  8
0
  6
CONTINUOUS
 62
               4
100
AcDbLine
 10
87.00006103515625
 20
50.5
 30
0.0
 11
87.00006103515625
 21
53.800003051757813
 31
0.0
  0
LINE
  5
5EB
100
AcDbEntity
  8
0
  6
CONTINUOUS
 62
             200
100
AcDbLine
 10
68.500059127807617
 20
18.0
 30
0.0
 11
87.50006103515625
 21
18.0
 31
0.0
  0
LINE
  5
5EC
100
AcDbEntity
  8
0
  6
CONTINUOUS
 62
             200
100
AcDbLine
 10
68.500060081481934
 20
37.0
 30
0.0
 11
87.50006103515625
 21
37.0
 31
0.0
  0
ARC
  5
5ED
100
AcDbEntity
  8
0
  6
CONTINUOUS
 62
               4
100
AcDbCircle
 10
84.50006103515625
 20
5.5
 30
0.0
 40
3.0
100
AcDbArc
 50
89.999982013910454
 51
179.99996402782091
  0
ARC
  5
5EE
100
AcDbEntity
  8
0
  6
CONTINUOUS
 62
               4
100
AcDbCircle
 10
71.50006103515625
 20
49.5
 30
0.0
 40
3.0
100
AcDbArc
 50
270.00001798608872
 51
0.00001366037834
  0
CIRCLE
  5
5EF
100
AcDbEntity
  8
0
  6
CONTINUOUS
 62
               4
100
AcDbCircle
 10
84.50006103515625
 20
5.5
 30
0.0
 40
2.75
  0
CIRCLE
  5
5F0
100
AcDbEntity
  8
0
  6
CONTINUOUS
 62
               4
100
AcDbCircle
 10
71.50006103515625
 20
49.5
 30
0.0
 40
2.75
  0
ARC
  5
5F1
100
AcDbEntity
  8
0
  6
CONTINUOUS
 62
               4
100
AcDbCircle
 10
71.500058174133301
 20
7.5
 30
0.0
 40
3.0
100
AcDbArc
 50
270.00001798608872
 51
89.999982013910454
  0
ARC
  5
5F2
100
AcDbEntity
  8
0
  6
CONTINUOUS
 62
               4
100
AcDbCircle
 10
84.50006103515625
 20
47.5
 30
0.0
 40
3.0
100
AcDbArc
 50
89.999982013910454
 51
269.99994604173139
  0
CIRCLE
  5
5F3
100
AcDbEntity
  8
0
  6
CONTINUOUS
 62
               4
100
AcDbCircle
 10
78.000030517578125
 20
37.0
 30
0.0
 40
8.9499999999999993
  0
ARC
  5
5F4
100
AcDbEntity
  8
0
  6
CONTINUOUS
 62
               4
100
AcDbCircle
 10
78.000030517578125
 20
37.0
 30
0.0
 40
8.4000000000000004
100
AcDbArc
 50
7.1848403149542479
 51
172.81515968504539
  0
ARC
  5
5F5
100
AcDbEntity
  8
0
  6
CONTINUOUS
 62
               4
100
AcDbCircle
 10
78.000030517578125
 20
37.0
 30
0.0
 40
8.4000000000000004
100
AcDbArc
 50
187.18484031495382
 51
352.81515968504499
  0
CIRCLE
  5
5F6
100
AcDbEntity
  8
0
  6
CONTINUOUS
 62
               4
100
AcDbCircle
 10
78.000030517578125
 20
37.0
 30
0.0
 40
5.0499999999999998
  0
CIRCLE
  5
5F7
100
AcDbEntity
  8
0
  6
CONTINUOUS
 62
               4
100
AcDbCircle
 10
78.000030517578125
 20
37.0
 30
0.0
 40
4.0499999999999998
  0
CIRCLE
  5
5F8
100
AcDbEntity
  8
0
  6
CONTINUOUS
 62
               4
100
AcDbCircle
 10
78.000030517578125
 20
18.0
 30
0.0
 40
8.9499999999999993
  0
ARC
  5
5F9
100
AcDbEntity
  8
0
  6
CONTINUOUS
 62
               4
100
AcDbCircle
 10
78.000030517578125
 20
18.0
 30
0.0
 40
8.4000000000000004
100
AcDbArc
 50
7.1848403149542479
 51
172.81515968504539
  0
CIRCLE
  5
5FA
100
AcDbEntity
  8
0
  6
CONTINUOUS
 62
               4
100
AcDbCircle
 10
78.000030517578125
 20
18.0
 30
0.0
 40
5.0499999999999998
  0
CIRCLE
  5
5FB
100
AcDbEntity
  8
0
  6
CONTINUOUS
 62
               4
100
AcDbCircle
 10
78.000030517578125
 20
18.0
 30
0.0
 40
4.0499999999999998
  0
ARC
  5
5FC
100
AcDbEntity
  8
0
  6
CONTINUOUS
 62
               4
100
AcDbCircle
 10
78.000030517578125
 20
18.0
 30
0.0
 40
8.4000000000000004
100
AcDbArc
 50
187.18484031495382
 51
352.81515968504499
  0
LINE
  5
5FD
100
AcDbEntity
  8
0
  6
CONTINUOUS
 62
               4
100
AcDbLine
 10
78.750030517578125
 20
27.190212184710433
 30
0.0
 11
78.750030517578125
 21
27.809787815289582
 31
0.0
  0
LINE
  5
5FE
100
AcDbEntity
  8
0
  6
CONTINUOUS
 62
               4
100
AcDbLine
 10
77.250030517578125
 20
27.190212184710433
 30
0.0
 11
77.250030517578125
 21
27.809787815289582
 31
0.0
  0
ARC
  5
5FF
100
AcDbEntity
  8
0
  6
CONTINUOUS
 62
               4
100
AcDbCircle
 10
76.950030517578114
 20
27.809787815289582
 30
0.0
 40
0.3
100
AcDbArc
 50
0.0
 51
83.482105791022562
  0
ARC
  5
600
100
AcDbEntity
  8
0
  6
CONTINUOUS
 62
               4
100
AcDbCircle
 10
76.950030517578114
 20
27.190212184710433
 30
0.0
 40
0.3
100
AcDbArc
 50
276.5178942089774
 51
0.0
  0
ARC
  5
601
100
AcDbEntity
  8
0
  6
CONTINUOUS
 62
               4
100
AcDbCircle
 10
79.050030517578108
 20
27.809787815289582
 30
0.0
 40
0.3
100
AcDbArc
 50
96.517894208978376
 51
179.99999999999963
  0
ARC
  5
602
100
AcDbEntity
  8
0
  6
CONTINUOUS
 62
               4
100
AcDbCircle
 10
79.050030517578108
 20
27.190212184710433
 30
0.0
 40
0.3
100
AcDbArc
 50
179.99999999999963
 51
263.48210579102226
  0
LINE
  5
603
100
AcDbEntity
  8
0
  6
CONTINUOUS
 62
               4
100
AcDbLine
 10
85.900030517578102
 20
36.200000000000003
 30
0.0
 11
86.334072273268589
 21
35.949405875512568
 31
0.0
  0
LINE
  5
604
100
AcDbEntity
  8
0
  6
CONTINUOUS
 62
               4
100
AcDbLine
 10
85.900030517578102
 20
37.799999999999997
 30
0.0
 11
86.334072273268589
 21
38.050594124487432
 31
0.0
  0
LINE
  5
605
100
AcDbEntity
  8
0
  6
CONTINUOUS
 62
               4
100
AcDbLine
 10
85.900030517578102
 20
36.200000000000003
 30
0.0
 11
85.900030517578102
 21
37.799999994039538
 31
0.0
  0
LINE
  5
606
100
AcDbEntity
  8
0
  6
CONTINUOUS
 62
               4
100
AcDbLine
 10
70.100030517578119
 20
37.799999999999997
 30
0.0
 11
69.665988761887633
 21
38.050594124487432
 31
0.0
  0
LINE
  5
607
100
AcDbEntity
  8
0
  6
CONTINUOUS
 62
               4
100
AcDbLine
 10
70.100030517578119
 20
36.200000000000003
 30
0.0
 11
69.665988761887633
 21
35.949405875512568
 31
0.0
  0
LINE
  5
608
100
AcDbEntity
  8
0
  6
CONTINUOUS
 62
               4
100
AcDbLine
 10
70.100030517578119
 20
36.200000000000003
 30
0.0
 11
70.100030517578119
 21
37.799999994039538
 31
0.0
  0
LINE
  5
609
100
AcDbEntity
  8
0
  6
CONTINUOUS
 62
               4
100
AcDbLine
 10
70.100030517578119
 20
17.200000000000003
 30
0.0
 11
69.665988761887633
 21
16.949405875512568
 31
0.0
  0
LINE
  5
60A
100
AcDbEntity
  8
0
  6
CONTINUOUS
 62
               4
100
AcDbLine
 10
70.100030517578119
 20
18.800000000000011
 30
0.0
 11
69.665988761887633
 21
19.050594124487432
 31
0.0
  0
LINE
  5
60B
100
AcDbEntity
  8
0
  6
CONTINUOUS
 62
               4
100
AcDbLine
 10
70.100030517578119
 20
17.200000000000003
 30
0.0
 11
70.100030517578119
 21
18.799999994039538
 31
0.0
  0
LINE
  5
60C
100
AcDbEntity
  8
0
  6
CONTINUOUS
 62
               4
100
AcDbLine
 10
85.900030517578102
 20
17.200000000000003
 30
0.0
 11
86.334072273268589
 21
16.949405875512568
 31
0.0
  0
LINE
  5
60D
100
AcDbEntity
  8
0
  6
CONTINUOUS
 62
               4
100
AcDbLine
 10
85.900030517578102
 20
18.800000000000011
 30
0.0
 11
86.334072273268589
 21
19.050594124487432
 31
0.0
  0
LINE
  5
60E
100
AcDbEntity
  8
0
  6
CONTINUOUS
 62
               4
100
AcDbLine
 10
85.900030517578102
 20
17.200000000000003
 30
0.0
 11
85.900030517578102
 21
18.799999994039538
 31
0.0
  0
LINE
  5
60F
100
AcDbEntity
  8
0
  6
CONTINUOUS
 62
               4
100
AcDbLine
 10
69.000030517578125
 20
45.139745962155587
 30
0.0
 11
74.278869990058269
 21
45.139745962155587
 31
0.0
  0
LINE
  5
610
100
AcDbEntity
  8
0
  6
CONTINUOUS
 62
               4
100
AcDbLine
 10
81.721191048622131
 20
9.8602540378444132
 30
0.0
 11
87.000030517578125
 21
9.8602540378444132
 31
0.0
  0
LINE
  5
611
100
AcDbEntity
  8
0
  6
CONTINUOUS
 62
               4
100
AcDbLine
 10
81.721191045097953
 20
45.139745962155587
 30
0.0
 11
82.648244666047447
 21
45.139745962155587
 31
0.0
  0
LINE
  5
612
100
AcDbEntity
  8
0
  6
CONTINUOUS
 62
               4
100
AcDbLine
 10
73.351864989938321
 20
9.8602540378444132
 30
0.0
 11
74.278869986534119
 21
9.8602540378444132
 31
0.0
  0
LINE
  5
613
100
AcDbEntity
  8
0
  6
CONTINUOUS
 62
               7
100
AcDbLine
 10
87.5
 20
54.0
 30
0.0
 11
106.5
 21
54.0
 31
0.0
  0
LINE
  5
614
100
AcDbEntity
  8
0
  6
CONTINUOUS
 62
               7
100
AcDbLine
 10
87.5
 20
1.0
 30
0.0
 11
127.5
 21
1.0
 31
0.0
  0
ELLIPSE
  5
615
100
AcDbEntity
  8
0
  6
CONTINUOUS
 62
               7
100
AcDbEllipse
 10
110.0
 20
69.123062133789063
 30
0.0
 11
-2.7499999999998539
 21
0.0000008960637956
 31
0.0
210
0.0
220
0.0
230
1.0
 40
0.7071089311079546
 41
4.0383952299701074
 42
5.6163709799395889
  0
ELLIPSE
  5
616
100
AcDbEntity
  8
0
  6
CONTINUOUS
 62
               7
100
AcDbEllipse
 10
124.0
 20
69.123062133789063
 30
0.0
 11
2.75
 21
0.0
 31
0.0
210
0.0
220
0.0
230
1.0
 40
0.7071089311079546
 41
0.6668112874031033
 42
2.2447853088378955
  0
ELLIPSE
  5
617
100
AcDbEntity
  8
0
  6
CONTINUOUS
 62
               7
100
AcDbEllipse
 10
110.0
 20
69.123077392578125
 30
0.0
 11
3.5
 21
0.0
 31
0.0
210
0.0
220
0.0
230
1.0
 40
0.7070999145507813
 41
0.8374626636505179
 42
1.5707960128784153
  0
ELLIPSE
  5
618
100
AcDbEntity
  8
0
  6
CONTINUOUS
 62
               7
100
AcDbEllipse
 10
124.0
 20
72.800003051757812
 30
0.0
 11
-3.4999999999998148
 21
0.0000011404445106
 31
0.0
210
0.0
220
0.0
230
1.0
 40
0.7070999145507813
 41
4.7123883406267977
 42
1.5707956870370046
  0
ELLIPSE
  5
619
100
AcDbEntity
  8
0
  6
CONTINUOUS
 62
               7
100
AcDbEllipse
 10
124.0
 20
69.123077392578125
 30
0.0
 11
-3.4999999999998148
 21
0.0000011404445106
 31
0.0
210
0.0
220
0.0
230
1.0
 40
0.7070999145507813
 41
4.7123883406267977
 42
5.4457196632968126
  0
ELLIPSE
  5
61A
100
AcDbEntity
  8
0
  6
CONTINUOUS
 62
               7
100
AcDbEllipse
 10
110.0
 20
72.800003051757812
 30
0.0
 11
3.5
 21
0.0
 31
0.0
210
0.0
220
0.0
230
1.0
 40
0.7070999145507813
 41
4.7123892943011709
 42
1.5707966407113778
  0
ARC
  5
61B
100
AcDbEntity
  8
0
  6
CONTINUOUS
 62
               4
100
AcDbCircle
 10
22.366668701171875
 20
48.171829223632813
 30
0.0
 40
0.6666666865348816
100
AcDbArc
 50
119.49235635943191
 51
179.99996402782091
  0
ARC
  5
61C
100
AcDbEntity
  8
0
  6
CONTINUOUS
 62
               4
100
AcDbCircle
 10
26.633331298828125
 20
48.171829223632813
 30
0.0
 40
0.6666666865348816
100
AcDbArc
 50
359.99998633962088
 51
60.507607668389014
  0
ARC
  5
61D
100
AcDbEntity
  8
0
  6
CONTINUOUS
 62
               4
100
AcDbCircle
 10
24.5
 20
44.400009155273438
 30
0.0
 40
5.0
100
AcDbArc
 50
60.507607668388992
 51
119.49230171791855
  0
ARC
  5
61E
100
AcDbEntity
  8
0
  6
CONTINUOUS
 62
               4
100
AcDbCircle
 10
13.366668701171875
 20
48.171829223632813
 30
0.0
 40
0.6666666865348816
100
AcDbArc
 50
119.49235635943191
 51
179.99996402782091
  0
ARC
  5
61F
100
AcDbEntity
  8
0
  6
CONTINUOUS
 62
               4
100
AcDbCircle
 10
17.633331298828125
 20
48.171829223632813
 30
0.0
 40
0.6666666865348816
100
AcDbArc
 50
359.99998633962088
 51
60.507607668389014
  0
ARC
  5
620
100
AcDbEntity
  8
0
  6
CONTINUOUS
 62
               4
100
AcDbCircle
 10
15.5
 20
44.400009155273438
 30
0.0
 40
5.0
100
AcDbArc
 50
60.507607668388992
 51
119.49230171791855
  0
CIRCLE
  5
621
100
AcDbEntity
  8
0
  6
CONTINUOUS
 62
               4
100
AcDbCircle
 10
117.0
 20
32.800003051757813
 30
0.0
 40
6.0
  0
CIRCLE
  5
622
100
AcDbEntity
  8
0
  6
CONTINUOUS
 62
               4
100
AcDbCircle
 10
117.0
 20
32.800003051757813
 30
0.0
 40
9.0
  0
CIRCLE
  5
623
100
AcDbEntity
  8
0
  6
CONTINUOUS
 62
               4
100
AcDbCircle
 10
117.0
 20
32.800003051757813
 30
0.0
 40
10.0
  0
CIRCLE
  5
624
100
AcDbEntity
  8
0
  6
CONTINUOUS
 62
               4
100
AcDbCircle
 10
117.0
 20
56.800003051757812
 30
0.0
 40
9.0
  0
CIRCLE
  5
625
100
AcDbEntity
  8
0
  6
CONTINUOUS
 62
               4
100
AcDbCircle
 10
117.0
 20
56.800003051757812
 30
0.0
 40
6.0
  0
CIRCLE
  5
626
100
AcDbEntity
  8
0
  6
CONTINUOUS
 62
               4
100
AcDbCircle
 10
117.0
 20
56.800003051757812
 30
0.0
 40
10.0
  0
ARC
  5
627
100
AcDbEntity
  8
0
  6
CONTINUOUS
 62
               7
100
AcDbCircle
 10
45.250030517578125
 20
89.5
 30
0.0
 40
1.5
100
AcDbArc
 50
89.999982013910454
 51
160.52878859102876
  0
ARC
  5
628
100
AcDbEntity
  8
0
  6
CONTINUOUS
 62
               7
100
AcDbCircle
 10
47.750030517578125
 20
89.5
 30
0.0
 40
1.5
100
AcDbArc
 50
0.0
 51
89.999982013910454
  0
ARC
  5
629
100
AcDbEntity
  8
0
  6
CONTINUOUS
 62
               7
100
AcDbCircle
 10
31.500030517578125
 20
90.5
 30
0.0
 40
0.5
100
AcDbArc
 50
89.999982013910454
 51
179.99996402782091
  0
ARC
  5
62A
100
AcDbEntity
  8
0
  6
CONTINUOUS
 62
               7
100
AcDbCircle
 10
48.500030517578125
 20
90.5
 30
0.0
 40
0.5
100
AcDbArc
 50
0.0
 51
89.999982013910454
  0
CIRCLE
  5
62B
100
AcDbEntity
  8
0
  6
CONTINUOUS
 62
               7
100
AcDbCircle
 10
46.000030517578125
 20
57.0
 30
0.0
 40
2.7999992370605469
  0
ARC
  5
62C
100
AcDbEntity
  8
0
  6
CONTINUOUS
 62
               7
100
AcDbCircle
 10
46.000030517578125
 20
57.0
 30
0.0
 40
3.0
100
AcDbArc
 50
89.999982013910454
 51
179.99996402782091
  0
CIRCLE
  5
62D
100
AcDbEntity
  8
0
  6
CONTINUOUS
 62
               7
100
AcDbCircle
 10
34.000030517578125
 20
83.000015258789063
 30
0.0
 40
2.7999992370605469
  0
ARC
  5
62E
100
AcDbEntity
  8
0
  6
CONTINUOUS
 62
               7
100
AcDbCircle
 10
31.500030517578125
 20
87.500015258789063
 30
0.0
 40
0.5
100
AcDbArc
 50
89.999982013910454
 51
180.00001866933428
  0
ARC
  5
62F
100
AcDbEntity
  8
0
  6
CONTINUOUS
 62
               7
100
AcDbCircle
 10
48.500030517578125
 20
87.500015258789063
 30
0.0
 40
0.5
100
AcDbArc
 50
0.00001366037834
 51
89.999982013910454
  0
ARC
  5
630
100
AcDbEntity
  8
0
  6
CONTINUOUS
 62
               7
100
AcDbCircle
 10
34.000030517578125
 20
83.000015258789063
 30
0.0
 40
3.0
100
AcDbArc
 50
270.00001798608872
 51
90.00014593845053
  0
ARC
  5
631
100
AcDbEntity
  8
0
  6
CONTINUOUS
 62
               4
100
AcDbCircle
 10
89.200057983398438
 20
57.699996948242187
 30
0.0
 40
1.5
100
AcDbArc
 50
89.999982013910454
 51
179.99996402782091
  0
ARC
  5
632
100
AcDbEntity
  8
0
  6
CONTINUOUS
 62
               4
100
AcDbCircle
 10
91.800064086914063
 20
57.699996948242187
 30
0.0
 40
1.5
100
AcDbArc
 50
0.0
 51
89.999982013910454
  0
ARC
  5
633
100
AcDbEntity
  8
0
  6
CONTINUOUS
 62
               4
100
AcDbCircle
 10
102.20005798339844
 20
57.699996948242187
 30
0.0
 40
1.5
100
AcDbArc
 50
89.999982013910454
 51
179.99996402782091
  0
ARC
  5
634
100
AcDbEntity
  8
0
  6
CONTINUOUS
 62
               4
100
AcDbCircle
 10
104.80006408691406
 20
57.699996948242187
 30
0.0
 40
1.5
100
AcDbArc
 50
0.0
 51
89.999982013910454
  0
LINE
  5
635
100
AcDbEntity
  8
0
  6
CONTINUOUS
 62
               4
100
AcDbLine
 10
18.25
 20
65.800003051757812
 30
0.0
 11
22.25
 21
65.800003051757812
 31
0.0
  0
LINE
  5
636
100
AcDbEntity
  8
0
  6
CONTINUOUS
 62
               4
100
AcDbLine
 10
21.75
 20
62.5
 30
0.0
 11
24.5
 21
62.5
 31
0.0
  0
LINE
  5
637
100
AcDbEntity
  8
0
  6
CONTINUOUS
 62
               4
100
AcDbLine
 10
16.0
 20
62.5
 30
0.0
 11
18.75
 21
62.5
 31
0.0
  0
LINE
  5
638
100
AcDbEntity
  8
0
  6
CONTINUOUS
 62
               4
100
AcDbLine
 10
18.75
 20
54.5
 30
0.0
 11
21.75
 21
54.5
 31
0.0
  0
LINE
  5
639
100
AcDbEntity
  8
0
  6
CONTINUOUS
 62
               4
100
AcDbLine
 10
18.25
 20
72.5
 30
0.0
 11
22.25
 21
72.5
 31
0.0
  0
LINE
  5
63A
100
AcDbEntity
  8
0
  6
CONTINUOUS
 62
               4
100
AcDbLine
 10
18.25
 20
69.5
 30
0.0
 11
22.25
 21
69.5
 31
0.0
  0
LINE
  5
63B
100
AcDbEntity
  8
0
  6
CONTINUOUS
 62
               4
100
AcDbLine
 10
18.25
 20
63.199996948242188
 30
0.0
 11
18.75
 21
63.199996948242188
 31
0.0
  0
LINE
  5
63C
100
AcDbEntity
  8
0
  6
CONTINUOUS
 62
               4
100
AcDbLine
 10
21.75
 20
63.199996948242188
 30
0.0
 11
22.25
 21
63.199996948242188
 31
0.0
  0
LINE
  5
63D
100
AcDbEntity
  8
0
  6
CONTINUOUS
 62
               4
100
AcDbLine
 10
21.75
 20
63.0
 30
0.0
 11
24.5
 21
63.0
 31
0.0
  0
LINE
  5
63E
100
AcDbEntity
  8
0
  6
CONTINUOUS
 62
               4
100
AcDbLine
 10
21.75
 20
63.199996948242188
 30
0.0
 11
21.75
 21
54.0
 31
0.0
  0
LINE
  5
63F
100
AcDbEntity
  8
0
  6
CONTINUOUS
 62
               4
100
AcDbLine
 10
18.75
 20
63.199996948242188
 30
0.0
 11
18.75
 21
54.0
 31
0.0
  0
LINE
  5
640
100
AcDbEntity
  8
0
  6
CONTINUOUS
 62
               4
100
AcDbLine
 10
16.0
 20
63.0
 30
0.0
 11
18.75
 21
63.0
 31
0.0
  0
LINE
  5
641
100
AcDbEntity
  8
0
  6
CONTINUOUS
 62
               4
100
AcDbLine
 10
22.25
 20
72.5
 30
0.0
 11
22.25
 21
63.199996948242188
 31
0.0
  0
LINE
  5
642
100
AcDbEntity
  8
0
  6
CONTINUOUS
 62
               4
100
AcDbLine
 10
18.25
 20
72.5
 30
0.0
 11
18.25
 21
63.199996948242188
 31
0.0
  0
LINE
  5
643
100
AcDbEntity
  8
0
  6
CONTINUOUS
 62
               4
100
AcDbLine
 10
24.5
 20
63.0
 30
0.0
 11
24.5
 21
54.0
 31
0.0
  0
LINE
  5
644
100
AcDbEntity
  8
0
  6
CONTINUOUS
 62
               4
100
AcDbLine
 10
16.0
 20
63.0
 30
0.0
 11
16.0
 21
54.0
 31
0.0
  0
LINE
  5
645
100
AcDbEntity
  8
0
  6
CONTINUOUS
 62
               4
100
AcDbLine
 10
21.699996948242188
 20
48.171829223632813
 30
0.0
 11
21.699996948242188
 21
47.0
 31
0.0
  0
LINE
  5
646
100
AcDbEntity
  8
0
  6
CONTINUOUS
 62
               4
100
AcDbLine
 10
27.300003051757813
 20
48.171829223632813
 30
0.0
 11
27.300003051757813
 21
47.0
 31
0.0
  0
LINE
  5
647
100
AcDbEntity
  8
0
  6
CONTINUOUS
 62
               4
100
AcDbLine
 10
12.699996948242188
 20
48.171829223632813
 30
0.0
 11
12.699996948242188
 21
47.0
 31
0.0
  0
LINE
  5
648
100
AcDbEntity
  8
0
  6
CONTINUOUS
 62
               4
100
AcDbLine
 10
18.300003051757813
 20
48.171829223632813
 30
0.0
 11
18.300003051757813
 21
47.0
 31
0.0
  0
LINE
  5
649
100
AcDbEntity
  8
0
  6
CONTINUOUS
 62
               4
100
AcDbLine
 10
21.550003051757813
 20
47.0
 30
0.0
 11
21.550003051757813
 21
46.300003051757813
 31
0.0
  0
LINE
  5
64A
100
AcDbEntity
  8
0
  6
CONTINUOUS
 62
               4
100
AcDbLine
 10
27.449996948242187
 20
47.0
 30
0.0
 11
27.449996948242187
 21
46.300003051757813
 31
0.0
  0
LINE
  5
64B
100
AcDbEntity
  8
0
  6
CONTINUOUS
 62
               4
100
AcDbLine
 10
24.850001645567318
 20
47.000000059969352
 30
0.0
 11
25.037564226924587
 21
46.300007509420539
 31
0.0
  0
LINE
  5
64C
100
AcDbEntity
  8
0
  6
CONTINUOUS
 62
               4
100
AcDbLine
 10
24.150001366757351
 20
46.299996364134131
 30
0.0
 11
23.96243874220545
 21
46.999988914682945
 31
0.0
  0
LINE
  5
64D
100
AcDbEntity
  8
0
  6
CONTINUOUS
 62
               4
100
AcDbLine
 10
27.449996948242187
 20
47.0
 30
0.0
 11
21.550003051757813
 21
47.0
 31
0.0
  0
LINE
  5
64E
100
AcDbEntity
  8
0
  6
CONTINUOUS
 62
               4
100
AcDbLine
 10
12.550003051757812
 20
47.0
 30
0.0
 11
12.550003051757812
 21
46.300003051757813
 31
0.0
  0
LINE
  5
64F
100
AcDbEntity
  8
0
  6
CONTINUOUS
 62
               4
100
AcDbLine
 10
18.449996948242188
 20
47.0
 30
0.0
 11
18.449996948242188
 21
46.300003051757813
 31
0.0
  0
LINE
  5
650
100
AcDbEntity
  8
0
  6
CONTINUOUS
 62
               4
100
AcDbLine
 10
15.850000130367334
 20
47.000018663718947
 30
0.0
 11
16.037566660992525
 21
46.300011374312817
 31
0.0
  0
LINE
  5
651
100
AcDbEntity
  8
0
  6
CONTINUOUS
 62
               4
100
AcDbLine
 10
15.14999287239516
 20
46.299981022737484
 30
0.0
 11
14.962426298574428
 21
46.999988312143614
 31
0.0
  0
LINE
  5
652
100
AcDbEntity
  8
0
  6
CONTINUOUS
 62
               4
100
AcDbLine
 10
18.449996948242188
 20
47.0
 30
0.0
 11
12.550003051757812
 21
47.0
 31
0.0
  0
LINE
  5
653
100
AcDbEntity
  8
0
  6
CONTINUOUS
 62
               4
100
AcDbLine
 10
21.550003051757813
 20
46.300003051757813
 30
0.0
 11
27.449996948242187
 21
46.300003051757813
 31
0.0
  0
LINE
  5
654
100
AcDbEntity
  8
0
  6
CONTINUOUS
 62
               4
100
AcDbLine
 10
27.449996948242187
 20
46.300003051757813
 30
0.0
 11
27.449996948242187
 21
45.5
 31
0.0
  0
LINE
  5
655
100
AcDbEntity
  8
0
  6
CONTINUOUS
 62
               4
100
AcDbLine
 10
26.649993896484375
 20
46.300003051757813
 30
0.0
 11
26.649993896484375
 21
45.5
 31
0.0
  0
LINE
  5
656
100
AcDbEntity
  8
0
  6
CONTINUOUS
 62
               4
100
AcDbLine
 10
22.349990844726563
 20
46.300003051757813
 30
0.0
 11
22.349990844726563
 21
45.5
 31
0.0
  0
LINE
  5
657
100
AcDbEntity
  8
0
  6
CONTINUOUS
 62
               4
100
AcDbLine
 10
21.550003051757813
 20
46.300003051757813
 30
0.0
 11
21.550003051757813
 21
45.5
 31
0.0
  0
LINE
  5
658
100
AcDbEntity
  8
0
  6
CONTINUOUS
 62
               4
100
AcDbLine
 10
18.449996948242188
 20
46.300003051757813
 30
0.0
 11
18.449996948242188
 21
45.5
 31
0.0
  0
LINE
  5
659
100
AcDbEntity
  8
0
  6
CONTINUOUS
 62
               4
100
AcDbLine
 10
17.649993896484375
 20
46.300003051757813
 30
0.0
 11
17.649993896484375
 21
45.5
 31
0.0
  0
LINE
  5
65A
100
AcDbEntity
  8
0
  6
CONTINUOUS
 62
               4
100
AcDbLine
 10
13.349990844726562
 20
46.300003051757813
 30
0.0
 11
13.349990844726562
 21
45.5
 31
0.0
  0
LINE
  5
65B
100
AcDbEntity
  8
0
  6
CONTINUOUS
 62
               4
100
AcDbLine
 10
12.550003051757812
 20
46.300003051757813
 30
0.0
 11
12.550003051757812
 21
45.5
 31
0.0
  0
LINE
  5
65C
100
AcDbEntity
  8
0
  6
CONTINUOUS
 62
               4
100
AcDbLine
 10
12.550003051757812
 20
46.300003051757813
 30
0.0
 11
18.449996948242188
 21
46.300003051757813
 31
0.0
  0
LINE
  5
65D
100
AcDbEntity
  8
0
  6
CONTINUOUS
 62
               4
100
AcDbLine
 10
21.0
 20
51.5
 30
0.0
 11
28.0
 21
51.5
 31
0.0
  0
LINE
  5
65E
100
AcDbEntity
  8
0
  6
CONTINUOUS
 62
               4
100
AcDbLine
 10
12.0
 20
51.5
 30
0.0
 11
19.0
 21
51.5
 31
0.0
  0
LINE
  5
65F
100
AcDbEntity
  8
0
  6
CONTINUOUS
 62
               4
100
AcDbLine
 10
21.0
 20
52.5
 30
0.0
 11
21.0
 21
45.5
 31
0.0
  0
LINE
  5
660
100
AcDbEntity
  8
0
  6
CONTINUOUS
 62
               4
100
AcDbLine
 10
19.0
 20
52.5
 30
0.0
 11
19.0
 21
45.5
 31
0.0
  0
LINE
  5
661
100
AcDbEntity
  8
0
  6
CONTINUOUS
 62
               4
100
AcDbLine
 10
11.0
 20
52.5
 30
0.0
 11
29.0
 21
52.5
 31
0.0
  0
LINE
  5
662
100
AcDbEntity
  8
0
  6
CONTINUOUS
 62
               4
100
AcDbLine
 10
12.0
 20
52.5
 30
0.0
 11
12.0
 21
45.5
 31
0.0
  0
LINE
  5
663
100
AcDbEntity
  8
0
  6
CONTINUOUS
 62
               4
100
AcDbLine
 10
28.0
 20
52.5
 30
0.0
 11
28.0
 21
45.5
 31
0.0
  0
LINE
  5
664
100
AcDbEntity
  8
0
  6
CONTINUOUS
 62
               4
100
AcDbLine
 10
29.0
 20
54.0
 30
0.0
 11
29.0
 21
44.0
 31
0.0
  0
LINE
  5
665
100
AcDbEntity
  8
0
  6
CONTINUOUS
 62
               4
100
AcDbLine
 10
11.0
 20
54.0
 30
0.0
 11
11.0
 21
44.0
 31
0.0
  0
LINE
  5
666
100
AcDbEntity
  8
0
  6
CONTINUOUS
 62
               4
100
AcDbLine
 10
12.0
 20
45.5
 30
0.0
 11
28.0
 21
45.5
 31
0.0
  0
LINE
  5
667
100
AcDbEntity
  8
0
  6
CONTINUOUS
 62
               4
100
AcDbLine
 10
9.5
 20
54.0
 30
0.0
 11
30.5
 21
54.0
 31
0.0
  0
LINE
  5
668
100
AcDbEntity
  8
0
  6
CONTINUOUS
 62
               4
100
AcDbLine
 10
23.5
 20
40.0
 30
0.0
 11
23.5
 21
38.0
 31
0.0
  0
LINE
  5
669
100
AcDbEntity
  8
0
  6
CONTINUOUS
 62
               4
100
AcDbLine
 10
16.5
 20
40.0
 30
0.0
 11
16.5
 21
38.0
 31
0.0
  0
LINE
  5
66A
100
AcDbEntity
  8
0
  6
CONTINUOUS
 62
               4
100
AcDbLine
 10
9.5
 20
44.0
 30
0.0
 11
30.5
 21
44.0
 31
0.0
  0
LINE
  5
66B
100
AcDbEntity
  8
0
  6
CONTINUOUS
 62
               4
100
AcDbLine
 10
16.399993896484375
 20
40.100006103515625
 30
0.0
 11
16.399993896484375
 21
37.900009155273438
 31
0.0
  0
LINE
  5
66C
100
AcDbEntity
  8
0
  6
CONTINUOUS
 62
               4
100
AcDbLine
 10
23.599990844726563
 20
40.100006103515625
 30
0.0
 11
23.599990844726563
 21
37.900009155273438
 31
0.0
  0
LINE
  5
66D
100
AcDbEntity
  8
0
  6
CONTINUOUS
 62
               4
100
AcDbLine
 10
16.5
 20
38.0
 30
0.0
 11
23.5
 21
38.0
 31
0.0
  0
LINE
  5
66E
100
AcDbEntity
  8
0
  6
CONTINUOUS
 62
               4
100
AcDbLine
 10
16.5
 20
40.0
 30
0.0
 11
23.5
 21
40.0
 31
0.0
  0
LINE
  5
66F
100
AcDbEntity
  8
0
  6
CONTINUOUS
 62
               4
100
AcDbLine
 10
16.399993896484375
 20
37.900009155273438
 30
0.0
 11
23.599990844726563
 21
37.900009155273438
 31
0.0
  0
LINE
  5
670
100
AcDbEntity
  8
0
  6
CONTINUOUS
 62
               4
100
AcDbLine
 10
16.399993896484375
 20
40.100006103515625
 30
0.0
 11
23.599990844726563
 21
40.100006103515625
 31
0.0
  0
LINE
  5
671
100
AcDbEntity
  8
0
  6
CONTINUOUS
 62
               7
100
AcDbLine
 10
30.5
 20
54.0
 30
0.0
 11
49.5
 21
54.0
 31
0.0
  0
LINE
  5
672
100
AcDbEntity
  8
0
  6
CONTINUOUS
 62
               7
100
AcDbLine
 10
9.5
 20
54.0
 30
0.0
 11
9.5
 21
0.0
 31
0.0
  0
LINE
  5
673
100
AcDbEntity
  8
0
  6
CONTINUOUS
 62
             200
100
AcDbLine
 10
106.0
 20
32.800003051757813
 30
0.0
 11
128.0
 21
32.800003051757813
 31
0.0
  0
LINE
  5
674
100
AcDbEntity
  8
0
  6
CONTINUOUS
 62
               7
100
AcDbLine
 10
143.5
 20
54.0
 30
0.0
 11
143.5
 21
0.0
 31
0.0
  0
LINE
  5
675
100
AcDbEntity
  8
0
  6
CONTINUOUS
 62
               7
100
AcDbLine
 10
143.5
 20
0.0
 30
0.0
 11
127.5
 21
0.0
 31
0.0
  0
LINE
  5
676
100
AcDbEntity
  8
0
  6
CONTINUOUS
 62
               7
100
AcDbLine
 10
143.5
 20
40.0
 30
0.0
 11
130.5
 21
40.0
 31
0.0
  0
LINE
  5
677
100
AcDbEntity
  8
0
  6
CONTINUOUS
 62
               7
100
AcDbLine
 10
130.5
 20
54.0
 30
0.0
 11
130.5
 21
40.0
 31
0.0
  0
LINE
  5
678
100
AcDbEntity
  8
0
  6
CONTINUOUS
 62
               7
100
AcDbLine
 10
143.5
 20
54.0
 30
0.0
 11
127.5
 21
54.0
 31
0.0
  0
LINE
  5
679
100
AcDbEntity
  8
0
  6
CONTINUOUS
 62
               7
100
AcDbLine
 10
110.0
 20
71.597930908203125
 30
0.0
 11
106.5
 21
71.597930908203125
 31
0.0
  0
LINE
  5
67A
100
AcDbEntity
  8
0
  6
CONTINUOUS
 62
               7
100
AcDbLine
 10
124.0
 20
71.597930908203125
 30
0.0
 11
127.5
 21
71.597930908203125
 31
0.0
  0
LINE
  5
67B
100
AcDbEntity
  8
0
  6
CONTINUOUS
 62
               7
100
AcDbLine
 10
106.5
 20
69.600006103515625
 30
0.0
 11
127.5
 21
69.600006103515625
 31
0.0
  0
LINE
  5
67C
100
AcDbEntity
  8
0
  6
CONTINUOUS
 62
             200
100
AcDbLine
 10
106.0
 20
56.800003051757812
 30
0.0
 11
128.0
 21
56.800003051757812
 31
0.0
  0
LINE
  5
67D
100
AcDbEntity
  8
0
  6
CONTINUOUS
 62
               7
100
AcDbLine
 10
112.0
 20
21.0
 30
0.0
 11
122.0
 21
21.0
 31
0.0
  0
LINE
  5
67E
100
AcDbEntity
  8
0
  6
CONTINUOUS
 62
               7
100
AcDbLine
 10
122.0
 20
22.0
 30
0.0
 11
127.5
 21
22.0
 31
0.0
  0
LINE
  5
67F
100
AcDbEntity
  8
0
  6
CONTINUOUS
 62
               7
100
AcDbLine
 10
112.0
 20
20.800003051757813
 30
0.0
 11
122.0
 21
20.800003051757813
 31
0.0
  0
LINE
  5
680
100
AcDbEntity
  8
0
  6
CONTINUOUS
 62
               7
100
AcDbLine
 10
122.0
 20
22.0
 30
0.0
 11
122.0
 21
20.800003051757813
 31
0.0
  0
LINE
  5
681
100
AcDbEntity
  8
0
  6
CONTINUOUS
 62
               7
100
AcDbLine
 10
112.0
 20
22.0
 30
0.0
 11
112.0
 21
20.800003051757813
 31
0.0
  0
LINE
  5
682
100
AcDbEntity
  8
0
  6
CONTINUOUS
 62
               7
100
AcDbLine
 10
106.5
 20
22.0
 30
0.0
 11
112.0
 21
22.0
 31
0.0
  0
LINE
  5
683
100
AcDbEntity
  8
0
  6
CONTINUOUS
 62
               7
100
AcDbLine
 10
127.5
 20
76.0
 30
0.0
 11
127.5
 21
0.0
 31
0.0
  0
LINE
  5
684
100
AcDbEntity
  8
0
  6
CONTINUOUS
 62
               7
100
AcDbLine
 10
106.5
 20
76.0
 30
0.0
 11
127.5
 21
76.0
 31
0.0
  0
LINE
  5
685
100
AcDbEntity
  8
0
  6
CONTINUOUS
 62
               4
100
AcDbLine
 10
9.5
 20
1.0
 30
0.0
 11
30.5
 21
1.0
 31
0.0
  0
LINE
  5
686
100
AcDbEntity
  8
0
  6
CONTINUOUS
 62
               7
100
AcDbLine
 10
106.5
 20
76.0
 30
0.0
 11
106.5
 21
1.0
 31
0.0
  0
LINE
  5
687
100
AcDbEntity
  8
0
  6
CONTINUOUS
 62
               7
100
AcDbLine
 10
49.5
 20
54.0
 30
0.0
 11
49.5
 21
1.0
 31
0.0
  0
LINE
  5
688
100
AcDbEntity
  8
0
  6
CONTINUOUS
 62
               7
100
AcDbLine
 10
-6.5
 20
40.0
 30
0.0
 11
6.5
 21
40.0
 31
0.0
  0
LINE
  5
689
100
AcDbEntity
  8
0
  6
CONTINUOUS
 62
               7
100
AcDbLine
 10
6.5
 20
54.0
 30
0.0
 11
6.5
 21
40.0
 31
0.0
  0
LINE
  5
68A
100
AcDbEntity
  8
0
  6
CONTINUOUS
 62
               7
100
AcDbLine
 10
-6.5
 20
0.0
 30
0.0
 11
9.5
 21
0.0
 31
0.0
  0
LINE
  5
68B
100
AcDbEntity
  8
0
  6
CONTINUOUS
 62
               7
100
AcDbLine
 10
30.5
 20
54.0
 30
0.0
 11
30.5
 21
1.0
 31
0.0
  0
LINE
  5
68C
100
AcDbEntity
  8
0
  6
CONTINUOUS
 62
               7
100
AcDbLine
 10
-6.5
 20
54.0
 30
0.0
 11
9.5
 21
54.0
 31
0.0
  0
LINE
  5
68D
100
AcDbEntity
  8
0
  6
CONTINUOUS
 62
               7
100
AcDbLine
 10
-6.5
 20
54.0
 30
0.0
 11
-6.5
 21
0.0
 31
0.0
  0
LINE
  5
68E
100
AcDbEntity
  8
0
  6
CONTINUOUS
 62
               7
100
AcDbLine
 10
127.5
 20
70.32513427734375
 30
0.0
 11
124.0
 21
70.32513427734375
 31
0.0
  0
LINE
  5
68F
100
AcDbEntity
  8
0
  6
CONTINUOUS
 62
               7
100
AcDbLine
 10
127.5
 20
75.274871826171875
 30
0.0
 11
124.0
 21
75.274871826171875
 31
0.0
  0
LINE
  5
690
100
AcDbEntity
  8
0
  6
CONTINUOUS
 62
               7
100
AcDbLine
 10
106.5
 20
70.32513427734375
 30
0.0
 11
110.0
 21
70.32513427734375
 31
0.0
  0
LINE
  5
691
100
AcDbEntity
  8
0
  6
CONTINUOUS
 62
               7
100
AcDbLine
 10
106.5
 20
75.274871826171875
 30
0.0
 11
110.0
 21
75.274871826171875
 31
0.0
  0
LINE
  5
692
100
AcDbEntity
  8
0
  6
CONTINUOUS
 62
               7
100
AcDbLine
 10
49.000015258789063
 20
89.0
 30
0.0
 11
49.000015258789063
 21
54.0
 31
0.0
  0
LINE
  5
693
100
AcDbEntity
  8
0
  6
CONTINUOUS
 62
               7
100
AcDbLine
 10
49.250030517578125
 20
89.5
 30
0.0
 11
49.250030517578125
 21
89.0
 31
0.0
  0
LINE
  5
694
100
AcDbEntity
  8
0
  6
CONTINUOUS
 62
               7
100
AcDbLine
 10
43.500030517578125
 20
91.0
 30
0.0
 11
43.500030517578125
 21
90.0
 31
0.0
  0
LINE
  5
695
100
AcDbEntity
  8
0
  6
CONTINUOUS
 62
               7
100
AcDbLine
 10
31.000015258789063
 20
89.0
 30
0.0
 11
49.250030517578125
 21
89.0
 31
0.0
  0
LINE
  5
696
100
AcDbEntity
  8
0
  6
CONTINUOUS
 62
               7
100
AcDbLine
 10
31.500030517578125
 20
91.0
 30
0.0
 11
48.500030517578125
 21
91.0
 31
0.0
  0
LINE
  5
697
100
AcDbEntity
  8
0
  6
CONTINUOUS
 62
               7
100
AcDbLine
 10
34.000045776367188
 20
86.000015258789063
 30
0.0
 11
31.000045776367187
 21
86.000015258789063
 31
0.0
  0
LINE
  5
698
100
AcDbEntity
  8
0
  6
CONTINUOUS
 62
               7
100
AcDbLine
 10
44.939372961906884
 20
58.060610024566813
 30
0.0
 11
47.060703522310178
 21
55.939278212459612
 31
0.0
  0
LINE
  5
699
100
AcDbEntity
  8
0
  6
CONTINUOUS
 62
               7
100
AcDbLine
 10
47.060876781616571
 20
58.060469133948573
 30
0.0
 11
44.93954496950937
 21
55.939138573545279
 31
0.0
  0
LINE
  5
69A
100
AcDbEntity
  8
0
  6
CONTINUOUS
 62
               7
100
AcDbLine
 10
43.000030517578125
 20
57.0
 30
0.0
 11
43.000030517578125
 21
54.0
 31
0.0
  0
LINE
  5
69B
100
AcDbEntity
  8
0
  6
CONTINUOUS
 62
               7
100
AcDbLine
 10
46.000045776367188
 20
60.0
 30
0.0
 11
49.000045776367188
 21
60.0
 31
0.0
  0
LINE
  5
69C
100
AcDbEntity
  8
0
  6
CONTINUOUS
 62
               7
100
AcDbLine
 10
32.939475406275051
 20
81.939229826835799
 30
0.0
 11
35.060796786413448
 21
84.060549240020919
 31
0.0
  0
LINE
  5
69D
100
AcDbEntity
  8
0
  6
CONTINUOUS
 62
               7
100
AcDbLine
 10
35.060698696650434
 20
81.939347528932558
 30
0.0
 11
32.939379283465314
 21
84.060668909070955
 31
0.0
  0
LINE
  5
69E
100
AcDbEntity
  8
0
  6
CONTINUOUS
 62
               7
100
AcDbLine
 10
33.499951531324768
 20
90.000122134122648
 30
0.0
 11
32.499951059791783
 21
89.000120482476632
 31
0.0
  0
LINE
  5
69F
100
AcDbEntity
  8
0
  6
CONTINUOUS
 62
               7
100
AcDbLine
 10
47.500030625415093
 20
88.999991344568116
 30
0.0
 11
46.500029816706956
 21
89.99999265903898
 31
0.0
  0
LINE
  5
6A0
100
AcDbEntity
  8
0
  6
CONTINUOUS
 62
               7
100
AcDbLine
 10
32.500015258789063
 20
89.000015258789063
 30
0.0
 11
32.500015258789063
 21
88.000015258789063
 31
0.0
  0
LINE
  5
6A1
100
AcDbEntity
  8
0
  6
CONTINUOUS
 62
               7
100
AcDbLine
 10
47.500015258789063
 20
89.000015258789063
 30
0.0
 11
47.500015258789063
 21
88.000015258789063
 31
0.0
  0
LINE
  5
6A2
100
AcDbEntity
  8
0
  6
CONTINUOUS
 62
               7
100
AcDbLine
 10
46.500030517578125
 20
90.0
 30
0.0
 11
33.500030517578125
 21
90.0
 31
0.0
  0
LINE
  5
6A3
100
AcDbEntity
  8
0
  6
CONTINUOUS
 62
               7
100
AcDbLine
 10
48.500030517578125
 20
88.0
 30
0.0
 11
31.500030517578125
 21
88.0
 31
0.0
  0
LINE
  5
6A4
100
AcDbEntity
  8
0
  6
CONTINUOUS
 62
               7
100
AcDbLine
 10
31.000015258789063
 20
90.500015258789063
 30
0.0
 11
31.000015258789063
 21
54.0
 31
0.0
  0
LINE
  5
6A5
100
AcDbEntity
  8
0
  6
CONTINUOUS
 62
               7
100
AcDbLine
 10
49.000015258789063
 20
90.500015258789063
 30
0.0
 11
49.000015258789063
 21
90.329177856445312
 31
0.0
  0
LINE
  5
6A6
100
AcDbEntity
  8
0
  6
CONTINUOUS
 62
               7
100
AcDbLine
 10
34.000030517578125
 20
80.000015258789063
 30
0.0
 11
31.000030517578125
 21
80.000015258789063
 31
0.0
  0
LINE
  5
6A7
100
AcDbEntity
  8
0
  6
CONTINUOUS
 62
               4
100
AcDbLine
 10
102.20005798339844
 20
59.199996948242188
 30
0.0
 11
104.80006408691406
 21
59.199996948242188
 31
0.0
  0
LINE
  5
6A8
100
AcDbEntity
  8
0
  6
CONTINUOUS
 62
               4
100
AcDbLine
 10
89.200057983398438
 20
59.199996948242188
 30
0.0
 11
91.800064086914063
 21
59.199996948242188
 31
0.0
  0
LINE
  5
6A9
100
AcDbEntity
  8
0
  6
CONTINUOUS
 62
               4
100
AcDbLine
 10
100.70005798339844
 20
57.699996948242187
 30
0.0
 11
100.70005798339844
 21
57.199996948242188
 31
0.0
  0
LINE
  5
6AA
100
AcDbEntity
  8
0
  6
CONTINUOUS
 62
               7
100
AcDbLine
 10
106.30006408691406
 20
57.699996948242187
 30
0.0
 11
106.30006408691406
 21
57.199996948242188
 31
0.0
  0
LINE
  5
6AB
100
AcDbEntity
  8
0
  6
CONTINUOUS
 62
               7
100
AcDbLine
 10
87.700057983398438
 20
57.699996948242187
 30
0.0
 11
87.700057983398438
 21
57.199996948242188
 31
0.0
  0
LINE
  5
6AC
100
AcDbEntity
  8
0
  6
CONTINUOUS
 62
               4
100
AcDbLine
 10
93.300064086914062
 20
57.699996948242187
 30
0.0
 11
93.300064086914062
 21
57.199996948242188
 31
0.0
  0
LINE
  5
6AD
100
AcDbEntity
  8
0
  6
CONTINUOUS
 62
               4
100
AcDbLine
 10
106.00006103515625
 20
57.199996948242188
 30
0.0
 11
106.00006103515625
 21
54.0
 31
0.0
  0
LINE
  5
6AE
100
AcDbEntity
  8
0
  6
CONTINUOUS
 62
               4
100
AcDbLine
 10
88.00006103515625
 20
57.199996948242188
 30
0.0
 11
88.00006103515625
 21
54.0
 31
0.0
  0
LINE
  5
6AF
100
AcDbEntity
  8
0
  6
CONTINUOUS
 62
               4
100
AcDbLine
 10
87.700057983398438
 20
57.199996948242188
 30
0.0
 11
106.30006408691406
 21
57.199996948242188
 31
0.0
  0
ENDBLK
  5
6B0
100
AcDbEntity
  8
0
100
AcDbBlockEnd
  0
BLOCK
  5
6EA
100
AcDbEntity
  8
0
  6
ByBlock
 62
               0
100
AcDbBlockBegin
  2
_OPEN30
 70
               2
 10
0.0
 20
0.0
 30
0.0
  3
_OPEN30
  1

  0
LINE
  5
6EB
100
AcDbEntity
  8
0
  6
ByBlock
 62
               0
100
AcDbLine
 10
-1.0
 20
0.267949
 30
0.0
 11
0.0
 21
0.0
 31
0.0
  0
LINE
  5
6EC
100
AcDbEntity
  8
0
  6
ByBlock
 62
               0
100
AcDbLine
 10
0.0
 20
0.0
 30
0.0
 11
-1.0
 21
-0.267949
 31
0.0
  0
LINE
  5
6ED
100
AcDbEntity
  8
0
  6
ByBlock
 62
               0
100
AcDbLine
 10
0.0
 20
0.0
 30
0.0
 11
-1.0
 21
0.0
 31
0.0
  0
ENDBLK
  5
6EE
100
AcDbEntity
  8
0
  6
ByBlock
 62
               0
100
AcDbBlockEnd
  0
BLOCK
  5
6F7
100
AcDbEntity
  8
0
  6
ByBlock
 62
               0
100
AcDbBlockBegin
  2
*D4
 70
               1
 10
0.0
 20
0.0
 30
0.0
  3
*D4
  1

  0
LINE
  5
6F8
100
AcDbEntity
  8
0
  6
CONTINUOUS
 62
               2
100
AcDbLine
 10
2.7596511840820313
 20
-29.440699186991878
 30
0.0
 11
-3.7403488159179687
 21
-29.440699186991878
 31
0.0
  0
LINE
  5
6F9
100
AcDbEntity
  8
0
  6
CONTINUOUS
 62
               2
100
AcDbLine
 10
-3.7403488159179687
 20
-29.440699186991878
 30
0.0
 11
-18.5584716796875
 21
-29.440699186991878
 31
0.0
  0
LINE
  5
6FA
100
AcDbEntity
  8
0
  6
CONTINUOUS
 62
               2
100
AcDbLine
 10
2.7596511840820313
 20
19.98611203126984
 30
0.0
 11
2.7596511840820313
 21
-30.940699186991878
 31
0.0
  0
LINE
  5
6FB
100
AcDbEntity
  8
0
  6
CONTINUOUS
 62
               2
100
AcDbLine
 10
-3.7403488159179687
 20
-29.440699186991878
 30
0.0
 11
-7.2963488101959229
 21
-29.440699186991878
 31
0.0
  0
INSERT
  5
700
100
AcDbEntity
  8
0
  6
CONTINUOUS
 62
               2
100
AcDbBlockReference
  2
_OPEN30
 10
-3.7403488159179687
 20
-29.440699186991878
 30
0.0
 41
2.77
 42
2.77
 43
2.77
  0
MTEXT
  5
701
100
AcDbEntity
  8
0
  6
CONTINUOUS
 62
               2
100
AcDbMText
 10
-13.3084716796875
 20
-26.190699186991878
 30
0.0
 40
4.5
 41
0.0
 71
               5
 72
               1
  1
\A1;6.5
 11
1.0
 21
-0.0000000000000001
 31
0.0
  0
POINT
  5
702
100
AcDbEntity
  8
DEFPOINTS
  6
CONTINUOUS
 62
               0
100
AcDbPoint
 10
2.7596511840820313
 20
21.48611203126984
 30
0.0
  0
POINT
  5
703
100
AcDbEntity
  8
DEFPOINTS
  6
CONTINUOUS
 62
               0
100
AcDbPoint
 10
-3.7403488159179687
 20
20.000745209980778
 30
0.0
  0
POINT
  5
704
100
AcDbEntity
  8
DEFPOINTS
  6
CONTINUOUS
 62
               0
100
AcDbPoint
 10
-3.7403488159179687
 20
-29.440699186991878
 30
0.0
  0
ENDBLK
  5
705
100
AcDbEntity
  8
0
  6
ByBlock
 62
               0
100
AcDbBlockEnd
  0
BLOCK
  5
6FD
100
AcDbEntity
  8
0
  6
ByBlock
 62
               0
100
AcDbBlockBegin
  2
_NONE
 70
               2
 10
0.0
 20
0.0
 30
0.0
  3
_NONE
  1

  0
CIRCLE
  5
6FE
100
AcDbEntity
  8
0
  6
ByBlock
 62
               0
100
AcDbCircle
 10
0.0
 20
0.0
 30
0.0
 40
0.25
  0
ENDBLK
  5
6FF
100
AcDbEntity
  8
0
  6
ByBlock
 62
               0
100
AcDbBlockEnd
  0
BLOCK
  5
708
100
AcDbEntity
  8
0
  6
ByBlock
 62
               0
100
AcDbBlockBegin
  2
*D6
 70
               1
 10
0.0
 20
0.0
 30
0.0
  3
*D6
  1

  0
LINE
  5
709
100
AcDbEntity
  8
0
  6
CONTINUOUS
 62
               2
100
AcDbLine
 10
139.75965118408203
 20
-29.440699186991878
 30
0.0
 11
2.7596511840820313
 21
-29.440699186991878
 31
0.0
  0
LINE
  5
70A
100
AcDbEntity
  8
0
  6
CONTINUOUS
 62
               2
100
AcDbLine
 10
139.75965118408203
 20
19.98611203126984
 30
0.0
 11
139.75965118408203
 21
-30.940699186991878
 31
0.0
  0
INSERT
  5
70B
100
AcDbEntity
  8
0
  6
CONTINUOUS
 62
               2
100
AcDbBlockReference
  2
_OPEN30
 10
139.75965118408203
 20
-29.440699186991878
 30
0.0
 41
2.77
 42
2.77
 43
2.77
  0
INSERT
  5
70C
100
AcDbEntity
  8
0
  6
CONTINUOUS
 62
               2
100
AcDbBlockReference
  2
_OPEN30
 10
2.7596511840820313
 20
-29.440699186991878
 30
0.0
 41
2.77
 42
2.77
 43
2.77
 50
180.0
  0
MTEXT
  5
70D
100
AcDbEntity
  8
0
  6
CONTINUOUS
 62
               2
100
AcDbMText
 10
71.259651184082031
 20
-26.190699186991878
 30
0.0
 40
4.5
 41
0.0
 71
               5
 72
               1
  1
\A1;P
 11
1.0
 21
-0.0000000000000001
 31
0.0
  0
POINT
  5
70E
100
AcDbEntity
  8
DEFPOINTS
  6
CONTINUOUS
 62
               0
100
AcDbPoint
 10
139.75965118408203
 20
21.48611203126984
 30
0.0
  0
POINT
  5
70F
100
AcDbEntity
  8
DEFPOINTS
  6
CONTINUOUS
 62
               0
100
AcDbPoint
 10
2.7596511840820313
 20
21.48611203126984
 30
0.0
  0
POINT
  5
710
100
AcDbEntity
  8
DEFPOINTS
  6
CONTINUOUS
 62
               0
100
AcDbPoint
 10
2.7596511840820313
 20
-29.440699186991878
 30
0.0
  0
ENDBLK
  5
711
100
AcDbEntity
  8
0
  6
ByBlock
 62
               0
100
AcDbBlockEnd
  0
BLOCK
  5
714
100
AcDbEntity
  8
0
  6
ByBlock
 62
               0
100
AcDbBlockBegin
  2
*D7
 70
               1
 10
0.0
 20
0.0
 30
0.0
  3
*D7
  1

  0
LINE
  5
715
100
AcDbEntity
  8
0
  6
CONTINUOUS
 62
               2
100
AcDbLine
 10
146.25965118408203
 20
-29.440699186991878
 30
0.0
 11
139.75965118408203
 21
-29.440699186991878
 31
0.0
  0
LINE
  5
716
100
AcDbEntity
  8
0
  6
CONTINUOUS
 62
               2
100
AcDbLine
 10
160.62485885620117
 20
-29.440699186991878
 30
0.0
 11
146.25965118408203
 21
-29.440699186991878
 31
0.0
  0
LINE
  5
717
100
AcDbEntity
  8
0
  6
CONTINUOUS
 62
               2
100
AcDbLine
 10
146.25965118408203
 20
-29.440699186991878
 30
0.0
 11
149.81565117835999
 21
-29.440699186991878
 31
0.0
  0
INSERT
  5
718
100
AcDbEntity
  8
0
  6
CONTINUOUS
 62
               2
100
AcDbBlockReference
  2
_OPEN30
 10
146.25965118408203
 20
-29.440699186991878
 30
0.0
 41
2.77
 42
2.77
 43
2.77
 50
180.0
  0
MTEXT
  5
719
100
AcDbEntity
  8
0
  6
CONTINUOUS
 62
               2
100
AcDbMText
 10
155.37485885620117
 20
-26.190699186991878
 30
0.0
 40
4.5
 41
0.0
 71
               5
 72
               1
  1
\A1;6.5
 11
1.0
 21
-0.0000000000000001
 31
0.0
  0
POINT
  5
71A
100
AcDbEntity
  8
DEFPOINTS
  6
CONTINUOUS
 62
               0
100
AcDbPoint
 10
146.25965118408203
 20
20.000745209980778
 30
0.0
  0
POINT
  5
71B
100
AcDbEntity
  8
DEFPOINTS
  6
CONTINUOUS
 62
               0
100
AcDbPoint
 10
139.75965118408203
 20
21.48611203126984
 30
0.0
  0
POINT
  5
71C
100
AcDbEntity
  8
DEFPOINTS
  6
CONTINUOUS
 62
               0
100
AcDbPoint
 10
139.75965118408203
 20
-29.440699186991878
 30
0.0
  0
ENDBLK
  5
71D
100
AcDbEntity
  8
0
  6
ByBlock
 62
               0
100
AcDbBlockEnd
  0
BLOCK
  5
720
100
AcDbEntity
  8
0
  6
ByBlock
 62
               0
100
AcDbBlockBegin
  2
*D8
 70
               1
 10
0.0
 20
0.0
 30
0.0
  3
*D8
  1

  0
LINE
  5
721
100
AcDbEntity
  8
0
  6
CONTINUOUS
 62
               2
100
AcDbLine
 10
146.25965118408203
 20
-42.71558265582658
 30
0.0
 11
-3.7403488159179687
 21
-42.71558265582658
 31
0.0
  0
LINE
  5
722
100
AcDbEntity
  8
0
  6
CONTINUOUS
 62
               2
100
AcDbLine
 10
146.25965118408203
 20
18.500745011409748
 30
0.0
 11
146.25965118408203
 21
-44.21558265582658
 31
0.0
  0
LINE
  5
723
100
AcDbEntity
  8
0
  6
CONTINUOUS
 62
               2
100
AcDbLine
 10
-3.7403488159179687
 20
18.500745011409748
 30
0.0
 11
-3.7403488159179687
 21
-44.21558265582658
 31
0.0
  0
INSERT
  5
724
100
AcDbEntity
  8
0
  6
CONTINUOUS
 62
               2
100
AcDbBlockReference
  2
_OPEN30
 10
146.25965118408203
 20
-42.71558265582658
 30
0.0
 41
2.77
 42
2.77
 43
2.77
  0
INSERT
  5
725
100
AcDbEntity
  8
0
  6
CONTINUOUS
 62
               2
100
AcDbBlockReference
  2
_OPEN30
 10
-3.7403488159179687
 20
-42.71558265582658
 30
0.0
 41
2.77
 42
2.77
 43
2.77
 50
180.0
  0
MTEXT
  5
726
100
AcDbEntity
  8
0
  6
CONTINUOUS
 62
               2
100
AcDbMText
 10
71.259651184082031
 20
-39.46558265582658
 30
0.0
 40
4.5
 41
0.0
 71
               5
 72
               1
  1
\A1;L
 11
1.0
 21
-0.0000000000000001
 31
0.0
  0
POINT
  5
727
100
AcDbEntity
  8
DEFPOINTS
  6
CONTINUOUS
 62
               0
100
AcDbPoint
 10
146.25965118408203
 20
20.000745011409748
 30
0.0
  0
POINT
  5
728
100
AcDbEntity
  8
DEFPOINTS
  6
CONTINUOUS
 62
               0
100
AcDbPoint
 10
-3.7403488159179687
 20
20.000745011409748
 30
0.0
  0
POINT
  5
729
100
AcDbEntity
  8
DEFPOINTS
  6
CONTINUOUS
 62
               0
100
AcDbPoint
 10
-3.7403488159179687
 20
-42.71558265582658
 30
0.0
  0
ENDBLK
  5
72A
100
AcDbEntity
  8
0
  6
ByBlock
 62
               0
100
AcDbBlockEnd
  0
ENDSEC
  0
SECTION
  2
ENTITIES
  0
INSERT
  5
6B1
100
AcDbEntity
  8
0
  6
ByBlock
100
AcDbBlockReference
  2
F18MPJ_SAMPLE-1
 10
2.7596511840820313
 20
104.50076293945312
 30
0.0
  0
INSERT
  5
6B2
100
AcDbEntity
  8
0
  6
ByBlock
100
AcDbBlockReference
  2
F18MPJ_SAMPLE-2
 10
-181.74032592773437
 20
104.50076293945312
 30
0.0
  0
INSERT
  5
6B3
100
AcDbEntity
  8
0
  6
ByBlock
100
AcDbBlockReference
  2
F18MPJ_SAMPLE-3
 10
2.7596511840820313
 20
-171.09927368164062
 30
0.0
  0
LINE
  5
6B4
100
AcDbEntity
  8
0
  6
CONTINUOUS
 62
               7
100
AcDbLine
 10
-281.25
 20
195.5
 30
0.0
 11
282.10000000000002
 21
195.5
 31
0.0
  0
LINE
  5
6B5
100
AcDbEntity
  8
0
  6
CONTINUOUS
 62
               7
100
AcDbLine
 10
-281.25
 20
195.5
 30
0.0
 11
-281.25
 21
-195.0
 31
0.0
  0
LINE
  5
6B6
100
AcDbEntity
  8
0
  6
CONTINUOUS
 62
               7
100
AcDbLine
 10
282.10000000000002
 20
195.5
 30
0.0
 11
282.10000000000002
 21
-195.0
 31
0.0
  0
LINE
  5
6B7
100
AcDbEntity
  8
0
  6
CONTINUOUS
 62
               7
100
AcDbLine
 10
-281.25
 20
-195.0
 30
0.0
 11
282.10000000000002
 21
-195.0
 31
0.0
  0
LINE
  5
6B8
100
AcDbEntity
  8
0
  6
CONTINUOUS
 62
               7
100
AcDbLine
 10
162.09999999999999
 20
-175.0
 30
0.0
 11
162.09999999999999
 21
-195.0
 31
0.0
  0
LINE
  5
6B9
100
AcDbEntity
  8
0
  6
CONTINUOUS
 62
               7
100
AcDbLine
 10
162.09999999999999
 20
-175.0
 30
0.0
 11
282.10000000000002
 21
-175.0
 31
0.0
  0
LINE
  5
6BA
100
AcDbEntity
  8
0
  6
CONTINUOUS
 62
               7
100
AcDbLine
 10
162.09999999999999
 20
175.5
 30
0.0
 11
282.10000000000002
 21
175.5
 31
0.0
  0
LINE
  5
6BB
100
AcDbEntity
  8
0
  6
CONTINUOUS
 62
               7
100
AcDbLine
 10
-281.25
 20
175.5
 30
0.0
 11
-161.25
 21
175.5
 31
0.0
  0
LINE
  5
6BC
100
AcDbEntity
  8
0
  6
CONTINUOUS
 62
               7
100
AcDbLine
 10
162.09999999999999
 20
195.5
 30
0.0
 11
162.09999999999999
 21
175.5
 31
0.0
  0
LINE
  5
6BD
100
AcDbEntity
  8
0
  6
CONTINUOUS
 62
               7
100
AcDbLine
 10
-161.25
 20
195.5
 30
0.0
 11
-161.25
 21
175.5
 31
0.0
  0
LINE
  5
6BE
100
AcDbEntity
  8
0
  6
CONTINUOUS
 62
               7
100
AcDbLine
 10
-266.25
 20
-180.0
 30
0.0
 11
-166.25
 21
-180.0
 31
0.0
  0
LINE
  5
6BF
100
AcDbEntity
  8
0
  6
CONTINUOUS
 62
               7
100
AcDbLine
 10
-266.25
 20
-172.0
 30
0.0
 11
-166.25
 21
-172.0
 31
0.0
  0
LINE
  5
6C0
100
AcDbEntity
  8
0
  6
CONTINUOUS
 62
               7
100
AcDbLine
 10
-266.25
 20
-164.0
 30
0.0
 11
-166.25
 21
-164.0
 31
0.0
  0
LINE
  5
6C1
100
AcDbEntity
  8
0
  6
CONTINUOUS
 62
               7
100
AcDbLine
 10
-266.25
 20
-156.0
 30
0.0
 11
-166.25
 21
-156.0
 31
0.0
  0
LINE
  5
6C2
100
AcDbEntity
  8
0
  6
CONTINUOUS
 62
               7
100
AcDbLine
 10
-266.25
 20
-148.0
 30
0.0
 11
-166.25
 21
-148.0
 31
0.0
  0
LINE
  5
6C3
100
AcDbEntity
  8
0
  6
CONTINUOUS
 62
               7
100
AcDbLine
 10
-266.25
 20
-140.0
 30
0.0
 11
-166.25
 21
-140.0
 31
0.0
  0
LINE
  5
6C4
100
AcDbEntity
  8
0
  6
CONTINUOUS
 62
               7
100
AcDbLine
 10
-266.25
 20
-132.0
 30
0.0
 11
-166.25
 21
-132.0
 31
0.0
  0
LINE
  5
6C5
100
AcDbEntity
  8
0
  6
CONTINUOUS
 62
               7
100
AcDbLine
 10
-266.25
 20
-124.0
 30
0.0
 11
-166.25
 21
-124.0
 31
0.0
  0
LINE
  5
6C6
100
AcDbEntity
  8
0
  6
CONTINUOUS
 62
               7
100
AcDbLine
 10
-266.25
 20
-116.0
 30
0.0
 11
-166.25
 21
-116.0
 31
0.0
  0
LINE
  5
6C7
100
AcDbEntity
  8
0
  6
CONTINUOUS
 62
               7
100
AcDbLine
 10
-226.25
 20
-116.0
 30
0.0
 11
-226.25
 21
-180.0
 31
0.0
  0
LINE
  5
6C8
100
AcDbEntity
  8
0
  6
CONTINUOUS
 62
               7
100
AcDbLine
 10
-266.25
 20
-116.0
 30
0.0
 11
-266.25
 21
-180.0
 31
0.0
  0
LINE
  5
6C9
100
AcDbEntity
  8
0
  6
CONTINUOUS
 62
               7
100
AcDbLine
 10
-196.25
 20
-116.0
 30
0.0
 11
-196.25
 21
-180.0
 31
0.0
  0
LINE
  5
6CA
100
AcDbEntity
  8
0
  6
CONTINUOUS
 62
               7
100
AcDbLine
 10
-166.25
 20
-116.0
 30
0.0
 11
-166.25
 21
-180.0
 31
0.0
  0
MTEXT
  5
6CB
100
AcDbEntity
  8
0
  6
CONTINUOUS
 62
               7
100
AcDbMText
 10
201.30997488927844
 20
185.5
 30
0.0
 40
6.3000001907348633
 41
0.0
 71
               4
 72
               1
  1
\W1.200;\A1;Ver.3.0
  0
MTEXT
  5
6CC
100
AcDbEntity
  8
0
  6
CONTINUOUS
 62
               7
100
AcDbMText
 10
170.28099805280428
 20
-185.0
 30
0.0
 40
9.0
 41
0.0
 71
               4
 72
               1
  1
\W1.121;\A1;KOGANEI CORP.
  0
MTEXT
  5
6CD
100
AcDbEntity
  8
0
  6
CONTINUOUS
 62
               7
100
AcDbMText
 10
-251.5746278087926
 20
185.5
 30
0.0
 40
6.3000001907348633
 41
0.0
 71
               4
 72
               1
  1
\W1.119;\A1;F18 SERIES
  0
MTEXT
  5
6CE
100
AcDbEntity
  8
0
  6
CONTINUOUS
 62
               7
100
AcDbMText
 10
-268.25948282062393
 20
160.5
 30
0.0
 40
6.3000001907348633
 41
0.0
 71
               4
 72
               1
  1
\W1.086;\A1;MODEL:F18M4PJ-JR-F100
  0
MTEXT
  5
6CF
100
AcDbEntity
  8
0
  6
CONTINUOUS
 62
               7
100
AcDbMText
 10
-254.5
 20
-120.0
 30
0.0
 40
4.5
 41
0.0
 71
               4
 72
               1
  1
\A1;TYPE
  0
MTEXT
  5
6D0
100
AcDbEntity
  8
0
  6
CONTINUOUS
 62
               7
100
AcDbMText
 10
-246.91666665578606
 20
-112.0
 30
0.0
 40
4.5
 41
0.0
 71
               4
 72
               1
  1
\W1.111;\A1;DIMENSION LIST
  0
MTEXT
  5
6D1
100
AcDbEntity
  8
0
  6
CONTINUOUS
 62
               7
100
AcDbMText
 10
-212.75
 20
-120.0
 30
0.0
 40
4.5
 41
0.0
 71
               4
 72
               1
  1
\A1;L
  0
MTEXT
  5
6D2
100
AcDbEntity
  8
0
  6
CONTINUOUS
 62
               7
100
AcDbMText
 10
-182.75
 20
-120.0
 30
0.0
 40
4.5
 41
0.0
 71
               4
 72
               1
  1
\A1;P
  0
MTEXT
  5
6D3
100
AcDbEntity
  8
0
  6
CONTINUOUS
 62
               7
100
AcDbMText
 10
-258.96249996893107
 20
-128.0
 30
0.0
 40
4.5
 41
0.0
 71
               4
 72
               1
  1
\W1.050;\A1;F18M2PJ
  0
MTEXT
  5
6D4
100
AcDbEntity
  8
0
  6
CONTINUOUS
 62
               7
100
AcDbMText
 10
-258.96249996893107
 20
-136.0
 30
0.0
 40
4.5
 41
0.0
 71
               4
 72
               1
  1
\W1.050;\A1;F18M3PJ
  0
MTEXT
  5
6D5
100
AcDbEntity
  8
0
  6
CONTINUOUS
 62
               7
100
AcDbMText
 10
-258.96249996893107
 20
-144.0
 30
0.0
 40
4.5
 41
0.0
 71
               4
 72
               1
  1
\W1.050;\A1;F18M4PJ
  0
MTEXT
  5
6D6
100
AcDbEntity
  8
0
  6
CONTINUOUS
 62
               7
100
AcDbMText
 10
-258.96249996893107
 20
-152.0
 30
0.0
 40
4.5
 41
0.0
 71
               4
 72
               1
  1
\W1.050;\A1;F18M5PJ
  0
MTEXT
  5
6D7
100
AcDbEntity
  8
0
  6
CONTINUOUS
 62
               7
100
AcDbMText
 10
-258.96249996893107
 20
-160.0
 30
0.0
 40
4.5
 41
0.0
 71
               4
 72
               1
  1
\W1.050;\A1;F18M6PJ
  0
MTEXT
  5
6D8
100
AcDbEntity
  8
0
  6
CONTINUOUS
 62
               7
100
AcDbMText
 10
-258.96249996893107
 20
-168.0
 30
0.0
 40
4.5
 41
0.0
 71
               4
 72
               1
  1
\W1.050;\A1;F18M7PJ
  0
MTEXT
  5
6D9
100
AcDbEntity
  8
0
  6
CONTINUOUS
 62
               7
100
AcDbMText
 10
-258.96249996893107
 20
-176.0
 30
0.0
 40
4.5
 41
0.0
 71
               4
 72
               1
  1
\W1.050;\A1;F18M8PJ
  0
MTEXT
  5
6DA
100
AcDbEntity
  8
0
  6
CONTINUOUS
 62
               7
100
AcDbMText
 10
-181.25
 20
-176.0
 30
0.0
 40
4.5
 41
0.0
 71
               5
 72
               1
  1
\W1.125;\A1;213
  0
MTEXT
  5
6DB
100
AcDbEntity
  8
0
  6
CONTINUOUS
 62
               7
100
AcDbMText
 10
-181.25
 20
-168.0
 30
0.0
 40
4.5
 41
0.0
 71
               5
 72
               1
  1
\W1.125;\A1;194
  0
MTEXT
  5
6DC
100
AcDbEntity
  8
0
  6
CONTINUOUS
 62
               7
100
AcDbMText
 10
-181.25
 20
-160.0
 30
0.0
 40
4.5
 41
0.0
 71
               5
 72
               1
  1
\W1.125;\A1;175
  0
MTEXT
  5
6DD
100
AcDbEntity
  8
0
  6
CONTINUOUS
 62
               7
100
AcDbMText
 10
-181.25
 20
-152.0
 30
0.0
 40
4.5
 41
0.0
 71
               5
 72
               1
  1
\W1.125;\A1;156
  0
MTEXT
  5
6DE
100
AcDbEntity
  8
0
  6
CONTINUOUS
 62
               7
100
AcDbMText
 10
-181.25
 20
-144.0
 30
0.0
 40
4.5
 41
0.0
 71
               5
 72
               1
  1
\W1.125;\A1;137
  0
MTEXT
  5
6DF
100
AcDbEntity
  8
0
  6
CONTINUOUS
 62
               7
100
AcDbMText
 10
-181.25
 20
-136.0
 30
0.0
 40
4.5
 41
0.0
 71
               5
 72
               1
  1
\W1.286;\A1;118
  0
MTEXT
  5
6E0
100
AcDbEntity
  8
0
  6
CONTINUOUS
 62
               7
100
AcDbMText
 10
-181.25
 20
-128.0
 30
0.0
 40
4.5
 41
0.0
 71
               5
 72
               1
  1
\W1.154;\A1; 99
  0
MTEXT
  5
6E1
100
AcDbEntity
  8
0
  6
CONTINUOUS
 62
               7
100
AcDbMText
 10
-217.03571434410617
 20
-128.0
 30
0.0
 40
4.5
 41
0.0
 71
               4
 72
               1
  1
\W1.286;\A1;112
  0
MTEXT
  5
6E2
100
AcDbEntity
  8
0
  6
CONTINUOUS
 62
               7
100
AcDbMText
 10
-217.25
 20
-176.0
 30
0.0
 40
4.5
 41
0.0
 71
               4
 72
               1
  1
\A1;226
  0
MTEXT
  5
6E3
100
AcDbEntity
  8
0
  6
CONTINUOUS
 62
               7
100
AcDbMText
 10
-217.20588234180306
 20
-168.0
 30
0.0
 40
4.5
 41
0.0
 71
               4
 72
               1
  1
\W1.059;\A1;207
  0
MTEXT
  5
6E4
100
AcDbEntity
  8
0
  6
CONTINUOUS
 62
               7
100
AcDbMText
 10
-217.15625001257285
 20
-160.0
 30
0.0
 40
4.5
 41
0.0
 71
               4
 72
               1
  1
\W1.125;\A1;188
  0
MTEXT
  5
6E5
100
AcDbEntity
  8
0
  6
CONTINUOUS
 62
               7
100
AcDbMText
 10
-217.15625001257285
 20
-152.0
 30
0.0
 40
4.5
 41
0.0
 71
               4
 72
               1
  1
\W1.125;\A1;169
  0
MTEXT
  5
6E6
100
AcDbEntity
  8
0
  6
CONTINUOUS
 62
               7
100
AcDbMText
 10
-217.10000003576278
 20
-144.0
 30
0.0
 40
4.5
 41
0.0
 71
               4
 72
               1
  1
\W1.200;\A1;150
  0
MTEXT
  5
6E7
100
AcDbEntity
  8
0
  6
CONTINUOUS
 62
               7
100
AcDbMText
 10
-217.03571434410617
 20
-136.0
 30
0.0
 40
4.5
 41
0.0
 71
               4
 72
               1
  1
\W1.286;\A1;131
  0
MTEXT
  5
6E8
100
AcDbEntity
  8
0
  6
CONTINUOUS
 62
               2
100
AcDbMText
 10
107.52660789293226
 20
-80.26375047683716
 30
0.0
 40
4.5
 41
0.0
 71
               4
 72
               1
  1
\W1.059;\A1;F18BPP
  0
LEADER
  5
6EF
100
AcDbEntity
  8
0
  6
CONTINUOUS
 62
               2
100
AcDbLeader
  3
MXDIMSTYLE
 73
               3
 74
               0
 75
               0
 40
0.0
 76
               3
 10
99.759689331054687
 20
-113.89926147460937
 30
0.0
 10
107.52
 20
-84.920000000000002
 30
0.0
 10
134.52660789571701
 20
-84.920000000000002
 30
0.0
 77
               2
1001
ACAD
1000
DSTYLE
1002
{
1070
               6
1000
_OPEN30
1070
               7
1000
_OPEN30
1070
              41
1040
2.77
1070
             173
1070
               1
1070
             341
1005
6E9
1002
}
  0
MTEXT
  5
6F0
100
AcDbEntity
  8
0
  6
CONTINUOUS
 62
               2
100
AcDbMText
 10
29.148191627815372
 20
-49.453750476837158
 30
0.0
 40
4.5
 41
0.0
 71
               4
 72
               1
  1
\W1.091;\A1;F18T3-A1
  0
LEADER
  5
6F1
100
AcDbEntity
  8
0
  6
CONTINUOUS
 62
               2
100
AcDbLeader
  3
MXDIMSTYLE
 73
               3
 74
               0
 75
               0
 40
0.0
 76
               3
 10
80.759658813476562
 20
-80.099258422851563
 30
0.0
 10
65.760000000000005
 20
-54.109999999999999
 30
0.0
 10
29.14819164037705
 20
-54.109999999999999
 30
0.0
 77
               2
1001
ACAD
1000
DSTYLE
1002
{
1070
               6
1000
_OPEN30
1070
               7
1000
_OPEN30
1070
              41
1040
2.77
1070
             173
1070
               1
1070
             341
1005
6E9
1002
}
  0
MTEXT
  5
6F2
100
AcDbEntity
  8
0
  6
CONTINUOUS
 62
               2
100
AcDbMText
 10
14.739530083492395
 20
-58.113750476837161
 30
0.0
 40
4.5
 41
0.0
 71
               4
 72
               1
  1
\W1.091;\A1;F18T2-A1
  0
LEADER
  5
6F3
100
AcDbEntity
  8
0
  6
CONTINUOUS
 62
               2
100
AcDbLeader
  3
MXDIMSTYLE
 73
               3
 74
               0
 75
               0
 40
0.0
 76
               3
 10
61.759658813476563
 20
-80.099273681640625
 30
0.0
 10
51.759999999999998
 20
-62.770000000000003
 30
0.0
 10
14.739530096054075
 20
-62.770000000000003
 30
0.0
 77
               2
1001
ACAD
1000
DSTYLE
1002
{
1070
               6
1000
_OPEN30
1070
               7
1000
_OPEN30
1070
              41
1040
2.77
1070
             173
1070
               1
1070
             341
1005
6E9
1002
}
  0
MTEXT
  5
6F4
100
AcDbEntity
  8
0
  6
CONTINUOUS
 62
               2
100
AcDbMText
 10
1.178436904544629
 20
-66.773750476837165
 30
0.0
 40
4.5
 41
0.0
 71
               4
 72
               1
  1
\W1.143;\A1;F18T1-A1
  0
LEADER
  5
6F5
100
AcDbEntity
  8
0
  6
CONTINUOUS
 62
               2
100
AcDbLeader
  3
MXDIMSTYLE
 73
               3
 74
               0
 75
               0
 40
0.0
 76
               3
 10
42.759597778320313
 20
-80.099288940429688
 30
0.0
 10
37.759999999999998
 20
-71.430000000000007
 30
0.0
 10
1.1784368848800639
 20
-71.430000000000007
 30
0.0
 77
               2
1001
ACAD
1000
DSTYLE
1002
{
1070
               6
1000
_OPEN30
1070
               7
1000
_OPEN30
1070
              41
1040
2.77
1070
             173
1070
               1
1070
             341
1005
6E9
1002
}
  0
DIMENSION
  5
706
100
AcDbEntity
  8
0
  6
CONTINUOUS
 62
               2
100
AcDbDimension
  2
*D4
 10
-3.7403488159179687
 20
-29.440699186991878
 30
0.0
 11
-13.3084716796875
 21
-29.440699186991878
 31
0.0
 70
             128
  1
<>
  3
MXDIMSTYLE
100
AcDbAlignedDimension
 13
2.7596511840820313
 23
21.48611203126984
 33
0.0
 14
-3.7403488159179687
 24
20.000745209980778
 34
0.0
100
AcDbRotatedDimension
1001
ACAD
1000
DSTYLE
1002
{
1070
               6
1000
_NONE
1070
               7
1000
_OPEN30
1070
              76
1070
               1
1070
             140
1040
4.5
1070
             173
1070
               1
1070
             271
1070
               2
1070
             284
1070
               8
1070
             341
1005
6FC
1002
}
  0
DIMENSION
  5
712
100
AcDbEntity
  8
0
  6
CONTINUOUS
 62
               2
100
AcDbDimension
  2
*D6
 10
2.7596511840820313
 20
-29.440699186991878
 30
0.0
 11
71.259651184082031
 21
-29.440699186991878
 31
0.0
 70
             128
  1
P
  3
MXDIMSTYLE
100
AcDbAlignedDimension
 13
139.75965118408203
 23
21.48611203126984
 33
0.0
 14
2.7596511840820313
 24
21.48611203126984
 34
0.0
100
AcDbRotatedDimension
1001
ACAD
1000
DSTYLE
1002
{
1070
               6
1000
_OPEN30
1070
               7
1000
_OPEN30
1070
              41
1040
2.77
1070
              76
1070
               1
1070
             140
1040
4.5
1070
             173
1070
               1
1070
             271
1070
               2
1070
             341
1005
6E9
1002
}
  0
DIMENSION
  5
71E
100
AcDbEntity
  8
0
  6
CONTINUOUS
 62
               2
100
AcDbDimension
  2
*D7
 10
139.75965118408203
 20
-29.440699186991878
 30
0.0
 11
155.37485885620117
 21
-29.440699186991878
 31
0.0
 70
             128
  1
<>
  3
MXDIMSTYLE
100
AcDbAlignedDimension
 13
146.25965118408203
 23
20.000745209980778
 33
0.0
 14
139.75965118408203
 24
21.48611203126984
 34
0.0
100
AcDbRotatedDimension
1001
ACAD
1000
DSTYLE
1002
{
1070
               6
1000
_OPEN30
1070
               7
1000
_NONE
1070
              41
1040
2.77
1070
              75
1070
               1
1070
              76
1070
               1
1070
             140
1040
4.5
1070
             173
1070
               1
1070
             271
1070
               2
1070
             284
1070
               8
1070
             341
1005
6E9
1002
}
  0
DIMENSION
  5
72B
100
AcDbEntity
  8
0
  6
CONTINUOUS
 62
               2
100
AcDbDimension
  2
*D8
 10
-3.7403488159179687
 20
-42.71558265582658
 30
0.0
 11
71.259651184082031
 21
-42.71558265582658
 31
0.0
 70
             128
  1
L
  3
MXDIMSTYLE
100
AcDbAlignedDimension
 13
146.25965118408203
 23
20.000745011409748
 33
0.0
 14
-3.7403488159179687
 24
20.000745011409748
 34
0.0
100
AcDbRotatedDimension
1001
ACAD
1000
DSTYLE
1002
{
1070
               6
1000
_OPEN30
1070
               7
1000
_OPEN30
1070
              41
1040
2.77
1070
             140
1040
4.5
1070
             173
1070
               1
1070
             271
1070
               2
1070
             341
1005
6E9
1002
}
  0
ENDSEC
  0
SECTION
  2
OBJECTS
  0
DICTIONARY
  5
19
100
AcDbDictionary
  3
ACAD_GROUP
350
1A
  3
ACAD_MLINESTYLE
350
1B
  0
DICTIONARY
  5
1A
102
{ACAD_REACTORS
330
19
102
}
100
AcDbDictionary
  0
DICTIONARY
  5
1B
102
{ACAD_REACTORS
330
19
102
}
100
AcDbDictionary
  3
STANDARD
350
1C
  0
MLINESTYLE
  5
1C
102
{ACAD_REACTORS
330
1B
102
}
100
AcDbMlineStyle
  2
Standard
 70
               0
  3

 62
               0
 51
90.0
 52
90.0
 71
               2
 49
0.5
 62
             256
  6
ByLayer
 49
-0.5
 62
             256
  6
ByLayer
  0
ENDSEC
  0
EOF
