  0
SECTION
  2
HEADER
  9
$ACADVER
  1
AC1012
  9
$DWGCODEPAGE
  3
dos932
  9
$INSBASE
 10
0.0
 20
0.0
 30
0.0
  9
$EXTMIN
 10
-281.25
 20
-195.0
 30
0.0
  9
$EXTMAX
 10
285.6319057062413
 20
195.5
 30
0.0
  9
$LIMMIN
 10
-281.25
 20
-195.0
  9
$LIMMAX
 10
285.6319057062413
 20
195.5
  9
$ORTHOMODE
 70
               0
  9
$REGENMODE
 70
               1
  9
$FILLMODE
 70
               1
  9
$QTEXTMODE
 70
               0
  9
$MIRRTEXT
 70
               1
  9
$DRAGMODE
 70
               2
  9
$LTSCALE
 40
1.0
  9
$OSMODE
 70
               0
  9
$ATTMODE
 70
               1
  9
$TEXTSIZE
 40
3.2000000476837158
  9
$TRACEWID
 40
0.05
  9
$TEXTSTYLE
  7
MX_NOTE_STANDARD
  9
$CLAYER
  8
0
  9
$CELTYPE
  6
CONTINUOUS
  9
$CECOLOR
 62
             256
  9
$CELTSCALE
 40
1.0
  9
$DELOBJ
 70
               1
  9
$DISPSILH
 70
               0
  9
$DIMSCALE
 40
1.0
  9
$DIMASZ
 40
2.5
  9
$DIMEXO
 40
1.5
  9
$DIMDLI
 40
3.75
  9
$DIMRND
 40
0.0
  9
$DIMDLE
 40
0.0
  9
$DIMEXE
 40
1.5
  9
$DIMTP
 40
0.0
  9
$DIMTM
 40
0.0
  9
$DIMTXT
 40
3.2000000476837158
  9
$DIMCEN
 40
2.5
  9
$DIMTSZ
 40
0.0
  9
$DIMTOL
 70
               0
  9
$DIMLIM
 70
               0
  9
$DIMTIH
 70
               0
  9
$DIMTOH
 70
               0
  9
$DIMSE1
 70
               0
  9
$DIMSE2
 70
               0
  9
$DIMTAD
 70
               1
  9
$DIMZIN
 70
               8
  9
$DIMBLK
  1

  9
$DIMASO
 70
               1
  9
$DIMSHO
 70
               1
  9
$DIMPOST
  1

  9
$DIMAPOST
  1

  9
$DIMALT
 70
               0
  9
$DIMALTD
 70
               4
  9
$DIMALTF
 40
0.03937007874016
  9
$DIMLFAC
 40
1.0
  9
$DIMTOFL
 70
               1
  9
$DIMTVP
 40
0.0
  9
$DIMTIX
 70
               0
  9
$DIMSOXD
 70
               0
  9
$DIMSAH
 70
               0
  9
$DIMBLK1
  1

  9
$DIMBLK2
  1

  9
$DIMSTYLE
  2
MXDIMSTYLE
  9
$DIMCLRD
 70
               0
  9
$DIMCLRE
 70
               0
  9
$DIMCLRT
 70
               0
  9
$DIMTFAC
 40
1.0
  9
$DIMGAP
 40
1.0
  9
$DIMJUST
 70
               0
  9
$DIMSD1
 70
               0
  9
$DIMSD2
 70
               0
  9
$DIMTOLJ
 70
               1
  9
$DIMTZIN
 70
               0
  9
$DIMALTZ
 70
               0
  9
$DIMALTTZ
 70
               0
  9
$DIMFIT
 70
               3
  9
$DIMUPT
 70
               1
  9
$DIMUNIT
 70
               2
  9
$DIMDEC
 70
               4
  9
$DIMTDEC
 70
               4
  9
$DIMALTU
 70
               2
  9
$DIMALTTD
 70
               4
  9
$DIMTXSTY
  7
MX_NOTE_STANDARD
  9
$DIMAUNIT
 70
               0
  9
$LUNITS
 70
               2
  9
$LUPREC
 70
               4
  9
$SKETCHINC
 40
0.1
  9
$FILLETRAD
 40
0.0
  9
$AUNITS
 70
               0
  9
$AUPREC
 70
               0
  9
$MENU
  1
acad
  9
$ELEVATION
 40
0.0
  9
$PELEVATION
 40
0.0
  9
$THICKNESS
 40
0.0
  9
$LIMCHECK
 70
               0
  9
$BLIPMODE
 70
               1
  9
$CHAMFERA
 40
0.0
  9
$CHAMFERB
 40
0.0
  9
$CHAMFERC
 40
0.0
  9
$CHAMFERD
 40
0.0
  9
$SKPOLY
 70
               0
  9
$TDCREATE
 40
2453378.356435185
  9
$TDUPDATE
 40
2453378.356435185
  9
$TDINDWG
 40
0.0000000000
  9
$TDUSRTIMER
 40
0.0000000000
  9
$USRTIMER
 70
               1
  9
$ANGBASE
 50
0.0
  9
$ANGDIR
 70
               0
  9
$PDMODE
 70
               0
  9
$PDSIZE
 40
0.0
  9
$PLINEWID
 40
0.0
  9
$COORDS
 70
               1
  9
$SPLFRAME
 70
               0
  9
$SPLINETYPE
 70
               6
  9
$SPLINESEGS
 70
               8
  9
$ATTDIA
 70
               0
  9
$ATTREQ
 70
               1
  9
$HANDLING
 70
               1
  9
$HANDSEED
  5
6B1
  9
$SURFTAB1
 70
               6
  9
$SURFTAB2
 70
               6
  9
$SURFTYPE
 70
               6
  9
$SURFU
 70
               6
  9
$SURFV
 70
               6
  9
$UCSNAME
  2

  9
$UCSORG
 10
0.0
 20
0.0
 30
0.0
  9
$UCSXDIR
 10
1.0
 20
0.0
 30
0.0
  9
$UCSYDIR
 10
0.0
 20
1.0
 30
0.0
  9
$PUCSNAME
  2

  9
$PUCSORG
 10
0.0
 20
0.0
 30
0.0
  9
$PUCSXDIR
 10
1.0
 20
0.0
 30
0.0
  9
$PUCSYDIR
 10
0.0
 20
1.0
 30
0.0
  9
$USERI1
 70
               0
  9
$USERI2
 70
               0
  9
$USERI3
 70
               0
  9
$USERI4
 70
               0
  9
$USERI5
 70
               0
  9
$USERR1
 40
0.0
  9
$USERR2
 40
0.0
  9
$USERR3
 40
0.0
  9
$USERR4
 40
0.0
  9
$USERR5
 40
0.0
  9
$WORLDVIEW
 70
               1
  9
$SHADEDGE
 70
               3
  9
$SHADEDIF
 70
              70
  9
$TILEMODE
 70
               1
  9
$MAXACTVP
 70
              16
  9
$PINSBASE
 10
0.0
 20
0.0
 30
0.0
  9
$PLIMCHECK
 70
               0
  9
$PEXTMIN
 10
1.0000000000000000E+20
 20
1.0000000000000000E+20
 30
1.0000000000000000E+20
  9
$PEXTMAX
 10
-1.0000000000000000E+20
 20
-1.0000000000000000E+20
 30
-1.0000000000000000E+20
  9
$PLIMMIN
 10
0.0
 20
0.0
  9
$PLIMMAX
 10
12.0
 20
9.0
  9
$UNITMODE
 70
               0
  9
$VISRETAIN
 70
               0
  9
$PLINEGEN
 70
               1
  9
$PSLTSCALE
 70
               0
  9
$TREEDEPTH
 70
            3020
  9
$PICKSTYLE
 70
               1
  9
$CMLSTYLE
  2
Standard
  9
$CMLJUST
 70
               0
  9
$CMLSCALE
 40
1.0
  9
$SAVEIMAGES
 70
               0
  0
ENDSEC
  0
SECTION
  2
CLASSES
  0
CLASS
  1
LWPOLYLINE
  2
AcDbPolyline
  3
"AutoCAD"
 90
        0
280
               0
281
               1
  0
CLASS
  1
IMAGE
  2
AcDbRasterImage
  3
ISM
 90
      127
280
               0
281
               1
  0
CLASS
  1
OLE2FRAME
  2
AcDbOle2Frame
  3
""
 90
        0
280
               0
281
               1
  0
CLASS
  1
HATCH
  2
AcDbHatch
  3
"ACAD_SEDONA"
 90
        0
280
               0
281
               1
  0
CLASS
  1
DICTIONARYVAR
  2
AcDbDictionaryVar
  3
"AutoCAD"
 90
        0
280
               0
281
               0
  0
CLASS
  1
RASTERVARIABLES
  2
AcDbRasterVariables
  3
ISM
 90
        0
280
               0
281
               0
  0
CLASS
  1
IMAGEDEF
  2
AcDbRasterImageDef
  3
ISM
 90
        0
280
               0
281
               0
  0
CLASS
  1
IMAGEDEF_REACTOR
  2
AcDbRasterImageDefReactor
  3
ISM
 90
        1
280
               0
281
               0
  0
CLASS
  1
IDBUFFER
  2
AcDbIdBuffer
  3
"Acad"
 90
        0
280
               0
281
               0
  0
CLASS
  1
SPATIAL_FILTER
  2
AcDbSpatialFilter
  3
"Acad"
 90
        0
280
               0
281
               0
  0
CLASS
  1
XRECORD
  2
AcDbXrecord
  3
"<Built In>"
 90
        0
280
               0
281
               0
  0
CLASS
  1
SORTENTSTABLE
  2
AcDbSortentsTable
  3
"AutoCAD"
 90
        0
280
               0
281
               0
  0
CLASS
  1
LAYER_INDEX
  2
AcDbLayerIndex
  3
"Acad"
 90
        0
280
               0
281
               0
  0
CLASS
  1
SPATIAL_INDEX
  2
AcDbSpatialIndex
  3
"Acad"
 90
        0
280
               0
281
               0
  0
CLASS
  1
OBJECT_PTR
  2
CAseDLPNTableRecord
  3
"ASE-LPNTableRecord"
 90
        1
280
               0
281
               0
  0
CLASS
  1
LAYOUT
  2
AcDbLayout
  3
"AutoCAD 2000"
 90
        1
280
               0
281
               0
  0
CLASS
  1
PLOTSETTINGS
  2
AcDbPlotSettings
  3
"AutoCAD 2000"
 90
        1
280
               0
281
               0
  0
CLASS
  1
ACDBDICTIONARYWDFLT
  2
AcDbDictionaryWithDefault
  3
"AutoCAD 2000"
 90
        1
280
               0
281
               0
  0
CLASS
  1
ACDBPLACEHOLDER
  2
AcDbPlaceHolder
  3
"AutoCAD 2000"
 90
        1
280
               0
281
               0
  0
ENDSEC
  0
SECTION
  2
TABLES
  0
TABLE
  2
VPORT
  5
7
100
AcDbSymbolTable
 70
               1
  0
VPORT
  5
15
100
AcDbSymbolTableRecord
100
AcDbViewportTableRecord
  2
*ACTIVE
 70
               0
 10
0.0
 20
0.0
 11
1.0
 21
1.0
 12
2.1909528531206206
 22
0.25
 13
0.0
 23
0.0
 14
1.0
 24
1.0
 15
0.0
 25
0.0
 16
0.0
 26
0.0
 36
1.0
 17
0.0
 27
0.0
 37
0.0
 40
394.40500000000003
 41
1.7320508075688772
 42
50.0
 43
0.0
 44
0.0
 50
0.0
 51
0.0
 71
               0
 72
             100
 73
               1
 74
               1
 75
               0
 76
               0
 77
               0
 78
               0
  0
ENDTAB
  0
TABLE
  2
LTYPE
  5
4
100
AcDbSymbolTable
 70
               4
  0
LTYPE
  5
11
100
AcDbSymbolTableRecord
100
AcDbLinetypeTableRecord
  2
BYBLOCK
 70
              64
  3

 72
              65
 73
               0
 40
0.0
  0
LTYPE
  5
12
100
AcDbSymbolTableRecord
100
AcDbLinetypeTableRecord
  2
BYLAYER
 70
              64
  3

 72
              65
 73
               0
 40
0.0
  0
LTYPE
  5
13
100
AcDbSymbolTableRecord
100
AcDbLinetypeTableRecord
  2
CONTINUOUS
 70
              64
  3
Solid line
 72
              65
 73
               0
 40
0.0
  0
LTYPE
  5
593
100
AcDbSymbolTableRecord
100
AcDbLinetypeTableRecord
  2
CENTER
 70
              64
  3
Center ____ _ ____ _ ____ _ ____ _ ____ _ ____
 72
              65
 73
               4
 40
26.0
 49
20.0
 74
               0
 49
-2.0
 74
               0
 49
2.0
 74
               0
 49
-2.0
 74
               0
  0
ENDTAB
  0
TABLE
  2
LAYER
  5
2
100
AcDbSymbolTable
 70
               2
  0
LAYER
  5
14
100
AcDbSymbolTableRecord
100
AcDbLayerTableRecord
  2
0
 70
               0
 62
               7
  6
CONTINUOUS
  0
LAYER
  5
1D
100
AcDbSymbolTableRecord
100
AcDbLayerTableRecord
  2
DEFPOINTS
 70
               0
 62
               7
  6
CONTINUOUS
  0
ENDTAB
  0
TABLE
  2
STYLE
  5
3
100
AcDbSymbolTable
 70
               1
  0
STYLE
  5
17
100
AcDbSymbolTableRecord
100
AcDbTextStyleTableRecord
  2
MX_NOTE_STANDARD
 70
               0
 40
0.0
 41
1.0
 50
0.0
 71
               0
 42
3.2000000476837158
  3
txt.shx
  4
extfont.shx
  0
ENDTAB
  0
TABLE
  2
VIEW
  5
5
100
AcDbSymbolTable
 70
               0
  0
ENDTAB
  0
TABLE
  2
UCS
  5
6
100
AcDbSymbolTable
 70
               0
  0
ENDTAB
  0
TABLE
  2
APPID
  5
8
100
AcDbSymbolTable
 70
               1
  0
APPID
  5
16
100
AcDbSymbolTableRecord
100
AcDbRegAppTableRecord
  2
ACAD
 70
               0
  0
ENDTAB
  0
TABLE
  2
DIMSTYLE
  5
9
100
AcDbSymbolTable
 70
               1
  0
DIMSTYLE
105
18
100
AcDbSymbolTableRecord
100
AcDbDimStyleTableRecord
  2
MXDIMSTYLE
 70
               0
  3

  4

  5

  6

  7

 40
1.0
 41
2.5
 42
1.5
 43
3.75
 44
1.5
 45
0.0
 46
0.0
 47
0.0
 48
0.0
 71
               0
 72
               0
 73
               0
 74
               0
 75
               0
 76
               0
 77
               1
 78
               8
140
3.2000000476837158
141
2.5
142
0.0
143
0.03937007874016
144
1.0
145
0.0
146
1.0
147
1.0
170
               0
171
               4
172
               1
173
               0
174
               0
175
               0
176
               0
177
               0
178
               0
270
               2
271
               4
272
               4
273
               2
274
               4
275
               0
280
               0
281
               0
282
               0
283
               1
284
               0
285
               0
286
               0
287
               3
288
               1
340
17
  0
ENDTAB
  0
TABLE
  2
BLOCK_RECORD
  5
1
100
AcDbSymbolTable
 70
              13
  0
BLOCK_RECORD
  5
A
100
AcDbSymbolTableRecord
100
AcDbBlockTableRecord
  2
*MODEL_SPACE
  0
BLOCK_RECORD
  5
B
100
AcDbSymbolTableRecord
100
AcDbBlockTableRecord
  2
*PAPER_SPACE
  0
BLOCK_RECORD
  5
1E
100
AcDbSymbolTableRecord
100
AcDbBlockTableRecord
  2
F15MF-1
  0
BLOCK_RECORD
  5
1F
100
AcDbSymbolTableRecord
100
AcDbBlockTableRecord
  2
F15MF-2
  0
BLOCK_RECORD
  5
20
100
AcDbSymbolTableRecord
100
AcDbBlockTableRecord
  2
F15MF-3
  0
BLOCK_RECORD
  5
21
100
AcDbSymbolTableRecord
100
AcDbBlockTableRecord
  2
F15MF-4
  0
BLOCK_RECORD
  5
22
100
AcDbSymbolTableRecord
100
AcDbBlockTableRecord
  2
F15MF-5
  0
BLOCK_RECORD
  5
23
100
AcDbSymbolTableRecord
100
AcDbBlockTableRecord
  2
F15MF-6
  0
BLOCK_RECORD
  5
24
100
AcDbSymbolTableRecord
100
AcDbBlockTableRecord
  2
F15MF-7
  0
BLOCK_RECORD
  5
25
100
AcDbSymbolTableRecord
100
AcDbBlockTableRecord
  2
F15MF-8
  0
BLOCK_RECORD
  5
66F
100
AcDbSymbolTableRecord
100
AcDbBlockTableRecord
  2
*D8
  0
BLOCK_RECORD
  5
673
100
AcDbSymbolTableRecord
100
AcDbBlockTableRecord
  2
_OPEN30
  0
BLOCK_RECORD
  5
681
100
AcDbSymbolTableRecord
100
AcDbBlockTableRecord
  2
*D10
  0
BLOCK_RECORD
  5
68F
100
AcDbSymbolTableRecord
100
AcDbBlockTableRecord
  2
*D11
  0
BLOCK_RECORD
  5
69A
100
AcDbSymbolTableRecord
100
AcDbBlockTableRecord
  2
*D12
  0
ENDTAB
  0
ENDSEC
  0
SECTION
  2
BLOCKS
  0
BLOCK
  5
D
100
AcDbEntity
  8
0
100
AcDbBlockBegin
  2
*MODEL_SPACE
 70
               0
 10
0.0
 20
0.0
 30
0.0
  3
*MODEL_SPACE
  1

  0
ENDBLK
  5
E
100
AcDbEntity
  8
0
100
AcDbBlockEnd
  0
BLOCK
  5
F
100
AcDbEntity
 67
               1
  8
0
100
AcDbBlockBegin
  2
*PAPER_SPACE
 70
               0
 10
0.0
 20
0.0
 30
0.0
  3
*PAPER_SPACE
  1

  0
ENDBLK
  5
10
100
AcDbEntity
 67
               1
  8
0
100
AcDbBlockEnd
  0
BLOCK
  5
26
100
AcDbEntity
  8
0
100
AcDbBlockBegin
  2
F15MF-1
 70
               0
 10
0.0
 20
0.0
 30
0.0
  3
F15MF-1
  1

  0
LINE
  5
27
100
AcDbEntity
  8
0
  6
CONTINUOUS
 62
             200
100
AcDbLine
 10
2.962860107421875
 20
-16.750015258789063
 30
0.0
 11
52.957107543945313
 21
-16.750015258789063
 31
0.0
  0
LINE
  5
28
100
AcDbEntity
  8
0
  6
CONTINUOUS
 62
             200
100
AcDbLine
 10
2.962860107421875
 20
-1.25
 30
0.0
 11
52.957107543945313
 21
-1.2500152587890625
 31
0.0
  0
LINE
  5
29
100
AcDbEntity
  8
0
  6
CONTINUOUS
 62
               4
100
AcDbLine
 10
20.5
 20
8.4692083348065239
 30
0.0
 11
20.5
 21
-22.500015070439169
 31
0.0
  0
LINE
  5
2A
100
AcDbEntity
  8
0
  6
CONTINUOUS
 62
               4
100
AcDbLine
 10
36.5
 20
8.4692083348065239
 30
0.0
 11
36.5
 21
-22.500015070439169
 31
0.0
  0
LINE
  5
2B
100
AcDbEntity
  8
0
  6
CONTINUOUS
 62
               4
100
AcDbLine
 10
19.500012218952179
 20
13.5
 30
0.0
 11
19.500012218952179
 21
10.49727711821356
 31
0.0
  0
LINE
  5
2C
100
AcDbEntity
  8
0
  6
CONTINUOUS
 62
               4
100
AcDbLine
 10
35.500012218952179
 20
13.499984741210937
 30
0.0
 11
35.500012218952179
 21
10.497261859424498
 31
0.0
  0
LINE
  5
2D
100
AcDbEntity
  8
0
  6
CONTINUOUS
 62
               4
100
AcDbLine
 10
51.500012218952179
 20
13.499984741210937
 30
0.0
 11
51.500012218952179
 21
10.499969482421875
 31
0.0
  0
LINE
  5
2E
100
AcDbEntity
  8
0
  6
CONTINUOUS
 62
               4
100
AcDbLine
 10
51.5
 20
-28.530776977539063
 30
0.0
 11
51.5
 21
-31.5
 31
0.0
  0
LINE
  5
2F
100
AcDbEntity
  8
0
  6
CONTINUOUS
 62
               4
100
AcDbLine
 10
51.5
 20
4.5027038083001116
 30
0.0
 11
51.5
 21
-26.469223593595586
 31
0.0
  0
LINE
  5
30
100
AcDbEntity
  8
0
  6
CONTINUOUS
 62
               4
100
AcDbLine
 10
36.50000303983694
 20
-28.499999811650106
 30
0.0
 11
36.50000303983694
 21
-31.800003051757813
 31
0.0
  0
LINE
  5
31
100
AcDbEntity
  8
0
  6
CONTINUOUS
 62
               4
100
AcDbLine
 10
36.5
 20
13.502707622997377
 30
0.0
 11
36.5
 21
10.530761147615351
 31
0.0
  0
LINE
  5
32
100
AcDbEntity
  8
0
  6
CONTINUOUS
 62
               4
100
AcDbLine
 10
35.5
 20
-28.530776977539063
 30
0.0
 11
35.5
 21
-31.5
 31
0.0
  0
LINE
  5
33
100
AcDbEntity
  8
0
  6
CONTINUOUS
 62
               4
100
AcDbLine
 10
35.5
 20
4.5027038083001116
 30
0.0
 11
35.5
 21
-26.469223593595586
 31
0.0
  0
LINE
  5
34
100
AcDbEntity
  8
0
  6
CONTINUOUS
 62
               4
100
AcDbLine
 10
20.50000303983694
 20
-28.499999811650106
 30
0.0
 11
20.50000303983694
 21
-31.499999811650106
 31
0.0
  0
LINE
  5
35
100
AcDbEntity
  8
0
  6
CONTINUOUS
 62
               4
100
AcDbLine
 10
20.5
 20
13.500000188349901
 30
0.0
 11
20.5
 21
10.530761147615351
 31
0.0
  0
LINE
  5
36
100
AcDbEntity
  8
0
  6
CONTINUOUS
 62
               4
100
AcDbLine
 10
19.500012218952179
 20
4.5
 30
0.0
 11
19.500012218952179
 21
-31.5
 31
0.0
  0
LINE
  5
37
100
AcDbEntity
  8
0
  6
CONTINUOUS
 62
               4
100
AcDbLine
 10
4.5000030398369404
 20
-28.499999811650106
 30
0.0
 11
4.5000030398369404
 21
-31.499999811650106
 31
0.0
  0
LINE
  5
38
100
AcDbEntity
  8
0
  6
CONTINUOUS
 62
               4
100
AcDbLine
 10
4.5
 20
8.4692235935955864
 30
0.0
 11
4.5
 21
-22.500015070439169
 31
0.0
  0
LINE
  5
39
100
AcDbEntity
  8
0
  6
CONTINUOUS
 62
               4
100
AcDbLine
 10
4.4999877810478779
 20
13.500015447138964
 30
0.0
 11
4.4999877810478779
 21
10.530752697809817
 31
0.0
  0
LINE
  5
3A
100
AcDbEntity
  8
0
  6
CONTINUOUS
 62
               7
100
AcDbLine
 10
49.0
 20
35.499984741210938
 30
0.0
 11
49.0
 21
23.999984741210937
 31
0.0
  0
LINE
  5
3B
100
AcDbEntity
  8
0
  6
CONTINUOUS
 62
               7
100
AcDbLine
 10
39.0
 20
35.499984741210938
 30
0.0
 11
39.0
 21
23.999984741210937
 31
0.0
  0
LINE
  5
3C
100
AcDbEntity
  8
0
  6
CONTINUOUS
 62
               7
100
AcDbLine
 10
33.0
 20
35.499984741210938
 30
0.0
 11
33.0
 21
23.999984741210937
 31
0.0
  0
LINE
  5
3D
100
AcDbEntity
  8
0
  6
CONTINUOUS
 62
               7
100
AcDbLine
 10
23.0
 20
35.499984741210938
 30
0.0
 11
23.0
 21
23.999984741210937
 31
0.0
  0
LINE
  5
3E
100
AcDbEntity
  8
0
  6
CONTINUOUS
 62
               7
100
AcDbLine
 10
17.0
 20
35.5
 30
0.0
 11
17.0
 21
24.0
 31
0.0
  0
LINE
  5
3F
100
AcDbEntity
  8
0
  6
CONTINUOUS
 62
               7
100
AcDbLine
 10
7.0
 20
35.5
 30
0.0
 11
7.0
 21
24.0
 31
0.0
  0
LINE
  5
40
100
AcDbEntity
  8
0
  6
CONTINUOUS
 62
               7
100
AcDbLine
 10
23.0
 20
25.999984741210937
 30
0.0
 11
33.0
 21
25.999984741210937
 31
0.0
  0
LINE
  5
41
100
AcDbEntity
  8
0
  6
CONTINUOUS
 62
               2
100
AcDbLine
 10
25.5
 20
32.199981689453125
 30
0.0
 11
30.5
 21
32.199981689453125
 31
0.0
  0
LINE
  5
42
100
AcDbEntity
  8
0
  6
CONTINUOUS
 62
               2
100
AcDbLine
 10
28.0
 20
-53.666671752929688
 30
0.0
 11
28.0
 21
81.25506591796875
 31
0.0
  0
LINE
  5
43
100
AcDbEntity
  8
0
  6
CONTINUOUS
 62
               4
100
AcDbLine
 10
23.0
 20
59.499984741210938
 30
0.0
 11
33.0
 21
59.499984741210938
 31
0.0
  0
LINE
  5
44
100
AcDbEntity
  8
0
  6
CONTINUOUS
 62
               4
100
AcDbLine
 10
23.0
 20
35.499984741210938
 30
0.0
 11
33.0
 21
35.499984741210938
 31
0.0
  0
LINE
  5
45
100
AcDbEntity
  8
0
  6
CONTINUOUS
 62
               7
100
AcDbLine
 10
26.073211669921875
 20
31.899978637695312
 30
0.0
 11
29.926788330078125
 21
31.899978637695312
 31
0.0
  0
LINE
  5
46
100
AcDbEntity
  8
0
  6
CONTINUOUS
 62
               7
100
AcDbLine
 10
26.073211669921875
 20
32.499984741210937
 30
0.0
 11
29.926788330078125
 21
32.499984741210937
 31
0.0
  0
LINE
  5
47
100
AcDbEntity
  8
0
  6
CONTINUOUS
 62
               4
100
AcDbLine
 10
23.04998779296875
 20
59.5
 30
0.0
 11
23.04998779296875
 21
73.0
 31
0.0
  0
LINE
  5
48
100
AcDbEntity
  8
0
  6
CONTINUOUS
 62
               4
100
AcDbLine
 10
32.5
 20
68.5
 30
0.0
 11
23.5
 21
68.5
 31
0.0
  0
LINE
  5
49
100
AcDbEntity
  8
0
  6
CONTINUOUS
 62
             200
100
AcDbLine
 10
32.949996948242188
 20
64.0
 30
0.0
 11
23.04998779296875
 21
64.0
 31
0.0
  0
LINE
  5
4A
100
AcDbEntity
  8
0
  6
CONTINUOUS
 62
               4
100
AcDbLine
 10
32.949996948242188
 20
59.499984741210938
 30
0.0
 11
32.949996948242188
 21
73.0
 31
0.0
  0
LINE
  5
4B
100
AcDbEntity
  8
0
  6
CONTINUOUS
 62
               4
100
AcDbLine
 10
29.285003662109375
 20
79.499984741210938
 30
0.0
 11
29.285003662109375
 21
82.984115600585938
 31
0.0
  0
LINE
  5
4C
100
AcDbEntity
  8
0
  6
CONTINUOUS
 62
               4
100
AcDbLine
 10
30.715011596679688
 20
79.499984741210938
 30
0.0
 11
30.715011596679688
 21
83.809738159179688
 31
0.0
  0
LINE
  5
4D
100
AcDbEntity
  8
0
  6
CONTINUOUS
 62
               4
100
AcDbLine
 10
29.600006103515625
 20
87.499984741210938
 30
0.0
 11
29.600006103515625
 21
92.499984741210938
 31
0.0
  0
LINE
  5
4E
100
AcDbEntity
  8
0
  6
CONTINUOUS
 62
               4
100
AcDbLine
 10
30.400009155273438
 20
87.499984741210938
 30
0.0
 11
30.400009155273438
 21
92.499984741210938
 31
0.0
  0
LINE
  5
4F
100
AcDbEntity
  8
0
  6
CONTINUOUS
 62
               4
100
AcDbLine
 10
29.599990844726563
 20
92.499984741210938
 30
0.0
 11
30.399993896484375
 21
92.499984741210938
 31
0.0
  0
LINE
  5
50
100
AcDbEntity
  8
0
  6
CONTINUOUS
 62
               4
100
AcDbLine
 10
29.284988403320313
 20
87.499984741210938
 30
0.0
 11
30.714996337890625
 21
87.499984741210938
 31
0.0
  0
LINE
  5
51
100
AcDbEntity
  8
0
  6
CONTINUOUS
 62
             200
100
AcDbLine
 10
32.050024369684252
 20
84.580400805896716
 30
0.0
 11
23.950026147076642
 21
79.903864245838122
 31
0.0
  0
LINE
  5
52
100
AcDbEntity
  8
0
  6
CONTINUOUS
 62
               4
100
AcDbLine
 10
29.285003662109375
 20
84.138809204101563
 30
0.0
 11
29.285003662109375
 21
87.499984741210938
 31
0.0
  0
LINE
  5
53
100
AcDbEntity
  8
0
  6
CONTINUOUS
 62
               4
100
AcDbLine
 10
30.715011596679688
 20
84.964431762695313
 30
0.0
 11
30.715011596679688
 21
87.499984741210938
 31
0.0
  0
LINE
  5
54
100
AcDbEntity
  8
0
  6
CONTINUOUS
 62
               4
100
AcDbLine
 10
23.050003051757813
 20
73.0
 30
0.0
 11
24.5
 21
73.0
 31
0.0
  0
LINE
  5
55
100
AcDbEntity
  8
0
  6
CONTINUOUS
 62
               4
100
AcDbLine
 10
23.949996948242188
 20
68.5
 30
0.0
 11
23.949996948242188
 21
71.0
 31
0.0
  0
LINE
  5
56
100
AcDbEntity
  8
0
  6
CONTINUOUS
 62
               4
100
AcDbLine
 10
32.050003051757813
 20
68.5
 30
0.0
 11
32.050003051757813
 21
71.0
 31
0.0
  0
LINE
  5
57
100
AcDbEntity
  8
0
  6
CONTINUOUS
 62
               4
100
AcDbLine
 10
31.5
 20
68.998458862304688
 30
0.0
 11
31.5
 21
79.499984741210938
 31
0.0
  0
LINE
  5
58
100
AcDbEntity
  8
0
  6
CONTINUOUS
 62
               4
100
AcDbLine
 10
24.5
 20
68.998458862304688
 30
0.0
 11
24.5
 21
79.499984741210938
 31
0.0
  0
LINE
  5
59
100
AcDbEntity
  8
0
  6
CONTINUOUS
 62
               4
100
AcDbLine
 10
24.5
 20
68.998458862304688
 30
0.0
 11
31.5
 21
68.998458862304688
 31
0.0
  0
LINE
  5
5A
100
AcDbEntity
  8
0
  6
CONTINUOUS
 62
               4
100
AcDbLine
 10
24.5
 20
72.556137084960937
 30
0.0
 11
31.5
 21
72.556137084960937
 31
0.0
  0
LINE
  5
5B
100
AcDbEntity
  8
0
  6
CONTINUOUS
 62
               4
100
AcDbLine
 10
24.5
 20
77.999984741210937
 30
0.0
 11
31.5
 21
77.999984741210937
 31
0.0
  0
LINE
  5
5C
100
AcDbEntity
  8
0
  6
CONTINUOUS
 62
               4
100
AcDbLine
 10
23.100006103515625
 20
79.499984741210938
 30
0.0
 11
32.899993896484375
 21
79.499984741210938
 31
0.0
  0
LINE
  5
5D
100
AcDbEntity
  8
0
  6
CONTINUOUS
 62
               4
100
AcDbLine
 10
31.5
 20
73.0
 30
0.0
 11
32.949996948242188
 21
73.0
 31
0.0
  0
LINE
  5
5E
100
AcDbEntity
  8
0
  6
CONTINUOUS
 62
               4
100
AcDbLine
 10
31.5
 20
72.0
 30
0.0
 11
32.050003051757813
 21
72.0
 31
0.0
  0
LINE
  5
5F
100
AcDbEntity
  8
0
  6
CONTINUOUS
 62
               4
100
AcDbLine
 10
31.5
 20
71.0
 30
0.0
 11
32.050003051757813
 21
71.0
 31
0.0
  0
LINE
  5
60
100
AcDbEntity
  8
0
  6
CONTINUOUS
 62
               4
100
AcDbLine
 10
23.949996948242188
 20
72.0
 30
0.0
 11
24.5
 21
72.0
 31
0.0
  0
LINE
  5
61
100
AcDbEntity
  8
0
  6
CONTINUOUS
 62
               4
100
AcDbLine
 10
23.949996948242188
 20
71.0
 30
0.0
 11
24.5
 21
71.0
 31
0.0
  0
LINE
  5
62
100
AcDbEntity
  8
0
  6
CONTINUOUS
 62
               4
100
AcDbLine
 10
23.949996948242188
 20
72.0
 30
0.0
 11
23.949996948242188
 21
73.0
 31
0.0
  0
LINE
  5
63
100
AcDbEntity
  8
0
  6
CONTINUOUS
 62
               4
100
AcDbLine
 10
32.050003051757813
 20
72.0
 30
0.0
 11
32.050003051757813
 21
73.0
 31
0.0
  0
LINE
  5
64
100
AcDbEntity
  8
0
  6
CONTINUOUS
 62
               4
100
AcDbLine
 10
26.715011596679688
 20
82.655029296875
 30
0.0
 11
26.715011596679688
 21
87.499984741210938
 31
0.0
  0
LINE
  5
65
100
AcDbEntity
  8
0
  6
CONTINUOUS
 62
               4
100
AcDbLine
 10
25.285003662109375
 20
81.82940673828125
 30
0.0
 11
25.285003662109375
 21
87.499984741210938
 31
0.0
  0
LINE
  5
66
100
AcDbEntity
  8
0
  6
CONTINUOUS
 62
               4
100
AcDbLine
 10
25.284988403320313
 20
87.499984741210938
 30
0.0
 11
26.714996337890625
 21
87.499984741210938
 31
0.0
  0
LINE
  5
67
100
AcDbEntity
  8
0
  6
CONTINUOUS
 62
               4
100
AcDbLine
 10
26.400009155273438
 20
87.499984741210938
 30
0.0
 11
26.400009155273438
 21
92.499984741210938
 31
0.0
  0
LINE
  5
68
100
AcDbEntity
  8
0
  6
CONTINUOUS
 62
               4
100
AcDbLine
 10
25.600006103515625
 20
87.499984741210938
 30
0.0
 11
25.600006103515625
 21
92.499984741210938
 31
0.0
  0
LINE
  5
69
100
AcDbEntity
  8
0
  6
CONTINUOUS
 62
               4
100
AcDbLine
 10
25.599990844726563
 20
92.499984741210938
 30
0.0
 11
26.399993896484375
 21
92.499984741210938
 31
0.0
  0
LINE
  5
6A
100
AcDbEntity
  8
0
  6
CONTINUOUS
 62
               4
100
AcDbLine
 10
26.715011596679688
 20
79.499984741210938
 30
0.0
 11
26.715011596679688
 21
81.500335693359375
 31
0.0
  0
LINE
  5
6B
100
AcDbEntity
  8
0
  6
CONTINUOUS
 62
               4
100
AcDbLine
 10
25.285003662109375
 20
79.499984741210938
 30
0.0
 11
25.285003662109375
 21
80.674713134765625
 31
0.0
  0
LINE
  5
6C
100
AcDbEntity
  8
0
  6
CONTINUOUS
 62
             200
100
AcDbLine
 10
32.049980812580543
 20
85.735215945812342
 30
0.0
 11
23.949982589972933
 21
81.058677713293946
 31
0.0
  0
LINE
  5
6D
100
AcDbEntity
  8
0
  6
CONTINUOUS
 62
               4
100
AcDbLine
 10
33.0
 20
35.499984741210938
 30
0.0
 11
33.0
 21
59.499984741210938
 31
0.0
  0
LINE
  5
6E
100
AcDbEntity
  8
0
  6
CONTINUOUS
 62
               4
100
AcDbLine
 10
23.0
 20
35.499984741210938
 30
0.0
 11
23.0
 21
59.5
 31
0.0
  0
LINE
  5
6F
100
AcDbEntity
  8
0
  6
CONTINUOUS
 62
               4
100
AcDbLine
 10
33.5
 20
10.199981689453125
 30
0.0
 11
35.20001220703125
 21
10.199981689453125
 31
0.0
  0
LINE
  5
70
100
AcDbEntity
  8
0
  6
CONTINUOUS
 62
               4
100
AcDbLine
 10
22.5
 20
-28.199996948242188
 30
0.0
 11
20.79998779296875
 21
-28.199996948242188
 31
0.0
  0
LINE
  5
71
100
AcDbEntity
  8
0
  6
CONTINUOUS
 62
               4
100
AcDbLine
 10
22.5
 20
-22.800010681152344
 30
0.0
 11
20.79998779296875
 21
-22.800010681152344
 31
0.0
  0
LINE
  5
72
100
AcDbEntity
  8
0
  6
CONTINUOUS
 62
               4
100
AcDbLine
 10
33.499984741210938
 20
4.7999992370605469
 30
0.0
 11
35.20001220703125
 21
4.7999992370605469
 31
0.0
  0
LINE
  5
73
100
AcDbEntity
  8
0
  6
CONTINUOUS
 62
               4
100
AcDbLine
 10
35.20001220703125
 20
13.799972534179688
 30
0.0
 11
20.79998779296875
 21
13.799972534179688
 31
0.0
  0
LINE
  5
74
100
AcDbEntity
  8
0
  6
CONTINUOUS
 62
               4
100
AcDbLine
 10
35.20001220703125
 20
-31.800003051757813
 30
0.0
 11
20.79998779296875
 21
-31.800003051757813
 31
0.0
  0
LINE
  5
75
100
AcDbEntity
  8
0
  6
CONTINUOUS
 62
               4
100
AcDbLine
 10
33.5
 20
-24.800006866455078
 30
0.0
 11
35.5
 21
-24.800006866455078
 31
0.0
  0
LINE
  5
76
100
AcDbEntity
  8
0
  6
CONTINUOUS
 62
               4
100
AcDbLine
 10
30.800003051757813
 20
-27.5
 30
0.0
 11
30.800003051757813
 21
-31.800003051757813
 31
0.0
  0
LINE
  5
77
100
AcDbEntity
  8
0
  6
CONTINUOUS
 62
               4
100
AcDbLine
 10
25.20001220703125
 20
13.799972534179688
 30
0.0
 11
25.20001220703125
 21
9.4999847412109375
 31
0.0
  0
LINE
  5
78
100
AcDbEntity
  8
0
  6
CONTINUOUS
 62
               4
100
AcDbLine
 10
34.419260501011479
 20
6.5807941878648535
 30
0.0
 11
32.580789530118011
 21
8.4192656236729135
 31
0.0
  0
LINE
  5
79
100
AcDbEntity
  8
0
  6
CONTINUOUS
 62
               4
100
AcDbLine
 10
23.419270191974022
 20
8.5807546278084601
 30
0.0
 11
21.580788431488429
 21
10.419236853211373
 31
0.0
  0
LINE
  5
7A
100
AcDbEntity
  8
0
  6
CONTINUOUS
 62
               4
100
AcDbLine
 10
21.580775253138199
 20
8.5807428552252532
 30
0.0
 11
23.419246533974729
 21
10.419213981090252
 31
0.0
  0
LINE
  5
7B
100
AcDbEntity
  8
0
  6
CONTINUOUS
 62
               4
100
AcDbLine
 10
32.580779892099997
 20
6.5807583915759551
 30
0.0
 11
34.419245778139555
 21
8.4192241226444366
 31
0.0
  0
LINE
  5
7C
100
AcDbEntity
  8
0
  6
CONTINUOUS
 62
               7
100
AcDbLine
 10
35.5
 20
-26.469223022460938
 30
0.0
 11
35.5
 21
6.0000114440917969
 31
0.0
  0
LINE
  5
7D
100
AcDbEntity
  8
0
  6
CONTINUOUS
 62
               4
100
AcDbLine
 10
32.899993896484375
 20
73.0
 30
0.0
 11
32.899993896484375
 21
79.499984741210938
 31
0.0
  0
LINE
  5
7E
100
AcDbEntity
  8
0
  6
CONTINUOUS
 62
               4
100
AcDbLine
 10
23.100006103515625
 20
73.0
 30
0.0
 11
23.100006103515625
 21
79.499984741210938
 31
0.0
  0
LINE
  5
7F
100
AcDbEntity
  8
0
  6
CONTINUOUS
 62
               4
100
AcDbLine
 10
24.0
 20
73.0
 30
0.0
 11
24.0
 21
79.499984741210938
 31
0.0
  0
LINE
  5
80
100
AcDbEntity
  8
0
  6
CONTINUOUS
 62
               4
100
AcDbLine
 10
32.0
 20
73.0
 30
0.0
 11
32.0
 21
79.499984741210938
 31
0.0
  0
LINE
  5
81
100
AcDbEntity
  8
0
  6
CONTINUOUS
 62
               4
100
AcDbLine
 10
32.580769650414368
 20
-28.419271472652781
 30
0.0
 11
34.419251720844841
 21
-26.580789557194748
 31
0.0
  0
LINE
  5
82
100
AcDbEntity
  8
0
  6
CONTINUOUS
 62
               4
100
AcDbLine
 10
34.419245960345165
 20
-28.419232978964601
 30
0.0
 11
32.58078038424776
 21
-26.580766937953967
 31
0.0
  0
LINE
  5
83
100
AcDbEntity
  8
0
  6
CONTINUOUS
 62
               7
100
AcDbLine
 10
20.5
 20
-23.999996185302734
 30
0.0
 11
20.5
 21
8.4692230224609375
 31
0.0
  0
LINE
  5
84
100
AcDbEntity
  8
0
  6
CONTINUOUS
 62
               7
100
AcDbLine
 10
35.5
 20
-50.5
 30
0.0
 11
35.5
 21
-28.530776977539063
 31
0.0
  0
LINE
  5
85
100
AcDbEntity
  8
0
  6
CONTINUOUS
 62
               7
100
AcDbLine
 10
20.5
 20
-50.5
 30
0.0
 11
20.5
 21
-26.999984741210938
 31
0.0
  0
LINE
  5
86
100
AcDbEntity
  8
0
  6
CONTINUOUS
 62
               7
100
AcDbLine
 10
20.999984741210937
 20
-51.0
 30
0.0
 11
35.0
 21
-51.0
 31
0.0
  0
LINE
  5
87
100
AcDbEntity
  8
0
  6
CONTINUOUS
 62
               7
100
AcDbLine
 10
20.5
 20
10.530731201171875
 30
0.0
 11
20.5
 21
22.499984741210938
 31
0.0
  0
LINE
  5
88
100
AcDbEntity
  8
0
  6
CONTINUOUS
 62
               7
100
AcDbLine
 10
35.5
 20
9.0
 30
0.0
 11
35.5
 21
22.499984741210938
 31
0.0
  0
LINE
  5
89
100
AcDbEntity
  8
0
  6
CONTINUOUS
 62
               7
100
AcDbLine
 10
23.0
 20
23.999984741210937
 30
0.0
 11
33.0
 21
23.999984741210937
 31
0.0
  0
LINE
  5
8A
100
AcDbEntity
  8
0
  6
CONTINUOUS
 62
               7
100
AcDbLine
 10
33.499954714616251
 20
24.499987472068824
 30
0.0
 11
35.499978248391926
 21
22.499963601114359
 31
0.0
  0
LINE
  5
8B
100
AcDbEntity
  8
0
  6
CONTINUOUS
 62
               7
100
AcDbLine
 10
20.499984741210938
 20
-42.0
 30
0.0
 11
35.5
 21
-42.0
 31
0.0
  0
LINE
  5
8C
100
AcDbEntity
  8
0
  6
CONTINUOUS
 62
               7
100
AcDbLine
 10
20.5
 20
13.999984741210938
 30
0.0
 11
35.5
 21
13.999984741210938
 31
0.0
  0
LINE
  5
8D
100
AcDbEntity
  8
0
  6
CONTINUOUS
 62
               7
100
AcDbLine
 10
20.5
 20
-32.0
 30
0.0
 11
35.5
 21
-32.0
 31
0.0
  0
LINE
  5
8E
100
AcDbEntity
  8
0
  6
CONTINUOUS
 62
               4
100
AcDbLine
 10
23.419248233466703
 20
-26.419236798491625
 30
0.0
 11
21.580777262573235
 21
-24.580765362683564
 31
0.0
  0
LINE
  5
8F
100
AcDbEntity
  8
0
  6
CONTINUOUS
 62
               4
100
AcDbLine
 10
21.580796705884836
 20
-26.419253965874759
 30
0.0
 11
23.419267986721366
 21
-24.580782840009761
 31
0.0
  0
LINE
  5
90
100
AcDbEntity
  8
0
  6
CONTINUOUS
 62
               7
100
AcDbLine
 10
21.5
 20
-42.0
 30
0.0
 11
21.5
 21
-40.0
 31
0.0
  0
LINE
  5
91
100
AcDbEntity
  8
0
  6
CONTINUOUS
 62
               7
100
AcDbLine
 10
22.0
 20
-40.0
 30
0.0
 11
20.5
 21
-40.0
 31
0.0
  0
LINE
  5
92
100
AcDbEntity
  8
0
  6
CONTINUOUS
 62
               7
100
AcDbLine
 10
22.0
 20
-34.0
 30
0.0
 11
20.5
 21
-34.0
 31
0.0
  0
LINE
  5
93
100
AcDbEntity
  8
0
  6
CONTINUOUS
 62
               7
100
AcDbLine
 10
21.5
 20
-32.0
 30
0.0
 11
21.5
 21
-34.0
 31
0.0
  0
LINE
  5
94
100
AcDbEntity
  8
0
  6
CONTINUOUS
 62
               7
100
AcDbLine
 10
34.5
 20
-32.0
 30
0.0
 11
34.5
 21
-34.0
 31
0.0
  0
LINE
  5
95
100
AcDbEntity
  8
0
  6
CONTINUOUS
 62
               7
100
AcDbLine
 10
34.0
 20
-34.0
 30
0.0
 11
35.5
 21
-34.0
 31
0.0
  0
LINE
  5
96
100
AcDbEntity
  8
0
  6
CONTINUOUS
 62
               7
100
AcDbLine
 10
34.0
 20
-40.0
 30
0.0
 11
35.5
 21
-40.0
 31
0.0
  0
LINE
  5
97
100
AcDbEntity
  8
0
  6
CONTINUOUS
 62
               7
100
AcDbLine
 10
34.5
 20
-42.0
 30
0.0
 11
34.5
 21
-40.0
 31
0.0
  0
LINE
  5
98
100
AcDbEntity
  8
0
  6
CONTINUOUS
 62
               7
100
AcDbLine
 10
26.073211669921875
 20
-38.300003051757813
 30
0.0
 11
29.926788330078125
 21
-38.300003051757813
 31
0.0
  0
LINE
  5
99
100
AcDbEntity
  8
0
  6
CONTINUOUS
 62
               2
100
AcDbLine
 10
25.383331298828125
 20
-38.0
 30
0.0
 11
30.616668701171875
 21
-38.0
 31
0.0
  0
LINE
  5
9A
100
AcDbEntity
  8
0
  6
CONTINUOUS
 62
               7
100
AcDbLine
 10
26.073211669921875
 20
-37.699996948242187
 30
0.0
 11
29.926788330078125
 21
-37.699996948242187
 31
0.0
  0
LINE
  5
9B
100
AcDbEntity
  8
0
  6
CONTINUOUS
 62
               7
100
AcDbLine
 10
25.499995231628418
 20
-38.0
 30
0.0
 11
24.499995231628418
 21
-38.0
 31
0.0
  0
LINE
  5
9C
100
AcDbEntity
  8
0
  6
CONTINUOUS
 62
               7
100
AcDbLine
 10
28.000000921075298
 20
-34.5
 30
0.0
 11
28.000000921075298
 21
-35.5
 31
0.0
  0
LINE
  5
9D
100
AcDbEntity
  8
0
  6
CONTINUOUS
 62
               7
100
AcDbLine
 10
27.999995598573435
 20
-35.000001498533777
 30
0.0
 11
26.999996370876033
 21
-34.73205237084585
 31
0.0
  0
LINE
  5
9E
100
AcDbEntity
  8
0
  6
CONTINUOUS
 62
               7
100
AcDbLine
 10
22.5
 20
24.499984741210938
 30
0.0
 11
23.0
 21
24.499984741210938
 31
0.0
  0
LINE
  5
9F
100
AcDbEntity
  8
0
  6
CONTINUOUS
 62
               7
100
AcDbLine
 10
22.500009587001841
 20
24.499985154001479
 30
0.0
 11
20.500008475348295
 21
22.499982019297022
 31
0.0
  0
LINE
  5
A0
100
AcDbEntity
  8
0
  6
CONTINUOUS
 62
               7
100
AcDbLine
 10
33.5
 20
24.499984741210938
 30
0.0
 11
33.0
 21
24.499984741210938
 31
0.0
  0
LINE
  5
A1
100
AcDbEntity
  8
0
  6
CONTINUOUS
 62
               7
100
AcDbLine
 10
27.999996467425603
 20
29.199978468269705
 30
0.0
 11
28.999995756830231
 21
28.932029525703456
 31
0.0
  0
LINE
  5
A2
100
AcDbEntity
  8
0
  6
CONTINUOUS
 62
               7
100
AcDbLine
 10
28.0
 20
28.699981689453125
 30
0.0
 11
28.0
 21
29.699981689453125
 31
0.0
  0
LINE
  5
A3
100
AcDbEntity
  8
0
  6
CONTINUOUS
 62
               7
100
AcDbLine
 10
30.5
 20
32.199981689453125
 30
0.0
 11
31.5
 21
32.199981689453125
 31
0.0
  0
CIRCLE
  5
A4
100
AcDbEntity
  8
0
  6
CONTINUOUS
 62
               7
100
AcDbCircle
 10
28.0
 20
32.199981689453125
 30
0.0
 40
2.0
  0
CIRCLE
  5
A5
100
AcDbEntity
  8
0
  6
CONTINUOUS
 62
               7
100
AcDbCircle
 10
28.0
 20
32.199981689453125
 30
0.0
 40
1.9499998092651367
  0
ARC
  5
A6
100
AcDbEntity
  8
0
  6
CONTINUOUS
 62
               4
100
AcDbCircle
 10
32.449996948242188
 20
68.0
 30
0.0
 40
0.5
100
AcDbArc
 50
359.99995901886416
 51
89.999982013910454
  0
ARC
  5
A7
100
AcDbEntity
  8
0
  6
CONTINUOUS
 62
               4
100
AcDbCircle
 10
23.550003051757813
 20
68.0
 30
0.0
 40
0.5
100
AcDbArc
 50
89.999982013910454
 51
179.99996402782091
  0
ARC
  5
A8
100
AcDbEntity
  8
0
  6
CONTINUOUS
 62
               4
100
AcDbCircle
 10
33.499984741210938
 20
7.4999847412109375
 30
0.0
 40
2.6999998092651367
100
AcDbArc
 50
89.999982013910454
 51
270.00000068324471
  0
ARC
  5
A9
100
AcDbEntity
  8
0
  6
CONTINUOUS
 62
               4
100
AcDbCircle
 10
22.5
 20
-25.5
 30
0.0
 40
2.6999998092651367
100
AcDbArc
 50
270.00001798608872
 51
89.999982013910454
  0
CIRCLE
  5
AA
100
AcDbEntity
  8
0
  6
CONTINUOUS
 62
               4
100
AcDbCircle
 10
33.5
 20
7.5
 30
0.0
 40
2.25
  0
ARC
  5
AB
100
AcDbEntity
  8
0
  6
CONTINUOUS
 62
               4
100
AcDbCircle
 10
22.5
 20
9.5
 30
0.0
 40
2.6999998092651367
100
AcDbArc
 50
270.00001798608872
 51
0.0
  0
ARC
  5
AC
100
AcDbEntity
  8
0
  6
CONTINUOUS
 62
               4
100
AcDbCircle
 10
35.20001220703125
 20
10.499969482421875
 30
0.0
 40
0.300000011920929
100
AcDbArc
 50
270.00001798608872
 51
0.0
  0
ARC
  5
AD
100
AcDbEntity
  8
0
  6
CONTINUOUS
 62
               4
100
AcDbCircle
 10
20.800003051757813
 20
-22.500015258789063
 30
0.0
 40
0.300000011920929
100
AcDbArc
 50
179.99996402782091
 51
270.00000068324471
  0
ARC
  5
AE
100
AcDbEntity
  8
0
  6
CONTINUOUS
 62
               4
100
AcDbCircle
 10
35.20001220703125
 20
4.4999961853027344
 30
0.0
 40
0.300000011920929
100
AcDbArc
 50
0.0
 51
89.999982013910454
  0
ARC
  5
AF
100
AcDbEntity
  8
0
  6
CONTINUOUS
 62
               4
100
AcDbCircle
 10
20.800003051757813
 20
-28.5
 30
0.0
 40
0.300000011920929
100
AcDbArc
 50
89.999982013910454
 51
179.99996402782091
  0
ARC
  5
B0
100
AcDbEntity
  8
0
  6
CONTINUOUS
 62
               4
100
AcDbCircle
 10
20.79998779296875
 20
13.5
 30
0.0
 40
0.300000011920929
100
AcDbArc
 50
89.999982013910454
 51
179.99996402782091
  0
ARC
  5
B1
100
AcDbEntity
  8
0
  6
CONTINUOUS
 62
               4
100
AcDbCircle
 10
35.20001220703125
 20
13.499984741210937
 30
0.0
 40
0.300000011920929
100
AcDbArc
 50
0.0
 51
89.999982013910454
  0
ARC
  5
B2
100
AcDbEntity
  8
0
  6
CONTINUOUS
 62
               4
100
AcDbCircle
 10
35.20001220703125
 20
-31.5
 30
0.0
 40
0.300000011920929
100
AcDbArc
 50
270.00001798608872
 51
0.0
  0
ARC
  5
B3
100
AcDbEntity
  8
0
  6
CONTINUOUS
 62
               4
100
AcDbCircle
 10
20.800003051757813
 20
-31.5
 30
0.0
 40
0.300000011920929
100
AcDbArc
 50
179.99996402782091
 51
270.00000068324471
  0
ARC
  5
B4
100
AcDbEntity
  8
0
  6
CONTINUOUS
 62
               4
100
AcDbCircle
 10
33.5
 20
-27.5
 30
0.0
 40
2.6999998092651367
100
AcDbArc
 50
89.999982013910454
 51
179.99996402782091
  0
CIRCLE
  5
B5
100
AcDbEntity
  8
0
  6
CONTINUOUS
 62
               4
100
AcDbCircle
 10
22.5
 20
9.4999847412109375
 30
0.0
 40
2.25
  0
CIRCLE
  5
B6
100
AcDbEntity
  8
0
  6
CONTINUOUS
 62
               4
100
AcDbCircle
 10
33.5
 20
-27.5
 30
0.0
 40
2.25
  0
ARC
  5
B7
100
AcDbEntity
  8
0
  6
CONTINUOUS
 62
               7
100
AcDbCircle
 10
35.0
 20
-50.5
 30
0.0
 40
0.5
100
AcDbArc
 50
270.00001798608872
 51
0.00001366037834
  0
ARC
  5
B8
100
AcDbEntity
  8
0
  6
CONTINUOUS
 62
               7
100
AcDbCircle
 10
21.0
 20
-50.5
 30
0.0
 40
0.5
100
AcDbArc
 50
179.99996402782091
 51
269.99994604173139
  0
CIRCLE
  5
B9
100
AcDbEntity
  8
0
  6
CONTINUOUS
 62
               4
100
AcDbCircle
 10
22.5
 20
-25.499984741210937
 30
0.0
 40
2.25
  0
CIRCLE
  5
BA
100
AcDbEntity
  8
0
  6
CONTINUOUS
 62
               7
100
AcDbCircle
 10
28.0
 20
-38.0
 30
0.0
 40
1.9499998092651367
  0
ARC
  5
BB
100
AcDbEntity
  8
0
  6
CONTINUOUS
 62
               7
100
AcDbCircle
 10
27.899994730949402
 20
-38.0
 30
0.0
 40
3.0
100
AcDbArc
 50
88.08976934835465
 51
179.99996402782091
  0
ARC
  5
BC
100
AcDbEntity
  8
0
  6
CONTINUOUS
 62
               7
100
AcDbCircle
 10
27.999994700046955
 20
-38.0
 30
0.0
 40
3.0
100
AcDbArc
 50
86.177425663777811
 51
183.82257501946691
  0
ARC
  5
BD
100
AcDbEntity
  8
0
  6
CONTINUOUS
 62
               7
100
AcDbCircle
 10
28.099994659423828
 20
-38.0
 30
0.0
 40
3.0
100
AcDbArc
 50
91.910194679466258
 51
179.99996402782091
  0
CIRCLE
  5
BE
100
AcDbEntity
  8
0
  6
CONTINUOUS
 62
               4
100
AcDbCircle
 10
33.5
 20
7.5
 30
0.0
 40
2.5
  0
CIRCLE
  5
BF
100
AcDbEntity
  8
0
  6
CONTINUOUS
 62
               4
100
AcDbCircle
 10
22.5
 20
-25.499984741210937
 30
0.0
 40
2.5
  0
ARC
  5
C0
100
AcDbEntity
  8
0
  6
CONTINUOUS
 62
               7
100
AcDbCircle
 10
27.900000035762787
 20
32.199981689453125
 30
0.0
 40
3.0
100
AcDbArc
 50
271.91023065164455
 51
0.0
  0
ARC
  5
C1
100
AcDbEntity
  8
0
  6
CONTINUOUS
 62
               7
100
AcDbCircle
 10
28.0
 20
32.199981689453125
 30
0.0
 40
3.0
100
AcDbArc
 50
266.17746163595609
 51
3.822566595416411
  0
ARC
  5
C2
100
AcDbEntity
  8
0
  6
CONTINUOUS
 62
               7
100
AcDbCircle
 10
28.099999964237213
 20
32.199981689453125
 30
0.0
 40
3.0
100
AcDbArc
 50
268.089805320533
 51
0.0
  0
LINE
  5
C3
100
AcDbEntity
  8
0
  6
CONTINUOUS
 62
               4
100
AcDbLine
 10
30.892319037918952
 20
6.799980926513669
 30
0.0
 11
20.49999999403957
 21
6.799980926513669
 31
0.0
  0
LINE
  5
C4
100
AcDbEntity
  8
0
  6
CONTINUOUS
 62
               4
100
AcDbLine
 10
25.078322088718437
 20
-24.698610769274374
 30
0.0
 11
35.500000005960487
 21
-24.698610769274374
 31
0.0
  0
CIRCLE
  5
C5
100
AcDbEntity
  8
0
  6
CONTINUOUS
 62
               4
100
AcDbCircle
 10
28.0
 20
-1.2500152587890625
 30
0.0
 40
7.4500000000000002
  0
ARC
  5
C6
100
AcDbEntity
  8
0
  6
CONTINUOUS
 62
               4
100
AcDbCircle
 10
28.0
 20
-1.2500152587890625
 30
0.0
 40
6.9000000000000004
100
AcDbArc
 50
8.6933494299441101
 51
171.3066505700555
  0
CIRCLE
  5
C7
100
AcDbEntity
  8
0
  6
CONTINUOUS
 62
               4
100
AcDbCircle
 10
28.0
 20
-1.2500152587890625
 30
0.0
 40
4.0499999999999998
  0
CIRCLE
  5
C8
100
AcDbEntity
  8
0
  6
CONTINUOUS
 62
               4
100
AcDbCircle
 10
28.0
 20
-1.2500152587890625
 30
0.0
 40
3.0499999999999998
  0
ARC
  5
C9
100
AcDbEntity
  8
0
  6
CONTINUOUS
 62
               4
100
AcDbCircle
 10
28.0
 20
-1.2500152587890625
 30
0.0
 40
6.9000000000000004
100
AcDbArc
 50
188.69334942994371
 51
351.30665057005507
  0
CIRCLE
  5
CA
100
AcDbEntity
  8
0
  6
CONTINUOUS
 62
               4
100
AcDbCircle
 10
28.0
 20
-16.750015258789063
 30
0.0
 40
7.4500000000000002
  0
ARC
  5
CB
100
AcDbEntity
  8
0
  6
CONTINUOUS
 62
               4
100
AcDbCircle
 10
28.0
 20
-16.750015258789063
 30
0.0
 40
6.9000000000000004
100
AcDbArc
 50
8.6933494299441101
 51
171.3066505700555
  0
CIRCLE
  5
CC
100
AcDbEntity
  8
0
  6
CONTINUOUS
 62
               4
100
AcDbCircle
 10
28.0
 20
-16.750015258789063
 30
0.0
 40
4.0499999999999998
  0
CIRCLE
  5
CD
100
AcDbEntity
  8
0
  6
CONTINUOUS
 62
               4
100
AcDbCircle
 10
28.0
 20
-16.750015258789063
 30
0.0
 40
3.0499999999999998
  0
ARC
  5
CE
100
AcDbEntity
  8
0
  6
CONTINUOUS
 62
               4
100
AcDbCircle
 10
28.0
 20
-16.750015258789063
 30
0.0
 40
6.9000000000000004
100
AcDbArc
 50
188.69334942994371
 51
351.30665057005507
  0
LINE
  5
CF
100
AcDbEntity
  8
0
  6
CONTINUOUS
 62
               4
100
AcDbLine
 10
21.600000000000023
 20
-0.4500152587890511
 30
0.0
 11
21.179271080214278
 21
-0.2071073036949258
 31
0.0
  0
LINE
  5
D0
100
AcDbEntity
  8
0
  6
CONTINUOUS
 62
               4
100
AcDbLine
 10
21.600000000000023
 20
-2.0500152587890668
 30
0.0
 11
21.179271080214278
 21
-2.2929232138832063
 31
0.0
  0
LINE
  5
D1
100
AcDbEntity
  8
0
  6
CONTINUOUS
 62
               4
100
AcDbLine
 10
21.600000000000023
 20
-2.0500152587890668
 30
0.0
 11
21.600000000000023
 21
-0.4500152647495384
 31
0.0
  0
LINE
  5
D2
100
AcDbEntity
  8
0
  6
CONTINUOUS
 62
               4
100
AcDbLine
 10
21.600000000000023
 20
-17.55001525878906
 30
0.0
 11
21.179271080214278
 21
-17.792923213883206
 31
0.0
  0
LINE
  5
D3
100
AcDbEntity
  8
0
  6
CONTINUOUS
 62
               4
100
AcDbLine
 10
21.600000000000023
 20
-15.950015258789065
 30
0.0
 11
21.179271080214278
 21
-15.707107303694919
 31
0.0
  0
LINE
  5
D4
100
AcDbEntity
  8
0
  6
CONTINUOUS
 62
               4
100
AcDbLine
 10
21.600000000000023
 20
-17.55001525878906
 30
0.0
 11
21.600000000000023
 21
-15.950015264749524
 31
0.0
  0
ARC
  5
D5
100
AcDbEntity
  8
0
  6
CONTINUOUS
 62
               4
100
AcDbCircle
 10
29.050000000000011
 20
-8.9285567869700486
 30
0.0
 40
0.3
100
AcDbArc
 50
97.786600724137088
 51
179.99999999999963
  0
ARC
  5
D6
100
AcDbEntity
  8
0
  6
CONTINUOUS
 62
               4
100
AcDbCircle
 10
29.050000000000011
 20
-9.0714737306080764
 30
0.0
 40
0.3
100
AcDbArc
 50
179.99999999999963
 51
262.21339927586212
  0
ARC
  5
D7
100
AcDbEntity
  8
0
  6
CONTINUOUS
 62
               4
100
AcDbCircle
 10
26.950000000000017
 20
-8.9285567869700486
 30
0.0
 40
0.3
100
AcDbArc
 50
0.0
 51
82.213399275863864
  0
ARC
  5
D8
100
AcDbEntity
  8
0
  6
CONTINUOUS
 62
               4
100
AcDbCircle
 10
26.950000000000017
 20
-9.0714737306080764
 30
0.0
 40
0.3
100
AcDbArc
 50
277.78660072413879
 51
0.0
  0
LINE
  5
D9
100
AcDbEntity
  8
0
  6
CONTINUOUS
 62
               4
100
AcDbLine
 10
28.75
 20
-9.0714737306080764
 30
0.0
 11
28.75
 21
-8.9285567869700486
 31
0.0
  0
LINE
  5
DA
100
AcDbEntity
  8
0
  6
CONTINUOUS
 62
               4
100
AcDbLine
 10
27.25
 20
-9.0714737306080764
 30
0.0
 11
27.25
 21
-8.9285567869700486
 31
0.0
  0
LINE
  5
DB
100
AcDbEntity
  8
0
  6
CONTINUOUS
 62
               4
100
AcDbLine
 10
34.400000000000034
 20
-17.55001525878906
 30
0.0
 11
34.400000000000034
 21
-15.950015264749524
 31
0.0
  0
LINE
  5
DC
100
AcDbEntity
  8
0
  6
CONTINUOUS
 62
               4
100
AcDbLine
 10
34.400000000000034
 20
-15.950015258789065
 30
0.0
 11
34.820728919785722
 21
-15.707107303694919
 31
0.0
  0
LINE
  5
DD
100
AcDbEntity
  8
0
  6
CONTINUOUS
 62
               4
100
AcDbLine
 10
34.400000000000034
 20
-17.55001525878906
 30
0.0
 11
34.820728919785722
 21
-17.792923213883206
 31
0.0
  0
LINE
  5
DE
100
AcDbEntity
  8
0
  6
CONTINUOUS
 62
               4
100
AcDbLine
 10
34.400000000000034
 20
-2.0500152587890668
 30
0.0
 11
34.400000000000034
 21
-0.4500152647495384
 31
0.0
  0
LINE
  5
DF
100
AcDbEntity
  8
0
  6
CONTINUOUS
 62
               4
100
AcDbLine
 10
34.400000000000034
 20
-0.4500152587890511
 30
0.0
 11
34.820728919785722
 21
-0.2071073036949258
 31
0.0
  0
LINE
  5
E0
100
AcDbEntity
  8
0
  6
CONTINUOUS
 62
               4
100
AcDbLine
 10
34.400000000000034
 20
-2.0500152587890668
 30
0.0
 11
34.820728919785722
 21
-2.2929232138832063
 31
0.0
  0
LINE
  5
E1
100
AcDbEntity
  8
0
  6
CONTINUOUS
 62
               7
100
AcDbLine
 10
39.0
 20
25.999984741210937
 30
0.0
 11
49.0
 21
25.999984741210937
 31
0.0
  0
LINE
  5
E2
100
AcDbEntity
  8
0
  6
CONTINUOUS
 62
               2
100
AcDbLine
 10
41.5
 20
32.199981689453125
 30
0.0
 11
46.5
 21
32.199981689453125
 31
0.0
  0
LINE
  5
E3
100
AcDbEntity
  8
0
  6
CONTINUOUS
 62
               2
100
AcDbLine
 10
44.0
 20
-53.666671752929688
 30
0.0
 11
44.0
 21
81.25506591796875
 31
0.0
  0
LINE
  5
E4
100
AcDbEntity
  8
0
  6
CONTINUOUS
 62
               4
100
AcDbLine
 10
39.0
 20
59.499984741210938
 30
0.0
 11
49.0
 21
59.499984741210938
 31
0.0
  0
LINE
  5
E5
100
AcDbEntity
  8
0
  6
CONTINUOUS
 62
               4
100
AcDbLine
 10
39.0
 20
35.499984741210938
 30
0.0
 11
49.0
 21
35.499984741210938
 31
0.0
  0
LINE
  5
E6
100
AcDbEntity
  8
0
  6
CONTINUOUS
 62
               7
100
AcDbLine
 10
42.073211669921875
 20
31.899978637695312
 30
0.0
 11
45.926788330078125
 21
31.899978637695312
 31
0.0
  0
LINE
  5
E7
100
AcDbEntity
  8
0
  6
CONTINUOUS
 62
               7
100
AcDbLine
 10
42.073211669921875
 20
32.499984741210937
 30
0.0
 11
45.926788330078125
 21
32.499984741210937
 31
0.0
  0
LINE
  5
E8
100
AcDbEntity
  8
0
  6
CONTINUOUS
 62
               4
100
AcDbLine
 10
39.04998779296875
 20
59.5
 30
0.0
 11
39.04998779296875
 21
73.0
 31
0.0
  0
LINE
  5
E9
100
AcDbEntity
  8
0
  6
CONTINUOUS
 62
               4
100
AcDbLine
 10
48.5
 20
68.5
 30
0.0
 11
39.5
 21
68.5
 31
0.0
  0
LINE
  5
EA
100
AcDbEntity
  8
0
  6
CONTINUOUS
 62
             200
100
AcDbLine
 10
48.949996948242188
 20
64.0
 30
0.0
 11
39.04998779296875
 21
64.0
 31
0.0
  0
LINE
  5
EB
100
AcDbEntity
  8
0
  6
CONTINUOUS
 62
               4
100
AcDbLine
 10
48.949996948242188
 20
59.499984741210938
 30
0.0
 11
48.949996948242188
 21
73.0
 31
0.0
  0
LINE
  5
EC
100
AcDbEntity
  8
0
  6
CONTINUOUS
 62
               4
100
AcDbLine
 10
45.285003662109375
 20
79.499984741210938
 30
0.0
 11
45.285003662109375
 21
82.984115600585938
 31
0.0
  0
LINE
  5
ED
100
AcDbEntity
  8
0
  6
CONTINUOUS
 62
               4
100
AcDbLine
 10
46.715011596679688
 20
79.499984741210938
 30
0.0
 11
46.715011596679688
 21
83.809738159179688
 31
0.0
  0
LINE
  5
EE
100
AcDbEntity
  8
0
  6
CONTINUOUS
 62
               4
100
AcDbLine
 10
45.600006103515625
 20
87.499984741210938
 30
0.0
 11
45.600006103515625
 21
92.499984741210938
 31
0.0
  0
LINE
  5
EF
100
AcDbEntity
  8
0
  6
CONTINUOUS
 62
               4
100
AcDbLine
 10
46.400009155273438
 20
87.499984741210938
 30
0.0
 11
46.400009155273438
 21
92.499984741210938
 31
0.0
  0
LINE
  5
F0
100
AcDbEntity
  8
0
  6
CONTINUOUS
 62
               4
100
AcDbLine
 10
45.599990844726562
 20
92.499984741210938
 30
0.0
 11
46.399993896484375
 21
92.499984741210938
 31
0.0
  0
LINE
  5
F1
100
AcDbEntity
  8
0
  6
CONTINUOUS
 62
               4
100
AcDbLine
 10
45.284988403320312
 20
87.499984741210938
 30
0.0
 11
46.714996337890625
 21
87.499984741210938
 31
0.0
  0
LINE
  5
F2
100
AcDbEntity
  8
0
  6
CONTINUOUS
 62
             200
100
AcDbLine
 10
48.050024369684252
 20
84.580400805896716
 30
0.0
 11
39.950026147076642
 21
79.903864245838122
 31
0.0
  0
LINE
  5
F3
100
AcDbEntity
  8
0
  6
CONTINUOUS
 62
               4
100
AcDbLine
 10
45.285003662109375
 20
84.138809204101563
 30
0.0
 11
45.285003662109375
 21
87.499984741210938
 31
0.0
  0
LINE
  5
F4
100
AcDbEntity
  8
0
  6
CONTINUOUS
 62
               4
100
AcDbLine
 10
46.715011596679688
 20
84.964431762695313
 30
0.0
 11
46.715011596679688
 21
87.499984741210938
 31
0.0
  0
LINE
  5
F5
100
AcDbEntity
  8
0
  6
CONTINUOUS
 62
               4
100
AcDbLine
 10
39.050003051757813
 20
73.0
 30
0.0
 11
40.5
 21
73.0
 31
0.0
  0
LINE
  5
F6
100
AcDbEntity
  8
0
  6
CONTINUOUS
 62
               4
100
AcDbLine
 10
39.949996948242187
 20
68.5
 30
0.0
 11
39.949996948242187
 21
71.0
 31
0.0
  0
LINE
  5
F7
100
AcDbEntity
  8
0
  6
CONTINUOUS
 62
               4
100
AcDbLine
 10
48.050003051757813
 20
68.5
 30
0.0
 11
48.050003051757813
 21
71.0
 31
0.0
  0
LINE
  5
F8
100
AcDbEntity
  8
0
  6
CONTINUOUS
 62
               4
100
AcDbLine
 10
47.5
 20
68.998458862304688
 30
0.0
 11
47.5
 21
79.499984741210938
 31
0.0
  0
LINE
  5
F9
100
AcDbEntity
  8
0
  6
CONTINUOUS
 62
               4
100
AcDbLine
 10
40.5
 20
68.998458862304688
 30
0.0
 11
40.5
 21
79.499984741210938
 31
0.0
  0
LINE
  5
FA
100
AcDbEntity
  8
0
  6
CONTINUOUS
 62
               4
100
AcDbLine
 10
40.5
 20
68.998458862304688
 30
0.0
 11
47.5
 21
68.998458862304688
 31
0.0
  0
LINE
  5
FB
100
AcDbEntity
  8
0
  6
CONTINUOUS
 62
               4
100
AcDbLine
 10
40.5
 20
72.556137084960937
 30
0.0
 11
47.5
 21
72.556137084960937
 31
0.0
  0
LINE
  5
FC
100
AcDbEntity
  8
0
  6
CONTINUOUS
 62
               4
100
AcDbLine
 10
40.5
 20
77.999984741210937
 30
0.0
 11
47.5
 21
77.999984741210937
 31
0.0
  0
LINE
  5
FD
100
AcDbEntity
  8
0
  6
CONTINUOUS
 62
               4
100
AcDbLine
 10
39.100006103515625
 20
79.499984741210938
 30
0.0
 11
48.899993896484375
 21
79.499984741210938
 31
0.0
  0
LINE
  5
FE
100
AcDbEntity
  8
0
  6
CONTINUOUS
 62
               4
100
AcDbLine
 10
47.5
 20
73.0
 30
0.0
 11
48.949996948242188
 21
73.0
 31
0.0
  0
LINE
  5
FF
100
AcDbEntity
  8
0
  6
CONTINUOUS
 62
               4
100
AcDbLine
 10
47.5
 20
72.0
 30
0.0
 11
48.050003051757813
 21
72.0
 31
0.0
  0
LINE
  5
100
100
AcDbEntity
  8
0
  6
CONTINUOUS
 62
               4
100
AcDbLine
 10
47.5
 20
71.0
 30
0.0
 11
48.050003051757813
 21
71.0
 31
0.0
  0
LINE
  5
101
100
AcDbEntity
  8
0
  6
CONTINUOUS
 62
               4
100
AcDbLine
 10
39.949996948242187
 20
72.0
 30
0.0
 11
40.5
 21
72.0
 31
0.0
  0
LINE
  5
102
100
AcDbEntity
  8
0
  6
CONTINUOUS
 62
               4
100
AcDbLine
 10
39.949996948242187
 20
71.0
 30
0.0
 11
40.5
 21
71.0
 31
0.0
  0
LINE
  5
103
100
AcDbEntity
  8
0
  6
CONTINUOUS
 62
               4
100
AcDbLine
 10
39.949996948242187
 20
72.0
 30
0.0
 11
39.949996948242187
 21
73.0
 31
0.0
  0
LINE
  5
104
100
AcDbEntity
  8
0
  6
CONTINUOUS
 62
               4
100
AcDbLine
 10
48.050003051757813
 20
72.0
 30
0.0
 11
48.050003051757813
 21
73.0
 31
0.0
  0
LINE
  5
105
100
AcDbEntity
  8
0
  6
CONTINUOUS
 62
               4
100
AcDbLine
 10
42.715011596679688
 20
82.655029296875
 30
0.0
 11
42.715011596679688
 21
87.499984741210938
 31
0.0
  0
LINE
  5
106
100
AcDbEntity
  8
0
  6
CONTINUOUS
 62
               4
100
AcDbLine
 10
41.285003662109375
 20
81.82940673828125
 30
0.0
 11
41.285003662109375
 21
87.499984741210938
 31
0.0
  0
LINE
  5
107
100
AcDbEntity
  8
0
  6
CONTINUOUS
 62
               4
100
AcDbLine
 10
41.284988403320313
 20
87.499984741210938
 30
0.0
 11
42.714996337890625
 21
87.499984741210938
 31
0.0
  0
LINE
  5
108
100
AcDbEntity
  8
0
  6
CONTINUOUS
 62
               4
100
AcDbLine
 10
42.400009155273438
 20
87.499984741210938
 30
0.0
 11
42.400009155273438
 21
92.499984741210938
 31
0.0
  0
LINE
  5
109
100
AcDbEntity
  8
0
  6
CONTINUOUS
 62
               4
100
AcDbLine
 10
41.600006103515625
 20
87.499984741210938
 30
0.0
 11
41.600006103515625
 21
92.499984741210938
 31
0.0
  0
LINE
  5
10A
100
AcDbEntity
  8
0
  6
CONTINUOUS
 62
               4
100
AcDbLine
 10
41.599990844726562
 20
92.499984741210938
 30
0.0
 11
42.399993896484375
 21
92.499984741210938
 31
0.0
  0
LINE
  5
10B
100
AcDbEntity
  8
0
  6
CONTINUOUS
 62
               4
100
AcDbLine
 10
42.715011596679688
 20
79.499984741210938
 30
0.0
 11
42.715011596679688
 21
81.500335693359375
 31
0.0
  0
LINE
  5
10C
100
AcDbEntity
  8
0
  6
CONTINUOUS
 62
               4
100
AcDbLine
 10
41.285003662109375
 20
79.499984741210938
 30
0.0
 11
41.285003662109375
 21
80.674713134765625
 31
0.0
  0
LINE
  5
10D
100
AcDbEntity
  8
0
  6
CONTINUOUS
 62
             200
100
AcDbLine
 10
48.049980812580543
 20
85.735215945812342
 30
0.0
 11
39.949982589972933
 21
81.058677713293946
 31
0.0
  0
LINE
  5
10E
100
AcDbEntity
  8
0
  6
CONTINUOUS
 62
               4
100
AcDbLine
 10
49.0
 20
35.499984741210938
 30
0.0
 11
49.0
 21
59.499984741210938
 31
0.0
  0
LINE
  5
10F
100
AcDbEntity
  8
0
  6
CONTINUOUS
 62
               4
100
AcDbLine
 10
39.0
 20
35.499984741210938
 30
0.0
 11
39.0
 21
59.5
 31
0.0
  0
LINE
  5
110
100
AcDbEntity
  8
0
  6
CONTINUOUS
 62
               4
100
AcDbLine
 10
49.5
 20
10.199981689453125
 30
0.0
 11
51.20001220703125
 21
10.199981689453125
 31
0.0
  0
LINE
  5
111
100
AcDbEntity
  8
0
  6
CONTINUOUS
 62
               4
100
AcDbLine
 10
38.5
 20
-28.199996948242188
 30
0.0
 11
36.79998779296875
 21
-28.199996948242188
 31
0.0
  0
LINE
  5
112
100
AcDbEntity
  8
0
  6
CONTINUOUS
 62
               4
100
AcDbLine
 10
38.5
 20
-22.800010681152344
 30
0.0
 11
36.79998779296875
 21
-22.800010681152344
 31
0.0
  0
LINE
  5
113
100
AcDbEntity
  8
0
  6
CONTINUOUS
 62
               4
100
AcDbLine
 10
49.499984741210938
 20
4.7999992370605469
 30
0.0
 11
51.20001220703125
 21
4.7999992370605469
 31
0.0
  0
LINE
  5
114
100
AcDbEntity
  8
0
  6
CONTINUOUS
 62
               4
100
AcDbLine
 10
51.20001220703125
 20
13.799972534179688
 30
0.0
 11
36.79998779296875
 21
13.799972534179688
 31
0.0
  0
LINE
  5
115
100
AcDbEntity
  8
0
  6
CONTINUOUS
 62
               4
100
AcDbLine
 10
51.20001220703125
 20
-31.800003051757813
 30
0.0
 11
36.79998779296875
 21
-31.800003051757813
 31
0.0
  0
LINE
  5
116
100
AcDbEntity
  8
0
  6
CONTINUOUS
 62
               4
100
AcDbLine
 10
49.5
 20
-24.800006866455078
 30
0.0
 11
51.5
 21
-24.800006866455078
 31
0.0
  0
LINE
  5
117
100
AcDbEntity
  8
0
  6
CONTINUOUS
 62
               4
100
AcDbLine
 10
46.800003051757813
 20
-27.5
 30
0.0
 11
46.800003051757813
 21
-31.800003051757813
 31
0.0
  0
LINE
  5
118
100
AcDbEntity
  8
0
  6
CONTINUOUS
 62
               4
100
AcDbLine
 10
41.20001220703125
 20
13.799972534179688
 30
0.0
 11
41.20001220703125
 21
9.4999847412109375
 31
0.0
  0
LINE
  5
119
100
AcDbEntity
  8
0
  6
CONTINUOUS
 62
               4
100
AcDbLine
 10
50.419260501011479
 20
6.5807941878648535
 30
0.0
 11
48.580789530118011
 21
8.4192656236729135
 31
0.0
  0
LINE
  5
11A
100
AcDbEntity
  8
0
  6
CONTINUOUS
 62
               4
100
AcDbLine
 10
39.419270191974022
 20
8.5807546278084601
 30
0.0
 11
37.580788431488429
 21
10.419236853211373
 31
0.0
  0
LINE
  5
11B
100
AcDbEntity
  8
0
  6
CONTINUOUS
 62
               4
100
AcDbLine
 10
37.580775253138199
 20
8.5807428552252532
 30
0.0
 11
39.419246533974729
 21
10.419213981090252
 31
0.0
  0
LINE
  5
11C
100
AcDbEntity
  8
0
  6
CONTINUOUS
 62
               4
100
AcDbLine
 10
48.580779892099997
 20
6.5807583915759551
 30
0.0
 11
50.419245778139555
 21
8.4192241226444366
 31
0.0
  0
LINE
  5
11D
100
AcDbEntity
  8
0
  6
CONTINUOUS
 62
               7
100
AcDbLine
 10
51.5
 20
-26.469223022460938
 30
0.0
 11
51.5
 21
6.0000114440917969
 31
0.0
  0
LINE
  5
11E
100
AcDbEntity
  8
0
  6
CONTINUOUS
 62
               4
100
AcDbLine
 10
48.899993896484375
 20
73.0
 30
0.0
 11
48.899993896484375
 21
79.499984741210938
 31
0.0
  0
LINE
  5
11F
100
AcDbEntity
  8
0
  6
CONTINUOUS
 62
               4
100
AcDbLine
 10
39.100006103515625
 20
73.0
 30
0.0
 11
39.100006103515625
 21
79.499984741210938
 31
0.0
  0
LINE
  5
120
100
AcDbEntity
  8
0
  6
CONTINUOUS
 62
               4
100
AcDbLine
 10
40.0
 20
73.0
 30
0.0
 11
40.0
 21
79.499984741210938
 31
0.0
  0
LINE
  5
121
100
AcDbEntity
  8
0
  6
CONTINUOUS
 62
               4
100
AcDbLine
 10
48.0
 20
73.0
 30
0.0
 11
48.0
 21
79.499984741210938
 31
0.0
  0
LINE
  5
122
100
AcDbEntity
  8
0
  6
CONTINUOUS
 62
               4
100
AcDbLine
 10
48.580769650414368
 20
-28.419271472652781
 30
0.0
 11
50.419251720844841
 21
-26.580789557194748
 31
0.0
  0
LINE
  5
123
100
AcDbEntity
  8
0
  6
CONTINUOUS
 62
               4
100
AcDbLine
 10
50.419245960345165
 20
-28.419232978964601
 30
0.0
 11
48.58078038424776
 21
-26.580766937953967
 31
0.0
  0
LINE
  5
124
100
AcDbEntity
  8
0
  6
CONTINUOUS
 62
               7
100
AcDbLine
 10
36.5
 20
-23.999996185302734
 30
0.0
 11
36.5
 21
8.4692230224609375
 31
0.0
  0
LINE
  5
125
100
AcDbEntity
  8
0
  6
CONTINUOUS
 62
               7
100
AcDbLine
 10
51.5
 20
-50.5
 30
0.0
 11
51.5
 21
-28.530776977539063
 31
0.0
  0
LINE
  5
126
100
AcDbEntity
  8
0
  6
CONTINUOUS
 62
               7
100
AcDbLine
 10
36.5
 20
-50.5
 30
0.0
 11
36.5
 21
-26.999984741210938
 31
0.0
  0
LINE
  5
127
100
AcDbEntity
  8
0
  6
CONTINUOUS
 62
               7
100
AcDbLine
 10
36.999984741210938
 20
-51.0
 30
0.0
 11
51.0
 21
-51.0
 31
0.0
  0
LINE
  5
128
100
AcDbEntity
  8
0
  6
CONTINUOUS
 62
               7
100
AcDbLine
 10
36.5
 20
10.530731201171875
 30
0.0
 11
36.5
 21
22.499984741210938
 31
0.0
  0
LINE
  5
129
100
AcDbEntity
  8
0
  6
CONTINUOUS
 62
               7
100
AcDbLine
 10
51.5
 20
9.0
 30
0.0
 11
51.5
 21
22.499984741210938
 31
0.0
  0
LINE
  5
12A
100
AcDbEntity
  8
0
  6
CONTINUOUS
 62
               7
100
AcDbLine
 10
39.0
 20
23.999984741210937
 30
0.0
 11
49.0
 21
23.999984741210937
 31
0.0
  0
LINE
  5
12B
100
AcDbEntity
  8
0
  6
CONTINUOUS
 62
               7
100
AcDbLine
 10
49.499954714616251
 20
24.499987472068824
 30
0.0
 11
51.499978248391926
 21
22.499963601114359
 31
0.0
  0
LINE
  5
12C
100
AcDbEntity
  8
0
  6
CONTINUOUS
 62
               7
100
AcDbLine
 10
36.499984741210937
 20
-42.0
 30
0.0
 11
51.5
 21
-42.0
 31
0.0
  0
LINE
  5
12D
100
AcDbEntity
  8
0
  6
CONTINUOUS
 62
               7
100
AcDbLine
 10
36.5
 20
13.999984741210938
 30
0.0
 11
51.5
 21
13.999984741210938
 31
0.0
  0
LINE
  5
12E
100
AcDbEntity
  8
0
  6
CONTINUOUS
 62
               7
100
AcDbLine
 10
36.5
 20
-32.0
 30
0.0
 11
51.5
 21
-32.0
 31
0.0
  0
LINE
  5
12F
100
AcDbEntity
  8
0
  6
CONTINUOUS
 62
               4
100
AcDbLine
 10
39.419248233466703
 20
-26.419236798491625
 30
0.0
 11
37.580777262573235
 21
-24.580765362683564
 31
0.0
  0
LINE
  5
130
100
AcDbEntity
  8
0
  6
CONTINUOUS
 62
               4
100
AcDbLine
 10
37.580796705884836
 20
-26.419253965874759
 30
0.0
 11
39.419267986721366
 21
-24.580782840009761
 31
0.0
  0
LINE
  5
131
100
AcDbEntity
  8
0
  6
CONTINUOUS
 62
               7
100
AcDbLine
 10
37.5
 20
-42.0
 30
0.0
 11
37.5
 21
-40.0
 31
0.0
  0
LINE
  5
132
100
AcDbEntity
  8
0
  6
CONTINUOUS
 62
               7
100
AcDbLine
 10
38.0
 20
-40.0
 30
0.0
 11
36.5
 21
-40.0
 31
0.0
  0
LINE
  5
133
100
AcDbEntity
  8
0
  6
CONTINUOUS
 62
               7
100
AcDbLine
 10
38.0
 20
-34.0
 30
0.0
 11
36.5
 21
-34.0
 31
0.0
  0
LINE
  5
134
100
AcDbEntity
  8
0
  6
CONTINUOUS
 62
               7
100
AcDbLine
 10
37.5
 20
-32.0
 30
0.0
 11
37.5
 21
-34.0
 31
0.0
  0
LINE
  5
135
100
AcDbEntity
  8
0
  6
CONTINUOUS
 62
               7
100
AcDbLine
 10
50.5
 20
-32.0
 30
0.0
 11
50.5
 21
-34.0
 31
0.0
  0
LINE
  5
136
100
AcDbEntity
  8
0
  6
CONTINUOUS
 62
               7
100
AcDbLine
 10
50.0
 20
-34.0
 30
0.0
 11
51.5
 21
-34.0
 31
0.0
  0
LINE
  5
137
100
AcDbEntity
  8
0
  6
CONTINUOUS
 62
               7
100
AcDbLine
 10
50.0
 20
-40.0
 30
0.0
 11
51.5
 21
-40.0
 31
0.0
  0
LINE
  5
138
100
AcDbEntity
  8
0
  6
CONTINUOUS
 62
               7
100
AcDbLine
 10
50.5
 20
-42.0
 30
0.0
 11
50.5
 21
-40.0
 31
0.0
  0
LINE
  5
139
100
AcDbEntity
  8
0
  6
CONTINUOUS
 62
               7
100
AcDbLine
 10
42.073211669921875
 20
-38.300003051757813
 30
0.0
 11
45.926788330078125
 21
-38.300003051757813
 31
0.0
  0
LINE
  5
13A
100
AcDbEntity
  8
0
  6
CONTINUOUS
 62
               2
100
AcDbLine
 10
41.383331298828125
 20
-38.0
 30
0.0
 11
46.616668701171875
 21
-38.0
 31
0.0
  0
LINE
  5
13B
100
AcDbEntity
  8
0
  6
CONTINUOUS
 62
               7
100
AcDbLine
 10
42.073211669921875
 20
-37.699996948242187
 30
0.0
 11
45.926788330078125
 21
-37.699996948242187
 31
0.0
  0
LINE
  5
13C
100
AcDbEntity
  8
0
  6
CONTINUOUS
 62
               7
100
AcDbLine
 10
41.499995231628418
 20
-38.0
 30
0.0
 11
40.499995231628418
 21
-38.0
 31
0.0
  0
LINE
  5
13D
100
AcDbEntity
  8
0
  6
CONTINUOUS
 62
               7
100
AcDbLine
 10
44.000000921075298
 20
-34.5
 30
0.0
 11
44.000000921075298
 21
-35.5
 31
0.0
  0
LINE
  5
13E
100
AcDbEntity
  8
0
  6
CONTINUOUS
 62
               7
100
AcDbLine
 10
43.999995598573435
 20
-35.000001498533777
 30
0.0
 11
42.999996370876033
 21
-34.73205237084585
 31
0.0
  0
LINE
  5
13F
100
AcDbEntity
  8
0
  6
CONTINUOUS
 62
               7
100
AcDbLine
 10
38.5
 20
24.499984741210938
 30
0.0
 11
39.0
 21
24.499984741210938
 31
0.0
  0
LINE
  5
140
100
AcDbEntity
  8
0
  6
CONTINUOUS
 62
               7
100
AcDbLine
 10
38.500009587001841
 20
24.499985154001479
 30
0.0
 11
36.500008475348295
 21
22.499982019297022
 31
0.0
  0
LINE
  5
141
100
AcDbEntity
  8
0
  6
CONTINUOUS
 62
               7
100
AcDbLine
 10
49.5
 20
24.499984741210938
 30
0.0
 11
49.0
 21
24.499984741210938
 31
0.0
  0
LINE
  5
142
100
AcDbEntity
  8
0
  6
CONTINUOUS
 62
               7
100
AcDbLine
 10
43.999996467425603
 20
29.199978468269705
 30
0.0
 11
44.999995756830231
 21
28.932029525703456
 31
0.0
  0
LINE
  5
143
100
AcDbEntity
  8
0
  6
CONTINUOUS
 62
               7
100
AcDbLine
 10
44.0
 20
28.699981689453125
 30
0.0
 11
44.0
 21
29.699981689453125
 31
0.0
  0
LINE
  5
144
100
AcDbEntity
  8
0
  6
CONTINUOUS
 62
               7
100
AcDbLine
 10
46.5
 20
32.199981689453125
 30
0.0
 11
47.5
 21
32.199981689453125
 31
0.0
  0
CIRCLE
  5
145
100
AcDbEntity
  8
0
  6
CONTINUOUS
 62
               7
100
AcDbCircle
 10
44.0
 20
32.199981689453125
 30
0.0
 40
2.0
  0
CIRCLE
  5
146
100
AcDbEntity
  8
0
  6
CONTINUOUS
 62
               7
100
AcDbCircle
 10
44.0
 20
32.199981689453125
 30
0.0
 40
1.9499998092651367
  0
ARC
  5
147
100
AcDbEntity
  8
0
  6
CONTINUOUS
 62
               4
100
AcDbCircle
 10
48.449996948242187
 20
68.0
 30
0.0
 40
0.5
100
AcDbArc
 50
359.99995901886416
 51
89.999982013910454
  0
ARC
  5
148
100
AcDbEntity
  8
0
  6
CONTINUOUS
 62
               4
100
AcDbCircle
 10
39.550003051757813
 20
68.0
 30
0.0
 40
0.5
100
AcDbArc
 50
89.999982013910454
 51
179.99996402782091
  0
ARC
  5
149
100
AcDbEntity
  8
0
  6
CONTINUOUS
 62
               4
100
AcDbCircle
 10
49.499984741210938
 20
7.4999847412109375
 30
0.0
 40
2.6999998092651367
100
AcDbArc
 50
89.999982013910454
 51
270.00000068324471
  0
ARC
  5
14A
100
AcDbEntity
  8
0
  6
CONTINUOUS
 62
               4
100
AcDbCircle
 10
38.5
 20
-25.5
 30
0.0
 40
2.6999998092651367
100
AcDbArc
 50
270.00001798608872
 51
89.999982013910454
  0
CIRCLE
  5
14B
100
AcDbEntity
  8
0
  6
CONTINUOUS
 62
               4
100
AcDbCircle
 10
49.5
 20
7.5
 30
0.0
 40
2.25
  0
ARC
  5
14C
100
AcDbEntity
  8
0
  6
CONTINUOUS
 62
               4
100
AcDbCircle
 10
38.5
 20
9.5
 30
0.0
 40
2.6999998092651367
100
AcDbArc
 50
270.00001798608872
 51
0.0
  0
ARC
  5
14D
100
AcDbEntity
  8
0
  6
CONTINUOUS
 62
               4
100
AcDbCircle
 10
51.20001220703125
 20
10.499969482421875
 30
0.0
 40
0.300000011920929
100
AcDbArc
 50
270.00001798608872
 51
0.0
  0
ARC
  5
14E
100
AcDbEntity
  8
0
  6
CONTINUOUS
 62
               7
100
AcDbCircle
 10
36.800003051757813
 20
-22.500015258789063
 30
0.0
 40
0.300000011920929
100
AcDbArc
 50
179.99996402782091
 51
270.00000068324471
  0
ARC
  5
14F
100
AcDbEntity
  8
0
  6
CONTINUOUS
 62
               4
100
AcDbCircle
 10
51.20001220703125
 20
4.4999961853027344
 30
0.0
 40
0.300000011920929
100
AcDbArc
 50
0.0
 51
89.999982013910454
  0
ARC
  5
150
100
AcDbEntity
  8
0
  6
CONTINUOUS
 62
               4
100
AcDbCircle
 10
36.800003051757813
 20
-28.5
 30
0.0
 40
0.300000011920929
100
AcDbArc
 50
89.999982013910454
 51
179.99996402782091
  0
ARC
  5
151
100
AcDbEntity
  8
0
  6
CONTINUOUS
 62
               4
100
AcDbCircle
 10
36.79998779296875
 20
13.5
 30
0.0
 40
0.300000011920929
100
AcDbArc
 50
89.999982013910454
 51
179.99996402782091
  0
ARC
  5
152
100
AcDbEntity
  8
0
  6
CONTINUOUS
 62
               4
100
AcDbCircle
 10
51.20001220703125
 20
13.499984741210937
 30
0.0
 40
0.300000011920929
100
AcDbArc
 50
0.0
 51
89.999982013910454
  0
ARC
  5
153
100
AcDbEntity
  8
0
  6
CONTINUOUS
 62
               4
100
AcDbCircle
 10
51.20001220703125
 20
-31.5
 30
0.0
 40
0.300000011920929
100
AcDbArc
 50
270.00001798608872
 51
0.0
  0
ARC
  5
154
100
AcDbEntity
  8
0
  6
CONTINUOUS
 62
               4
100
AcDbCircle
 10
36.800003051757813
 20
-31.5
 30
0.0
 40
0.300000011920929
100
AcDbArc
 50
179.99996402782091
 51
270.00000068324471
  0
ARC
  5
155
100
AcDbEntity
  8
0
  6
CONTINUOUS
 62
               4
100
AcDbCircle
 10
49.5
 20
-27.5
 30
0.0
 40
2.6999998092651367
100
AcDbArc
 50
89.999982013910454
 51
179.99996402782091
  0
CIRCLE
  5
156
100
AcDbEntity
  8
0
  6
CONTINUOUS
 62
               4
100
AcDbCircle
 10
38.5
 20
9.4999847412109375
 30
0.0
 40
2.25
  0
CIRCLE
  5
157
100
AcDbEntity
  8
0
  6
CONTINUOUS
 62
               4
100
AcDbCircle
 10
49.5
 20
-27.5
 30
0.0
 40
2.25
  0
ARC
  5
158
100
AcDbEntity
  8
0
  6
CONTINUOUS
 62
               7
100
AcDbCircle
 10
51.0
 20
-50.5
 30
0.0
 40
0.5
100
AcDbArc
 50
270.00001798608872
 51
0.00001366037834
  0
ARC
  5
159
100
AcDbEntity
  8
0
  6
CONTINUOUS
 62
               7
100
AcDbCircle
 10
37.0
 20
-50.5
 30
0.0
 40
0.5
100
AcDbArc
 50
179.99996402782091
 51
269.99994604173139
  0
CIRCLE
  5
15A
100
AcDbEntity
  8
0
  6
CONTINUOUS
 62
               4
100
AcDbCircle
 10
38.5
 20
-25.499984741210937
 30
0.0
 40
2.25
  0
CIRCLE
  5
15B
100
AcDbEntity
  8
0
  6
CONTINUOUS
 62
               7
100
AcDbCircle
 10
44.0
 20
-38.0
 30
0.0
 40
1.9499998092651367
  0
ARC
  5
15C
100
AcDbEntity
  8
0
  6
CONTINUOUS
 62
               7
100
AcDbCircle
 10
43.899994730949402
 20
-38.0
 30
0.0
 40
3.0
100
AcDbArc
 50
88.08976934835465
 51
179.99996402782091
  0
ARC
  5
15D
100
AcDbEntity
  8
0
  6
CONTINUOUS
 62
               7
100
AcDbCircle
 10
43.999994700046955
 20
-38.0
 30
0.0
 40
3.0
100
AcDbArc
 50
86.177425663777811
 51
183.82257501946691
  0
ARC
  5
15E
100
AcDbEntity
  8
0
  6
CONTINUOUS
 62
               7
100
AcDbCircle
 10
44.099994659423828
 20
-38.0
 30
0.0
 40
3.0
100
AcDbArc
 50
91.910194679466258
 51
179.99996402782091
  0
CIRCLE
  5
15F
100
AcDbEntity
  8
0
  6
CONTINUOUS
 62
               4
100
AcDbCircle
 10
49.5
 20
7.5
 30
0.0
 40
2.5
  0
CIRCLE
  5
160
100
AcDbEntity
  8
0
  6
CONTINUOUS
 62
               4
100
AcDbCircle
 10
38.5
 20
-25.499984741210937
 30
0.0
 40
2.5
  0
ARC
  5
161
100
AcDbEntity
  8
0
  6
CONTINUOUS
 62
               7
100
AcDbCircle
 10
43.900000035762787
 20
32.199981689453125
 30
0.0
 40
3.0
100
AcDbArc
 50
271.91023065164455
 51
0.0
  0
ARC
  5
162
100
AcDbEntity
  8
0
  6
CONTINUOUS
 62
               7
100
AcDbCircle
 10
44.0
 20
32.199981689453125
 30
0.0
 40
3.0
100
AcDbArc
 50
266.17746163595609
 51
3.822566595416411
  0
ARC
  5
163
100
AcDbEntity
  8
0
  6
CONTINUOUS
 62
               7
100
AcDbCircle
 10
44.099999964237213
 20
32.199981689453125
 30
0.0
 40
3.0
100
AcDbArc
 50
268.089805320533
 51
0.0
  0
LINE
  5
164
100
AcDbEntity
  8
0
  6
CONTINUOUS
 62
               4
100
AcDbLine
 10
46.892319037918952
 20
6.799980926513669
 30
0.0
 11
36.49999999403957
 21
6.799980926513669
 31
0.0
  0
LINE
  5
165
100
AcDbEntity
  8
0
  6
CONTINUOUS
 62
               4
100
AcDbLine
 10
41.078322088718437
 20
-24.698610769274374
 30
0.0
 11
51.500000005960487
 21
-24.698610769274374
 31
0.0
  0
CIRCLE
  5
166
100
AcDbEntity
  8
0
  6
CONTINUOUS
 62
               4
100
AcDbCircle
 10
44.0
 20
-1.2500152587890625
 30
0.0
 40
7.4500000000000002
  0
ARC
  5
167
100
AcDbEntity
  8
0
  6
CONTINUOUS
 62
               4
100
AcDbCircle
 10
44.0
 20
-1.2500152587890625
 30
0.0
 40
6.9000000000000004
100
AcDbArc
 50
8.6933494299441101
 51
171.3066505700555
  0
CIRCLE
  5
168
100
AcDbEntity
  8
0
  6
CONTINUOUS
 62
               4
100
AcDbCircle
 10
44.0
 20
-1.2500152587890625
 30
0.0
 40
4.0499999999999998
  0
CIRCLE
  5
169
100
AcDbEntity
  8
0
  6
CONTINUOUS
 62
               4
100
AcDbCircle
 10
44.0
 20
-1.2500152587890625
 30
0.0
 40
3.0499999999999998
  0
ARC
  5
16A
100
AcDbEntity
  8
0
  6
CONTINUOUS
 62
               4
100
AcDbCircle
 10
44.0
 20
-1.2500152587890625
 30
0.0
 40
6.9000000000000004
100
AcDbArc
 50
188.69334942994371
 51
351.30665057005507
  0
CIRCLE
  5
16B
100
AcDbEntity
  8
0
  6
CONTINUOUS
 62
               4
100
AcDbCircle
 10
44.0
 20
-16.750015258789063
 30
0.0
 40
7.4500000000000002
  0
ARC
  5
16C
100
AcDbEntity
  8
0
  6
CONTINUOUS
 62
               4
100
AcDbCircle
 10
44.0
 20
-16.750015258789063
 30
0.0
 40
6.9000000000000004
100
AcDbArc
 50
8.6933494299441101
 51
171.3066505700555
  0
CIRCLE
  5
16D
100
AcDbEntity
  8
0
  6
CONTINUOUS
 62
               4
100
AcDbCircle
 10
44.0
 20
-16.750015258789063
 30
0.0
 40
4.0499999999999998
  0
CIRCLE
  5
16E
100
AcDbEntity
  8
0
  6
CONTINUOUS
 62
               4
100
AcDbCircle
 10
44.0
 20
-16.750015258789063
 30
0.0
 40
3.0499999999999998
  0
ARC
  5
16F
100
AcDbEntity
  8
0
  6
CONTINUOUS
 62
               4
100
AcDbCircle
 10
44.0
 20
-16.750015258789063
 30
0.0
 40
6.9000000000000004
100
AcDbArc
 50
188.69334942994371
 51
351.30665057005507
  0
LINE
  5
170
100
AcDbEntity
  8
0
  6
CONTINUOUS
 62
               4
100
AcDbLine
 10
37.600000000000023
 20
-0.4500152587890511
 30
0.0
 11
37.179271080214278
 21
-0.2071073036949258
 31
0.0
  0
LINE
  5
171
100
AcDbEntity
  8
0
  6
CONTINUOUS
 62
               4
100
AcDbLine
 10
37.600000000000023
 20
-2.0500152587890668
 30
0.0
 11
37.179271080214278
 21
-2.2929232138832063
 31
0.0
  0
LINE
  5
172
100
AcDbEntity
  8
0
  6
CONTINUOUS
 62
               4
100
AcDbLine
 10
37.600000000000023
 20
-2.0500152587890668
 30
0.0
 11
37.600000000000023
 21
-0.4500152647495384
 31
0.0
  0
LINE
  5
173
100
AcDbEntity
  8
0
  6
CONTINUOUS
 62
               4
100
AcDbLine
 10
37.600000000000023
 20
-17.55001525878906
 30
0.0
 11
37.179271080214278
 21
-17.792923213883206
 31
0.0
  0
LINE
  5
174
100
AcDbEntity
  8
0
  6
CONTINUOUS
 62
               4
100
AcDbLine
 10
37.600000000000023
 20
-15.950015258789065
 30
0.0
 11
37.179271080214278
 21
-15.707107303694919
 31
0.0
  0
LINE
  5
175
100
AcDbEntity
  8
0
  6
CONTINUOUS
 62
               4
100
AcDbLine
 10
37.600000000000023
 20
-17.55001525878906
 30
0.0
 11
37.600000000000023
 21
-15.950015264749524
 31
0.0
  0
ARC
  5
176
100
AcDbEntity
  8
0
  6
CONTINUOUS
 62
               4
100
AcDbCircle
 10
45.050000000000011
 20
-8.9285567869700486
 30
0.0
 40
0.3
100
AcDbArc
 50
97.786600724137088
 51
179.99999999999963
  0
ARC
  5
177
100
AcDbEntity
  8
0
  6
CONTINUOUS
 62
               4
100
AcDbCircle
 10
45.050000000000011
 20
-9.0714737306080764
 30
0.0
 40
0.3
100
AcDbArc
 50
179.99999999999963
 51
262.21339927586212
  0
ARC
  5
178
100
AcDbEntity
  8
0
  6
CONTINUOUS
 62
               4
100
AcDbCircle
 10
42.950000000000017
 20
-8.9285567869700486
 30
0.0
 40
0.3
100
AcDbArc
 50
0.0
 51
82.213399275863864
  0
ARC
  5
179
100
AcDbEntity
  8
0
  6
CONTINUOUS
 62
               4
100
AcDbCircle
 10
42.950000000000017
 20
-9.0714737306080764
 30
0.0
 40
0.3
100
AcDbArc
 50
277.78660072413879
 51
0.0
  0
LINE
  5
17A
100
AcDbEntity
  8
0
  6
CONTINUOUS
 62
               4
100
AcDbLine
 10
44.75
 20
-9.0714737306080764
 30
0.0
 11
44.75
 21
-8.9285567869700486
 31
0.0
  0
LINE
  5
17B
100
AcDbEntity
  8
0
  6
CONTINUOUS
 62
               4
100
AcDbLine
 10
43.25
 20
-9.0714737306080764
 30
0.0
 11
43.25
 21
-8.9285567869700486
 31
0.0
  0
LINE
  5
17C
100
AcDbEntity
  8
0
  6
CONTINUOUS
 62
               4
100
AcDbLine
 10
50.400000000000034
 20
-17.55001525878906
 30
0.0
 11
50.400000000000034
 21
-15.950015264749524
 31
0.0
  0
LINE
  5
17D
100
AcDbEntity
  8
0
  6
CONTINUOUS
 62
               4
100
AcDbLine
 10
50.400000000000034
 20
-15.950015258789065
 30
0.0
 11
50.820728919785722
 21
-15.707107303694919
 31
0.0
  0
LINE
  5
17E
100
AcDbEntity
  8
0
  6
CONTINUOUS
 62
               4
100
AcDbLine
 10
50.400000000000034
 20
-17.55001525878906
 30
0.0
 11
50.820728919785722
 21
-17.792923213883206
 31
0.0
  0
LINE
  5
17F
100
AcDbEntity
  8
0
  6
CONTINUOUS
 62
               4
100
AcDbLine
 10
50.400000000000034
 20
-2.0500152587890668
 30
0.0
 11
50.400000000000034
 21
-0.4500152647495384
 31
0.0
  0
LINE
  5
180
100
AcDbEntity
  8
0
  6
CONTINUOUS
 62
               4
100
AcDbLine
 10
50.400000000000034
 20
-0.4500152587890511
 30
0.0
 11
50.820728919785722
 21
-0.2071073036949258
 31
0.0
  0
LINE
  5
181
100
AcDbEntity
  8
0
  6
CONTINUOUS
 62
               4
100
AcDbLine
 10
50.400000000000034
 20
-2.0500152587890668
 30
0.0
 11
50.820728919785722
 21
-2.2929232138832063
 31
0.0
  0
LINE
  5
182
100
AcDbEntity
  8
0
  6
CONTINUOUS
 62
               4
100
AcDbLine
 10
18.400000000000034
 20
-17.549999999999997
 30
0.0
 11
18.400000000000034
 21
-15.950000005960462
 31
0.0
  0
LINE
  5
183
100
AcDbEntity
  8
0
  6
CONTINUOUS
 62
               4
100
AcDbLine
 10
18.400000000000034
 20
-15.950000000000003
 30
0.0
 11
18.820728919785722
 21
-15.707092044905856
 31
0.0
  0
LINE
  5
184
100
AcDbEntity
  8
0
  6
CONTINUOUS
 62
               4
100
AcDbLine
 10
18.400000000000034
 20
-17.549999999999997
 30
0.0
 11
18.820728919785722
 21
-17.792907955094144
 31
0.0
  0
LINE
  5
185
100
AcDbEntity
  8
0
  6
CONTINUOUS
 62
               4
100
AcDbLine
 10
18.400000000000034
 20
-2.0500000000000043
 30
0.0
 11
18.400000000000034
 21
-0.4500000059604759
 31
0.0
  0
LINE
  5
186
100
AcDbEntity
  8
0
  6
CONTINUOUS
 62
               4
100
AcDbLine
 10
18.400000000000034
 20
-0.4499999999999886
 30
0.0
 11
18.820728919785722
 21
-0.2070920449058633
 31
0.0
  0
LINE
  5
187
100
AcDbEntity
  8
0
  6
CONTINUOUS
 62
               4
100
AcDbLine
 10
18.400000000000034
 20
-2.0500000000000043
 30
0.0
 11
18.820728919785722
 21
-2.2929079550941438
 31
0.0
  0
ARC
  5
188
100
AcDbEntity
  8
0
  6
CONTINUOUS
 62
               4
100
AcDbCircle
 10
13.050000000000011
 20
-8.9285415281809861
 30
0.0
 40
0.3
100
AcDbArc
 50
97.786600724137088
 51
179.99999999999963
  0
ARC
  5
189
100
AcDbEntity
  8
0
  6
CONTINUOUS
 62
               4
100
AcDbCircle
 10
13.050000000000011
 20
-9.0714584718190139
 30
0.0
 40
0.3
100
AcDbArc
 50
179.99999999999963
 51
262.21339927586212
  0
ARC
  5
18A
100
AcDbEntity
  8
0
  6
CONTINUOUS
 62
               4
100
AcDbCircle
 10
10.950000000000017
 20
-8.9285415281809861
 30
0.0
 40
0.3
100
AcDbArc
 50
0.0
 51
82.213399275863864
  0
ARC
  5
18B
100
AcDbEntity
  8
0
  6
CONTINUOUS
 62
               4
100
AcDbCircle
 10
10.950000000000017
 20
-9.0714584718190139
 30
0.0
 40
0.3
100
AcDbArc
 50
277.78660072413879
 51
0.0
  0
LINE
  5
18C
100
AcDbEntity
  8
0
  6
CONTINUOUS
 62
               4
100
AcDbLine
 10
12.75
 20
-9.0714584718190139
 30
0.0
 11
12.75
 21
-8.9285415281809861
 31
0.0
  0
LINE
  5
18D
100
AcDbEntity
  8
0
  6
CONTINUOUS
 62
               4
100
AcDbLine
 10
11.25
 20
-9.0714584718190139
 30
0.0
 11
11.25
 21
-8.9285415281809861
 31
0.0
  0
LINE
  5
18E
100
AcDbEntity
  8
0
  6
CONTINUOUS
 62
               4
100
AcDbLine
 10
5.6000000000000227
 20
-0.4499999999999886
 30
0.0
 11
5.1792710802142778
 21
-0.2070920449058633
 31
0.0
  0
LINE
  5
18F
100
AcDbEntity
  8
0
  6
CONTINUOUS
 62
               4
100
AcDbLine
 10
5.6000000000000227
 20
-2.0500000000000043
 30
0.0
 11
5.1792710802142778
 21
-2.2929079550941438
 31
0.0
  0
LINE
  5
190
100
AcDbEntity
  8
0
  6
CONTINUOUS
 62
               4
100
AcDbLine
 10
5.6000000000000227
 20
-2.0500000000000043
 30
0.0
 11
5.6000000000000227
 21
-0.4500000059604759
 31
0.0
  0
LINE
  5
191
100
AcDbEntity
  8
0
  6
CONTINUOUS
 62
               4
100
AcDbLine
 10
5.6000000000000227
 20
-17.549999999999997
 30
0.0
 11
5.1792710802142778
 21
-17.792907955094144
 31
0.0
  0
LINE
  5
192
100
AcDbEntity
  8
0
  6
CONTINUOUS
 62
               4
100
AcDbLine
 10
5.6000000000000227
 20
-15.950000000000003
 30
0.0
 11
5.1792710802142778
 21
-15.707092044905856
 31
0.0
  0
LINE
  5
193
100
AcDbEntity
  8
0
  6
CONTINUOUS
 62
               4
100
AcDbLine
 10
5.6000000000000227
 20
-17.549999999999997
 30
0.0
 11
5.6000000000000227
 21
-15.950000005960462
 31
0.0
  0
ARC
  5
194
100
AcDbEntity
  8
0
  6
CONTINUOUS
 62
               4
100
AcDbCircle
 10
12.0
 20
-16.75
 30
0.0
 40
6.9000000000000004
100
AcDbArc
 50
188.69334942994371
 51
351.30665057005507
  0
CIRCLE
  5
195
100
AcDbEntity
  8
0
  6
CONTINUOUS
 62
               4
100
AcDbCircle
 10
12.0
 20
-16.75
 30
0.0
 40
3.0499999999999998
  0
CIRCLE
  5
196
100
AcDbEntity
  8
0
  6
CONTINUOUS
 62
               4
100
AcDbCircle
 10
12.0
 20
-16.75
 30
0.0
 40
4.0499999999999998
  0
ARC
  5
197
100
AcDbEntity
  8
0
  6
CONTINUOUS
 62
               4
100
AcDbCircle
 10
12.0
 20
-16.75
 30
0.0
 40
6.9000000000000004
100
AcDbArc
 50
8.6933494299441101
 51
171.3066505700555
  0
CIRCLE
  5
198
100
AcDbEntity
  8
0
  6
CONTINUOUS
 62
               4
100
AcDbCircle
 10
12.0
 20
-16.75
 30
0.0
 40
7.4500000000000002
  0
ARC
  5
199
100
AcDbEntity
  8
0
  6
CONTINUOUS
 62
               4
100
AcDbCircle
 10
12.0
 20
-1.25
 30
0.0
 40
6.9000000000000004
100
AcDbArc
 50
188.69334942994371
 51
351.30665057005507
  0
CIRCLE
  5
19A
100
AcDbEntity
  8
0
  6
CONTINUOUS
 62
               4
100
AcDbCircle
 10
12.0
 20
-1.25
 30
0.0
 40
3.0499999999999998
  0
CIRCLE
  5
19B
100
AcDbEntity
  8
0
  6
CONTINUOUS
 62
               4
100
AcDbCircle
 10
12.0
 20
-1.25
 30
0.0
 40
4.0499999999999998
  0
ARC
  5
19C
100
AcDbEntity
  8
0
  6
CONTINUOUS
 62
               4
100
AcDbCircle
 10
12.0
 20
-1.25
 30
0.0
 40
6.9000000000000004
100
AcDbArc
 50
8.6933494299441101
 51
171.3066505700555
  0
CIRCLE
  5
19D
100
AcDbEntity
  8
0
  6
CONTINUOUS
 62
               4
100
AcDbCircle
 10
12.0
 20
-1.25
 30
0.0
 40
7.4500000000000002
  0
LINE
  5
19E
100
AcDbEntity
  8
0
  6
CONTINUOUS
 62
               4
100
AcDbLine
 10
9.078322088718437
 20
-24.698595510485312
 30
0.0
 11
19.500000005960487
 21
-24.698595510485312
 31
0.0
  0
LINE
  5
19F
100
AcDbEntity
  8
0
  6
CONTINUOUS
 62
               4
100
AcDbLine
 10
14.892319037918952
 20
6.7999961853027315
 30
0.0
 11
4.4999999940395696
 21
6.7999961853027315
 31
0.0
  0
CIRCLE
  5
1A0
100
AcDbEntity
  8
0
  6
CONTINUOUS
 62
               4
100
AcDbCircle
 10
6.5
 20
-25.499984741210937
 30
0.0
 40
2.5
  0
CIRCLE
  5
1A1
100
AcDbEntity
  8
0
  6
CONTINUOUS
 62
               4
100
AcDbCircle
 10
17.5
 20
7.5000152587890625
 30
0.0
 40
2.5
  0
ARC
  5
1A2
100
AcDbEntity
  8
0
  6
CONTINUOUS
 62
               7
100
AcDbCircle
 10
11.899993896484375
 20
32.199996948242188
 30
0.0
 40
3.0
100
AcDbArc
 50
271.91023065164455
 51
0.0
  0
ARC
  5
1A3
100
AcDbEntity
  8
0
  6
CONTINUOUS
 62
               7
100
AcDbCircle
 10
12.0
 20
32.199996948242188
 30
0.0
 40
3.0
100
AcDbArc
 50
266.17746163595609
 51
3.822566595416411
  0
ARC
  5
1A4
100
AcDbEntity
  8
0
  6
CONTINUOUS
 62
               7
100
AcDbCircle
 10
12.099990844726563
 20
32.199996948242188
 30
0.0
 40
3.0
100
AcDbArc
 50
268.089805320533
 51
0.0
  0
CIRCLE
  5
1A5
100
AcDbEntity
  8
0
  6
CONTINUOUS
 62
               7
100
AcDbCircle
 10
72.0
 20
-18.000015258789063
 30
0.0
 40
2.25
  0
CIRCLE
  5
1A6
100
AcDbEntity
  8
0
  6
CONTINUOUS
 62
               7
100
AcDbCircle
 10
72.0
 20
0.0
 30
0.0
 40
2.25
  0
CIRCLE
  5
1A7
100
AcDbEntity
  8
0
  6
CONTINUOUS
 62
               7
100
AcDbCircle
 10
0.0
 20
-18.000015258789063
 30
0.0
 40
2.25
  0
CIRCLE
  5
1A8
100
AcDbEntity
  8
0
  6
CONTINUOUS
 62
               7
100
AcDbCircle
 10
0.0
 20
0.0
 30
0.0
 40
2.25
  0
CIRCLE
  5
1A9
100
AcDbEntity
  8
0
  6
CONTINUOUS
 62
               4
100
AcDbCircle
 10
6.5
 20
-25.499984741210937
 30
0.0
 40
2.25
  0
CIRCLE
  5
1AA
100
AcDbEntity
  8
0
  6
CONTINUOUS
 62
               4
100
AcDbCircle
 10
17.5
 20
7.5000152587890625
 30
0.0
 40
2.25
  0
CIRCLE
  5
1AB
100
AcDbEntity
  8
0
  6
CONTINUOUS
 62
               4
100
AcDbCircle
 10
54.5
 20
-25.499984741210937
 30
0.0
 40
2.25
  0
ARC
  5
1AC
100
AcDbEntity
  8
0
  6
CONTINUOUS
 62
               7
100
AcDbCircle
 10
5.0
 20
-50.5
 30
0.0
 40
0.5
100
AcDbArc
 50
179.99996402782091
 51
269.99994604173139
  0
ARC
  5
1AD
100
AcDbEntity
  8
0
  6
CONTINUOUS
 62
               7
100
AcDbCircle
 10
19.0
 20
-50.5
 30
0.0
 40
0.5
100
AcDbArc
 50
270.00001798608872
 51
0.00001366037834
  0
CIRCLE
  5
1AE
100
AcDbEntity
  8
0
  6
CONTINUOUS
 62
               4
100
AcDbCircle
 10
17.5
 20
-27.5
 30
0.0
 40
2.25
  0
CIRCLE
  5
1AF
100
AcDbEntity
  8
0
  6
CONTINUOUS
 62
               4
100
AcDbCircle
 10
6.5
 20
9.5
 30
0.0
 40
2.25
  0
ARC
  5
1B0
100
AcDbEntity
  8
0
  6
CONTINUOUS
 62
               4
100
AcDbCircle
 10
17.5
 20
-27.5
 30
0.0
 40
2.6999998092651367
100
AcDbArc
 50
89.999982013910454
 51
179.99996402782091
  0
ARC
  5
1B1
100
AcDbEntity
  8
0
  6
CONTINUOUS
 62
               4
100
AcDbCircle
 10
4.8000030517578125
 20
-31.5
 30
0.0
 40
0.300000011920929
100
AcDbArc
 50
179.99996402782091
 51
270.00000068324471
  0
ARC
  5
1B2
100
AcDbEntity
  8
0
  6
CONTINUOUS
 62
               4
100
AcDbCircle
 10
19.20001220703125
 20
-31.5
 30
0.0
 40
0.300000011920929
100
AcDbArc
 50
270.00001798608872
 51
0.0
  0
ARC
  5
1B3
100
AcDbEntity
  8
0
  6
CONTINUOUS
 62
               4
100
AcDbCircle
 10
19.20001220703125
 20
13.5
 30
0.0
 40
0.300000011920929
100
AcDbArc
 50
0.0
 51
89.999982013910454
  0
ARC
  5
1B4
100
AcDbEntity
  8
0
  6
CONTINUOUS
 62
               4
100
AcDbCircle
 10
4.79998779296875
 20
13.500015258789063
 30
0.0
 40
0.300000011920929
100
AcDbArc
 50
89.999982013910454
 51
179.99996402782091
  0
ARC
  5
1B5
100
AcDbEntity
  8
0
  6
CONTINUOUS
 62
               4
100
AcDbCircle
 10
4.8000030517578125
 20
-28.5
 30
0.0
 40
0.300000011920929
100
AcDbArc
 50
89.999982013910454
 51
179.99996402782091
  0
ARC
  5
1B6
100
AcDbEntity
  8
0
  6
CONTINUOUS
 62
               4
100
AcDbCircle
 10
19.20001220703125
 20
4.5
 30
0.0
 40
0.300000011920929
100
AcDbArc
 50
0.0
 51
89.999982013910454
  0
ARC
  5
1B7
100
AcDbEntity
  8
0
  6
CONTINUOUS
 62
               4
100
AcDbCircle
 10
4.8000030517578125
 20
-22.500015258789063
 30
0.0
 40
0.300000011920929
100
AcDbArc
 50
179.99996402782091
 51
270.00000068324471
  0
ARC
  5
1B8
100
AcDbEntity
  8
0
  6
CONTINUOUS
 62
               4
100
AcDbCircle
 10
19.20001220703125
 20
10.499984741210937
 30
0.0
 40
0.300000011920929
100
AcDbArc
 50
270.00001798608872
 51
0.0
  0
ARC
  5
1B9
100
AcDbEntity
  8
0
  6
CONTINUOUS
 62
               4
100
AcDbCircle
 10
6.5
 20
9.5000152587890625
 30
0.0
 40
2.6999998092651367
100
AcDbArc
 50
270.00001798608872
 51
0.0
  0
CIRCLE
  5
1BA
100
AcDbEntity
  8
0
  6
CONTINUOUS
 62
               4
100
AcDbCircle
 10
65.5
 20
7.5000152587890625
 30
0.0
 40
2.25
  0
ARC
  5
1BB
100
AcDbEntity
  8
0
  6
CONTINUOUS
 62
               4
100
AcDbCircle
 10
6.5
 20
-25.5
 30
0.0
 40
2.6999998092651367
100
AcDbArc
 50
270.00001798608872
 51
89.999982013910454
  0
ARC
  5
1BC
100
AcDbEntity
  8
0
  6
CONTINUOUS
 62
               4
100
AcDbCircle
 10
17.499984741210937
 20
7.5
 30
0.0
 40
2.6999998092651367
100
AcDbArc
 50
89.999982013910454
 51
270.00000068324471
  0
ARC
  5
1BD
100
AcDbEntity
  8
0
  6
CONTINUOUS
 62
               4
100
AcDbCircle
 10
7.5500030517578125
 20
68.000015258789063
 30
0.0
 40
0.5
100
AcDbArc
 50
89.999982013910454
 51
179.99996402782091
  0
ARC
  5
1BE
100
AcDbEntity
  8
0
  6
CONTINUOUS
 62
               4
100
AcDbCircle
 10
16.449996948242188
 20
68.0
 30
0.0
 40
0.5
100
AcDbArc
 50
359.99995901886416
 51
89.999982013910454
  0
CIRCLE
  5
1BF
100
AcDbEntity
  8
0
  6
CONTINUOUS
 62
               7
100
AcDbCircle
 10
12.0
 20
32.199996948242188
 30
0.0
 40
1.9499998092651367
  0
CIRCLE
  5
1C0
100
AcDbEntity
  8
0
  6
CONTINUOUS
 62
               7
100
AcDbCircle
 10
12.0
 20
32.199996948242188
 30
0.0
 40
2.0
  0
LINE
  5
1C1
100
AcDbEntity
  8
0
  6
CONTINUOUS
 62
               7
100
AcDbLine
 10
49.999969482421875
 20
24.0
 30
0.0
 11
83.0
 21
24.0
 31
0.0
  0
LINE
  5
1C2
100
AcDbEntity
  8
0
  6
CONTINUOUS
 62
               7
100
AcDbLine
 10
33.999969482421875
 20
24.0
 30
0.0
 11
37.999984741210937
 21
24.0
 31
0.0
  0
LINE
  5
1C3
100
AcDbEntity
  8
0
  6
CONTINUOUS
 62
               7
100
AcDbLine
 10
7.0
 20
24.0
 30
0.0
 11
17.0
 21
24.0
 31
0.0
  0
LINE
  5
1C4
100
AcDbEntity
  8
0
  6
CONTINUOUS
 62
               7
100
AcDbLine
 10
17.999969482421875
 20
24.0
 30
0.0
 11
21.999984741210937
 21
24.0
 31
0.0
  0
LINE
  5
1C5
100
AcDbEntity
  8
0
  6
CONTINUOUS
 62
               7
100
AcDbLine
 10
17.0
 20
24.5
 30
0.0
 11
17.499969482421875
 21
24.5
 31
0.0
  0
LINE
  5
1C6
100
AcDbEntity
  8
0
  6
CONTINUOUS
 62
               7
100
AcDbLine
 10
6.4999847412109375
 20
24.5
 30
0.0
 11
7.0
 21
24.5
 31
0.0
  0
LINE
  5
1C7
100
AcDbEntity
  8
0
  6
CONTINUOUS
 62
               7
100
AcDbLine
 10
11.999981507970006
 20
29.199989804745201
 30
0.0
 11
12.99998356091055
 21
28.932040121691898
 31
0.0
  0
LINE
  5
1C8
100
AcDbEntity
  8
0
  6
CONTINUOUS
 62
               7
100
AcDbLine
 10
12.0
 20
28.699996948242188
 30
0.0
 11
12.0
 21
29.699996948242187
 31
0.0
  0
LINE
  5
1C9
100
AcDbEntity
  8
0
  6
CONTINUOUS
 62
               7
100
AcDbLine
 10
14.5
 20
32.199996948242188
 30
0.0
 11
15.5
 21
32.199996948242188
 31
0.0
  0
LINE
  5
1CA
100
AcDbEntity
  8
0
  6
CONTINUOUS
 62
               2
100
AcDbLine
 10
0.0
 20
-14.750015258789063
 30
0.0
 11
0.0
 21
-21.250015258789063
 31
0.0
  0
LINE
  5
1CB
100
AcDbEntity
  8
0
  6
CONTINUOUS
 62
               2
100
AcDbLine
 10
72.0
 20
-14.750015258789063
 30
0.0
 11
72.0
 21
-21.250015258789063
 31
0.0
  0
LINE
  5
1CC
100
AcDbEntity
  8
0
  6
CONTINUOUS
 62
               2
100
AcDbLine
 10
68.75
 20
-18.000015258789063
 30
0.0
 11
75.25
 21
-18.000015258789063
 31
0.0
  0
LINE
  5
1CD
100
AcDbEntity
  8
0
  6
CONTINUOUS
 62
               2
100
AcDbLine
 10
68.75
 20
0.0
 30
0.0
 11
75.25
 21
0.0
 31
0.0
  0
LINE
  5
1CE
100
AcDbEntity
  8
0
  6
CONTINUOUS
 62
               2
100
AcDbLine
 10
-3.25
 20
-18.000015258789063
 30
0.0
 11
3.25
 21
-18.000015258789063
 31
0.0
  0
LINE
  5
1CF
100
AcDbEntity
  8
0
  6
CONTINUOUS
 62
               2
100
AcDbLine
 10
-3.25
 20
0.0
 30
0.0
 11
3.25
 21
0.0
 31
0.0
  0
LINE
  5
1D0
100
AcDbEntity
  8
0
  6
CONTINUOUS
 62
               2
100
AcDbLine
 10
72.0
 20
3.25
 30
0.0
 11
72.0
 21
-3.2500152587890625
 31
0.0
  0
LINE
  5
1D1
100
AcDbEntity
  8
0
  6
CONTINUOUS
 62
               2
100
AcDbLine
 10
0.0
 20
3.25
 30
0.0
 11
0.0
 21
-3.2500152587890625
 31
0.0
  0
LINE
  5
1D2
100
AcDbEntity
  8
0
  6
CONTINUOUS
 62
               7
100
AcDbLine
 10
51.5
 20
-37.000015258789063
 30
0.0
 11
83.0
 21
-37.000015258789063
 31
0.0
  0
LINE
  5
1D3
100
AcDbEntity
  8
0
  6
CONTINUOUS
 62
               7
100
AcDbLine
 10
35.5
 20
-37.000015258789063
 30
0.0
 11
36.5
 21
-37.000015258789063
 31
0.0
  0
LINE
  5
1D4
100
AcDbEntity
  8
0
  6
CONTINUOUS
 62
               7
100
AcDbLine
 10
19.5
 20
-37.000015258789063
 30
0.0
 11
20.5
 21
-37.000015258789063
 31
0.0
  0
LINE
  5
1D5
100
AcDbEntity
  8
0
  6
CONTINUOUS
 62
               7
100
AcDbLine
 10
-11.0
 20
24.0
 30
0.0
 11
5.9999847412109375
 21
24.0
 31
0.0
  0
LINE
  5
1D6
100
AcDbEntity
  8
0
  6
CONTINUOUS
 62
               7
100
AcDbLine
 10
-11.0
 20
-37.000015258789063
 30
0.0
 11
4.5
 21
-37.000015258789063
 31
0.0
  0
LINE
  5
1D7
100
AcDbEntity
  8
0
  6
CONTINUOUS
 62
               7
100
AcDbLine
 10
83.0
 20
24.0
 30
0.0
 11
83.0
 21
-37.000015258789063
 31
0.0
  0
LINE
  5
1D8
100
AcDbEntity
  8
0
  6
CONTINUOUS
 62
               7
100
AcDbLine
 10
-11.0
 20
24.0
 30
0.0
 11
-11.0
 21
-37.000015258789063
 31
0.0
  0
LINE
  5
1D9
100
AcDbEntity
  8
0
  6
CONTINUOUS
 62
               4
100
AcDbLine
 10
52.5
 20
-26.899993896484375
 30
0.0
 11
52.738601684570313
 21
-26.899993896484375
 31
0.0
  0
LINE
  5
1DA
100
AcDbEntity
  8
0
  6
CONTINUOUS
 62
               4
100
AcDbLine
 10
52.5
 20
-24.099990844726563
 30
0.0
 11
52.738601684570313
 21
-24.099990844726563
 31
0.0
  0
LINE
  5
1DB
100
AcDbEntity
  8
0
  6
CONTINUOUS
 62
               4
100
AcDbLine
 10
67.261383056640625
 20
8.9000244140625
 30
0.0
 11
67.5
 21
8.9000244140625
 31
0.0
  0
LINE
  5
1DC
100
AcDbEntity
  8
0
  6
CONTINUOUS
 62
               4
100
AcDbLine
 10
67.261383056640625
 20
6.1000213623046875
 30
0.0
 11
67.5
 21
6.1000213623046875
 31
0.0
  0
LINE
  5
1DD
100
AcDbEntity
  8
0
  6
CONTINUOUS
 62
               4
100
AcDbLine
 10
67.5
 20
8.9000244140625
 30
0.0
 11
67.5
 21
22.500015258789063
 31
0.0
  0
LINE
  5
1DE
100
AcDbEntity
  8
0
  6
CONTINUOUS
 62
               4
100
AcDbLine
 10
52.5
 20
22.500015258789063
 30
0.0
 11
67.5
 21
22.500015258789063
 31
0.0
  0
LINE
  5
1DF
100
AcDbEntity
  8
0
  6
CONTINUOUS
 62
               4
100
AcDbLine
 10
52.5
 20
-32.499984741210937
 30
0.0
 11
67.5
 21
-32.499984741210937
 31
0.0
  0
LINE
  5
1E0
100
AcDbEntity
  8
0
  6
CONTINUOUS
 62
               2
100
AcDbLine
 10
12.0
 20
-53.666664123535156
 30
0.0
 11
12.0
 21
81.255081176757812
 31
0.0
  0
LINE
  5
1E1
100
AcDbEntity
  8
0
  6
CONTINUOUS
 62
               7
100
AcDbLine
 10
19.5
 20
-26.469223022460938
 30
0.0
 11
19.5
 21
6.0000152587890625
 31
0.0
  0
LINE
  5
1E2
100
AcDbEntity
  8
0
  6
CONTINUOUS
 62
               7
100
AcDbLine
 10
4.5
 20
-50.5
 30
0.0
 11
4.5
 21
-26.999984741210938
 31
0.0
  0
LINE
  5
1E3
100
AcDbEntity
  8
0
  6
CONTINUOUS
 62
               7
100
AcDbLine
 10
4.5
 20
-23.999984741210937
 30
0.0
 11
4.5
 21
8.46923828125
 31
0.0
  0
LINE
  5
1E4
100
AcDbEntity
  8
0
  6
CONTINUOUS
 62
               4
100
AcDbLine
 10
5.5807894476665751
 20
-26.419254187250772
 30
0.0
 11
7.4192607285031045
 21
-24.580783061385773
 31
0.0
  0
LINE
  5
1E5
100
AcDbEntity
  8
0
  6
CONTINUOUS
 62
               4
100
AcDbLine
 10
7.4192424082448269
 20
-26.41920836000827
 30
0.0
 11
5.5807714373513591
 21
-24.58073692420021
 31
0.0
  0
LINE
  5
1E6
100
AcDbEntity
  8
0
  6
CONTINUOUS
 62
               4
100
AcDbLine
 10
16.580770610833497
 20
6.5807709828422958
 30
0.0
 11
18.419241891670026
 21
8.4192421087072944
 31
0.0
  0
LINE
  5
1E7
100
AcDbEntity
  8
0
  6
CONTINUOUS
 62
               4
100
AcDbLine
 10
18.419247932292819
 20
6.5808158828531305
 30
0.0
 11
16.580776961399351
 21
8.4192873186611905
 31
0.0
  0
LINE
  5
1E8
100
AcDbEntity
  8
0
  6
CONTINUOUS
 62
               4
100
AcDbLine
 10
53.580799268639566
 20
-26.419256210299864
 30
0.0
 11
55.419270549476096
 21
-24.580785084434865
 31
0.0
  0
LINE
  5
1E9
100
AcDbEntity
  8
0
  6
CONTINUOUS
 62
               4
100
AcDbLine
 10
55.419263018812671
 20
-26.41920363956342
 30
0.0
 11
53.580792047919203
 21
-24.58073220375536
 31
0.0
  0
LINE
  5
1EA
100
AcDbEntity
  8
0
  6
CONTINUOUS
 62
               7
100
AcDbLine
 10
4.5
 20
-32.0
 30
0.0
 11
19.5
 21
-32.0
 31
0.0
  0
LINE
  5
1EB
100
AcDbEntity
  8
0
  6
CONTINUOUS
 62
               7
100
AcDbLine
 10
4.5
 20
14.0
 30
0.0
 11
19.5
 21
14.0
 31
0.0
  0
LINE
  5
1EC
100
AcDbEntity
  8
0
  6
CONTINUOUS
 62
               7
100
AcDbLine
 10
4.4999847412109375
 20
-42.0
 30
0.0
 11
19.5
 21
-42.0
 31
0.0
  0
LINE
  5
1ED
100
AcDbEntity
  8
0
  6
CONTINUOUS
 62
               7
100
AcDbLine
 10
17.499973292416939
 20
24.499996143676299
 30
0.0
 11
19.499983339202458
 21
22.499985759714264
 31
0.0
  0
LINE
  5
1EE
100
AcDbEntity
  8
0
  6
CONTINUOUS
 62
               7
100
AcDbLine
 10
6.4999849221611044
 20
24.499993657038829
 30
0.0
 11
4.4999925770551386
 21
22.50000333497286
 31
0.0
  0
LINE
  5
1EF
100
AcDbEntity
  8
0
  6
CONTINUOUS
 62
               7
100
AcDbLine
 10
19.5
 20
9.0000152587890625
 30
0.0
 11
19.5
 21
22.5
 31
0.0
  0
LINE
  5
1F0
100
AcDbEntity
  8
0
  6
CONTINUOUS
 62
               7
100
AcDbLine
 10
4.5
 20
10.530746459960937
 30
0.0
 11
4.5
 21
22.5
 31
0.0
  0
LINE
  5
1F1
100
AcDbEntity
  8
0
  6
CONTINUOUS
 62
               7
100
AcDbLine
 10
4.9999847412109375
 20
-51.0
 30
0.0
 11
19.0
 21
-51.0
 31
0.0
  0
LINE
  5
1F2
100
AcDbEntity
  8
0
  6
CONTINUOUS
 62
               4
100
AcDbLine
 10
52.5
 20
-32.499984741210937
 30
0.0
 11
52.5
 21
-26.899993896484375
 31
0.0
  0
LINE
  5
1F3
100
AcDbEntity
  8
0
  6
CONTINUOUS
 62
               7
100
AcDbLine
 10
19.5
 20
-50.5
 30
0.0
 11
19.5
 21
-28.530776977539063
 31
0.0
  0
LINE
  5
1F4
100
AcDbEntity
  8
0
  6
CONTINUOUS
 62
               4
100
AcDbLine
 10
52.5
 20
-24.099990844726563
 30
0.0
 11
52.5
 21
22.500015258789063
 31
0.0
  0
LINE
  5
1F5
100
AcDbEntity
  8
0
  6
CONTINUOUS
 62
               4
100
AcDbLine
 10
18.419265086058658
 20
-28.419201168736436
 30
0.0
 11
16.58079411516519
 21
-26.580729732928376
 31
0.0
  0
LINE
  5
1F6
100
AcDbEntity
  8
0
  6
CONTINUOUS
 62
               4
100
AcDbLine
 10
16.580779925285242
 20
-28.419278437525463
 30
0.0
 11
18.419261995715715
 21
-26.58079652206743
 31
0.0
  0
LINE
  5
1F7
100
AcDbEntity
  8
0
  6
CONTINUOUS
 62
               4
100
AcDbLine
 10
16.0
 20
73.000015258789063
 30
0.0
 11
16.0
 21
79.5
 31
0.0
  0
LINE
  5
1F8
100
AcDbEntity
  8
0
  6
CONTINUOUS
 62
               4
100
AcDbLine
 10
8.0
 20
73.000015258789063
 30
0.0
 11
8.0
 21
79.5
 31
0.0
  0
LINE
  5
1F9
100
AcDbEntity
  8
0
  6
CONTINUOUS
 62
               4
100
AcDbLine
 10
7.100006103515625
 20
73.000015258789063
 30
0.0
 11
7.100006103515625
 21
79.5
 31
0.0
  0
LINE
  5
1FA
100
AcDbEntity
  8
0
  6
CONTINUOUS
 62
               4
100
AcDbLine
 10
16.899993896484375
 20
73.000015258789063
 30
0.0
 11
16.899993896484375
 21
79.5
 31
0.0
  0
LINE
  5
1FB
100
AcDbEntity
  8
0
  6
CONTINUOUS
 62
               4
100
AcDbLine
 10
67.5
 20
-32.499984741210937
 30
0.0
 11
67.5
 21
6.1000213623046875
 31
0.0
  0
LINE
  5
1FC
100
AcDbEntity
  8
0
  6
CONTINUOUS
 62
               4
100
AcDbLine
 10
64.580780431806488
 20
6.580768959793204
 30
0.0
 11
66.419251712643018
 21
8.4192400856582026
 31
0.0
  0
LINE
  5
1FD
100
AcDbEntity
  8
0
  6
CONTINUOUS
 62
               4
100
AcDbLine
 10
5.5807713666686709
 20
8.5807608412881109
 30
0.0
 11
7.4192426475052002
 21
10.41923196715311
 31
0.0
  0
LINE
  5
1FE
100
AcDbEntity
  8
0
  6
CONTINUOUS
 62
               4
100
AcDbLine
 10
7.4192893176876851
 20
8.5807877867358116
 30
0.0
 11
5.5808075572020925
 21
10.419270012138725
 31
0.0
  0
LINE
  5
1FF
100
AcDbEntity
  8
0
  6
CONTINUOUS
 62
               4
100
AcDbLine
 10
66.419268542860664
 20
6.5808206032979797
 30
0.0
 11
64.580797571967196
 21
8.4192920391060397
 31
0.0
  0
LINE
  5
200
100
AcDbEntity
  8
0
  6
CONTINUOUS
 62
               7
100
AcDbLine
 10
5.5000552994551981
 20
-41.000065551133957
 30
0.0
 11
4.5000540692781215
 21
-42.000066612723458
 31
0.0
  0
LINE
  5
201
100
AcDbEntity
  8
0
  6
CONTINUOUS
 62
               7
100
AcDbLine
 10
18.500027037571272
 20
-40.999958751010126
 30
0.0
 11
19.500028099160772
 21
-41.999959981187203
 31
0.0
  0
LINE
  5
202
100
AcDbEntity
  8
0
  6
CONTINUOUS
 62
               7
100
AcDbLine
 10
19.500082890058366
 20
-32.000067207892243
 30
0.0
 11
18.500081659881289
 21
-33.000068269481744
 31
0.0
  0
LINE
  5
203
100
AcDbEntity
  8
0
  6
CONTINUOUS
 62
               7
100
AcDbLine
 10
4.5000117538475024
 20
-31.999968837135384
 30
0.0
 11
5.5000128154370032
 21
-32.999970067312461
 31
0.0
  0
LINE
  5
204
100
AcDbEntity
  8
0
  6
CONTINUOUS
 62
               7
100
AcDbLine
 10
5.5
 20
-41.0
 30
0.0
 11
5.5
 21
-33.0
 31
0.0
  0
LINE
  5
205
100
AcDbEntity
  8
0
  6
CONTINUOUS
 62
               7
100
AcDbLine
 10
18.5
 20
-41.0
 30
0.0
 11
18.5
 21
-33.0
 31
0.0
  0
LINE
  5
206
100
AcDbEntity
  8
0
  6
CONTINUOUS
 62
               7
100
AcDbLine
 10
5.5
 20
-33.0
 30
0.0
 11
18.5
 21
-33.0
 31
0.0
  0
LINE
  5
207
100
AcDbEntity
  8
0
  6
CONTINUOUS
 62
               7
100
AcDbLine
 10
5.5
 20
-41.0
 30
0.0
 11
18.5
 21
-41.0
 31
0.0
  0
LINE
  5
208
100
AcDbEntity
  8
0
  6
CONTINUOUS
 62
               4
100
AcDbLine
 10
9.20001220703125
 20
13.79998779296875
 30
0.0
 11
9.20001220703125
 21
9.5
 31
0.0
  0
LINE
  5
209
100
AcDbEntity
  8
0
  6
CONTINUOUS
 62
               4
100
AcDbLine
 10
14.800003051757812
 20
-27.5
 30
0.0
 11
14.800003051757812
 21
-31.800003051757813
 31
0.0
  0
LINE
  5
20A
100
AcDbEntity
  8
0
  6
CONTINUOUS
 62
               4
100
AcDbLine
 10
17.5
 20
-24.800003051757813
 30
0.0
 11
19.5
 21
-24.800003051757813
 31
0.0
  0
LINE
  5
20B
100
AcDbEntity
  8
0
  6
CONTINUOUS
 62
               4
100
AcDbLine
 10
19.20001220703125
 20
-31.800003051757813
 30
0.0
 11
4.79998779296875
 21
-31.800003051757813
 31
0.0
  0
LINE
  5
20C
100
AcDbEntity
  8
0
  6
CONTINUOUS
 62
               4
100
AcDbLine
 10
19.20001220703125
 20
13.79998779296875
 30
0.0
 11
4.79998779296875
 21
13.79998779296875
 31
0.0
  0
LINE
  5
20D
100
AcDbEntity
  8
0
  6
CONTINUOUS
 62
               4
100
AcDbLine
 10
17.499984741210937
 20
4.8000030517578125
 30
0.0
 11
19.20001220703125
 21
4.8000030517578125
 31
0.0
  0
LINE
  5
20E
100
AcDbEntity
  8
0
  6
CONTINUOUS
 62
               4
100
AcDbLine
 10
6.5
 20
-22.800003051757813
 30
0.0
 11
4.79998779296875
 21
-22.800003051757813
 31
0.0
  0
LINE
  5
20F
100
AcDbEntity
  8
0
  6
CONTINUOUS
 62
               4
100
AcDbLine
 10
6.5
 20
-28.199996948242188
 30
0.0
 11
4.79998779296875
 21
-28.199996948242188
 31
0.0
  0
LINE
  5
210
100
AcDbEntity
  8
0
  6
CONTINUOUS
 62
               4
100
AcDbLine
 10
17.5
 20
10.199996948242187
 30
0.0
 11
19.20001220703125
 21
10.199996948242187
 31
0.0
  0
LINE
  5
211
100
AcDbEntity
  8
0
  6
CONTINUOUS
 62
               4
100
AcDbLine
 10
7.0
 20
35.5
 30
0.0
 11
7.0
 21
59.500015258789063
 31
0.0
  0
LINE
  5
212
100
AcDbEntity
  8
0
  6
CONTINUOUS
 62
               4
100
AcDbLine
 10
17.0
 20
35.5
 30
0.0
 11
17.0
 21
59.5
 31
0.0
  0
LINE
  5
213
100
AcDbEntity
  8
0
  6
CONTINUOUS
 62
             200
100
AcDbLine
 10
11.999999676229891
 20
85.232123420358221
 30
0.0
 11
8.0000108318972707
 21
82.922727758028486
 31
0.0
  0
LINE
  5
214
100
AcDbEntity
  8
0
  6
CONTINUOUS
 62
               4
100
AcDbLine
 10
9.285003662109375
 20
79.5
 30
0.0
 11
9.285003662109375
 21
82.509750366210937
 31
0.0
  0
LINE
  5
215
100
AcDbEntity
  8
0
  6
CONTINUOUS
 62
               4
100
AcDbLine
 10
10.715011596679687
 20
79.5
 30
0.0
 11
10.715011596679687
 21
83.335372924804688
 31
0.0
  0
LINE
  5
216
100
AcDbEntity
  8
0
  6
CONTINUOUS
 62
               4
100
AcDbLine
 10
9.5999908447265625
 20
92.5
 30
0.0
 11
10.399993896484375
 21
92.5
 31
0.0
  0
LINE
  5
217
100
AcDbEntity
  8
0
  6
CONTINUOUS
 62
               4
100
AcDbLine
 10
9.600006103515625
 20
87.5
 30
0.0
 11
9.600006103515625
 21
92.5
 31
0.0
  0
LINE
  5
218
100
AcDbEntity
  8
0
  6
CONTINUOUS
 62
               4
100
AcDbLine
 10
10.400009155273437
 20
87.5
 30
0.0
 11
10.400009155273437
 21
92.5
 31
0.0
  0
LINE
  5
219
100
AcDbEntity
  8
0
  6
CONTINUOUS
 62
               4
100
AcDbLine
 10
9.2849884033203125
 20
87.5
 30
0.0
 11
10.714996337890625
 21
87.5
 31
0.0
  0
LINE
  5
21A
100
AcDbEntity
  8
0
  6
CONTINUOUS
 62
               4
100
AcDbLine
 10
9.285003662109375
 20
83.66461181640625
 30
0.0
 11
9.285003662109375
 21
87.5
 31
0.0
  0
LINE
  5
21B
100
AcDbEntity
  8
0
  6
CONTINUOUS
 62
               4
100
AcDbLine
 10
10.715011596679687
 20
84.490234375
 30
0.0
 11
10.715011596679687
 21
87.5
 31
0.0
  0
LINE
  5
21C
100
AcDbEntity
  8
0
  6
CONTINUOUS
 62
               4
100
AcDbLine
 10
16.050003051757813
 20
72.000015258789063
 30
0.0
 11
16.050003051757813
 21
73.000015258789063
 31
0.0
  0
LINE
  5
21D
100
AcDbEntity
  8
0
  6
CONTINUOUS
 62
               4
100
AcDbLine
 10
7.9499969482421875
 20
72.000015258789063
 30
0.0
 11
7.9499969482421875
 21
73.000015258789063
 31
0.0
  0
LINE
  5
21E
100
AcDbEntity
  8
0
  6
CONTINUOUS
 62
               4
100
AcDbLine
 10
7.9499969482421875
 20
71.0
 30
0.0
 11
8.5
 21
71.0
 31
0.0
  0
LINE
  5
21F
100
AcDbEntity
  8
0
  6
CONTINUOUS
 62
               4
100
AcDbLine
 10
7.9499969482421875
 20
72.0
 30
0.0
 11
8.5
 21
72.0
 31
0.0
  0
LINE
  5
220
100
AcDbEntity
  8
0
  6
CONTINUOUS
 62
               4
100
AcDbLine
 10
15.5
 20
71.0
 30
0.0
 11
16.050003051757813
 21
71.0
 31
0.0
  0
LINE
  5
221
100
AcDbEntity
  8
0
  6
CONTINUOUS
 62
               4
100
AcDbLine
 10
15.5
 20
72.0
 30
0.0
 11
16.050003051757813
 21
72.0
 31
0.0
  0
LINE
  5
222
100
AcDbEntity
  8
0
  6
CONTINUOUS
 62
               4
100
AcDbLine
 10
15.5
 20
73.0
 30
0.0
 11
16.949996948242187
 21
73.0
 31
0.0
  0
LINE
  5
223
100
AcDbEntity
  8
0
  6
CONTINUOUS
 62
               4
100
AcDbLine
 10
7.100006103515625
 20
79.5
 30
0.0
 11
16.899993896484375
 21
79.5
 31
0.0
  0
LINE
  5
224
100
AcDbEntity
  8
0
  6
CONTINUOUS
 62
               4
100
AcDbLine
 10
8.5
 20
78.0
 30
0.0
 11
15.5
 21
78.0
 31
0.0
  0
LINE
  5
225
100
AcDbEntity
  8
0
  6
CONTINUOUS
 62
               4
100
AcDbLine
 10
8.5
 20
72.55615234375
 30
0.0
 11
15.5
 21
72.55615234375
 31
0.0
  0
LINE
  5
226
100
AcDbEntity
  8
0
  6
CONTINUOUS
 62
               4
100
AcDbLine
 10
8.5
 20
68.99847412109375
 30
0.0
 11
15.5
 21
68.99847412109375
 31
0.0
  0
LINE
  5
227
100
AcDbEntity
  8
0
  6
CONTINUOUS
 62
               4
100
AcDbLine
 10
8.5
 20
68.99847412109375
 30
0.0
 11
8.5
 21
79.5
 31
0.0
  0
LINE
  5
228
100
AcDbEntity
  8
0
  6
CONTINUOUS
 62
               4
100
AcDbLine
 10
15.5
 20
68.99847412109375
 30
0.0
 11
15.5
 21
79.5
 31
0.0
  0
LINE
  5
229
100
AcDbEntity
  8
0
  6
CONTINUOUS
 62
               4
100
AcDbLine
 10
16.050003051757813
 20
68.5
 30
0.0
 11
16.050003051757813
 21
71.000015258789063
 31
0.0
  0
LINE
  5
22A
100
AcDbEntity
  8
0
  6
CONTINUOUS
 62
               4
100
AcDbLine
 10
7.9499969482421875
 20
68.500015258789063
 30
0.0
 11
7.9499969482421875
 21
71.000015258789063
 31
0.0
  0
LINE
  5
22B
100
AcDbEntity
  8
0
  6
CONTINUOUS
 62
               4
100
AcDbLine
 10
7.0500030517578125
 20
73.0
 30
0.0
 11
8.5
 21
73.0
 31
0.0
  0
LINE
  5
22C
100
AcDbEntity
  8
0
  6
CONTINUOUS
 62
             200
100
AcDbLine
 10
12.000003152118552
 20
84.077258632662961
 30
0.0
 11
8.0000008179858924
 21
81.767855891540421
 31
0.0
  0
LINE
  5
22D
100
AcDbEntity
  8
0
  6
CONTINUOUS
 62
               4
100
AcDbLine
 10
16.949996948242187
 20
59.5
 30
0.0
 11
16.949996948242187
 21
73.000015258789063
 31
0.0
  0
LINE
  5
22E
100
AcDbEntity
  8
0
  6
CONTINUOUS
 62
             200
100
AcDbLine
 10
16.949996948242187
 20
64.0
 30
0.0
 11
7.04998779296875
 21
64.0
 31
0.0
  0
LINE
  5
22F
100
AcDbEntity
  8
0
  6
CONTINUOUS
 62
               4
100
AcDbLine
 10
16.5
 20
68.5
 30
0.0
 11
7.5
 21
68.5
 31
0.0
  0
LINE
  5
230
100
AcDbEntity
  8
0
  6
CONTINUOUS
 62
               4
100
AcDbLine
 10
7.04998779296875
 20
59.500015258789063
 30
0.0
 11
7.04998779296875
 21
73.000015258789063
 31
0.0
  0
LINE
  5
231
100
AcDbEntity
  8
0
  6
CONTINUOUS
 62
               7
100
AcDbLine
 10
10.073211669921875
 20
32.5
 30
0.0
 11
13.926788330078125
 21
32.5
 31
0.0
  0
LINE
  5
232
100
AcDbEntity
  8
0
  6
CONTINUOUS
 62
               7
100
AcDbLine
 10
10.073211669921875
 20
31.899993896484375
 30
0.0
 11
13.926788330078125
 21
31.899993896484375
 31
0.0
  0
LINE
  5
233
100
AcDbEntity
  8
0
  6
CONTINUOUS
 62
               4
100
AcDbLine
 10
7.0
 20
35.5
 30
0.0
 11
17.0
 21
35.5
 31
0.0
  0
LINE
  5
234
100
AcDbEntity
  8
0
  6
CONTINUOUS
 62
               4
100
AcDbLine
 10
7.0
 20
59.5
 30
0.0
 11
17.0
 21
59.5
 31
0.0
  0
LINE
  5
235
100
AcDbEntity
  8
0
  6
CONTINUOUS
 62
               2
100
AcDbLine
 10
60.0
 20
-35.059539794921875
 30
0.0
 11
60.0
 21
23.940475463867188
 31
0.0
  0
LINE
  5
236
100
AcDbEntity
  8
0
  6
CONTINUOUS
 62
               2
100
AcDbLine
 10
9.5
 20
32.199996948242188
 30
0.0
 11
14.5
 21
32.199996948242188
 31
0.0
  0
LINE
  5
237
100
AcDbEntity
  8
0
  6
CONTINUOUS
 62
               7
100
AcDbLine
 10
7.0
 20
26.0
 30
0.0
 11
17.0
 21
26.0
 31
0.0
  0
ENDBLK
  5
238
100
AcDbEntity
  8
0
100
AcDbBlockEnd
  0
BLOCK
  5
239
100
AcDbEntity
  8
0
100
AcDbBlockBegin
  2
F15MF-2
 70
               0
 10
0.0
 20
0.0
 30
0.0
  3
F15MF-2
  1

  0
LINE
  5
23A
100
AcDbEntity
  8
0
  6
CONTINUOUS
 62
             200
100
AcDbLine
 10
88.62848496034897
 20
-16.749999250000016
 30
0.0
 11
64.599984741210932
 21
-16.749999250000016
 31
0.0
  0
LINE
  5
23B
100
AcDbEntity
  8
0
  6
CONTINUOUS
 62
             200
100
AcDbLine
 10
88.62848496034897
 20
-1.2500007499999981
 30
0.0
 11
64.599984741210932
 21
-1.2500007499999981
 31
0.0
  0
LINE
  5
23C
100
AcDbEntity
  8
0
  6
CONTINUOUS
 62
               2
100
AcDbLine
 10
-5.6467576329412736
 20
-18.000015258789063
 30
0.0
 11
11.0
 21
-18.000015258789063
 31
0.0
  0
LINE
  5
23D
100
AcDbEntity
  8
0
  6
CONTINUOUS
 62
               2
100
AcDbLine
 10
-5.6467576329412736
 20
0.0
 30
0.0
 11
11.0
 21
0.0
 31
0.0
  0
LINE
  5
23E
100
AcDbEntity
  8
0
  6
CONTINUOUS
 62
               7
100
AcDbLine
 10
30.499998263549585
 20
-31.999984741210866
 30
0.0
 11
29.999992541503687
 21
-31.999984703461493
 31
0.0
  0
LINE
  5
23F
100
AcDbEntity
  8
0
  6
CONTINUOUS
 62
               7
100
AcDbLine
 10
30.500001736450415
 20
13.999984741210866
 30
0.0
 11
29.999996014404516
 21
13.999984778960254
 31
0.0
  0
ARC
  5
240
100
AcDbEntity
  8
0
  6
CONTINUOUS
 62
               4
100
AcDbCircle
 10
58.299995422363281
 20
-26.250015258789063
 30
0.0
 40
1.5
100
AcDbArc
 50
270.00007262760209
 51
0.0000409811350201
  0
ARC
  5
241
100
AcDbEntity
  8
0
  6
CONTINUOUS
 62
               4
100
AcDbCircle
 10
58.299995422363281
 20
-24.750015258789063
 30
0.0
 40
1.5
100
AcDbArc
 50
0.0000409811350201
 51
89.999982013910454
  0
LINE
  5
242
100
AcDbEntity
  8
0
  6
CONTINUOUS
 62
               4
100
AcDbLine
 10
60.499984785914421
 20
-31.799999940395352
 30
0.0
 11
64.599984735250473
 21
-24.698591727018353
 31
0.0
  0
LINE
  5
243
100
AcDbEntity
  8
0
  6
CONTINUOUS
 62
               4
100
AcDbLine
 10
60.499984785914421
 20
13.799999940395352
 30
0.0
 11
64.599984735250473
 21
6.6985917270183535
 31
0.0
  0
LINE
  5
244
100
AcDbEntity
  8
0
  6
CONTINUOUS
 62
               4
100
AcDbLine
 10
82.336030741210948
 20
-8.75
 30
0.0
 11
82.336030741210948
 21
6.25
 31
0.0
  0
LINE
  5
245
100
AcDbEntity
  8
0
  6
CONTINUOUS
 62
               4
100
AcDbLine
 10
82.799984741210949
 20
-7.9464104000000049
 30
0.0
 11
82.799984741210949
 21
5.4464112660266011
 31
0.0
  0
LINE
  5
246
100
AcDbEntity
  8
0
  6
CONTINUOUS
 62
               4
100
AcDbLine
 10
84.399983341210941
 20
-6.9500000000000028
 30
0.0
 11
84.399983341210941
 21
4.449999599999984
 31
0.0
  0
LINE
  5
247
100
AcDbEntity
  8
0
  6
CONTINUOUS
 62
               4
100
AcDbLine
 10
80.999989741210925
 20
-8.75
 30
0.0
 11
80.999989741210925
 21
6.25
 31
0.0
  0
LINE
  5
248
100
AcDbEntity
  8
0
  6
CONTINUOUS
 62
               4
100
AcDbLine
 10
80.799989741210936
 20
-8.0500000000000043
 30
0.0
 11
79.999989741210925
 21
-8.0500000000000043
 31
0.0
  0
LINE
  5
249
100
AcDbEntity
  8
0
  6
CONTINUOUS
 62
               4
100
AcDbLine
 10
79.899989741210931
 20
-8.75
 30
0.0
 11
79.899989741210931
 21
6.25
 31
0.0
  0
LINE
  5
24A
100
AcDbEntity
  8
0
  6
CONTINUOUS
 62
               4
100
AcDbLine
 10
73.099989741210919
 20
-8.75
 30
0.0
 11
73.099989741210948
 21
6.25
 31
0.0
  0
LINE
  5
24B
100
AcDbEntity
  8
0
  6
CONTINUOUS
 62
               4
100
AcDbLine
 10
72.899989741210931
 20
6.0499999999999829
 30
0.0
 11
72.699989741210942
 21
6.25
 31
0.0
  0
LINE
  5
24C
100
AcDbEntity
  8
0
  6
CONTINUOUS
 62
               4
100
AcDbLine
 10
72.699989741210942
 20
-8.75
 30
0.0
 11
64.599989741210919
 21
-8.75
 31
0.0
  0
LINE
  5
24D
100
AcDbEntity
  8
0
  6
CONTINUOUS
 62
               4
100
AcDbLine
 10
72.899989741210931
 20
-8.5499999999999972
 30
0.0
 11
72.699989741210942
 21
-8.75
 31
0.0
  0
LINE
  5
24E
100
AcDbEntity
  8
0
  6
CONTINUOUS
 62
               4
100
AcDbLine
 10
79.899989741210931
 20
6.25
 30
0.0
 11
73.099989741210948
 21
6.25
 31
0.0
  0
LINE
  5
24F
100
AcDbEntity
  8
0
  6
CONTINUOUS
 62
               4
100
AcDbLine
 10
79.999989741210925
 20
6.1499999999999915
 30
0.0
 11
79.899989741210931
 21
6.25
 31
0.0
  0
LINE
  5
250
100
AcDbEntity
  8
0
  6
CONTINUOUS
 62
               4
100
AcDbLine
 10
79.999989741210925
 20
-8.6500000000000057
 30
0.0
 11
79.999989741210925
 21
6.1499999999999915
 31
0.0
  0
LINE
  5
251
100
AcDbEntity
  8
0
  6
CONTINUOUS
 62
               4
100
AcDbLine
 10
79.899989741210931
 20
-8.75
 30
0.0
 11
79.999989741210925
 21
-8.6500000000000057
 31
0.0
  0
LINE
  5
252
100
AcDbEntity
  8
0
  6
CONTINUOUS
 62
               4
100
AcDbLine
 10
79.899989741210931
 20
-8.75
 30
0.0
 11
73.099989741210919
 21
-8.75
 31
0.0
  0
LINE
  5
253
100
AcDbEntity
  8
0
  6
CONTINUOUS
 62
               4
100
AcDbLine
 10
72.899989741210931
 20
-8.5499999999999972
 30
0.0
 11
72.899989741210931
 21
6.0499999999999829
 31
0.0
  0
LINE
  5
254
100
AcDbEntity
  8
0
  6
CONTINUOUS
 62
               4
100
AcDbLine
 10
72.899989741210931
 20
-8.5499999999999972
 30
0.0
 11
73.099989741210919
 21
-8.75
 31
0.0
  0
LINE
  5
255
100
AcDbEntity
  8
0
  6
CONTINUOUS
 62
               4
100
AcDbLine
 10
72.899989741210931
 20
6.0499999999999829
 30
0.0
 11
73.099989741210948
 21
6.25
 31
0.0
  0
LINE
  5
256
100
AcDbEntity
  8
0
  6
CONTINUOUS
 62
               4
100
AcDbLine
 10
82.336030741210948
 20
6.25
 30
0.0
 11
80.999989741210925
 21
6.25
 31
0.0
  0
LINE
  5
257
100
AcDbEntity
  8
0
  6
CONTINUOUS
 62
               4
100
AcDbLine
 10
82.336030741210948
 20
-8.75
 30
0.0
 11
80.999989741210925
 21
-8.75
 31
0.0
  0
LINE
  5
258
100
AcDbEntity
  8
0
  6
CONTINUOUS
 62
               4
100
AcDbLine
 10
80.799989741210936
 20
5.5499999999999829
 30
0.0
 11
79.999989741210925
 21
5.5499999999999829
 31
0.0
  0
LINE
  5
259
100
AcDbEntity
  8
0
  6
CONTINUOUS
 62
               4
100
AcDbLine
 10
82.799984741210949
 20
5.4464103999999907
 30
0.0
 11
83.399984741210943
 21
5.0999999999999943
 31
0.0
  0
LINE
  5
25A
100
AcDbEntity
  8
0
  6
CONTINUOUS
 62
               4
100
AcDbLine
 10
82.799984741210949
 20
-7.9464104000000049
 30
0.0
 11
83.399984741210943
 21
-7.5999999999999943
 31
0.0
  0
LINE
  5
25B
100
AcDbEntity
  8
0
  6
CONTINUOUS
 62
               4
100
AcDbLine
 10
80.799989741210936
 20
-8.5499999999999972
 30
0.0
 11
80.999989741210925
 21
-8.75
 31
0.0
  0
LINE
  5
25C
100
AcDbEntity
  8
0
  6
CONTINUOUS
 62
               4
100
AcDbLine
 10
80.799989741210936
 20
6.0499999999999829
 30
0.0
 11
80.999989741210925
 21
6.25
 31
0.0
  0
LINE
  5
25D
100
AcDbEntity
  8
0
  6
CONTINUOUS
 62
               4
100
AcDbLine
 10
80.799989741210936
 20
-8.5499999999999972
 30
0.0
 11
80.799989741210936
 21
6.0499999999999829
 31
0.0
  0
LINE
  5
25E
100
AcDbEntity
  8
0
  6
CONTINUOUS
 62
               4
100
AcDbLine
 10
82.336030741210948
 20
-8.75
 30
0.0
 11
82.799983741210951
 21
-7.9464104000000049
 31
0.0
  0
LINE
  5
25F
100
AcDbEntity
  8
0
  6
CONTINUOUS
 62
               4
100
AcDbLine
 10
82.799983741210951
 20
5.4464103999999907
 30
0.0
 11
82.336030741210948
 21
6.25
 31
0.0
  0
LINE
  5
260
100
AcDbEntity
  8
0
  6
CONTINUOUS
 62
               4
100
AcDbLine
 10
83.399984741210943
 20
-7.600000399999999
 30
0.0
 11
83.399984741210943
 21
5.0999999999999943
 31
0.0
  0
LINE
  5
261
100
AcDbEntity
  8
0
  6
CONTINUOUS
 62
               4
100
AcDbLine
 10
84.799984741210949
 20
-6.1500000000000057
 30
0.0
 11
84.49998374121094
 21
-6.1500000000000057
 31
0.0
  0
LINE
  5
262
100
AcDbEntity
  8
0
  6
CONTINUOUS
 62
               4
100
AcDbLine
 10
84.49998374121094
 20
-6.8499996000000039
 30
0.0
 11
84.49998374121094
 21
4.3499995999999896
 31
0.0
  0
LINE
  5
263
100
AcDbEntity
  8
0
  6
CONTINUOUS
 62
               4
100
AcDbLine
 10
84.799984741210949
 20
3.6500000000000057
 30
0.0
 11
84.49998374121094
 21
3.6500000000000057
 31
0.0
  0
LINE
  5
264
100
AcDbEntity
  8
0
  6
CONTINUOUS
 62
               4
100
AcDbLine
 10
84.399983741210917
 20
-6.9499995999999982
 30
0.0
 11
84.49998374121094
 21
-6.8499996000000039
 31
0.0
  0
LINE
  5
265
100
AcDbEntity
  8
0
  6
CONTINUOUS
 62
               4
100
AcDbLine
 10
84.399983741210917
 20
-6.9500000000000028
 30
0.0
 11
83.399984741210943
 21
-6.9500000000000028
 31
0.0
  0
LINE
  5
266
100
AcDbEntity
  8
0
  6
CONTINUOUS
 62
               4
100
AcDbLine
 10
84.399983741210917
 20
4.449999599999984
 30
0.0
 11
84.49998374121094
 21
4.3499995999999896
 31
0.0
  0
LINE
  5
267
100
AcDbEntity
  8
0
  6
CONTINUOUS
 62
               4
100
AcDbLine
 10
84.399983741210917
 20
4.4499999999999886
 30
0.0
 11
83.399984741210943
 21
4.4499999999999886
 31
0.0
  0
LINE
  5
268
100
AcDbEntity
  8
0
  6
CONTINUOUS
 62
               4
100
AcDbLine
 10
86.199981741210934
 20
-8.1500000000000057
 30
0.0
 11
85.299984741210949
 21
-8.1500000000000057
 31
0.0
  0
LINE
  5
269
100
AcDbEntity
  8
0
  6
CONTINUOUS
 62
               4
100
AcDbLine
 10
85.299984741210949
 20
-8.1500000000000057
 30
0.0
 11
85.299984741210949
 21
5.6499999999999915
 31
0.0
  0
LINE
  5
26A
100
AcDbEntity
  8
0
  6
CONTINUOUS
 62
               4
100
AcDbLine
 10
86.499984741210937
 20
5.3499984999999981
 30
0.0
 11
86.499984741210937
 21
-7.8499999999999943
 31
0.0
  0
LINE
  5
26B
100
AcDbEntity
  8
0
  6
CONTINUOUS
 62
               4
100
AcDbLine
 10
86.199981741210934
 20
5.6499999999999915
 30
0.0
 11
85.299984741210949
 21
5.6499999999999915
 31
0.0
  0
ARC
  5
26C
100
AcDbEntity
  8
0
  6
CONTINUOUS
 62
               4
100
AcDbCircle
 10
86.199981741210934
 20
-7.8499984999999981
 30
0.0
 40
0.3
100
AcDbArc
 50
270.0
 51
0.0
  0
ARC
  5
26D
100
AcDbEntity
  8
0
  6
CONTINUOUS
 62
               4
100
AcDbCircle
 10
84.799984741210949
 20
-6.649999600000001
 30
0.0
 40
0.5
100
AcDbArc
 50
359.9999999999992
 51
89.99999999999919
  0
ARC
  5
26E
100
AcDbEntity
  8
0
  6
CONTINUOUS
 62
               4
100
AcDbCircle
 10
84.799984741210949
 20
4.149999600000001
 30
0.0
 40
0.5
100
AcDbArc
 50
270.0
 51
0.0
  0
ARC
  5
26F
100
AcDbEntity
  8
0
  6
CONTINUOUS
 62
               4
100
AcDbCircle
 10
86.199981741210934
 20
5.3499984999999981
 30
0.0
 40
0.3
100
AcDbArc
 50
359.9999999999992
 51
89.99999999999919
  0
LINE
  5
270
100
AcDbEntity
  8
0
  6
CONTINUOUS
 62
               4
100
AcDbLine
 10
72.699989741210942
 20
6.25
 30
0.0
 11
64.599989741210948
 21
6.2499999999999858
 31
0.0
  0
LINE
  5
271
100
AcDbEntity
  8
0
  6
CONTINUOUS
 62
               4
100
AcDbLine
 10
64.541436629476095
 20
6.7999999999999972
 30
0.0
 11
60.499984741210937
 21
6.7999999999999972
 31
0.0
  0
LINE
  5
272
100
AcDbEntity
  8
0
  6
CONTINUOUS
 62
               4
100
AcDbLine
 10
60.499984741210937
 20
13.799999999999997
 30
0.0
 11
60.499984741210937
 21
6.7999999999999972
 31
0.0
  0
LINE
  5
273
100
AcDbEntity
  8
0
  6
CONTINUOUS
 62
               4
100
AcDbLine
 10
64.599984741210932
 20
6.6985916957880391
 30
0.0
 11
64.599984741210932
 21
-9.0
 31
0.0
  0
LINE
  5
274
100
AcDbEntity
  8
0
  6
CONTINUOUS
 62
               4
100
AcDbLine
 10
72.699989741210942
 20
-9.0000000000000071
 30
0.0
 11
72.699989741210942
 21
6.25
 31
0.0
  0
LINE
  5
275
100
AcDbEntity
  8
0
  6
CONTINUOUS
 62
               4
100
AcDbLine
 10
82.336030741210948
 20
-9.2500000000000142
 30
0.0
 11
82.336030741210948
 21
-24.250000000000014
 31
0.0
  0
LINE
  5
276
100
AcDbEntity
  8
0
  6
CONTINUOUS
 62
               4
100
AcDbLine
 10
82.799984741210949
 20
-10.053589600000009
 30
0.0
 11
82.799984741210949
 21
-23.446411266026615
 31
0.0
  0
LINE
  5
277
100
AcDbEntity
  8
0
  6
CONTINUOUS
 62
               4
100
AcDbLine
 10
84.399983341210941
 20
-11.050000000000011
 30
0.0
 11
84.399983341210941
 21
-22.449999599999998
 31
0.0
  0
LINE
  5
278
100
AcDbEntity
  8
0
  6
CONTINUOUS
 62
               4
100
AcDbLine
 10
80.999989741210925
 20
-9.2500000000000142
 30
0.0
 11
80.999989741210925
 21
-24.250000000000014
 31
0.0
  0
LINE
  5
279
100
AcDbEntity
  8
0
  6
CONTINUOUS
 62
               4
100
AcDbLine
 10
80.799989741210936
 20
-9.9500000000000099
 30
0.0
 11
79.999989741210925
 21
-9.9500000000000099
 31
0.0
  0
LINE
  5
27A
100
AcDbEntity
  8
0
  6
CONTINUOUS
 62
               4
100
AcDbLine
 10
79.899989741210931
 20
-9.2500000000000142
 30
0.0
 11
79.899989741210931
 21
-24.250000000000014
 31
0.0
  0
LINE
  5
27B
100
AcDbEntity
  8
0
  6
CONTINUOUS
 62
               4
100
AcDbLine
 10
73.099989741210919
 20
-9.2500000000000142
 30
0.0
 11
73.099989741210948
 21
-24.250000000000014
 31
0.0
  0
LINE
  5
27C
100
AcDbEntity
  8
0
  6
CONTINUOUS
 62
               4
100
AcDbLine
 10
72.899989741210931
 20
-24.049999999999997
 30
0.0
 11
72.699989741210942
 21
-24.250000000000014
 31
0.0
  0
LINE
  5
27D
100
AcDbEntity
  8
0
  6
CONTINUOUS
 62
               4
100
AcDbLine
 10
72.699989741210942
 20
-9.2500000000000142
 30
0.0
 11
64.599989741210919
 21
-9.25
 31
0.0
  0
LINE
  5
27E
100
AcDbEntity
  8
0
  6
CONTINUOUS
 62
               4
100
AcDbLine
 10
72.899989741210931
 20
-9.4500000000000171
 30
0.0
 11
72.699989741210942
 21
-9.2500000000000142
 31
0.0
  0
LINE
  5
27F
100
AcDbEntity
  8
0
  6
CONTINUOUS
 62
               4
100
AcDbLine
 10
79.899989741210931
 20
-24.250000000000014
 30
0.0
 11
73.099989741210948
 21
-24.250000000000014
 31
0.0
  0
LINE
  5
280
100
AcDbEntity
  8
0
  6
CONTINUOUS
 62
               4
100
AcDbLine
 10
79.999989741210925
 20
-24.150000000000006
 30
0.0
 11
79.899989741210931
 21
-24.250000000000014
 31
0.0
  0
LINE
  5
281
100
AcDbEntity
  8
0
  6
CONTINUOUS
 62
               4
100
AcDbLine
 10
79.999989741210925
 20
-9.3500000000000085
 30
0.0
 11
79.999989741210925
 21
-24.150000000000006
 31
0.0
  0
LINE
  5
282
100
AcDbEntity
  8
0
  6
CONTINUOUS
 62
               4
100
AcDbLine
 10
79.899989741210931
 20
-9.2500000000000142
 30
0.0
 11
79.999989741210925
 21
-9.3500000000000085
 31
0.0
  0
LINE
  5
283
100
AcDbEntity
  8
0
  6
CONTINUOUS
 62
               4
100
AcDbLine
 10
79.899989741210931
 20
-9.2500000000000142
 30
0.0
 11
73.099989741210919
 21
-9.2500000000000142
 31
0.0
  0
LINE
  5
284
100
AcDbEntity
  8
0
  6
CONTINUOUS
 62
               4
100
AcDbLine
 10
72.899989741210931
 20
-9.4500000000000171
 30
0.0
 11
72.899989741210931
 21
-24.049999999999997
 31
0.0
  0
LINE
  5
285
100
AcDbEntity
  8
0
  6
CONTINUOUS
 62
               4
100
AcDbLine
 10
72.899989741210931
 20
-9.4500000000000171
 30
0.0
 11
73.099989741210919
 21
-9.2500000000000142
 31
0.0
  0
LINE
  5
286
100
AcDbEntity
  8
0
  6
CONTINUOUS
 62
               4
100
AcDbLine
 10
72.899989741210931
 20
-24.049999999999997
 30
0.0
 11
73.099989741210948
 21
-24.250000000000014
 31
0.0
  0
LINE
  5
287
100
AcDbEntity
  8
0
  6
CONTINUOUS
 62
               4
100
AcDbLine
 10
82.336030741210948
 20
-24.250000000000014
 30
0.0
 11
80.999989741210925
 21
-24.250000000000014
 31
0.0
  0
LINE
  5
288
100
AcDbEntity
  8
0
  6
CONTINUOUS
 62
               4
100
AcDbLine
 10
82.336030741210948
 20
-9.2500000000000142
 30
0.0
 11
80.999989741210925
 21
-9.2500000000000142
 31
0.0
  0
LINE
  5
289
100
AcDbEntity
  8
0
  6
CONTINUOUS
 62
               4
100
AcDbLine
 10
80.799989741210936
 20
-23.549999999999997
 30
0.0
 11
79.999989741210925
 21
-23.549999999999997
 31
0.0
  0
LINE
  5
28A
100
AcDbEntity
  8
0
  6
CONTINUOUS
 62
               4
100
AcDbLine
 10
82.799984741210949
 20
-23.446410400000005
 30
0.0
 11
83.399984741210943
 21
-23.100000000000009
 31
0.0
  0
LINE
  5
28B
100
AcDbEntity
  8
0
  6
CONTINUOUS
 62
               4
100
AcDbLine
 10
82.799984741210949
 20
-10.053589600000009
 30
0.0
 11
83.399984741210943
 21
-10.40000000000002
 31
0.0
  0
LINE
  5
28C
100
AcDbEntity
  8
0
  6
CONTINUOUS
 62
               4
100
AcDbLine
 10
80.799989741210936
 20
-9.4500000000000171
 30
0.0
 11
80.999989741210925
 21
-9.2500000000000142
 31
0.0
  0
LINE
  5
28D
100
AcDbEntity
  8
0
  6
CONTINUOUS
 62
               4
100
AcDbLine
 10
80.799989741210936
 20
-24.049999999999997
 30
0.0
 11
80.999989741210925
 21
-24.250000000000014
 31
0.0
  0
LINE
  5
28E
100
AcDbEntity
  8
0
  6
CONTINUOUS
 62
               4
100
AcDbLine
 10
80.799989741210936
 20
-9.4500000000000171
 30
0.0
 11
80.799989741210936
 21
-24.049999999999997
 31
0.0
  0
LINE
  5
28F
100
AcDbEntity
  8
0
  6
CONTINUOUS
 62
               4
100
AcDbLine
 10
82.336030741210948
 20
-9.2500000000000142
 30
0.0
 11
82.799983741210951
 21
-10.053589600000009
 31
0.0
  0
LINE
  5
290
100
AcDbEntity
  8
0
  6
CONTINUOUS
 62
               4
100
AcDbLine
 10
82.799983741210951
 20
-23.446410400000005
 30
0.0
 11
82.336030741210948
 21
-24.250000000000014
 31
0.0
  0
LINE
  5
291
100
AcDbEntity
  8
0
  6
CONTINUOUS
 62
               4
100
AcDbLine
 10
83.399984741210943
 20
-10.399999600000015
 30
0.0
 11
83.399984741210943
 21
-23.100000000000009
 31
0.0
  0
LINE
  5
292
100
AcDbEntity
  8
0
  6
CONTINUOUS
 62
               4
100
AcDbLine
 10
84.799984741210949
 20
-11.850000000000009
 30
0.0
 11
84.49998374121094
 21
-11.850000000000009
 31
0.0
  0
LINE
  5
293
100
AcDbEntity
  8
0
  6
CONTINUOUS
 62
               4
100
AcDbLine
 10
84.49998374121094
 20
-11.15000040000001
 30
0.0
 11
84.49998374121094
 21
-22.349999600000004
 31
0.0
  0
LINE
  5
294
100
AcDbEntity
  8
0
  6
CONTINUOUS
 62
               4
100
AcDbLine
 10
84.799984741210949
 20
-21.65000000000002
 30
0.0
 11
84.49998374121094
 21
-21.65000000000002
 31
0.0
  0
LINE
  5
295
100
AcDbEntity
  8
0
  6
CONTINUOUS
 62
               4
100
AcDbLine
 10
84.399983741210917
 20
-11.050000400000016
 30
0.0
 11
84.49998374121094
 21
-11.15000040000001
 31
0.0
  0
LINE
  5
296
100
AcDbEntity
  8
0
  6
CONTINUOUS
 62
               4
100
AcDbLine
 10
84.399983741210917
 20
-11.050000000000011
 30
0.0
 11
83.399984741210943
 21
-11.050000000000011
 31
0.0
  0
LINE
  5
297
100
AcDbEntity
  8
0
  6
CONTINUOUS
 62
               4
100
AcDbLine
 10
84.399983741210917
 20
-22.449999599999998
 30
0.0
 11
84.49998374121094
 21
-22.349999600000004
 31
0.0
  0
LINE
  5
298
100
AcDbEntity
  8
0
  6
CONTINUOUS
 62
               4
100
AcDbLine
 10
84.399983741210917
 20
-22.450000000000003
 30
0.0
 11
83.399984741210943
 21
-22.450000000000003
 31
0.0
  0
LINE
  5
299
100
AcDbEntity
  8
0
  6
CONTINUOUS
 62
               4
100
AcDbLine
 10
86.199981741210934
 20
-9.8500000000000085
 30
0.0
 11
85.299984741210949
 21
-9.8500000000000085
 31
0.0
  0
LINE
  5
29A
100
AcDbEntity
  8
0
  6
CONTINUOUS
 62
               4
100
AcDbLine
 10
85.299984741210949
 20
-9.8500000000000085
 30
0.0
 11
85.299984741210949
 21
-23.650000000000006
 31
0.0
  0
LINE
  5
29B
100
AcDbEntity
  8
0
  6
CONTINUOUS
 62
               4
100
AcDbLine
 10
86.499984741210937
 20
-23.349998500000012
 30
0.0
 11
86.499984741210937
 21
-10.15000000000002
 31
0.0
  0
LINE
  5
29C
100
AcDbEntity
  8
0
  6
CONTINUOUS
 62
               4
100
AcDbLine
 10
86.199981741210934
 20
-23.650000000000006
 30
0.0
 11
85.299984741210949
 21
-23.650000000000006
 31
0.0
  0
ARC
  5
29D
100
AcDbEntity
  8
0
  6
CONTINUOUS
 62
               4
100
AcDbCircle
 10
86.199981741210934
 20
-10.150001500000016
 30
0.0
 40
0.3
100
AcDbArc
 50
0.0
 51
90.0
  0
ARC
  5
29E
100
AcDbEntity
  8
0
  6
CONTINUOUS
 62
               4
100
AcDbCircle
 10
84.799984741210949
 20
-11.350000400000013
 30
0.0
 40
0.5
100
AcDbArc
 50
270.0
 51
0.0000000000008142
  0
ARC
  5
29F
100
AcDbEntity
  8
0
  6
CONTINUOUS
 62
               4
100
AcDbCircle
 10
84.799984741210949
 20
-22.149999600000015
 30
0.0
 40
0.5
100
AcDbArc
 50
0.0
 51
90.0
  0
ARC
  5
2A0
100
AcDbEntity
  8
0
  6
CONTINUOUS
 62
               4
100
AcDbCircle
 10
86.199981741210934
 20
-23.349998500000012
 30
0.0
 40
0.3
100
AcDbArc
 50
270.0
 51
0.0000000000008142
  0
LINE
  5
2A1
100
AcDbEntity
  8
0
  6
CONTINUOUS
 62
               4
100
AcDbLine
 10
72.699989741210942
 20
-24.250000000000014
 30
0.0
 11
64.599989741210948
 21
-24.249999999999986
 31
0.0
  0
LINE
  5
2A2
100
AcDbEntity
  8
0
  6
CONTINUOUS
 62
               4
100
AcDbLine
 10
64.599984741210932
 20
-24.698591695788039
 30
0.0
 11
64.599984741210932
 21
-9.0
 31
0.0
  0
LINE
  5
2A3
100
AcDbEntity
  8
0
  6
CONTINUOUS
 62
               4
100
AcDbLine
 10
72.699989741210942
 20
-9.0000000000000071
 30
0.0
 11
72.699989741210942
 21
-24.250000000000014
 31
0.0
  0
ARC
  5
2A4
100
AcDbEntity
  8
0
  6
CONTINUOUS
 62
               4
100
AcDbCircle
 10
60.699974060058594
 20
8.7499771118164062
 30
0.0
 40
1.5
100
AcDbArc
 50
270.00007262760209
 51
0.0000409811350201
  0
ARC
  5
2A5
100
AcDbEntity
  8
0
  6
CONTINUOUS
 62
               4
100
AcDbCircle
 10
60.699974060058594
 20
10.249977111816406
 30
0.0
 40
1.5
100
AcDbArc
 50
0.0000409811350201
 51
89.999982013910454
  0
LINE
  5
2A6
100
AcDbEntity
  8
0
  6
CONTINUOUS
 62
               4
100
AcDbLine
 10
60.699974060058594
 20
7.2499771118164062
 30
0.0
 11
60.499977111816406
 21
7.2499771118164062
 31
0.0
  0
LINE
  5
2A7
100
AcDbEntity
  8
0
  6
CONTINUOUS
 62
               4
100
AcDbLine
 10
62.199989318847656
 20
10.249977111816406
 30
0.0
 11
62.199989318847656
 21
8.7499771118164062
 31
0.0
  0
LINE
  5
2A8
100
AcDbEntity
  8
0
  6
CONTINUOUS
 62
               4
100
AcDbLine
 10
60.699974060058594
 20
11.749977111816406
 30
0.0
 11
60.499977111816406
 21
11.749977111816406
 31
0.0
  0
LINE
  5
2A9
100
AcDbEntity
  8
0
  6
CONTINUOUS
 62
               4
100
AcDbLine
 10
59.799995422363281
 20
-24.750015258789063
 30
0.0
 11
59.799995422363281
 21
-26.250015258789063
 31
0.0
  0
LINE
  5
2AA
100
AcDbEntity
  8
0
  6
CONTINUOUS
 62
               4
100
AcDbLine
 10
58.099998474121094
 20
-28.000015258789063
 30
0.0
 11
58.099998474121094
 21
-23.000015258789063
 31
0.0
  0
LINE
  5
2AB
100
AcDbEntity
  8
0
  6
CONTINUOUS
 62
               4
100
AcDbLine
 10
58.299995422363281
 20
-23.250011444091797
 30
0.0
 11
58.099998474121094
 21
-23.250011444091797
 31
0.0
  0
LINE
  5
2AC
100
AcDbEntity
  8
0
  6
CONTINUOUS
 62
               4
100
AcDbLine
 10
58.299995422363281
 20
-27.750011444091797
 30
0.0
 11
58.099998474121094
 21
-27.750011444091797
 31
0.0
  0
LINE
  5
2AD
100
AcDbEntity
  8
0
  6
CONTINUOUS
 62
               4
100
AcDbLine
 10
60.499984741210937
 20
-31.799999999999997
 30
0.0
 11
57.499984741210937
 21
-31.799999999999997
 31
0.0
  0
LINE
  5
2AE
100
AcDbEntity
  8
0
  6
CONTINUOUS
 62
               4
100
AcDbLine
 10
57.499989926000126
 20
-25.095865533516189
 30
0.0
 11
58.099994240469641
 21
-24.749452874824783
 31
0.0
  0
LINE
  5
2AF
100
AcDbEntity
  8
0
  6
CONTINUOUS
 62
               4
100
AcDbLine
 10
57.499992937858224
 20
-26.25056432263591
 30
0.0
 11
58.099997252327739
 21
-25.904151663944504
 31
0.0
  0
LINE
  5
2B0
100
AcDbEntity
  8
0
  6
CONTINUOUS
 62
               4
100
AcDbLine
 10
57.499992370605469
 20
-23.000015258789063
 30
0.0
 11
58.099998474121094
 21
-23.000015258789063
 31
0.0
  0
LINE
  5
2B1
100
AcDbEntity
  8
0
  6
CONTINUOUS
 62
               4
100
AcDbLine
 10
57.499992370605469
 20
-28.000015258789063
 30
0.0
 11
58.099998474121094
 21
-28.000015258789063
 31
0.0
  0
LINE
  5
2B2
100
AcDbEntity
  8
0
  6
CONTINUOUS
 62
               4
100
AcDbLine
 10
60.499984741210937
 20
13.799999999999997
 30
0.0
 11
57.499984741210937
 21
13.799999999999997
 31
0.0
  0
LINE
  5
2B3
100
AcDbEntity
  8
0
  6
CONTINUOUS
 62
               4
100
AcDbLine
 10
64.599984741210932
 20
-22.800010681152344
 30
0.0
 11
57.499992370605469
 21
-22.800010681152344
 31
0.0
  0
LINE
  5
2B4
100
AcDbEntity
  8
0
  6
CONTINUOUS
 62
               4
100
AcDbLine
 10
62.499992370605469
 20
-28.20001220703125
 30
0.0
 11
57.499992370605469
 21
-28.20001220703125
 31
0.0
  0
LINE
  5
2B5
100
AcDbEntity
  8
0
  6
CONTINUOUS
 62
               4
100
AcDbLine
 10
32.099984741210939
 20
52.5
 30
0.0
 11
32.099984741210939
 21
59.5
 31
0.0
  0
LINE
  5
2B6
100
AcDbEntity
  8
0
  6
CONTINUOUS
 62
               4
100
AcDbLine
 10
31.19998474121094
 20
52.5
 30
0.0
 11
31.19998474121094
 21
59.5
 31
0.0
  0
LINE
  5
2B7
100
AcDbEntity
  8
0
  6
CONTINUOUS
 62
               4
100
AcDbLine
 10
30.499984741210937
 20
52.5
 30
0.0
 11
32.099984741210939
 21
52.5
 31
0.0
  0
LINE
  5
2B8
100
AcDbEntity
  8
0
  6
CONTINUOUS
 62
               4
100
AcDbLine
 10
30.499984741210937
 20
59.5
 30
0.0
 11
57.499977111816406
 21
59.5
 31
0.0
  0
LINE
  5
2B9
100
AcDbEntity
  8
0
  6
CONTINUOUS
 62
               4
100
AcDbLine
 10
41.599984741210932
 20
73.0
 30
0.0
 11
41.599984741210932
 21
68.5
 31
0.0
  0
LINE
  5
2BA
100
AcDbEntity
  8
0
  6
CONTINUOUS
 62
               4
100
AcDbLine
 10
32.649972534179682
 20
79.5
 30
0.0
 11
41.649972534179682
 21
79.5
 31
0.0
  0
LINE
  5
2BB
100
AcDbEntity
  8
0
  6
CONTINUOUS
 62
               4
100
AcDbLine
 10
32.999984741210938
 20
73.0
 30
0.0
 11
41.649987792968744
 21
73.0
 31
0.0
  0
LINE
  5
2BC
100
AcDbEntity
  8
0
  6
CONTINUOUS
 62
               4
100
AcDbLine
 10
42.227334594726557
 20
79.5
 30
0.0
 11
43.649980163574213
 21
79.5
 31
0.0
  0
LINE
  5
2BD
100
AcDbEntity
  8
0
  6
CONTINUOUS
 62
               4
100
AcDbLine
 10
41.599984741210932
 20
70.498458862304688
 30
0.0
 11
41.649987792968744
 21
70.498458862304688
 31
0.0
  0
LINE
  5
2BE
100
AcDbEntity
  8
0
  6
CONTINUOUS
 62
               4
100
AcDbLine
 10
41.649987792968744
 20
68.998458862304688
 30
0.0
 11
42.649980163574213
 21
68.998458862304688
 31
0.0
  0
LINE
  5
2BF
100
AcDbEntity
  8
0
  6
CONTINUOUS
 62
               4
100
AcDbLine
 10
41.649987792968744
 20
70.498458862304688
 30
0.0
 11
41.649987792968744
 21
73.0
 31
0.0
  0
LINE
  5
2C0
100
AcDbEntity
  8
0
  6
CONTINUOUS
 62
               4
100
AcDbLine
 10
43.149980163574213
 20
78.0
 30
0.0
 11
43.649980163574213
 21
78.0
 31
0.0
  0
LINE
  5
2C1
100
AcDbEntity
  8
0
  6
CONTINUOUS
 62
               4
100
AcDbLine
 10
41.649984950618631
 20
68.998474151870141
 30
0.0
 11
41.599964397312391
 21
69.048494705176381
 31
0.0
  0
LINE
  5
2C2
100
AcDbEntity
  8
0
  6
CONTINUOUS
 62
               4
100
AcDbLine
 10
33.149987792968744
 20
73.0
 30
0.0
 11
33.149987792968744
 21
78.5
 31
0.0
  0
LINE
  5
2C3
100
AcDbEntity
  8
0
  6
CONTINUOUS
 62
               4
100
AcDbLine
 10
32.649987792968744
 20
78.5
 30
0.0
 11
32.649987792968744
 21
79.5
 31
0.0
  0
LINE
  5
2C4
100
AcDbEntity
  8
0
  6
CONTINUOUS
 62
               4
100
AcDbLine
 10
32.649972534179682
 20
78.5
 30
0.0
 11
33.149972534179682
 21
78.5
 31
0.0
  0
LINE
  5
2C5
100
AcDbEntity
  8
0
  6
CONTINUOUS
 62
               4
100
AcDbLine
 10
43.149987792968744
 20
72.55615234375
 30
0.0
 11
43.149987792968744
 21
78.0
 31
0.0
  0
LINE
  5
2C6
100
AcDbEntity
  8
0
  6
CONTINUOUS
 62
               4
100
AcDbLine
 10
42.649986043447456
 20
68.99845074175937
 30
0.0
 11
43.149985152324547
 21
72.556138825448215
 31
0.0
  0
LINE
  5
2C7
100
AcDbEntity
  8
0
  6
CONTINUOUS
 62
               4
100
AcDbLine
 10
41.649987792968744
 20
73.0
 30
0.0
 11
41.649987792968744
 21
79.5
 31
0.0
  0
LINE
  5
2C8
100
AcDbEntity
  8
0
  6
CONTINUOUS
 62
               4
100
AcDbLine
 10
41.65002925281496
 20
78.499958942901685
 30
0.0
 11
42.227381068578865
 21
79.499967647856465
 31
0.0
  0
LINE
  5
2C9
100
AcDbEntity
  8
0
  6
CONTINUOUS
 62
               4
100
AcDbLine
 10
43.649987792968744
 20
78.0
 30
0.0
 11
43.649987792968744
 21
79.5
 31
0.0
  0
LINE
  5
2CA
100
AcDbEntity
  8
0
  6
CONTINUOUS
 62
               4
100
AcDbLine
 10
38.499993896484369
 20
92.5
 30
0.0
 11
37.699990844726557
 21
92.5
 31
0.0
  0
LINE
  5
2CB
100
AcDbEntity
  8
0
  6
CONTINUOUS
 62
               4
100
AcDbLine
 10
37.699990844726557
 20
87.5
 30
0.0
 11
37.699990844726557
 21
92.5
 31
0.0
  0
LINE
  5
2CC
100
AcDbEntity
  8
0
  6
CONTINUOUS
 62
               4
100
AcDbLine
 10
38.499993896484369
 20
87.5
 30
0.0
 11
38.499993896484369
 21
92.5
 31
0.0
  0
LINE
  5
2CD
100
AcDbEntity
  8
0
  6
CONTINUOUS
 62
               4
100
AcDbLine
 10
38.814996337890619
 20
79.5
 30
0.0
 11
38.814996337890619
 21
84.098403930664063
 31
0.0
  0
LINE
  5
2CE
100
AcDbEntity
  8
0
  6
CONTINUOUS
 62
               4
100
AcDbLine
 10
37.384988403320307
 20
79.5
 30
0.0
 11
37.384988403320307
 21
83.272796630859375
 31
0.0
  0
LINE
  5
2CF
100
AcDbEntity
  8
0
  6
CONTINUOUS
 62
               4
100
AcDbLine
 10
38.814996337890619
 20
87.5
 30
0.0
 11
37.384988403320307
 21
87.5
 31
0.0
  0
LINE
  5
2D0
100
AcDbEntity
  8
0
  6
CONTINUOUS
 62
               4
100
AcDbLine
 10
37.384988403320307
 20
84.427490234375
 30
0.0
 11
37.384988403320307
 21
87.5
 31
0.0
  0
LINE
  5
2D1
100
AcDbEntity
  8
0
  6
CONTINUOUS
 62
               4
100
AcDbLine
 10
38.814996337890619
 20
85.25311279296875
 30
0.0
 11
38.814996337890619
 21
87.5
 31
0.0
  0
LINE
  5
2D2
100
AcDbEntity
  8
0
  6
CONTINUOUS
 62
               7
100
AcDbLine
 10
30.499984741210937
 20
35.5
 30
0.0
 11
57.499984741210937
 21
35.5
 31
0.0
  0
LINE
  5
2D3
100
AcDbEntity
  8
0
  6
CONTINUOUS
 62
               4
100
AcDbLine
 10
36.314996337890619
 20
83.809738159179688
 30
0.0
 11
36.314996337890619
 21
87.5
 31
0.0
  0
LINE
  5
2D4
100
AcDbEntity
  8
0
  6
CONTINUOUS
 62
               4
100
AcDbLine
 10
34.884988403320307
 20
82.984115600585938
 30
0.0
 11
34.884988403320307
 21
87.5
 31
0.0
  0
LINE
  5
2D5
100
AcDbEntity
  8
0
  6
CONTINUOUS
 62
               4
100
AcDbLine
 10
34.884988403320307
 20
87.5
 30
0.0
 11
36.314996337890619
 21
87.5
 31
0.0
  0
LINE
  5
2D6
100
AcDbEntity
  8
0
  6
CONTINUOUS
 62
               4
100
AcDbLine
 10
35.999993896484369
 20
87.5
 30
0.0
 11
35.999993896484369
 21
92.5
 31
0.0
  0
LINE
  5
2D7
100
AcDbEntity
  8
0
  6
CONTINUOUS
 62
               4
100
AcDbLine
 10
35.199990844726557
 20
87.5
 30
0.0
 11
35.199990844726557
 21
92.499984741210938
 31
0.0
  0
LINE
  5
2D8
100
AcDbEntity
  8
0
  6
CONTINUOUS
 62
               4
100
AcDbLine
 10
35.199990844726557
 20
92.5
 30
0.0
 11
35.999993896484369
 21
92.5
 31
0.0
  0
LINE
  5
2D9
100
AcDbEntity
  8
0
  6
CONTINUOUS
 62
               4
100
AcDbLine
 10
36.314996337890619
 20
79.5
 30
0.0
 11
36.314996337890619
 21
82.655029296875
 31
0.0
  0
LINE
  5
2DA
100
AcDbEntity
  8
0
  6
CONTINUOUS
 62
               4
100
AcDbLine
 10
34.884988403320307
 20
79.5
 30
0.0
 11
34.884988403320307
 21
81.829421997070313
 31
0.0
  0
LINE
  5
2DB
100
AcDbEntity
  8
0
  6
CONTINUOUS
 62
             200
100
AcDbLine
 10
40.315003632682959
 20
86.119105809934808
 30
0.0
 11
33.384974541119476
 21
82.118057246153512
 31
0.0
  0
LINE
  5
2DC
100
AcDbEntity
  8
0
  6
CONTINUOUS
 62
             200
100
AcDbLine
 10
40.314979084308646
 20
84.964464815078827
 30
0.0
 11
33.38496893078954
 21
80.96341291056342
 31
0.0
  0
LINE
  5
2DD
100
AcDbEntity
  8
0
  6
CONTINUOUS
 62
               4
100
AcDbLine
 10
42.749984741210937
 20
60.0
 30
0.0
 11
45.249984741210938
 21
60.0
 31
0.0
  0
LINE
  5
2DE
100
AcDbEntity
  8
0
  6
CONTINUOUS
 62
               4
100
AcDbLine
 10
42.749984741210937
 20
60.0
 30
0.0
 11
42.749984741210937
 21
59.5
 31
0.0
  0
LINE
  5
2DF
100
AcDbEntity
  8
0
  6
CONTINUOUS
 62
               4
100
AcDbLine
 10
45.249984741210938
 20
60.0
 30
0.0
 11
45.249984741210938
 21
59.5
 31
0.0
  0
ARC
  5
2E0
100
AcDbEntity
  8
0
  6
CONTINUOUS
 62
               4
100
AcDbCircle
 10
30.999984741210938
 20
68.0
 30
0.0
 40
0.5
100
AcDbArc
 50
89.999999999999815
 51
179.99999999999963
  0
LINE
  5
2E1
100
AcDbEntity
  8
0
  6
CONTINUOUS
 62
               4
100
AcDbLine
 10
32.999984741210938
 20
68.5
 30
0.0
 11
30.999984741210938
 21
68.5
 31
0.0
  0
LINE
  5
2E2
100
AcDbEntity
  8
0
  6
CONTINUOUS
 62
               4
100
AcDbLine
 10
32.999984741210938
 20
73.0
 30
0.0
 11
32.999984741210938
 21
68.5
 31
0.0
  0
LINE
  5
2E3
100
AcDbEntity
  8
0
  6
CONTINUOUS
 62
               4
100
AcDbLine
 10
52.599984741210932
 20
60.950000000000017
 30
0.0
 11
50.499984741210938
 21
60.950000000000017
 31
0.0
  0
LINE
  5
2E4
100
AcDbEntity
  8
0
  6
CONTINUOUS
 62
               4
100
AcDbLine
 10
37.599984741210932
 20
60.950000000000017
 30
0.0
 11
35.499984741210938
 21
60.950000000000017
 31
0.0
  0
LINE
  5
2E5
100
AcDbEntity
  8
0
  6
CONTINUOUS
 62
               4
100
AcDbLine
 10
35.499984741210938
 20
61.900000000000006
 30
0.0
 11
35.499984741210938
 21
60.950000000000017
 31
0.0
  0
LINE
  5
2E6
100
AcDbEntity
  8
0
  6
CONTINUOUS
 62
               4
100
AcDbLine
 10
52.599984741210932
 20
61.900000000000006
 30
0.0
 11
52.599984741210932
 21
60.950000000000017
 31
0.0
  0
ARC
  5
2E7
100
AcDbEntity
  8
0
  6
CONTINUOUS
 62
               4
100
AcDbCircle
 10
56.002005136571512
 20
63.679610903929301
 30
0.0
 40
1.4979796551727449
100
AcDbArc
 50
0.0148824203654679
 51
24.046309772710686
  0
ARC
  5
2E8
100
AcDbEntity
  8
0
  6
CONTINUOUS
 62
               4
100
AcDbCircle
 10
55.174005579774985
 20
68.000099937446265
 30
0.0
 40
0.4999010215015999
100
AcDbArc
 50
24.197376208904771
 51
89.887774076864815
  0
LINE
  5
2E9
100
AcDbEntity
  8
0
  6
CONTINUOUS
 62
               4
100
AcDbLine
 10
55.629984741210933
 20
68.205000000000013
 30
0.0
 11
57.369984741210942
 21
64.289999999999992
 31
0.0
  0
LINE
  5
2EA
100
AcDbEntity
  8
0
  6
CONTINUOUS
 62
               4
100
AcDbLine
 10
57.499984741210937
 20
63.680000000000007
 30
0.0
 11
57.499984741210937
 21
59.5
 31
0.0
  0
LINE
  5
2EB
100
AcDbEntity
  8
0
  6
CONTINUOUS
 62
               4
100
AcDbLine
 10
37.599984741210932
 20
61.900000000000006
 30
0.0
 11
35.499984741210938
 21
61.900000000000006
 31
0.0
  0
LINE
  5
2EC
100
AcDbEntity
  8
0
  6
CONTINUOUS
 62
               4
100
AcDbLine
 10
52.599984741210932
 20
61.900000000000006
 30
0.0
 11
50.499984741210938
 21
61.900000000000006
 31
0.0
  0
LINE
  5
2ED
100
AcDbEntity
  8
0
  6
CONTINUOUS
 62
               4
100
AcDbLine
 10
37.599984741210932
 20
61.900000000000006
 30
0.0
 11
37.599984741210932
 21
60.950000000000017
 31
0.0
  0
LINE
  5
2EE
100
AcDbEntity
  8
0
  6
CONTINUOUS
 62
               4
100
AcDbLine
 10
50.499984741210938
 20
61.900000000000006
 30
0.0
 11
50.499984741210938
 21
60.950000000000017
 31
0.0
  0
LINE
  5
2EF
100
AcDbEntity
  8
0
  6
CONTINUOUS
 62
               4
100
AcDbLine
 10
30.499984741210937
 20
68.0
 30
0.0
 11
30.499984741210937
 21
59.5
 31
0.0
  0
LINE
  5
2F0
100
AcDbEntity
  8
0
  6
CONTINUOUS
 62
               4
100
AcDbLine
 10
30.499984741210937
 20
35.5
 30
0.0
 11
30.499984741210937
 21
59.5
 31
0.0
  0
LINE
  5
2F1
100
AcDbEntity
  8
0
  6
CONTINUOUS
 62
               4
100
AcDbLine
 10
57.499984741210937
 20
35.5
 30
0.0
 11
57.499984741210937
 21
59.5
 31
0.0
  0
LINE
  5
2F2
100
AcDbEntity
  8
0
  6
CONTINUOUS
 62
               4
100
AcDbLine
 10
41.599984741210932
 20
68.5
 30
0.0
 11
55.17498474121092
 21
68.5
 31
0.0
  0
CIRCLE
  5
2F3
100
AcDbEntity
  8
0
  6
CONTINUOUS
 62
               7
100
AcDbCircle
 10
11.0
 20
-27.000015258789063
 30
0.0
 40
5.7224998474121094
  0
CIRCLE
  5
2F4
100
AcDbEntity
  8
0
  6
CONTINUOUS
 62
               7
100
AcDbCircle
 10
20.0
 20
-9.0000152587890625
 30
0.0
 40
5.7224998474121094
  0
CIRCLE
  5
2F5
100
AcDbEntity
  8
0
  6
CONTINUOUS
 62
               7
100
AcDbCircle
 10
11.0
 20
9.0
 30
0.0
 40
5.7224998474121094
  0
CIRCLE
  5
2F6
100
AcDbEntity
  8
0
  6
CONTINUOUS
 62
               7
100
AcDbCircle
 10
24.0
 20
18.0
 30
0.0
 40
2.0
  0
CIRCLE
  5
2F7
100
AcDbEntity
  8
0
  6
CONTINUOUS
 62
               2
100
AcDbCircle
 10
11.0
 20
-27.000015258789063
 30
0.0
 40
6.5784997940063477
  0
CIRCLE
  5
2F8
100
AcDbEntity
  8
0
  6
CONTINUOUS
 62
               2
100
AcDbCircle
 10
20.0
 20
-9.0000152587890625
 30
0.0
 40
6.5784997940063477
  0
CIRCLE
  5
2F9
100
AcDbEntity
  8
0
  6
CONTINUOUS
 62
               2
100
AcDbCircle
 10
11.0
 20
9.0
 30
0.0
 40
6.5784997940063477
  0
CIRCLE
  5
2FA
100
AcDbEntity
  8
0
  6
CONTINUOUS
 62
               2
100
AcDbCircle
 10
24.0
 20
18.0
 30
0.0
 40
2.5
  0
ARC
  5
2FB
100
AcDbEntity
  8
0
  6
CONTINUOUS
 62
               7
100
AcDbCircle
 10
53.25
 20
-49.0
 30
0.0
 40
1.5
100
AcDbArc
 50
179.99990938630756
 51
269.99994604173139
  0
ARC
  5
2FC
100
AcDbEntity
  8
0
  6
CONTINUOUS
 62
               7
100
AcDbCircle
 10
55.75
 20
-49.0
 30
0.0
 40
1.5
100
AcDbArc
 50
270.00001798608872
 51
359.99995901886416
  0
ARC
  5
2FD
100
AcDbEntity
  8
0
  6
CONTINUOUS
 62
               7
100
AcDbCircle
 10
58.0
 20
-50.699996948242188
 30
0.0
 40
0.300000011920929
100
AcDbArc
 50
179.99998133066492
 51
270.00001798608872
  0
ARC
  5
2FE
100
AcDbEntity
  8
0
  6
CONTINUOUS
 62
               7
100
AcDbCircle
 10
57.399993896484375
 20
-48.800003051757813
 30
0.0
 40
0.300000011920929
100
AcDbArc
 50
0.0
 51
89.999982013910454
  0
ARC
  5
2FF
100
AcDbEntity
  8
0
  6
CONTINUOUS
 62
               7
100
AcDbCircle
 10
51.600006103515625
 20
-48.800003051757813
 30
0.0
 40
0.300000011920929
100
AcDbArc
 50
89.999982013910454
 51
179.99996402782091
  0
ARC
  5
300
100
AcDbEntity
  8
0
  6
CONTINUOUS
 62
               7
100
AcDbCircle
 10
51.0
 20
-50.699996948242188
 30
0.0
 40
0.300000011920929
100
AcDbArc
 50
270.00001798608872
 51
0.0
  0
ARC
  5
301
100
AcDbEntity
  8
0
  6
CONTINUOUS
 62
               7
100
AcDbCircle
 10
33.499984741210938
 20
25.5
 30
0.0
 40
2.4999990463256836
100
AcDbArc
 50
203.57839540219584
 51
336.42161324922495
  0
ARC
  5
302
100
AcDbEntity
  8
0
  6
CONTINUOUS
 62
               7
100
AcDbCircle
 10
31.0
 20
-50.499992370605469
 30
0.0
 40
0.5
100
AcDbArc
 50
179.99996402782091
 51
269.99994604173139
  0
ARC
  5
303
100
AcDbEntity
  8
0
  6
CONTINUOUS
 62
               7
100
AcDbCircle
 10
59.999984741210938
 20
-50.499992370605469
 30
0.0
 40
0.5
100
AcDbArc
 50
270.00001798608872
 51
359.99995901886416
  0
LINE
  5
304
100
AcDbEntity
  8
0
  6
CONTINUOUS
 62
               7
100
AcDbLine
 10
57.499984741210937
 20
24.5
 30
0.0
 11
30.499984741210937
 21
24.5
 31
0.0
  0
LINE
  5
305
100
AcDbEntity
  8
0
  6
CONTINUOUS
 62
               7
100
AcDbLine
 10
0.0
 20
6.0
 30
0.0
 11
0.0
 21
24.0
 31
0.0
  0
LINE
  5
306
100
AcDbEntity
  8
0
  6
CONTINUOUS
 62
               7
100
AcDbLine
 10
-0.0000089419845608
 20
-23.999990626932231
 30
0.0
 11
9.9999913900791171
 21
-13.99999450955255
 31
0.0
  0
LINE
  5
307
100
AcDbEntity
  8
0
  6
CONTINUOUS
 62
               7
100
AcDbLine
 10
0.0000031330890806
 20
5.9999968611954273
 30
0.0
 11
10.000002959391054
 21
-4.0000029651065461
 31
0.0
  0
LINE
  5
308
100
AcDbEntity
  8
0
  6
CONTINUOUS
 62
               7
100
AcDbLine
 10
10.0
 20
-14.000015258789063
 30
0.0
 11
10.0
 21
-4.0
 31
0.0
  0
LINE
  5
309
100
AcDbEntity
  8
0
  6
CONTINUOUS
 62
               2
100
AcDbLine
 10
11.0
 20
1.4214935302734375
 30
0.0
 11
11.0
 21
16.5784912109375
 31
0.0
  0
LINE
  5
30A
100
AcDbEntity
  8
0
  6
CONTINUOUS
 62
               2
100
AcDbLine
 10
11.0
 20
-34.578506469726563
 30
0.0
 11
11.0
 21
-19.4215087890625
 31
0.0
  0
LINE
  5
30B
100
AcDbEntity
  8
0
  6
CONTINUOUS
 62
               2
100
AcDbLine
 10
20.0
 20
-16.578506469726563
 30
0.0
 11
20.0
 21
-1.4215087890625
 31
0.0
  0
LINE
  5
30C
100
AcDbEntity
  8
0
  6
CONTINUOUS
 62
               2
100
AcDbLine
 10
24.0
 20
14.5
 30
0.0
 11
24.0
 21
21.5
 31
0.0
  0
LINE
  5
30D
100
AcDbEntity
  8
0
  6
CONTINUOUS
 62
               2
100
AcDbLine
 10
20.5
 20
18.0
 30
0.0
 11
27.5
 21
18.0
 31
0.0
  0
LINE
  5
30E
100
AcDbEntity
  8
0
  6
CONTINUOUS
 62
               2
100
AcDbLine
 10
3.4215087890625
 20
-27.000015258789063
 30
0.0
 11
18.578506469726562
 21
-27.000015258789063
 31
0.0
  0
LINE
  5
30F
100
AcDbEntity
  8
0
  6
CONTINUOUS
 62
               2
100
AcDbLine
 10
3.4215087890625
 20
9.0
 30
0.0
 11
18.578506469726562
 21
9.0
 31
0.0
  0
LINE
  5
310
100
AcDbEntity
  8
0
  6
CONTINUOUS
 62
               2
100
AcDbLine
 10
11.244126158303686
 20
-9.0000152587890625
 30
0.0
 11
28.694969693730997
 21
-9.0000152587890625
 31
0.0
  0
LINE
  5
311
100
AcDbEntity
  8
0
  6
CONTINUOUS
 62
               7
100
AcDbLine
 10
0.0
 20
-37.000015258789063
 30
0.0
 11
0.0
 21
-24.0
 31
0.0
  0
LINE
  5
312
100
AcDbEntity
  8
0
  6
CONTINUOUS
 62
               7
100
AcDbLine
 10
30.0
 20
-37.000015258789063
 30
0.0
 11
30.0
 21
24.0
 31
0.0
  0
LINE
  5
313
100
AcDbEntity
  8
0
  6
CONTINUOUS
 62
               7
100
AcDbLine
 10
0.0
 20
-37.000015258789063
 30
0.0
 11
30.0
 21
-37.000015258789063
 31
0.0
  0
LINE
  5
314
100
AcDbEntity
  8
0
  6
CONTINUOUS
 62
               7
100
AcDbLine
 10
0.0
 20
24.0
 30
0.0
 11
30.0
 21
24.0
 31
0.0
  0
LINE
  5
315
100
AcDbEntity
  8
0
  6
CONTINUOUS
 62
               7
100
AcDbLine
 10
51.750015258789063
 20
-49.0
 30
0.0
 11
51.750015258789063
 21
-48.5
 31
0.0
  0
LINE
  5
316
100
AcDbEntity
  8
0
  6
CONTINUOUS
 62
               7
100
AcDbLine
 10
55.75
 20
-50.5
 30
0.0
 11
53.25
 21
-50.5
 31
0.0
  0
LINE
  5
317
100
AcDbEntity
  8
0
  6
CONTINUOUS
 62
               7
100
AcDbLine
 10
57.25
 20
-49.0
 30
0.0
 11
57.25
 21
-48.5
 31
0.0
  0
LINE
  5
318
100
AcDbEntity
  8
0
  6
CONTINUOUS
 62
               7
100
AcDbLine
 10
57.699996948242187
 20
-50.699996948242188
 30
0.0
 11
57.699996948242187
 21
-48.800003051757813
 31
0.0
  0
LINE
  5
319
100
AcDbEntity
  8
0
  6
CONTINUOUS
 62
               7
100
AcDbLine
 10
57.399993896484375
 20
-48.5
 30
0.0
 11
51.600006103515625
 21
-48.5
 31
0.0
  0
LINE
  5
31A
100
AcDbEntity
  8
0
  6
CONTINUOUS
 62
               7
100
AcDbLine
 10
57.499984741210937
 20
25.999984741210937
 30
0.0
 11
56.199981689453125
 21
25.999984741210937
 31
0.0
  0
LINE
  5
31B
100
AcDbEntity
  8
0
  6
CONTINUOUS
 62
               7
100
AcDbLine
 10
56.199981689453125
 20
24.5
 30
0.0
 11
56.199981689453125
 21
25.999984741210937
 31
0.0
  0
LINE
  5
31C
100
AcDbEntity
  8
0
  6
CONTINUOUS
 62
               7
100
AcDbLine
 10
53.199981689453125
 20
24.5
 30
0.0
 11
53.199981689453125
 21
25.999984741210937
 31
0.0
  0
LINE
  5
31D
100
AcDbEntity
  8
0
  6
CONTINUOUS
 62
               7
100
AcDbLine
 10
33.999984741210937
 20
24.5
 30
0.0
 11
33.999984741210937
 21
25.999984741210937
 31
0.0
  0
LINE
  5
31E
100
AcDbEntity
  8
0
  6
CONTINUOUS
 62
               7
100
AcDbLine
 10
53.199981689453125
 20
25.999984741210937
 30
0.0
 11
33.999984741210937
 21
25.999984741210937
 31
0.0
  0
LINE
  5
31F
100
AcDbEntity
  8
0
  6
CONTINUOUS
 62
               7
100
AcDbLine
 10
31.499984741210938
 20
24.5
 30
0.0
 11
31.499984741210938
 21
25.999984741210937
 31
0.0
  0
LINE
  5
320
100
AcDbEntity
  8
0
  6
CONTINUOUS
 62
               7
100
AcDbLine
 10
31.499984741210938
 20
25.999984741210937
 30
0.0
 11
30.499984741210937
 21
25.999984741210937
 31
0.0
  0
LINE
  5
321
100
AcDbEntity
  8
0
  6
CONTINUOUS
 62
               7
100
AcDbLine
 10
51.300003051757813
 20
-50.699996948242188
 30
0.0
 11
51.300003051757813
 21
-48.800003051757813
 31
0.0
  0
LINE
  5
322
100
AcDbEntity
  8
0
  6
CONTINUOUS
 62
               7
100
AcDbLine
 10
57.499984741210937
 20
22.5
 30
0.0
 11
30.499984741210937
 21
22.5
 31
0.0
  0
LINE
  5
323
100
AcDbEntity
  8
0
  6
CONTINUOUS
 62
               7
100
AcDbLine
 10
61.499984741210937
 20
-42.0
 30
0.0
 11
61.499984741210937
 21
-32.0
 31
0.0
  0
LINE
  5
324
100
AcDbEntity
  8
0
  6
CONTINUOUS
 62
               7
100
AcDbLine
 10
58.599990844726563
 20
-33.899993896484375
 30
0.0
 11
58.599990844726563
 21
-32.0
 31
0.0
  0
LINE
  5
325
100
AcDbEntity
  8
0
  6
CONTINUOUS
 62
               7
100
AcDbLine
 10
61.29998779296875
 20
-40.100006103515625
 30
0.0
 11
58.5999755859375
 21
-40.100006103515625
 31
0.0
  0
LINE
  5
326
100
AcDbEntity
  8
0
  6
CONTINUOUS
 62
               7
100
AcDbLine
 10
61.29998779296875
 20
-33.900009155273438
 30
0.0
 11
58.5999755859375
 21
-33.900009155273438
 31
0.0
  0
LINE
  5
327
100
AcDbEntity
  8
0
  6
CONTINUOUS
 62
               7
100
AcDbLine
 10
58.599990844726563
 20
-42.0
 30
0.0
 11
58.599990844726563
 21
-40.099990844726563
 31
0.0
  0
LINE
  5
328
100
AcDbEntity
  8
0
  6
CONTINUOUS
 62
               7
100
AcDbLine
 10
58.499984741210938
 20
-34.0
 30
0.0
 11
58.499984741210938
 21
-32.0
 31
0.0
  0
LINE
  5
329
100
AcDbEntity
  8
0
  6
CONTINUOUS
 62
               7
100
AcDbLine
 10
59.499984741210938
 20
-34.0
 30
0.0
 11
59.499984741210938
 21
-33.899993896484375
 31
0.0
  0
LINE
  5
32A
100
AcDbEntity
  8
0
  6
CONTINUOUS
 62
               7
100
AcDbLine
 10
58.499984741210938
 20
-42.0
 30
0.0
 11
58.499984741210938
 21
-40.0
 31
0.0
  0
LINE
  5
32B
100
AcDbEntity
  8
0
  6
CONTINUOUS
 62
               7
100
AcDbLine
 10
59.499984741210938
 20
-40.099990844726563
 30
0.0
 11
59.499984741210938
 21
-40.0
 31
0.0
  0
LINE
  5
32C
100
AcDbEntity
  8
0
  6
CONTINUOUS
 62
               7
100
AcDbLine
 10
60.499984741210937
 20
-34.0
 30
0.0
 11
58.499984741210938
 21
-34.0
 31
0.0
  0
LINE
  5
32D
100
AcDbEntity
  8
0
  6
CONTINUOUS
 62
               7
100
AcDbLine
 10
60.499984741210937
 20
-40.0
 30
0.0
 11
58.499984741210938
 21
-40.0
 31
0.0
  0
LINE
  5
32E
100
AcDbEntity
  8
0
  6
CONTINUOUS
 62
               7
100
AcDbLine
 10
60.499984741210937
 20
-50.499992370605469
 30
0.0
 11
60.499984741210937
 21
-42.0
 31
0.0
  0
LINE
  5
32F
100
AcDbEntity
  8
0
  6
CONTINUOUS
 62
               7
100
AcDbLine
 10
30.5
 20
-50.499992370605469
 30
0.0
 11
30.5
 21
35.5
 31
0.0
  0
LINE
  5
330
100
AcDbEntity
  8
0
  6
CONTINUOUS
 62
               7
100
AcDbLine
 10
59.999984741210938
 20
-51.0
 30
0.0
 11
31.0
 21
-51.0
 31
0.0
  0
LINE
  5
331
100
AcDbEntity
  8
0
  6
CONTINUOUS
 62
               7
100
AcDbLine
 10
61.499984741210937
 20
-42.0
 30
0.0
 11
30.5
 21
-42.0
 31
0.0
  0
LINE
  5
332
100
AcDbEntity
  8
0
  6
CONTINUOUS
 62
               7
100
AcDbLine
 10
61.29998779296875
 20
-40.099990844726563
 30
0.0
 11
61.29998779296875
 21
-33.899993896484375
 31
0.0
  0
LINE
  5
333
100
AcDbEntity
  8
0
  6
CONTINUOUS
 62
               7
100
AcDbLine
 10
61.500003683283239
 20
-42.000022147791356
 30
0.0
 11
62.499999434369556
 21
-41.000026565291705
 31
0.0
  0
LINE
  5
334
100
AcDbEntity
  8
0
  6
CONTINUOUS
 62
               7
100
AcDbLine
 10
61.499960313982683
 20
-32.000017558504624
 30
0.0
 11
62.499965168792642
 21
-33.000014911167455
 31
0.0
  0
LINE
  5
335
100
AcDbEntity
  8
0
  6
CONTINUOUS
 62
               7
100
AcDbLine
 10
62.499984741210938
 20
-41.0
 30
0.0
 11
62.499984741210938
 21
-33.0
 31
0.0
  0
LINE
  5
336
100
AcDbEntity
  8
0
  6
CONTINUOUS
 62
               7
100
AcDbLine
 10
60.499984741210937
 20
-40.099990844726563
 30
0.0
 11
60.499984741210937
 21
-33.899993896484375
 31
0.0
  0
LINE
  5
337
100
AcDbEntity
  8
0
  6
CONTINUOUS
 62
               7
100
AcDbLine
 10
57.499984741210937
 20
-32.0
 30
0.0
 11
57.499984741210937
 21
35.5
 31
0.0
  0
LINE
  5
338
100
AcDbEntity
  8
0
  6
CONTINUOUS
 62
               7
100
AcDbLine
 10
61.499984741210937
 20
-32.0
 30
0.0
 11
30.499984741210937
 21
-32.0
 31
0.0
  0
LINE
  5
339
100
AcDbEntity
  8
0
  6
CONTINUOUS
 62
               7
100
AcDbLine
 10
57.499984741210937
 20
14.0
 30
0.0
 11
30.499984741210937
 21
14.0
 31
0.0
  0
LINE
  5
33A
100
AcDbEntity
  8
0
  6
CONTINUOUS
 62
               7
100
AcDbLine
 10
58.499984741210938
 20
32.5
 30
0.0
 11
58.499984741210938
 21
34.150009155273438
 31
0.0
  0
LINE
  5
33B
100
AcDbEntity
  8
0
  6
CONTINUOUS
 62
               7
100
AcDbLine
 10
58.499984741210938
 20
32.5
 30
0.0
 11
57.899993896484375
 21
32.5
 31
0.0
  0
LINE
  5
33C
100
AcDbEntity
  8
0
  6
CONTINUOUS
 62
               7
100
AcDbLine
 10
58.499984741210938
 20
31.899993896484375
 30
0.0
 11
57.899993896484375
 21
31.899993896484375
 31
0.0
  0
LINE
  5
33D
100
AcDbEntity
  8
0
  6
CONTINUOUS
 62
               7
100
AcDbLine
 10
57.899993896484375
 20
31.900009155273438
 30
0.0
 11
57.899993896484375
 21
32.5
 31
0.0
  0
LINE
  5
33E
100
AcDbEntity
  8
0
  6
CONTINUOUS
 62
               7
100
AcDbLine
 10
58.499984741210938
 20
34.149993896484375
 30
0.0
 11
57.499984741210937
 21
34.149993896484375
 31
0.0
  0
LINE
  5
33F
100
AcDbEntity
  8
0
  6
CONTINUOUS
 62
               7
100
AcDbLine
 10
58.499984741210938
 20
30.25
 30
0.0
 11
57.499984741210937
 21
30.25
 31
0.0
  0
LINE
  5
340
100
AcDbEntity
  8
0
  6
CONTINUOUS
 62
               7
100
AcDbLine
 10
58.499984741210938
 20
30.25
 30
0.0
 11
58.499984741210938
 21
31.900009155273438
 31
0.0
  0
LINE
  5
341
100
AcDbEntity
  8
0
  6
CONTINUOUS
 62
               2
100
AcDbLine
 10
59.499984741210938
 20
32.199996948242188
 30
0.0
 11
56.79998779296875
 21
32.199996948242188
 31
0.0
  0
ENDBLK
  5
342
100
AcDbEntity
  8
0
100
AcDbBlockEnd
  0
BLOCK
  5
343
100
AcDbEntity
  8
0
100
AcDbBlockBegin
  2
F15MF-3
 70
               0
 10
0.0
 20
0.0
 30
0.0
  3
F15MF-3
  1

  0
LINE
  5
344
100
AcDbEntity
  8
0
  6
CONTINUOUS
 62
             200
100
AcDbLine
 10
11.999984741210938
 20
62.499984741210938
 30
0.0
 11
11.999984741210938
 21
89.00927734375
 31
0.0
  0
LINE
  5
345
100
AcDbEntity
  8
0
  6
CONTINUOUS
 62
             200
100
AcDbLine
 10
27.999984741210937
 20
62.5
 30
0.0
 11
27.999984741210937
 21
89.00927734375
 31
0.0
  0
LINE
  5
346
100
AcDbEntity
  8
0
  6
CONTINUOUS
 62
             200
100
AcDbLine
 10
43.999984741210938
 20
62.5
 30
0.0
 11
43.999984741210938
 21
89.00927734375
 31
0.0
  0
LINE
  5
347
100
AcDbEntity
  8
0
  6
CONTINUOUS
 62
               7
100
AcDbLine
 10
-11.0
 20
30.0
 30
0.0
 11
83.0
 21
30.0
 31
0.0
  0
LINE
  5
348
100
AcDbEntity
  8
0
  6
CONTINUOUS
 62
               2
100
AcDbLine
 10
72.0
 20
3.0
 30
0.0
 11
72.0
 21
-3.0
 31
0.0
  0
LINE
  5
349
100
AcDbEntity
  8
0
  6
CONTINUOUS
 62
               2
100
AcDbLine
 10
0.0
 20
-3.0
 30
0.0
 11
0.0
 21
3.0
 31
0.0
  0
LINE
  5
34A
100
AcDbEntity
  8
0
  6
CONTINUOUS
 62
               7
100
AcDbLine
 10
36.500000037748976
 20
30.500000566234206
 30
0.0
 11
51.500000037748919
 21
30.499999433765794
 31
0.0
  0
LINE
  5
34B
100
AcDbEntity
  8
0
  6
CONTINUOUS
 62
               7
100
AcDbLine
 10
20.500000037748976
 20
30.500000566234206
 30
0.0
 11
35.500000037748919
 21
30.499999433765794
 31
0.0
  0
LINE
  5
34C
100
AcDbEntity
  8
0
  6
CONTINUOUS
 62
               7
100
AcDbLine
 10
4.5000000377489755
 20
30.500000566234206
 30
0.0
 11
19.500000037748919
 21
30.499999433765794
 31
0.0
  0
LINE
  5
34D
100
AcDbEntity
  8
0
  6
CONTINUOUS
 62
               2
100
AcDbLine
 10
27.999984741210937
 20
27.200286865234375
 30
0.0
 11
27.999984741210937
 21
62.5
 31
0.0
  0
LINE
  5
34E
100
AcDbEntity
  8
0
  6
CONTINUOUS
 62
               7
100
AcDbLine
 10
20.499984741210938
 20
30.0
 30
0.0
 11
20.499984741210938
 21
61.999984741210938
 31
0.0
  0
LINE
  5
34F
100
AcDbEntity
  8
0
  6
CONTINUOUS
 62
               7
100
AcDbLine
 10
35.499984741210938
 20
30.0
 30
0.0
 11
35.499984741210938
 21
60.5
 31
0.0
  0
LINE
  5
350
100
AcDbEntity
  8
0
  6
CONTINUOUS
 62
               7
100
AcDbLine
 10
21.0
 20
62.5
 30
0.0
 11
35.0
 21
62.5
 31
0.0
  0
LINE
  5
351
100
AcDbEntity
  8
0
  6
CONTINUOUS
 62
               7
100
AcDbLine
 10
33.560768758878908
 20
34.560506224602051
 30
0.0
 11
31.439447736368379
 21
32.439186453789063
 31
0.0
  0
LINE
  5
352
100
AcDbEntity
  8
0
  6
CONTINUOUS
 62
               7
100
AcDbLine
 10
31.439327232202459
 20
34.560611796141984
 30
0.0
 11
33.560657792605753
 21
32.439279984034783
 31
0.0
  0
LINE
  5
353
100
AcDbEntity
  8
0
  6
CONTINUOUS
 62
               7
100
AcDbLine
 10
29.499984741210938
 20
33.499969482421875
 30
0.0
 11
29.499984741210938
 21
30.499969482421875
 31
0.0
  0
LINE
  5
354
100
AcDbEntity
  8
0
  6
CONTINUOUS
 62
               7
100
AcDbLine
 10
32.499984741210937
 20
36.499954223632812
 30
0.0
 11
35.499984741210938
 21
36.499954223632812
 31
0.0
  0
LINE
  5
355
100
AcDbEntity
  8
0
  6
CONTINUOUS
 62
               7
100
AcDbLine
 10
23.5
 20
51.500015258789063
 30
0.0
 11
20.5
 21
51.500015258789063
 31
0.0
  0
LINE
  5
356
100
AcDbEntity
  8
0
  6
CONTINUOUS
 62
               7
100
AcDbLine
 10
22.439426623603595
 20
53.439256130451213
 30
0.0
 11
24.560748003741992
 21
55.560575543636332
 31
0.0
  0
LINE
  5
357
100
AcDbEntity
  8
0
  6
CONTINUOUS
 62
               7
100
AcDbLine
 10
24.560642496110006
 20
53.439323256331932
 30
0.0
 11
22.439323082924886
 21
55.560644636470329
 31
0.0
  0
LINE
  5
358
100
AcDbEntity
  8
0
  6
CONTINUOUS
 62
               7
100
AcDbLine
 10
23.5
 20
57.5
 30
0.0
 11
20.5
 21
57.5
 31
0.0
  0
LINE
  5
359
100
AcDbEntity
  8
0
  6
CONTINUOUS
 62
               7
100
AcDbLine
 10
26.050003051757812
 20
61.5
 30
0.0
 11
26.050003051757812
 21
60.5
 31
0.0
  0
LINE
  5
35A
100
AcDbEntity
  8
0
  6
CONTINUOUS
 62
               7
100
AcDbLine
 10
29.949996948242188
 20
61.5
 30
0.0
 11
29.949996948242188
 21
60.5
 31
0.0
  0
LINE
  5
35B
100
AcDbEntity
  8
0
  6
CONTINUOUS
 62
               7
100
AcDbLine
 10
26.050003051757812
 20
61.5
 30
0.0
 11
29.949996948242188
 21
61.5
 31
0.0
  0
LINE
  5
35C
100
AcDbEntity
  8
0
  6
CONTINUOUS
 62
               7
100
AcDbLine
 10
35.499984741210938
 20
62.0
 30
0.0
 11
35.499984741210938
 21
61.529159545898438
 31
0.0
  0
LINE
  5
35D
100
AcDbEntity
  8
0
  6
CONTINUOUS
 62
               7
100
AcDbLine
 10
20.499984741210938
 20
60.5
 30
0.0
 11
35.749984741210937
 21
60.5
 31
0.0
  0
LINE
  5
35E
100
AcDbEntity
  8
0
  6
CONTINUOUS
 62
               7
100
AcDbLine
 10
30.79998779296875
 20
62.199996948242187
 30
0.0
 11
30.79998779296875
 21
60.5
 31
0.0
  0
LINE
  5
35F
100
AcDbEntity
  8
0
  6
CONTINUOUS
 62
               7
100
AcDbLine
 10
32.749984741210938
 20
62.199996948242187
 30
0.0
 11
34.249984741210937
 21
62.199996948242187
 31
0.0
  0
LINE
  5
360
100
AcDbEntity
  8
0
  6
CONTINUOUS
 62
               7
100
AcDbLine
 10
35.749984741210937
 20
60.699996948242188
 30
0.0
 11
35.749984741210937
 21
60.5
 31
0.0
  0
LINE
  5
361
100
AcDbEntity
  8
0
  6
CONTINUOUS
 62
               7
100
AcDbLine
 10
31.249984741210938
 20
60.699996948242188
 30
0.0
 11
31.249984741210938
 21
60.5
 31
0.0
  0
ARC
  5
362
100
AcDbEntity
  8
0
  6
CONTINUOUS
 62
               7
100
AcDbCircle
 10
21.0
 20
61.999984741210938
 30
0.0
 40
0.5
100
AcDbArc
 50
89.999982013910454
 51
179.99996402782091
  0
CIRCLE
  5
363
100
AcDbEntity
  8
0
  6
CONTINUOUS
 62
               7
100
AcDbCircle
 10
32.499984741210937
 20
33.499969482421875
 30
0.0
 40
2.7999992370605469
  0
ARC
  5
364
100
AcDbEntity
  8
0
  6
CONTINUOUS
 62
               7
100
AcDbCircle
 10
32.499984741210937
 20
33.499969482421875
 30
0.0
 40
3.0
100
AcDbArc
 50
89.999982013910454
 51
179.99996402782091
  0
CIRCLE
  5
365
100
AcDbEntity
  8
0
  6
CONTINUOUS
 62
               7
100
AcDbCircle
 10
23.5
 20
54.5
 30
0.0
 40
2.7999992370605469
  0
ARC
  5
366
100
AcDbEntity
  8
0
  6
CONTINUOUS
 62
               7
100
AcDbCircle
 10
23.5
 20
54.500015258789062
 30
0.0
 40
3.0
100
AcDbArc
 50
270.00001798608872
 51
90.00014593845053
  0
ARC
  5
367
100
AcDbEntity
  8
0
  6
CONTINUOUS
 62
               7
100
AcDbCircle
 10
34.999984741210938
 20
62.0
 30
0.0
 40
0.5
100
AcDbArc
 50
0.0
 51
89.999982013910454
  0
ARC
  5
368
100
AcDbEntity
  8
0
  6
CONTINUOUS
 62
               7
100
AcDbCircle
 10
32.749984741210938
 20
60.699996948242188
 30
0.0
 40
1.5
100
AcDbArc
 50
89.999982013910454
 51
179.99996402782091
  0
ARC
  5
369
100
AcDbEntity
  8
0
  6
CONTINUOUS
 62
               7
100
AcDbCircle
 10
34.249984741210937
 20
60.699996948242188
 30
0.0
 40
1.5
100
AcDbArc
 50
0.0
 51
89.999982013910454
  0
ARC
  5
36A
100
AcDbEntity
  8
0
  6
CONTINUOUS
 62
               7
100
AcDbCircle
 10
30.499984741210937
 20
62.199996948242187
 30
0.0
 40
0.300000011920929
100
AcDbArc
 50
0.0
 51
89.999982013910454
  0
LINE
  5
36B
100
AcDbEntity
  8
0
  6
CONTINUOUS
 62
               4
100
AcDbLine
 10
35.499984741210966
 20
72.69999700000001
 30
0.0
 11
35.499984741210895
 21
62.00000011920929
 31
0.0
  0
LINE
  5
36C
100
AcDbEntity
  8
0
  6
CONTINUOUS
 62
               4
100
AcDbLine
 10
20.499984741210966
 20
72.69999700000001
 30
0.0
 11
20.499984741210923
 21
62.0
 31
0.0
  0
LINE
  5
36D
100
AcDbEntity
  8
0
  6
CONTINUOUS
 62
               4
100
AcDbLine
 10
30.79998474121092
 20
62.899996999999985
 30
0.0
 11
30.79998474121092
 21
62.5
 31
0.0
  0
ARC
  5
36E
100
AcDbEntity
  8
0
  6
CONTINUOUS
 62
               4
100
AcDbCircle
 10
22.986986199134748
 20
65.84353582874121
 30
0.0
 40
3.2683115693123259
100
AcDbArc
 50
290.66463514086269
 51
292.70909159173169
  0
ARC
  5
36F
100
AcDbEntity
  8
0
  6
CONTINUOUS
 62
               4
100
AcDbCircle
 10
24.287508613593872
 20
63.939194276740011
 30
0.0
 40
0.9248977473007884
100
AcDbArc
 50
332.94965877026988
 51
334.98510585905677
  0
ARC
  5
370
100
AcDbEntity
  8
0
  6
CONTINUOUS
 62
               4
100
AcDbCircle
 10
24.26801796809815
 20
63.94915923835994
 30
0.0
 40
0.9467880557216587
100
AcDbArc
 50
330.79047142950299
 51
332.94899039172839
  0
ARC
  5
371
100
AcDbEntity
  8
0
  6
CONTINUOUS
 62
               4
100
AcDbCircle
 10
24.243238244500986
 20
63.963029596721313
 30
0.0
 40
0.9751856146405591
100
AcDbArc
 50
328.52513572890246
 51
330.78964935502506
  0
ARC
  5
372
100
AcDbEntity
  8
0
  6
CONTINUOUS
 62
               4
100
AcDbCircle
 10
24.214587722469133
 20
63.980576501591116
 30
0.0
 40
1.0087824336491014
100
AcDbArc
 50
326.32547329285069
 51
328.52479050684587
  0
ARC
  5
373
100
AcDbEntity
  8
0
  6
CONTINUOUS
 62
               4
100
AcDbCircle
 10
24.182821850623327
 20
64.001746989421704
 30
0.0
 40
1.0469565105542151
100
AcDbArc
 50
324.19394833181474
 51
326.32521446265264
  0
ARC
  5
374
100
AcDbEntity
  8
0
  6
CONTINUOUS
 62
               4
100
AcDbCircle
 10
24.148143542147437
 20
64.026767529810172
 30
0.0
 40
1.0897187895978158
100
AcDbArc
 50
322.13249726452784
 51
324.19376978971042
  0
ARC
  5
375
100
AcDbEntity
  8
0
  6
CONTINUOUS
 62
               4
100
AcDbCircle
 10
24.109823232454715
 20
64.056579894276027
 30
0.0
 40
1.1382700312170682
100
AcDbArc
 50
320.00116996618073
 51
322.13187306362488
  0
ARC
  5
376
100
AcDbEntity
  8
0
  6
CONTINUOUS
 62
               4
100
AcDbCircle
 10
24.064945028072913
 20
64.094253230220531
 30
0.0
 40
1.1968646836743488
100
AcDbArc
 50
317.81937465146979
 51
320.00052406292548
  0
ARC
  5
377
100
AcDbEntity
  8
0
  6
CONTINUOUS
 62
               4
100
AcDbCircle
 10
24.016178699744387
 20
64.13844068273886
 30
0.0
 40
1.262672629532426
100
AcDbArc
 50
315.7310539854646
 51
317.81941212471537
  0
ARC
  5
378
100
AcDbEntity
  8
0
  6
CONTINUOUS
 62
               4
100
AcDbCircle
 10
23.963624813392272
 20
64.189685528053957
 30
0.0
 40
1.336075252302974
100
AcDbArc
 50
313.61051206819258
 51
315.73058613787487
  0
ARC
  5
379
100
AcDbEntity
  8
0
  6
CONTINUOUS
 62
               4
100
AcDbCircle
 10
23.839493525790743
 20
64.325273619958494
 30
0.0
 40
1.519934893233972
100
AcDbArc
 50
309.3397723376915
 51
311.47581497565977
  0
ARC
  5
37A
100
AcDbEntity
  8
0
  6
CONTINUOUS
 62
               4
100
AcDbCircle
 10
23.767798959283056
 20
64.412750802450901
 30
0.0
 40
1.6330382455386463
100
AcDbArc
 50
307.21733800905406
 51
309.33960577266504
  0
ARC
  5
37B
100
AcDbEntity
  8
0
  6
CONTINUOUS
 62
               4
100
AcDbCircle
 10
23.691518635334035
 20
64.513185243511103
 30
0.0
 40
1.7591563044023779
100
AcDbArc
 50
305.11797332770675
 51
307.21729964211721
  0
ARC
  5
37C
100
AcDbEntity
  8
0
  6
CONTINUOUS
 62
               4
100
AcDbCircle
 10
23.519097181862776
 20
64.768709864124673
 30
0.0
 40
2.0674635019234326
100
AcDbArc
 50
300.94666501632582
 51
303.05272129209044
  0
ARC
  5
37D
100
AcDbEntity
  8
0
  6
CONTINUOUS
 62
               4
100
AcDbCircle
 10
23.424071527207644
 20
64.927159340704009
 30
0.0
 40
2.2522231062592284
100
AcDbArc
 50
298.90024827716275
 51
300.94710659439653
  0
ARC
  5
37E
100
AcDbEntity
  8
0
  6
CONTINUOUS
 62
               4
100
AcDbCircle
 10
23.323043889234469
 20
65.110164336683823
 30
0.0
 40
2.4612623661697048
100
AcDbArc
 50
296.84419992855345
 51
298.9002975557608
  0
ARC
  5
37F
100
AcDbEntity
  8
0
  6
CONTINUOUS
 62
               4
100
AcDbCircle
 10
23.216102238775164
 20
65.321436357549217
 30
0.0
 40
2.6980584455748691
100
AcDbArc
 50
294.79688870518265
 51
296.84449975495642
  0
ARC
  5
380
100
AcDbEntity
  8
0
  6
CONTINUOUS
 62
               4
100
AcDbCircle
 10
23.102730994692081
 20
65.566951401905925
 30
0.0
 40
2.9684852815271552
100
AcDbArc
 50
292.70917255837657
 51
294.79589951617982
  0
ARC
  5
381
100
AcDbEntity
  8
0
  6
CONTINUOUS
 62
               4
100
AcDbCircle
 10
31.945900337064728
 20
62.752533932370824
 30
0.0
 40
1.1553648381076536
100
AcDbArc
 50
171.42492203625403
 51
172.66714687627734
  0
ARC
  5
382
100
AcDbEntity
  8
0
  6
CONTINUOUS
 62
               4
100
AcDbCircle
 10
31.946271915014478
 20
62.752383560872943
 30
0.0
 40
1.1557565612105893
100
AcDbArc
 50
167.10737788627796
 51
169.25807302055375
  0
ARC
  5
383
100
AcDbEntity
  8
0
  6
CONTINUOUS
 62
               4
100
AcDbCircle
 10
31.952539652560688
 20
62.750938790903774
 30
0.0
 40
1.1621886524346294
100
AcDbArc
 50
164.97689628126048
 51
167.10689174905789
  0
ARC
  5
384
100
AcDbEntity
  8
0
  6
CONTINUOUS
 62
               4
100
AcDbCircle
 10
31.962874320839688
 20
62.748155528826629
 30
0.0
 40
1.172891541321601
100
AcDbArc
 50
162.87207847584108
 51
164.9764419781205
  0
ARC
  5
385
100
AcDbEntity
  8
0
  6
CONTINUOUS
 62
               4
100
AcDbCircle
 10
31.977116535504848
 20
62.743757404873122
 30
0.0
 40
1.1877973824267298
100
AcDbArc
 50
160.79746197752058
 51
162.87166138161933
  0
ARC
  5
386
100
AcDbEntity
  8
0
  6
CONTINUOUS
 62
               4
100
AcDbCircle
 10
31.995105096632386
 20
62.737483848633474
 30
0.0
 40
1.206848518289146
100
AcDbArc
 50
158.75713470539904
 51
160.79708613330786
  0
ARC
  5
387
100
AcDbEntity
  8
0
  6
CONTINUOUS
 62
               4
100
AcDbCircle
 10
32.045528179362719
 20
62.716615198266851
 30
0.0
 40
1.2614288403806175
100
AcDbArc
 50
154.37737662748185
 51
156.61174122654182
  0
ARC
  5
388
100
AcDbEntity
  8
0
  6
CONTINUOUS
 62
               4
100
AcDbCircle
 10
32.078572896521905
 20
62.700758090847359
 30
0.0
 40
1.2980812772469721
100
AcDbArc
 50
152.20017722999506
 51
154.37703095038307
  0
ARC
  5
389
100
AcDbEntity
  8
0
  6
CONTINUOUS
 62
               4
100
AcDbCircle
 10
32.156299020247843
 20
62.657803862796044
 30
0.0
 40
1.3869018340082298
100
AcDbArc
 50
148.02942719473111
 51
150.08328924595625
  0
ARC
  5
38A
100
AcDbEntity
  8
0
  6
CONTINUOUS
 62
               4
100
AcDbCircle
 10
32.201432042306152
 20
62.629618188657929
 30
0.0
 40
1.440112939399137
100
AcDbArc
 50
145.91589475520709
 51
148.02889889146286
  0
ARC
  5
38B
100
AcDbEntity
  8
0
  6
CONTINUOUS
 62
               4
100
AcDbCircle
 10
32.253975272549354
 20
62.594047809618729
 30
0.0
 40
1.5035640443162497
100
AcDbArc
 50
143.75847606669672
 51
145.9153521724142
  0
ARC
  5
38C
100
AcDbEntity
  8
0
  6
CONTINUOUS
 62
               4
100
AcDbCircle
 10
32.311125079716163
 20
62.552156190649129
 30
0.0
 40
1.5744231171216525
100
AcDbArc
 50
141.68341024094119
 51
143.75845713366215
  0
ARC
  5
38D
100
AcDbEntity
  8
0
  6
CONTINUOUS
 62
               4
100
AcDbCircle
 10
32.115581527613557
 20
62.68123864688701
 30
0.0
 40
1.3399220161149226
100
AcDbArc
 50
150.08348873429833
 51
152.19990668070685
  0
ARC
  5
38E
100
AcDbEntity
  8
0
  6
CONTINUOUS
 62
               4
100
AcDbCircle
 10
32.017243856531678
 20
62.728864361720056
 30
0.0
 40
1.2306060453551306
100
AcDbArc
 50
156.61243884655113
 51
158.75655461249124
  0
ARC
  5
38F
100
AcDbEntity
  8
0
  6
CONTINUOUS
 62
               4
100
AcDbCircle
 10
31.944228688052902
 20
62.752781661732456
 30
0.0
 40
1.1536749381666052
100
AcDbArc
 50
169.25858439343344
 51
171.42470890125855
  0
ARC
  5
390
100
AcDbEntity
  8
0
  6
CONTINUOUS
 62
               4
100
AcDbCircle
 10
23.608477851842764
 20
64.631255288824676
 30
0.0
 40
1.9035041734933467
100
AcDbArc
 50
303.05431837145363
 51
305.11808218074952
  0
ARC
  5
391
100
AcDbEntity
  8
0
  6
CONTINUOUS
 62
               4
100
AcDbCircle
 10
23.904003482862151
 20
64.252285668702257
 30
0.0
 40
1.4225245470859771
100
AcDbArc
 50
311.4760993620244
 51
313.61010722300421
  0
LINE
  5
392
100
AcDbEntity
  8
0
  6
CONTINUOUS
 62
               4
100
AcDbLine
 10
20.499984741210938
 20
64.599996999999988
 30
0.0
 11
35.499984741210909
 21
64.599996999999988
 31
0.0
  0
LINE
  5
393
100
AcDbEntity
  8
0
  6
CONTINUOUS
 62
               4
100
AcDbLine
 10
20.699984741210955
 20
80.799997000000005
 30
0.0
 11
20.499984741210966
 21
80.999996999999993
 31
0.0
  0
LINE
  5
394
100
AcDbEntity
  8
0
  6
CONTINUOUS
 62
               4
100
AcDbLine
 10
20.499984741210966
 20
82.336038000000016
 30
0.0
 11
20.499984741210966
 21
80.999996999999993
 31
0.0
  0
LINE
  5
395
100
AcDbEntity
  8
0
  6
CONTINUOUS
 62
               4
100
AcDbLine
 10
20.499984741210966
 20
79.899996999999999
 30
0.0
 11
20.599984741210932
 21
79.999996999999993
 31
0.0
  0
LINE
  5
396
100
AcDbEntity
  8
0
  6
CONTINUOUS
 62
               4
100
AcDbLine
 10
20.699984741210955
 20
72.899996999999999
 30
0.0
 11
20.499984741210966
 21
73.099996999999988
 31
0.0
  0
LINE
  5
397
100
AcDbEntity
  8
0
  6
CONTINUOUS
 62
               4
100
AcDbLine
 10
20.699984741210955
 20
72.899996999999999
 30
0.0
 11
20.499984741210966
 21
72.69999700000001
 31
0.0
  0
LINE
  5
398
100
AcDbEntity
  8
0
  6
CONTINUOUS
 62
               4
100
AcDbLine
 10
20.499984741210966
 20
79.899996999999999
 30
0.0
 11
20.499984741210966
 21
73.099996999999988
 31
0.0
  0
ARC
  5
399
100
AcDbEntity
  8
0
  6
CONTINUOUS
 62
               4
100
AcDbCircle
 10
34.599983241210936
 20
86.199989000000002
 30
0.0
 40
0.3
100
AcDbArc
 50
0.0000000000006107
 51
90.000000000000611
  0
ARC
  5
39A
100
AcDbEntity
  8
0
  6
CONTINUOUS
 62
               4
100
AcDbCircle
 10
33.399984341210967
 20
84.799992000000017
 30
0.0
 40
0.5
100
AcDbArc
 50
89.999999999999815
 51
179.9999999999998
  0
ARC
  5
39B
100
AcDbEntity
  8
0
  6
CONTINUOUS
 62
               4
100
AcDbCircle
 10
22.599985141210965
 20
84.799992000000017
 30
0.0
 40
0.5
100
AcDbArc
 50
0.0000000000006107
 51
90.000000000000611
  0
ARC
  5
39C
100
AcDbEntity
  8
0
  6
CONTINUOUS
 62
               4
100
AcDbCircle
 10
21.399986241210939
 20
86.199989000000002
 30
0.0
 40
0.3
100
AcDbArc
 50
89.999999999999815
 51
179.9999999999998
  0
LINE
  5
39D
100
AcDbEntity
  8
0
  6
CONTINUOUS
 62
               4
100
AcDbLine
 10
34.899984741210943
 20
86.199989000000002
 30
0.0
 11
34.899984741210943
 21
85.299992000000017
 31
0.0
  0
LINE
  5
39E
100
AcDbEntity
  8
0
  6
CONTINUOUS
 62
               4
100
AcDbLine
 10
34.599983241210936
 20
86.499992000000006
 30
0.0
 11
21.399984741210943
 21
86.499992000000006
 31
0.0
  0
LINE
  5
39F
100
AcDbEntity
  8
0
  6
CONTINUOUS
 62
               4
100
AcDbLine
 10
21.099984741210932
 20
85.299992000000017
 30
0.0
 11
34.899984741210943
 21
85.299992000000017
 31
0.0
  0
LINE
  5
3A0
100
AcDbEntity
  8
0
  6
CONTINUOUS
 62
               4
100
AcDbLine
 10
21.099984741210932
 20
86.199989000000002
 30
0.0
 11
21.099984741210932
 21
85.299992000000017
 31
0.0
  0
LINE
  5
3A1
100
AcDbEntity
  8
0
  6
CONTINUOUS
 62
               4
100
AcDbLine
 10
33.699984741210955
 20
84.399990999999986
 30
0.0
 11
33.699984741210955
 21
83.399992000000012
 31
0.0
  0
LINE
  5
3A2
100
AcDbEntity
  8
0
  6
CONTINUOUS
 62
               4
100
AcDbLine
 10
33.699984341210921
 20
84.399990999999986
 30
0.0
 11
33.599984341210956
 21
84.499991000000009
 31
0.0
  0
LINE
  5
3A3
100
AcDbEntity
  8
0
  6
CONTINUOUS
 62
               4
100
AcDbLine
 10
22.299984741210949
 20
84.399990999999986
 30
0.0
 11
22.299984741210949
 21
83.399992000000012
 31
0.0
  0
LINE
  5
3A4
100
AcDbEntity
  8
0
  6
CONTINUOUS
 62
               4
100
AcDbLine
 10
22.299985141210954
 20
84.399990999999986
 30
0.0
 11
22.399985141210948
 21
84.499991000000009
 31
0.0
  0
LINE
  5
3A5
100
AcDbEntity
  8
0
  6
CONTINUOUS
 62
               4
100
AcDbLine
 10
32.899984741210943
 20
84.799992000000017
 30
0.0
 11
32.899984741210943
 21
84.499991000000009
 31
0.0
  0
LINE
  5
3A6
100
AcDbEntity
  8
0
  6
CONTINUOUS
 62
               4
100
AcDbLine
 10
22.399985141210948
 20
84.499991000000009
 30
0.0
 11
33.599984341210956
 21
84.499991000000009
 31
0.0
  0
LINE
  5
3A7
100
AcDbEntity
  8
0
  6
CONTINUOUS
 62
               4
100
AcDbLine
 10
23.099984741210932
 20
84.799992000000017
 30
0.0
 11
23.099984741210932
 21
84.499991000000009
 31
0.0
  0
LINE
  5
3A8
100
AcDbEntity
  8
0
  6
CONTINUOUS
 62
               4
100
AcDbLine
 10
21.649984341210967
 20
83.399992000000012
 30
0.0
 11
34.349984741210932
 21
83.399992000000012
 31
0.0
  0
LINE
  5
3A9
100
AcDbEntity
  8
0
  6
CONTINUOUS
 62
               4
100
AcDbLine
 10
34.696395141210957
 20
82.79999100000002
 30
0.0
 11
35.499984741210966
 21
82.336038000000016
 31
0.0
  0
LINE
  5
3AA
100
AcDbEntity
  8
0
  6
CONTINUOUS
 62
               4
100
AcDbLine
 10
35.29998474121092
 20
80.799997000000005
 30
0.0
 11
35.499984741210966
 21
80.999996999999993
 31
0.0
  0
LINE
  5
3AB
100
AcDbEntity
  8
0
  6
CONTINUOUS
 62
               4
100
AcDbLine
 10
21.303574341210947
 20
82.799992000000017
 30
0.0
 11
21.649984741210943
 21
83.399992000000012
 31
0.0
  0
LINE
  5
3AC
100
AcDbEntity
  8
0
  6
CONTINUOUS
 62
               4
100
AcDbLine
 10
34.696395141210957
 20
82.799992000000017
 30
0.0
 11
34.349984741210932
 21
83.399992000000012
 31
0.0
  0
LINE
  5
3AD
100
AcDbEntity
  8
0
  6
CONTINUOUS
 62
               4
100
AcDbLine
 10
34.79998474121092
 20
80.799997000000005
 30
0.0
 11
34.79998474121092
 21
79.999996999999993
 31
0.0
  0
LINE
  5
3AE
100
AcDbEntity
  8
0
  6
CONTINUOUS
 62
               4
100
AcDbLine
 10
35.499984741210966
 20
82.336038000000016
 30
0.0
 11
35.499984741210966
 21
80.999996999999993
 31
0.0
  0
LINE
  5
3AF
100
AcDbEntity
  8
0
  6
CONTINUOUS
 62
               4
100
AcDbLine
 10
35.29998474121092
 20
72.899996999999999
 30
0.0
 11
35.499984741210966
 21
73.099997000000016
 31
0.0
  0
LINE
  5
3B0
100
AcDbEntity
  8
0
  6
CONTINUOUS
 62
               4
100
AcDbLine
 10
35.399984741210943
 20
79.999996999999993
 30
0.0
 11
35.499984741210966
 21
79.899996999999999
 31
0.0
  0
LINE
  5
3B1
100
AcDbEntity
  8
0
  6
CONTINUOUS
 62
               4
100
AcDbLine
 10
35.499984741210966
 20
79.899996999999999
 30
0.0
 11
35.499984741210966
 21
73.099997000000016
 31
0.0
  0
LINE
  5
3B2
100
AcDbEntity
  8
0
  6
CONTINUOUS
 62
               4
100
AcDbLine
 10
35.29998474121092
 20
72.899996999999999
 30
0.0
 11
35.499984741210966
 21
72.69999700000001
 31
0.0
  0
LINE
  5
3B3
100
AcDbEntity
  8
0
  6
CONTINUOUS
 62
               4
100
AcDbLine
 10
21.199984741210955
 20
80.799997000000005
 30
0.0
 11
21.199984741210955
 21
79.999996999999993
 31
0.0
  0
LINE
  5
3B4
100
AcDbEntity
  8
0
  6
CONTINUOUS
 62
               4
100
AcDbLine
 10
22.299984741210949
 20
84.39999060000001
 30
0.0
 11
33.699984341210921
 21
84.39999060000001
 31
0.0
  0
LINE
  5
3B5
100
AcDbEntity
  8
0
  6
CONTINUOUS
 62
               4
100
AcDbLine
 10
21.303574341210947
 20
82.799992000000017
 30
0.0
 11
34.696396007237553
 21
82.799992000000017
 31
0.0
  0
LINE
  5
3B6
100
AcDbEntity
  8
0
  6
CONTINUOUS
 62
               4
100
AcDbLine
 10
20.499984741210966
 20
82.336038000000016
 30
0.0
 11
35.499984741210966
 21
82.336038000000016
 31
0.0
  0
LINE
  5
3B7
100
AcDbEntity
  8
0
  6
CONTINUOUS
 62
               4
100
AcDbLine
 10
20.499984741210966
 20
80.999996999999993
 30
0.0
 11
35.499984741210966
 21
80.999996999999993
 31
0.0
  0
LINE
  5
3B8
100
AcDbEntity
  8
0
  6
CONTINUOUS
 62
               4
100
AcDbLine
 10
20.499984741210966
 20
79.899996999999999
 30
0.0
 11
35.499984741210966
 21
79.899996999999999
 31
0.0
  0
LINE
  5
3B9
100
AcDbEntity
  8
0
  6
CONTINUOUS
 62
               4
100
AcDbLine
 10
20.499984741210966
 20
73.099996999999988
 30
0.0
 11
35.499984741210966
 21
73.099997000000016
 31
0.0
  0
LINE
  5
3BA
100
AcDbEntity
  8
0
  6
CONTINUOUS
 62
               4
100
AcDbLine
 10
20.599984741210932
 20
79.999996999999993
 30
0.0
 11
35.399984741210943
 21
79.999996999999993
 31
0.0
  0
LINE
  5
3BB
100
AcDbEntity
  8
0
  6
CONTINUOUS
 62
               4
100
AcDbLine
 10
20.699984741210955
 20
72.899996999999999
 30
0.0
 11
35.29998474121092
 21
72.899996999999999
 31
0.0
  0
LINE
  5
3BC
100
AcDbEntity
  8
0
  6
CONTINUOUS
 62
               4
100
AcDbLine
 10
20.699984741210955
 20
80.799997000000005
 30
0.0
 11
35.29998474121092
 21
80.799997000000005
 31
0.0
  0
LINE
  5
3BD
100
AcDbEntity
  8
0
  6
CONTINUOUS
 62
               4
100
AcDbLine
 10
20.499984741210966
 20
82.336038000000016
 30
0.0
 11
21.303574341210947
 21
82.79999100000002
 31
0.0
  0
LINE
  5
3BE
100
AcDbEntity
  8
0
  6
CONTINUOUS
 62
               4
100
AcDbLine
 10
20.499984741210966
 20
72.69999700000001
 30
0.0
 11
35.499984741210966
 21
72.69999700000001
 31
0.0
  0
ARC
  5
3BF
100
AcDbEntity
  8
0
  6
CONTINUOUS
 62
               4
100
AcDbCircle
 10
21.688099366996823
 20
63.452053806743095
 30
0.0
 40
3.5792847910051169
100
AcDbArc
 50
16.692670231366439
 51
18.706388090683092
  0
ARC
  5
3C0
100
AcDbEntity
  8
0
  6
CONTINUOUS
 62
               4
100
AcDbCircle
 10
22.299804775390442
 20
63.635784267198105
 30
0.0
 40
2.9405827545696739
100
AcDbArc
 50
14.667172481837277
 51
16.687158220345268
  0
ARC
  5
3C1
100
AcDbEntity
  8
0
  6
CONTINUOUS
 62
               4
100
AcDbCircle
 10
22.727255348458215
 20
63.747804942364084
 30
0.0
 40
2.4986974735198264
100
AcDbArc
 50
12.642201714574991
 51
14.664003856686881
  0
ARC
  5
3C2
100
AcDbEntity
  8
0
  6
CONTINUOUS
 62
               4
100
AcDbCircle
 10
23.052840100383349
 20
63.820926238019055
 30
0.0
 40
2.1650027850202194
100
AcDbArc
 50
10.622325184027591
 51
12.639809341957955
  0
ARC
  5
3C3
100
AcDbEntity
  8
0
  6
CONTINUOUS
 62
               4
100
AcDbCircle
 10
23.310914021855666
 20
63.86936507005025
 30
0.0
 40
1.9024223823912618
100
AcDbArc
 50
8.5904999532902711
 51
10.62121446048406
  0
ARC
  5
3C4
100
AcDbEntity
  8
0
  6
CONTINUOUS
 62
               4
100
AcDbCircle
 10
23.519688583498464
 20
63.900946193706986
 30
0.0
 40
1.6912727127528326
100
AcDbArc
 50
6.5761670370759218
 51
8.5890814466550758
  0
ARC
  5
3C5
100
AcDbEntity
  8
0
  6
CONTINUOUS
 62
               4
100
AcDbCircle
 10
23.69247263229218
 20
63.920879388571407
 30
0.0
 40
1.5173426706314583
100
AcDbArc
 50
4.5394127768506634
 51
6.5756332807388524
  0
ARC
  5
3C6
100
AcDbEntity
  8
0
  6
CONTINUOUS
 62
               4
100
AcDbCircle
 10
23.837139029404398
 20
63.93238590755027
 30
0.0
 40
1.3722193921649677
100
AcDbArc
 50
2.513421062766803
 51
4.5385432169979252
  0
ARC
  5
3C7
100
AcDbEntity
  8
0
  6
CONTINUOUS
 62
               4
100
AcDbCircle
 10
23.957972454701945
 20
63.93770922050723
 30
0.0
 40
1.2512687661879294
100
AcDbArc
 50
0.4986662793331421
 51
2.5125403042270871
  0
ARC
  5
3C8
100
AcDbEntity
  8
0
  6
CONTINUOUS
 62
               4
100
AcDbCircle
 10
24.060503504467107
 20
63.938618230610274
 30
0.0
 40
1.1487336884614059
100
AcDbArc
 50
358.48535575865219
 51
0.4978372462346162
  0
ARC
  5
3C9
100
AcDbEntity
  8
0
  6
CONTINUOUS
 62
               4
100
AcDbCircle
 10
24.149155733457292
 20
63.936272360178748
 30
0.0
 40
1.0600504273031055
100
AcDbArc
 50
356.41199098827894
 51
358.48545062568081
  0
ARC
  5
3CA
100
AcDbEntity
  8
0
  6
CONTINUOUS
 62
               4
100
AcDbCircle
 10
24.225334047385161
 20
63.931515352912484
 30
0.0
 40
0.9837237333251888
100
AcDbArc
 50
354.37936612442081
 51
356.410844652474
  0
ARC
  5
3CB
100
AcDbEntity
  8
0
  6
CONTINUOUS
 62
               4
100
AcDbCircle
 10
24.290388664108974
 20
63.925116146998462
 30
0.0
 40
0.9183551400777058
100
AcDbArc
 50
352.31913550747907
 51
354.37917307806038
  0
ARC
  5
3CC
100
AcDbEntity
  8
0
  6
CONTINUOUS
 62
               4
100
AcDbCircle
 10
24.329998976839846
 20
63.919904955720682
 30
0.0
 40
0.8784037220175889
100
AcDbArc
 50
350.04442337093059
 51
352.31067627383618
  0
ARC
  5
3CD
100
AcDbEntity
  8
0
  6
CONTINUOUS
 62
               4
100
AcDbCircle
 10
24.336584720652439
 20
63.918759127880691
 30
0.0
 40
0.8717190498304943
100
AcDbArc
 50
347.8430796695489
 51
350.04376613556269
  0
ARC
  5
3CE
100
AcDbEntity
  8
0
  6
CONTINUOUS
 62
               4
100
AcDbCircle
 10
24.339413424087155
 20
63.918158630735107
 30
0.0
 40
0.8688273229065229
100
AcDbArc
 50
345.64887660776708
 51
347.84250821435154
  0
ARC
  5
3CF
100
AcDbEntity
  8
0
  6
CONTINUOUS
 62
               4
100
AcDbCircle
 10
24.338744889547172
 20
63.918338408628955
 30
0.0
 40
0.8695195562227179
100
AcDbArc
 50
343.46777810802956
 51
345.6483189778923
  0
ARC
  5
3D0
100
AcDbEntity
  8
0
  6
CONTINUOUS
 62
               4
100
AcDbCircle
 10
24.334709834982391
 20
63.919544621935813
 30
0.0
 40
0.8737310345492286
100
AcDbArc
 50
341.30559968152693
 51
343.46724331822628
  0
ARC
  5
3D1
100
AcDbEntity
  8
0
  6
CONTINUOUS
 62
               4
100
AcDbCircle
 10
24.327438689117827
 20
63.922013161120631
 30
0.0
 40
0.8814097836866593
100
AcDbArc
 50
339.16783639663868
 51
341.30509574346644
  0
ARC
  5
3D2
100
AcDbEntity
  8
0
  6
CONTINUOUS
 62
               4
100
AcDbCircle
 10
24.317061590100224
 20
63.925969491149687
 30
0.0
 40
0.8925154884911465
100
AcDbArc
 50
337.05958525576978
 51
339.16737004731658
  0
ARC
  5
3D3
100
AcDbEntity
  8
0
  6
CONTINUOUS
 62
               4
100
AcDbCircle
 10
32.442102779135638
 20
62.44436181243006
 30
0.0
 40
1.7440828242107302
100
AcDbArc
 50
137.46181248536647
 51
139.57928943405068
  0
ARC
  5
3D4
100
AcDbEntity
  8
0
  6
CONTINUOUS
 62
               4
100
AcDbCircle
 10
32.51693537071543
 20
62.375687700431854
 30
0.0
 40
1.8456507835321854
100
AcDbArc
 50
135.33969043925273
 51
137.46156396527454
  0
ARC
  5
3D5
100
AcDbEntity
  8
0
  6
CONTINUOUS
 62
               4
100
AcDbCircle
 10
32.599507300110531
 20
62.294081618666183
 30
0.0
 40
1.9617441773085496
100
AcDbArc
 50
133.22591051906895
 51
135.33953495864733
  0
ARC
  5
3D6
100
AcDbEntity
  8
0
  6
CONTINUOUS
 62
               4
100
AcDbCircle
 10
32.686969560744103
 20
62.201025481645956
 30
0.0
 40
2.0894512314174238
100
AcDbArc
 50
131.12797931843048
 51
133.22586068395452
  0
ARC
  5
3D7
100
AcDbEntity
  8
0
  6
CONTINUOUS
 62
               4
100
AcDbCircle
 10
32.781427028336083
 20
62.092857611914837
 30
0.0
 40
2.2330565976797208
100
AcDbArc
 50
129.05599655959543
 51
131.12804815304699
  0
ARC
  5
3D8
100
AcDbEntity
  8
0
  6
CONTINUOUS
 62
               4
100
AcDbCircle
 10
32.882221819255648
 20
61.968552268522245
 30
0.0
 40
2.3930922366681844
100
AcDbArc
 50
126.93496757774747
 51
129.05475086524137
  0
ARC
  5
3D9
100
AcDbEntity
  8
0
  6
CONTINUOUS
 62
               4
100
AcDbCircle
 10
32.988371476292599
 20
61.827379431406698
 30
0.0
 40
2.5697204320578275
100
AcDbArc
 50
124.86028090017243
 51
126.93531160163522
  0
ARC
  5
3DA
100
AcDbEntity
  8
0
  6
CONTINUOUS
 62
               4
100
AcDbCircle
 10
33.099892452871416
 20
61.667285826654933
 30
0.0
 40
2.7648278140138127
100
AcDbArc
 50
122.76378430057119
 51
124.86033264396943
  0
ARC
  5
3DB
100
AcDbEntity
  8
0
  6
CONTINUOUS
 62
               4
100
AcDbCircle
 10
33.214970602830448
 20
61.488535797690517
 30
0.0
 40
2.9774179180260334
100
AcDbArc
 50
120.72688420443157
 51
122.76445524253481
  0
ARC
  5
3DC
100
AcDbEntity
  8
0
  6
CONTINUOUS
 62
               4
100
AcDbCircle
 10
33.330098494908611
 20
61.29480071413451
 30
0.0
 40
3.2027792138376987
100
AcDbArc
 50
118.68383739824675
 51
120.7264756306723
  0
ARC
  5
3DD
100
AcDbEntity
  8
0
  6
CONTINUOUS
 62
               4
100
AcDbCircle
 10
33.444941203851471
 20
61.084878471218246
 30
0.0
 40
3.4420618830909504
100
AcDbArc
 50
116.64406455646503
 51
118.68370002549318
  0
ARC
  5
3DE
100
AcDbEntity
  8
0
  6
CONTINUOUS
 62
               4
100
AcDbCircle
 10
33.555914295976379
 20
60.863716782253704
 30
0.0
 40
3.6895038353855494
100
AcDbArc
 50
114.6121694182432
 51
116.64421369814795
  0
ARC
  5
3DF
100
AcDbEntity
  8
0
  6
CONTINUOUS
 62
               4
100
AcDbCircle
 10
33.659731314918417
 20
60.637118399401317
 30
0.0
 40
3.9387523065594494
100
AcDbArc
 50
112.53649080011284
 51
114.61235399434308
  0
ARC
  5
3E0
100
AcDbEntity
  8
0
  6
CONTINUOUS
 62
               4
100
AcDbCircle
 10
33.752069898313806
 20
60.414861565404365
 30
0.0
 40
4.179427407790862
100
AcDbArc
 50
110.47273869949545
 51
112.53789510812676
  0
ARC
  5
3E1
100
AcDbEntity
  8
0
  6
CONTINUOUS
 62
               4
100
AcDbCircle
 10
33.826174832615521
 20
60.216737448051191
 30
0.0
 40
4.3909568183558054
100
AcDbArc
 50
108.4111107687567
 51
110.4744108540722
  0
ARC
  5
3E2
100
AcDbEntity
  8
0
  6
CONTINUOUS
 62
               4
100
AcDbCircle
 10
33.877540335553732
 20
60.062954103456704
 30
0.0
 40
4.5530916549443816
100
AcDbArc
 50
106.38334707952616
 51
108.41320583984893
  0
ARC
  5
3E3
100
AcDbEntity
  8
0
  6
CONTINUOUS
 62
               4
100
AcDbCircle
 10
33.903677032560097
 20
59.97465729997846
 30
0.0
 40
4.6451754430736036
100
AcDbArc
 50
104.32120035552141
 51
106.38544658599197
  0
ARC
  5
3E4
100
AcDbEntity
  8
0
  6
CONTINUOUS
 62
               4
100
AcDbCircle
 10
33.904945309251303
 20
59.970552789927936
 30
0.0
 40
4.649466125201223
100
AcDbArc
 50
102.28752478573125
 51
104.32383235181229
  0
ARC
  5
3E5
100
AcDbEntity
  8
0
  6
CONTINUOUS
 62
               4
100
AcDbCircle
 10
33.885171185566065
 20
60.062396061755706
 30
0.0
 40
4.5555185280978989
100
AcDbArc
 50
100.24906748641899
 51
102.29035129179944
  0
ARC
  5
3E6
100
AcDbEntity
  8
0
  6
CONTINUOUS
 62
               4
100
AcDbCircle
 10
33.851284356426561
 20
60.251078618906575
 30
0.0
 40
4.3638172725416116
100
AcDbArc
 50
98.215390706155318
 51
100.25203092327695
  0
ARC
  5
3E7
100
AcDbEntity
  8
0
  6
CONTINUOUS
 62
               4
100
AcDbCircle
 10
33.812215168366464
 20
60.523227222119687
 30
0.0
 40
4.0888787123857897
100
AcDbArc
 50
96.152863214536382
 51
98.2184785901147
  0
ARC
  5
3E8
100
AcDbEntity
  8
0
  6
CONTINUOUS
 62
               4
100
AcDbCircle
 10
33.777268995859771
 20
60.847315523916677
 30
0.0
 40
3.7629117474124989
100
AcDbArc
 50
94.225884593226041
 51
96.152732058177435
  0
ARC
  5
3E9
100
AcDbEntity
  8
0
  6
CONTINUOUS
 62
               4
100
AcDbCircle
 10
32.372713379160956
 20
62.50347316932627
 30
0.0
 40
1.6529288816836427
100
AcDbArc
 50
139.57963476423376
 51
141.68301448589227
  0
ARC
  5
3EA
100
AcDbEntity
  8
0
  6
CONTINUOUS
 62
               4
100
AcDbCircle
 10
24.303708382557858
 20
63.93162848940753
 30
0.0
 40
0.9070183285139883
100
AcDbArc
 50
334.98548272674856
 51
337.05916177659861
  0
ARC
  5
3EB
100
AcDbEntity
  8
0
  6
CONTINUOUS
 62
               4
100
AcDbCircle
 10
22.504836155455678
 20
67.456422771401762
 30
0.0
 40
4.9537439884679388
100
AcDbArc
 50
280.46925384142781
 51
282.48318221304498
  0
ARC
  5
3EC
100
AcDbEntity
  8
0
  6
CONTINUOUS
 62
               4
100
AcDbCircle
 10
22.872335889985521
 20
66.147547427878976
 30
0.0
 40
3.5932234738173441
100
AcDbArc
 50
288.61315457467958
 51
290.66446039759512
  0
ARC
  5
3ED
100
AcDbEntity
  8
0
  6
CONTINUOUS
 62
               4
100
AcDbCircle
 10
22.658335049622764
 20
66.822568759670261
 30
0.0
 40
4.3014668167016694
100
AcDbArc
 50
284.54026042390211
 51
286.57103213195148
  0
ARC
  5
3EE
100
AcDbEntity
  8
0
  6
CONTINUOUS
 62
               4
100
AcDbCircle
 10
22.570579948510982
 20
67.16051982402989
 30
0.0
 40
4.6506256211513239
100
AcDbArc
 50
282.48035777535392
 51
284.54147221332261
  0
ARC
  5
3EF
100
AcDbEntity
  8
0
  6
CONTINUOUS
 62
               4
100
AcDbCircle
 10
22.760253337626381
 20
66.480260801151019
 30
0.0
 40
3.944308487307179
100
AcDbArc
 50
286.57019298143371
 51
288.61352744566261
  0
ARC
  5
3F0
100
AcDbEntity
  8
0
  6
CONTINUOUS
 62
               4
100
AcDbCircle
 10
22.465849310871675
 20
67.665965114505596
 30
0.0
 40
5.1668822103566283
100
AcDbArc
 50
278.44079659032474
 51
280.47216274009304
  0
ARC
  5
3F1
100
AcDbEntity
  8
0
  6
CONTINUOUS
 62
               4
100
AcDbCircle
 10
22.454405040402861
 20
67.740645192673256
 30
0.0
 40
5.2424332456517222
100
AcDbArc
 50
276.40093659987474
 51
278.44471158718136
  0
ARC
  5
3F2
100
AcDbEntity
  8
0
  6
CONTINUOUS
 62
               4
100
AcDbCircle
 10
22.465399957590506
 20
67.638879389182264
 30
0.0
 40
5.1400760871097102
100
AcDbArc
 50
274.37571833400125
 51
276.40560716991013
  0
ARC
  5
3F3
100
AcDbEntity
  8
0
  6
CONTINUOUS
 62
               7
100
AcDbCircle
 10
22.487189334435612
 20
67.348334069773415
 30
0.0
 40
4.8487152236888873
100
AcDbArc
 50
272.34400008633622
 51
274.38093799339788
  0
ARC
  5
3F4
100
AcDbEntity
  8
0
  6
CONTINUOUS
 62
               7
100
AcDbCircle
 10
22.505302066465362
 20
66.895337572659557
 30
0.0
 40
4.3953569835635475
100
AcDbArc
 50
270.28397725260595
 51
272.34959983497077
  0
LINE
  5
3F5
100
AcDbEntity
  8
0
  6
CONTINUOUS
 62
               2
100
AcDbLine
 10
43.999984741210938
 20
27.200286865234375
 30
0.0
 11
43.999984741210938
 21
62.5
 31
0.0
  0
LINE
  5
3F6
100
AcDbEntity
  8
0
  6
CONTINUOUS
 62
               7
100
AcDbLine
 10
36.499984741210937
 20
30.0
 30
0.0
 11
36.499984741210937
 21
61.999984741210938
 31
0.0
  0
LINE
  5
3F7
100
AcDbEntity
  8
0
  6
CONTINUOUS
 62
               7
100
AcDbLine
 10
51.499984741210938
 20
30.0
 30
0.0
 11
51.499984741210938
 21
60.5
 31
0.0
  0
LINE
  5
3F8
100
AcDbEntity
  8
0
  6
CONTINUOUS
 62
               7
100
AcDbLine
 10
37.0
 20
62.5
 30
0.0
 11
51.0
 21
62.5
 31
0.0
  0
LINE
  5
3F9
100
AcDbEntity
  8
0
  6
CONTINUOUS
 62
               7
100
AcDbLine
 10
49.560768758878908
 20
34.560506224602051
 30
0.0
 11
47.439447736368379
 21
32.439186453789063
 31
0.0
  0
LINE
  5
3FA
100
AcDbEntity
  8
0
  6
CONTINUOUS
 62
               7
100
AcDbLine
 10
47.439327232202459
 20
34.560611796141984
 30
0.0
 11
49.560657792605753
 21
32.439279984034783
 31
0.0
  0
LINE
  5
3FB
100
AcDbEntity
  8
0
  6
CONTINUOUS
 62
               7
100
AcDbLine
 10
45.499984741210938
 20
33.499969482421875
 30
0.0
 11
45.499984741210938
 21
30.499969482421875
 31
0.0
  0
LINE
  5
3FC
100
AcDbEntity
  8
0
  6
CONTINUOUS
 62
               7
100
AcDbLine
 10
48.499984741210937
 20
36.499954223632812
 30
0.0
 11
51.499984741210938
 21
36.499954223632812
 31
0.0
  0
LINE
  5
3FD
100
AcDbEntity
  8
0
  6
CONTINUOUS
 62
               7
100
AcDbLine
 10
39.5
 20
51.500015258789063
 30
0.0
 11
36.5
 21
51.500015258789063
 31
0.0
  0
LINE
  5
3FE
100
AcDbEntity
  8
0
  6
CONTINUOUS
 62
               7
100
AcDbLine
 10
38.439426623603595
 20
53.439256130451213
 30
0.0
 11
40.560748003741992
 21
55.560575543636332
 31
0.0
  0
LINE
  5
3FF
100
AcDbEntity
  8
0
  6
CONTINUOUS
 62
               7
100
AcDbLine
 10
40.560642496110006
 20
53.439323256331932
 30
0.0
 11
38.439323082924886
 21
55.560644636470329
 31
0.0
  0
LINE
  5
400
100
AcDbEntity
  8
0
  6
CONTINUOUS
 62
               7
100
AcDbLine
 10
39.5
 20
57.5
 30
0.0
 11
36.5
 21
57.5
 31
0.0
  0
LINE
  5
401
100
AcDbEntity
  8
0
  6
CONTINUOUS
 62
               7
100
AcDbLine
 10
42.050003051757813
 20
61.5
 30
0.0
 11
42.050003051757813
 21
60.5
 31
0.0
  0
LINE
  5
402
100
AcDbEntity
  8
0
  6
CONTINUOUS
 62
               7
100
AcDbLine
 10
45.949996948242187
 20
61.5
 30
0.0
 11
45.949996948242187
 21
60.5
 31
0.0
  0
LINE
  5
403
100
AcDbEntity
  8
0
  6
CONTINUOUS
 62
               7
100
AcDbLine
 10
42.050003051757813
 20
61.5
 30
0.0
 11
45.949996948242187
 21
61.5
 31
0.0
  0
LINE
  5
404
100
AcDbEntity
  8
0
  6
CONTINUOUS
 62
               7
100
AcDbLine
 10
51.499984741210938
 20
62.0
 30
0.0
 11
51.499984741210938
 21
61.529159545898438
 31
0.0
  0
LINE
  5
405
100
AcDbEntity
  8
0
  6
CONTINUOUS
 62
               7
100
AcDbLine
 10
36.499984741210937
 20
60.5
 30
0.0
 11
51.749984741210938
 21
60.5
 31
0.0
  0
LINE
  5
406
100
AcDbEntity
  8
0
  6
CONTINUOUS
 62
               7
100
AcDbLine
 10
46.79998779296875
 20
62.199996948242187
 30
0.0
 11
46.79998779296875
 21
60.5
 31
0.0
  0
LINE
  5
407
100
AcDbEntity
  8
0
  6
CONTINUOUS
 62
               7
100
AcDbLine
 10
48.749984741210937
 20
62.199996948242187
 30
0.0
 11
50.249984741210937
 21
62.199996948242187
 31
0.0
  0
LINE
  5
408
100
AcDbEntity
  8
0
  6
CONTINUOUS
 62
               7
100
AcDbLine
 10
51.749984741210938
 20
60.699996948242188
 30
0.0
 11
51.749984741210938
 21
60.5
 31
0.0
  0
LINE
  5
409
100
AcDbEntity
  8
0
  6
CONTINUOUS
 62
               7
100
AcDbLine
 10
47.249984741210938
 20
60.699996948242188
 30
0.0
 11
47.249984741210938
 21
60.5
 31
0.0
  0
ARC
  5
40A
100
AcDbEntity
  8
0
  6
CONTINUOUS
 62
               7
100
AcDbCircle
 10
37.0
 20
61.999984741210938
 30
0.0
 40
0.5
100
AcDbArc
 50
89.999982013910454
 51
179.99996402782091
  0
CIRCLE
  5
40B
100
AcDbEntity
  8
0
  6
CONTINUOUS
 62
               7
100
AcDbCircle
 10
48.499984741210937
 20
33.499969482421875
 30
0.0
 40
2.7999992370605469
  0
ARC
  5
40C
100
AcDbEntity
  8
0
  6
CONTINUOUS
 62
               7
100
AcDbCircle
 10
48.499984741210937
 20
33.499969482421875
 30
0.0
 40
3.0
100
AcDbArc
 50
89.999982013910454
 51
179.99996402782091
  0
CIRCLE
  5
40D
100
AcDbEntity
  8
0
  6
CONTINUOUS
 62
               7
100
AcDbCircle
 10
39.5
 20
54.5
 30
0.0
 40
2.7999992370605469
  0
ARC
  5
40E
100
AcDbEntity
  8
0
  6
CONTINUOUS
 62
               7
100
AcDbCircle
 10
39.5
 20
54.500015258789062
 30
0.0
 40
3.0
100
AcDbArc
 50
270.00001798608872
 51
90.00014593845053
  0
ARC
  5
40F
100
AcDbEntity
  8
0
  6
CONTINUOUS
 62
               7
100
AcDbCircle
 10
50.999984741210938
 20
62.0
 30
0.0
 40
0.5
100
AcDbArc
 50
0.0
 51
89.999982013910454
  0
ARC
  5
410
100
AcDbEntity
  8
0
  6
CONTINUOUS
 62
               7
100
AcDbCircle
 10
48.749984741210937
 20
60.699996948242188
 30
0.0
 40
1.5
100
AcDbArc
 50
89.999982013910454
 51
179.99996402782091
  0
ARC
  5
411
100
AcDbEntity
  8
0
  6
CONTINUOUS
 62
               7
100
AcDbCircle
 10
50.249984741210937
 20
60.699996948242188
 30
0.0
 40
1.5
100
AcDbArc
 50
0.0
 51
89.999982013910454
  0
ARC
  5
412
100
AcDbEntity
  8
0
  6
CONTINUOUS
 62
               7
100
AcDbCircle
 10
46.499984741210937
 20
62.199996948242187
 30
0.0
 40
0.300000011920929
100
AcDbArc
 50
0.0
 51
89.999982013910454
  0
LINE
  5
413
100
AcDbEntity
  8
0
  6
CONTINUOUS
 62
               4
100
AcDbLine
 10
51.499984741210966
 20
72.69999700000001
 30
0.0
 11
51.499984741210881
 21
62.00000011920929
 31
0.0
  0
LINE
  5
414
100
AcDbEntity
  8
0
  6
CONTINUOUS
 62
               4
100
AcDbLine
 10
36.499984741210966
 20
72.69999700000001
 30
0.0
 11
36.499984741210923
 21
62.0
 31
0.0
  0
LINE
  5
415
100
AcDbEntity
  8
0
  6
CONTINUOUS
 62
               4
100
AcDbLine
 10
46.79998474121092
 20
62.899996999999985
 30
0.0
 11
46.79998474121092
 21
62.5
 31
0.0
  0
ARC
  5
416
100
AcDbEntity
  8
0
  6
CONTINUOUS
 62
               4
100
AcDbCircle
 10
38.986986199134748
 20
65.84353582874121
 30
0.0
 40
3.2683115693123259
100
AcDbArc
 50
290.66463514086269
 51
292.70909159173169
  0
ARC
  5
417
100
AcDbEntity
  8
0
  6
CONTINUOUS
 62
               4
100
AcDbCircle
 10
40.287508613593872
 20
63.939194276740011
 30
0.0
 40
0.9248977473007884
100
AcDbArc
 50
332.94965877026988
 51
334.98510585905677
  0
ARC
  5
418
100
AcDbEntity
  8
0
  6
CONTINUOUS
 62
               4
100
AcDbCircle
 10
40.26801796809815
 20
63.94915923835994
 30
0.0
 40
0.9467880557216587
100
AcDbArc
 50
330.79047142950299
 51
332.94899039172839
  0
ARC
  5
419
100
AcDbEntity
  8
0
  6
CONTINUOUS
 62
               4
100
AcDbCircle
 10
40.243238244500986
 20
63.963029596721313
 30
0.0
 40
0.9751856146405591
100
AcDbArc
 50
328.52513572890246
 51
330.78964935502506
  0
ARC
  5
41A
100
AcDbEntity
  8
0
  6
CONTINUOUS
 62
               4
100
AcDbCircle
 10
40.214587722469133
 20
63.980576501591116
 30
0.0
 40
1.0087824336491014
100
AcDbArc
 50
326.32547329285069
 51
328.52479050684587
  0
ARC
  5
41B
100
AcDbEntity
  8
0
  6
CONTINUOUS
 62
               4
100
AcDbCircle
 10
40.182821850623327
 20
64.001746989421704
 30
0.0
 40
1.0469565105542151
100
AcDbArc
 50
324.19394833181474
 51
326.32521446265264
  0
ARC
  5
41C
100
AcDbEntity
  8
0
  6
CONTINUOUS
 62
               4
100
AcDbCircle
 10
40.148143542147437
 20
64.026767529810172
 30
0.0
 40
1.0897187895978158
100
AcDbArc
 50
322.13249726452784
 51
324.19376978971042
  0
ARC
  5
41D
100
AcDbEntity
  8
0
  6
CONTINUOUS
 62
               4
100
AcDbCircle
 10
40.109823232454715
 20
64.056579894276027
 30
0.0
 40
1.1382700312170682
100
AcDbArc
 50
320.00116996618073
 51
322.13187306362488
  0
ARC
  5
41E
100
AcDbEntity
  8
0
  6
CONTINUOUS
 62
               4
100
AcDbCircle
 10
40.064945028072913
 20
64.094253230220531
 30
0.0
 40
1.1968646836743488
100
AcDbArc
 50
317.81937465146979
 51
320.00052406292548
  0
ARC
  5
41F
100
AcDbEntity
  8
0
  6
CONTINUOUS
 62
               4
100
AcDbCircle
 10
40.016178699744387
 20
64.13844068273886
 30
0.0
 40
1.262672629532426
100
AcDbArc
 50
315.7310539854646
 51
317.81941212471537
  0
ARC
  5
420
100
AcDbEntity
  8
0
  6
CONTINUOUS
 62
               4
100
AcDbCircle
 10
39.963624813392272
 20
64.189685528053957
 30
0.0
 40
1.336075252302974
100
AcDbArc
 50
313.61051206819258
 51
315.73058613787487
  0
ARC
  5
421
100
AcDbEntity
  8
0
  6
CONTINUOUS
 62
               4
100
AcDbCircle
 10
39.839493525790743
 20
64.325273619958494
 30
0.0
 40
1.519934893233972
100
AcDbArc
 50
309.3397723376915
 51
311.47581497565977
  0
ARC
  5
422
100
AcDbEntity
  8
0
  6
CONTINUOUS
 62
               4
100
AcDbCircle
 10
39.767798959283056
 20
64.412750802450901
 30
0.0
 40
1.6330382455386463
100
AcDbArc
 50
307.21733800905406
 51
309.33960577266504
  0
ARC
  5
423
100
AcDbEntity
  8
0
  6
CONTINUOUS
 62
               4
100
AcDbCircle
 10
39.691518635334035
 20
64.513185243511103
 30
0.0
 40
1.7591563044023779
100
AcDbArc
 50
305.11797332770675
 51
307.21729964211721
  0
ARC
  5
424
100
AcDbEntity
  8
0
  6
CONTINUOUS
 62
               4
100
AcDbCircle
 10
39.519097181862776
 20
64.768709864124673
 30
0.0
 40
2.0674635019234326
100
AcDbArc
 50
300.94666501632582
 51
303.05272129209044
  0
ARC
  5
425
100
AcDbEntity
  8
0
  6
CONTINUOUS
 62
               4
100
AcDbCircle
 10
39.424071527207644
 20
64.927159340704009
 30
0.0
 40
2.2522231062592284
100
AcDbArc
 50
298.90024827716275
 51
300.94710659439653
  0
ARC
  5
426
100
AcDbEntity
  8
0
  6
CONTINUOUS
 62
               4
100
AcDbCircle
 10
39.323043889234469
 20
65.110164336683823
 30
0.0
 40
2.4612623661697048
100
AcDbArc
 50
296.84419992855345
 51
298.9002975557608
  0
ARC
  5
427
100
AcDbEntity
  8
0
  6
CONTINUOUS
 62
               4
100
AcDbCircle
 10
39.216102238775164
 20
65.321436357549217
 30
0.0
 40
2.6980584455748691
100
AcDbArc
 50
294.79688870518265
 51
296.84449975495642
  0
ARC
  5
428
100
AcDbEntity
  8
0
  6
CONTINUOUS
 62
               4
100
AcDbCircle
 10
39.102730994692081
 20
65.566951401905925
 30
0.0
 40
2.9684852815271552
100
AcDbArc
 50
292.70917255837657
 51
294.79589951617982
  0
ARC
  5
429
100
AcDbEntity
  8
0
  6
CONTINUOUS
 62
               4
100
AcDbCircle
 10
47.945900337064728
 20
62.752533932370824
 30
0.0
 40
1.1553648381076536
100
AcDbArc
 50
171.42492203625403
 51
172.66714687627734
  0
ARC
  5
42A
100
AcDbEntity
  8
0
  6
CONTINUOUS
 62
               4
100
AcDbCircle
 10
47.946271915014478
 20
62.752383560872943
 30
0.0
 40
1.1557565612105893
100
AcDbArc
 50
167.10737788627796
 51
169.25807302055375
  0
ARC
  5
42B
100
AcDbEntity
  8
0
  6
CONTINUOUS
 62
               4
100
AcDbCircle
 10
47.952539652560688
 20
62.750938790903774
 30
0.0
 40
1.1621886524346294
100
AcDbArc
 50
164.97689628126048
 51
167.10689174905789
  0
ARC
  5
42C
100
AcDbEntity
  8
0
  6
CONTINUOUS
 62
               4
100
AcDbCircle
 10
47.962874320839688
 20
62.748155528826629
 30
0.0
 40
1.172891541321601
100
AcDbArc
 50
162.87207847584108
 51
164.9764419781205
  0
ARC
  5
42D
100
AcDbEntity
  8
0
  6
CONTINUOUS
 62
               4
100
AcDbCircle
 10
47.977116535504848
 20
62.743757404873122
 30
0.0
 40
1.1877973824267298
100
AcDbArc
 50
160.79746197752058
 51
162.87166138161933
  0
ARC
  5
42E
100
AcDbEntity
  8
0
  6
CONTINUOUS
 62
               4
100
AcDbCircle
 10
47.995105096632386
 20
62.737483848633474
 30
0.0
 40
1.206848518289146
100
AcDbArc
 50
158.75713470539904
 51
160.79708613330786
  0
ARC
  5
42F
100
AcDbEntity
  8
0
  6
CONTINUOUS
 62
               4
100
AcDbCircle
 10
48.045528179362719
 20
62.716615198266851
 30
0.0
 40
1.2614288403806175
100
AcDbArc
 50
154.37737662748185
 51
156.61174122654182
  0
ARC
  5
430
100
AcDbEntity
  8
0
  6
CONTINUOUS
 62
               4
100
AcDbCircle
 10
48.078572896521905
 20
62.700758090847359
 30
0.0
 40
1.2980812772469721
100
AcDbArc
 50
152.20017722999506
 51
154.37703095038307
  0
ARC
  5
431
100
AcDbEntity
  8
0
  6
CONTINUOUS
 62
               4
100
AcDbCircle
 10
48.156299020247843
 20
62.657803862796044
 30
0.0
 40
1.3869018340082298
100
AcDbArc
 50
148.02942719473111
 51
150.08328924595625
  0
ARC
  5
432
100
AcDbEntity
  8
0
  6
CONTINUOUS
 62
               4
100
AcDbCircle
 10
48.201432042306152
 20
62.629618188657929
 30
0.0
 40
1.440112939399137
100
AcDbArc
 50
145.91589475520709
 51
148.02889889146286
  0
ARC
  5
433
100
AcDbEntity
  8
0
  6
CONTINUOUS
 62
               4
100
AcDbCircle
 10
48.253975272549354
 20
62.594047809618729
 30
0.0
 40
1.5035640443162497
100
AcDbArc
 50
143.75847606669672
 51
145.9153521724142
  0
ARC
  5
434
100
AcDbEntity
  8
0
  6
CONTINUOUS
 62
               4
100
AcDbCircle
 10
48.311125079716163
 20
62.552156190649129
 30
0.0
 40
1.5744231171216525
100
AcDbArc
 50
141.68341024094119
 51
143.75845713366215
  0
ARC
  5
435
100
AcDbEntity
  8
0
  6
CONTINUOUS
 62
               4
100
AcDbCircle
 10
48.115581527613557
 20
62.68123864688701
 30
0.0
 40
1.3399220161149226
100
AcDbArc
 50
150.08348873429833
 51
152.19990668070685
  0
ARC
  5
436
100
AcDbEntity
  8
0
  6
CONTINUOUS
 62
               4
100
AcDbCircle
 10
48.017243856531678
 20
62.728864361720056
 30
0.0
 40
1.2306060453551306
100
AcDbArc
 50
156.61243884655113
 51
158.75655461249124
  0
ARC
  5
437
100
AcDbEntity
  8
0
  6
CONTINUOUS
 62
               4
100
AcDbCircle
 10
47.944228688052902
 20
62.752781661732456
 30
0.0
 40
1.1536749381666052
100
AcDbArc
 50
169.25858439343344
 51
171.42470890125855
  0
ARC
  5
438
100
AcDbEntity
  8
0
  6
CONTINUOUS
 62
               4
100
AcDbCircle
 10
39.608477851842764
 20
64.631255288824676
 30
0.0
 40
1.9035041734933467
100
AcDbArc
 50
303.05431837145363
 51
305.11808218074952
  0
ARC
  5
439
100
AcDbEntity
  8
0
  6
CONTINUOUS
 62
               4
100
AcDbCircle
 10
39.904003482862151
 20
64.252285668702257
 30
0.0
 40
1.4225245470859771
100
AcDbArc
 50
311.4760993620244
 51
313.61010722300421
  0
LINE
  5
43A
100
AcDbEntity
  8
0
  6
CONTINUOUS
 62
               4
100
AcDbLine
 10
36.499984741210937
 20
64.599996999999988
 30
0.0
 11
51.499984741210909
 21
64.599996999999988
 31
0.0
  0
LINE
  5
43B
100
AcDbEntity
  8
0
  6
CONTINUOUS
 62
               4
100
AcDbLine
 10
36.699984741210955
 20
80.799997000000005
 30
0.0
 11
36.499984741210966
 21
80.999996999999993
 31
0.0
  0
LINE
  5
43C
100
AcDbEntity
  8
0
  6
CONTINUOUS
 62
               4
100
AcDbLine
 10
36.499984741210966
 20
82.336038000000016
 30
0.0
 11
36.499984741210966
 21
80.999996999999993
 31
0.0
  0
LINE
  5
43D
100
AcDbEntity
  8
0
  6
CONTINUOUS
 62
               4
100
AcDbLine
 10
36.499984741210966
 20
79.899996999999999
 30
0.0
 11
36.599984741210932
 21
79.999996999999993
 31
0.0
  0
LINE
  5
43E
100
AcDbEntity
  8
0
  6
CONTINUOUS
 62
               4
100
AcDbLine
 10
36.699984741210955
 20
72.899996999999999
 30
0.0
 11
36.499984741210966
 21
73.099996999999988
 31
0.0
  0
LINE
  5
43F
100
AcDbEntity
  8
0
  6
CONTINUOUS
 62
               4
100
AcDbLine
 10
36.699984741210955
 20
72.899996999999999
 30
0.0
 11
36.499984741210966
 21
72.69999700000001
 31
0.0
  0
LINE
  5
440
100
AcDbEntity
  8
0
  6
CONTINUOUS
 62
               4
100
AcDbLine
 10
36.499984741210966
 20
79.899996999999999
 30
0.0
 11
36.499984741210966
 21
73.099996999999988
 31
0.0
  0
ARC
  5
441
100
AcDbEntity
  8
0
  6
CONTINUOUS
 62
               4
100
AcDbCircle
 10
50.599983241210936
 20
86.199989000000002
 30
0.0
 40
0.3
100
AcDbArc
 50
0.0000000000006107
 51
90.000000000000611
  0
ARC
  5
442
100
AcDbEntity
  8
0
  6
CONTINUOUS
 62
               4
100
AcDbCircle
 10
49.399984341210967
 20
84.799992000000017
 30
0.0
 40
0.5
100
AcDbArc
 50
89.999999999999815
 51
179.9999999999998
  0
ARC
  5
443
100
AcDbEntity
  8
0
  6
CONTINUOUS
 62
               4
100
AcDbCircle
 10
38.599985141210965
 20
84.799992000000017
 30
0.0
 40
0.5
100
AcDbArc
 50
0.0000000000006107
 51
90.000000000000611
  0
ARC
  5
444
100
AcDbEntity
  8
0
  6
CONTINUOUS
 62
               4
100
AcDbCircle
 10
37.399986241210939
 20
86.199989000000002
 30
0.0
 40
0.3
100
AcDbArc
 50
89.999999999999815
 51
179.9999999999998
  0
LINE
  5
445
100
AcDbEntity
  8
0
  6
CONTINUOUS
 62
               4
100
AcDbLine
 10
50.899984741210943
 20
86.199989000000002
 30
0.0
 11
50.899984741210943
 21
85.299992000000017
 31
0.0
  0
LINE
  5
446
100
AcDbEntity
  8
0
  6
CONTINUOUS
 62
               4
100
AcDbLine
 10
50.599983241210936
 20
86.499992000000006
 30
0.0
 11
37.399984741210943
 21
86.499992000000006
 31
0.0
  0
LINE
  5
447
100
AcDbEntity
  8
0
  6
CONTINUOUS
 62
               4
100
AcDbLine
 10
37.099984741210932
 20
85.299992000000017
 30
0.0
 11
50.899984741210943
 21
85.299992000000017
 31
0.0
  0
LINE
  5
448
100
AcDbEntity
  8
0
  6
CONTINUOUS
 62
               4
100
AcDbLine
 10
37.099984741210932
 20
86.199989000000002
 30
0.0
 11
37.099984741210932
 21
85.299992000000017
 31
0.0
  0
LINE
  5
449
100
AcDbEntity
  8
0
  6
CONTINUOUS
 62
               4
100
AcDbLine
 10
49.699984741210955
 20
84.399990999999986
 30
0.0
 11
49.699984741210955
 21
83.399992000000012
 31
0.0
  0
LINE
  5
44A
100
AcDbEntity
  8
0
  6
CONTINUOUS
 62
               4
100
AcDbLine
 10
49.699984341210921
 20
84.399990999999986
 30
0.0
 11
49.599984341210956
 21
84.499991000000009
 31
0.0
  0
LINE
  5
44B
100
AcDbEntity
  8
0
  6
CONTINUOUS
 62
               4
100
AcDbLine
 10
38.299984741210949
 20
84.399990999999986
 30
0.0
 11
38.299984741210949
 21
83.399992000000012
 31
0.0
  0
LINE
  5
44C
100
AcDbEntity
  8
0
  6
CONTINUOUS
 62
               4
100
AcDbLine
 10
38.299985141210954
 20
84.399990999999986
 30
0.0
 11
38.399985141210948
 21
84.499991000000009
 31
0.0
  0
LINE
  5
44D
100
AcDbEntity
  8
0
  6
CONTINUOUS
 62
               4
100
AcDbLine
 10
48.899984741210943
 20
84.799992000000017
 30
0.0
 11
48.899984741210943
 21
84.499991000000009
 31
0.0
  0
LINE
  5
44E
100
AcDbEntity
  8
0
  6
CONTINUOUS
 62
               4
100
AcDbLine
 10
38.399985141210948
 20
84.499991000000009
 30
0.0
 11
49.599984341210956
 21
84.499991000000009
 31
0.0
  0
LINE
  5
44F
100
AcDbEntity
  8
0
  6
CONTINUOUS
 62
               4
100
AcDbLine
 10
39.099984741210932
 20
84.799992000000017
 30
0.0
 11
39.099984741210932
 21
84.499991000000009
 31
0.0
  0
LINE
  5
450
100
AcDbEntity
  8
0
  6
CONTINUOUS
 62
               4
100
AcDbLine
 10
37.649984341210967
 20
83.399992000000012
 30
0.0
 11
50.349984741210932
 21
83.399992000000012
 31
0.0
  0
LINE
  5
451
100
AcDbEntity
  8
0
  6
CONTINUOUS
 62
               4
100
AcDbLine
 10
50.696395141210957
 20
82.79999100000002
 30
0.0
 11
51.499984741210966
 21
82.336038000000016
 31
0.0
  0
LINE
  5
452
100
AcDbEntity
  8
0
  6
CONTINUOUS
 62
               4
100
AcDbLine
 10
51.29998474121092
 20
80.799997000000005
 30
0.0
 11
51.499984741210966
 21
80.999996999999993
 31
0.0
  0
LINE
  5
453
100
AcDbEntity
  8
0
  6
CONTINUOUS
 62
               4
100
AcDbLine
 10
37.303574341210947
 20
82.799992000000017
 30
0.0
 11
37.649984741210943
 21
83.399992000000012
 31
0.0
  0
LINE
  5
454
100
AcDbEntity
  8
0
  6
CONTINUOUS
 62
               4
100
AcDbLine
 10
50.696395141210957
 20
82.799992000000017
 30
0.0
 11
50.349984741210932
 21
83.399992000000012
 31
0.0
  0
LINE
  5
455
100
AcDbEntity
  8
0
  6
CONTINUOUS
 62
               4
100
AcDbLine
 10
50.79998474121092
 20
80.799997000000005
 30
0.0
 11
50.79998474121092
 21
79.999996999999993
 31
0.0
  0
LINE
  5
456
100
AcDbEntity
  8
0
  6
CONTINUOUS
 62
               4
100
AcDbLine
 10
51.499984741210966
 20
82.336038000000016
 30
0.0
 11
51.499984741210966
 21
80.999996999999993
 31
0.0
  0
LINE
  5
457
100
AcDbEntity
  8
0
  6
CONTINUOUS
 62
               4
100
AcDbLine
 10
51.29998474121092
 20
72.899996999999999
 30
0.0
 11
51.499984741210966
 21
73.099997000000016
 31
0.0
  0
LINE
  5
458
100
AcDbEntity
  8
0
  6
CONTINUOUS
 62
               4
100
AcDbLine
 10
51.399984741210943
 20
79.999996999999993
 30
0.0
 11
51.499984741210966
 21
79.899996999999999
 31
0.0
  0
LINE
  5
459
100
AcDbEntity
  8
0
  6
CONTINUOUS
 62
               4
100
AcDbLine
 10
51.499984741210966
 20
79.899996999999999
 30
0.0
 11
51.499984741210966
 21
73.099997000000016
 31
0.0
  0
LINE
  5
45A
100
AcDbEntity
  8
0
  6
CONTINUOUS
 62
               4
100
AcDbLine
 10
51.29998474121092
 20
72.899996999999999
 30
0.0
 11
51.499984741210966
 21
72.69999700000001
 31
0.0
  0
LINE
  5
45B
100
AcDbEntity
  8
0
  6
CONTINUOUS
 62
               4
100
AcDbLine
 10
37.199984741210955
 20
80.799997000000005
 30
0.0
 11
37.199984741210955
 21
79.999996999999993
 31
0.0
  0
LINE
  5
45C
100
AcDbEntity
  8
0
  6
CONTINUOUS
 62
               4
100
AcDbLine
 10
38.299984741210949
 20
84.39999060000001
 30
0.0
 11
49.699984341210921
 21
84.39999060000001
 31
0.0
  0
LINE
  5
45D
100
AcDbEntity
  8
0
  6
CONTINUOUS
 62
               4
100
AcDbLine
 10
37.303574341210947
 20
82.799992000000017
 30
0.0
 11
50.696396007237553
 21
82.799992000000017
 31
0.0
  0
LINE
  5
45E
100
AcDbEntity
  8
0
  6
CONTINUOUS
 62
               4
100
AcDbLine
 10
36.499984741210966
 20
82.336038000000016
 30
0.0
 11
51.499984741210966
 21
82.336038000000016
 31
0.0
  0
LINE
  5
45F
100
AcDbEntity
  8
0
  6
CONTINUOUS
 62
               4
100
AcDbLine
 10
36.499984741210966
 20
80.999996999999993
 30
0.0
 11
51.499984741210966
 21
80.999996999999993
 31
0.0
  0
LINE
  5
460
100
AcDbEntity
  8
0
  6
CONTINUOUS
 62
               4
100
AcDbLine
 10
36.499984741210966
 20
79.899996999999999
 30
0.0
 11
51.499984741210966
 21
79.899996999999999
 31
0.0
  0
LINE
  5
461
100
AcDbEntity
  8
0
  6
CONTINUOUS
 62
               4
100
AcDbLine
 10
36.499984741210966
 20
73.099996999999988
 30
0.0
 11
51.499984741210966
 21
73.099997000000016
 31
0.0
  0
LINE
  5
462
100
AcDbEntity
  8
0
  6
CONTINUOUS
 62
               4
100
AcDbLine
 10
36.599984741210932
 20
79.999996999999993
 30
0.0
 11
51.399984741210943
 21
79.999996999999993
 31
0.0
  0
LINE
  5
463
100
AcDbEntity
  8
0
  6
CONTINUOUS
 62
               4
100
AcDbLine
 10
36.699984741210955
 20
72.899996999999999
 30
0.0
 11
51.29998474121092
 21
72.899996999999999
 31
0.0
  0
LINE
  5
464
100
AcDbEntity
  8
0
  6
CONTINUOUS
 62
               4
100
AcDbLine
 10
36.699984741210955
 20
80.799997000000005
 30
0.0
 11
51.29998474121092
 21
80.799997000000005
 31
0.0
  0
LINE
  5
465
100
AcDbEntity
  8
0
  6
CONTINUOUS
 62
               4
100
AcDbLine
 10
36.499984741210966
 20
82.336038000000016
 30
0.0
 11
37.303574341210947
 21
82.79999100000002
 31
0.0
  0
LINE
  5
466
100
AcDbEntity
  8
0
  6
CONTINUOUS
 62
               4
100
AcDbLine
 10
36.499984741210966
 20
72.69999700000001
 30
0.0
 11
51.499984741210966
 21
72.69999700000001
 31
0.0
  0
ARC
  5
467
100
AcDbEntity
  8
0
  6
CONTINUOUS
 62
               4
100
AcDbCircle
 10
37.688099366996823
 20
63.452053806743095
 30
0.0
 40
3.5792847910051169
100
AcDbArc
 50
16.692670231366439
 51
18.706388090683092
  0
ARC
  5
468
100
AcDbEntity
  8
0
  6
CONTINUOUS
 62
               4
100
AcDbCircle
 10
38.299804775390442
 20
63.635784267198105
 30
0.0
 40
2.9405827545696739
100
AcDbArc
 50
14.667172481837277
 51
16.687158220345268
  0
ARC
  5
469
100
AcDbEntity
  8
0
  6
CONTINUOUS
 62
               4
100
AcDbCircle
 10
38.727255348458215
 20
63.747804942364084
 30
0.0
 40
2.4986974735198264
100
AcDbArc
 50
12.642201714574991
 51
14.664003856686881
  0
ARC
  5
46A
100
AcDbEntity
  8
0
  6
CONTINUOUS
 62
               4
100
AcDbCircle
 10
39.052840100383349
 20
63.820926238019055
 30
0.0
 40
2.1650027850202194
100
AcDbArc
 50
10.622325184027591
 51
12.639809341957955
  0
ARC
  5
46B
100
AcDbEntity
  8
0
  6
CONTINUOUS
 62
               4
100
AcDbCircle
 10
39.310914021855666
 20
63.86936507005025
 30
0.0
 40
1.9024223823912618
100
AcDbArc
 50
8.5904999532902711
 51
10.62121446048406
  0
ARC
  5
46C
100
AcDbEntity
  8
0
  6
CONTINUOUS
 62
               4
100
AcDbCircle
 10
39.519688583498464
 20
63.900946193706986
 30
0.0
 40
1.6912727127528326
100
AcDbArc
 50
6.5761670370759218
 51
8.5890814466550758
  0
ARC
  5
46D
100
AcDbEntity
  8
0
  6
CONTINUOUS
 62
               4
100
AcDbCircle
 10
39.69247263229218
 20
63.920879388571407
 30
0.0
 40
1.5173426706314583
100
AcDbArc
 50
4.5394127768506634
 51
6.5756332807388524
  0
ARC
  5
46E
100
AcDbEntity
  8
0
  6
CONTINUOUS
 62
               4
100
AcDbCircle
 10
39.837139029404398
 20
63.93238590755027
 30
0.0
 40
1.3722193921649677
100
AcDbArc
 50
2.513421062766803
 51
4.5385432169979252
  0
ARC
  5
46F
100
AcDbEntity
  8
0
  6
CONTINUOUS
 62
               4
100
AcDbCircle
 10
39.957972454701945
 20
63.93770922050723
 30
0.0
 40
1.2512687661879294
100
AcDbArc
 50
0.4986662793331421
 51
2.5125403042270871
  0
ARC
  5
470
100
AcDbEntity
  8
0
  6
CONTINUOUS
 62
               4
100
AcDbCircle
 10
40.060503504467107
 20
63.938618230610274
 30
0.0
 40
1.1487336884614059
100
AcDbArc
 50
358.48535575865219
 51
0.4978372462346162
  0
ARC
  5
471
100
AcDbEntity
  8
0
  6
CONTINUOUS
 62
               4
100
AcDbCircle
 10
40.149155733457292
 20
63.936272360178748
 30
0.0
 40
1.0600504273031055
100
AcDbArc
 50
356.41199098827894
 51
358.48545062568081
  0
ARC
  5
472
100
AcDbEntity
  8
0
  6
CONTINUOUS
 62
               4
100
AcDbCircle
 10
40.225334047385161
 20
63.931515352912484
 30
0.0
 40
0.9837237333251888
100
AcDbArc
 50
354.37936612442081
 51
356.410844652474
  0
ARC
  5
473
100
AcDbEntity
  8
0
  6
CONTINUOUS
 62
               4
100
AcDbCircle
 10
40.290388664108974
 20
63.925116146998462
 30
0.0
 40
0.9183551400777058
100
AcDbArc
 50
352.31913550747907
 51
354.37917307806038
  0
ARC
  5
474
100
AcDbEntity
  8
0
  6
CONTINUOUS
 62
               4
100
AcDbCircle
 10
40.329998976839846
 20
63.919904955720682
 30
0.0
 40
0.8784037220175889
100
AcDbArc
 50
350.04442337093059
 51
352.31067627383618
  0
ARC
  5
475
100
AcDbEntity
  8
0
  6
CONTINUOUS
 62
               4
100
AcDbCircle
 10
40.336584720652439
 20
63.918759127880691
 30
0.0
 40
0.8717190498304943
100
AcDbArc
 50
347.8430796695489
 51
350.04376613556269
  0
ARC
  5
476
100
AcDbEntity
  8
0
  6
CONTINUOUS
 62
               4
100
AcDbCircle
 10
40.339413424087155
 20
63.918158630735107
 30
0.0
 40
0.8688273229065229
100
AcDbArc
 50
345.64887660776708
 51
347.84250821435154
  0
ARC
  5
477
100
AcDbEntity
  8
0
  6
CONTINUOUS
 62
               4
100
AcDbCircle
 10
40.338744889547172
 20
63.918338408628955
 30
0.0
 40
0.8695195562227179
100
AcDbArc
 50
343.46777810802956
 51
345.6483189778923
  0
ARC
  5
478
100
AcDbEntity
  8
0
  6
CONTINUOUS
 62
               4
100
AcDbCircle
 10
40.334709834982391
 20
63.919544621935813
 30
0.0
 40
0.8737310345492286
100
AcDbArc
 50
341.30559968152693
 51
343.46724331822628
  0
ARC
  5
479
100
AcDbEntity
  8
0
  6
CONTINUOUS
 62
               4
100
AcDbCircle
 10
40.327438689117827
 20
63.922013161120631
 30
0.0
 40
0.8814097836866593
100
AcDbArc
 50
339.16783639663868
 51
341.30509574346644
  0
ARC
  5
47A
100
AcDbEntity
  8
0
  6
CONTINUOUS
 62
               4
100
AcDbCircle
 10
40.317061590100224
 20
63.925969491149687
 30
0.0
 40
0.8925154884911465
100
AcDbArc
 50
337.05958525576978
 51
339.16737004731658
  0
ARC
  5
47B
100
AcDbEntity
  8
0
  6
CONTINUOUS
 62
               4
100
AcDbCircle
 10
48.442102779135638
 20
62.44436181243006
 30
0.0
 40
1.7440828242107302
100
AcDbArc
 50
137.46181248536647
 51
139.57928943405068
  0
ARC
  5
47C
100
AcDbEntity
  8
0
  6
CONTINUOUS
 62
               4
100
AcDbCircle
 10
48.51693537071543
 20
62.375687700431854
 30
0.0
 40
1.8456507835321854
100
AcDbArc
 50
135.33969043925273
 51
137.46156396527454
  0
ARC
  5
47D
100
AcDbEntity
  8
0
  6
CONTINUOUS
 62
               4
100
AcDbCircle
 10
48.599507300110531
 20
62.294081618666183
 30
0.0
 40
1.9617441773085496
100
AcDbArc
 50
133.22591051906895
 51
135.33953495864733
  0
ARC
  5
47E
100
AcDbEntity
  8
0
  6
CONTINUOUS
 62
               4
100
AcDbCircle
 10
48.686969560744103
 20
62.201025481645956
 30
0.0
 40
2.0894512314174238
100
AcDbArc
 50
131.12797931843048
 51
133.22586068395452
  0
ARC
  5
47F
100
AcDbEntity
  8
0
  6
CONTINUOUS
 62
               4
100
AcDbCircle
 10
48.781427028336083
 20
62.092857611914837
 30
0.0
 40
2.2330565976797208
100
AcDbArc
 50
129.05599655959543
 51
131.12804815304699
  0
ARC
  5
480
100
AcDbEntity
  8
0
  6
CONTINUOUS
 62
               4
100
AcDbCircle
 10
48.882221819255648
 20
61.968552268522245
 30
0.0
 40
2.3930922366681844
100
AcDbArc
 50
126.93496757774747
 51
129.05475086524137
  0
ARC
  5
481
100
AcDbEntity
  8
0
  6
CONTINUOUS
 62
               4
100
AcDbCircle
 10
48.988371476292599
 20
61.827379431406698
 30
0.0
 40
2.5697204320578275
100
AcDbArc
 50
124.86028090017243
 51
126.93531160163522
  0
ARC
  5
482
100
AcDbEntity
  8
0
  6
CONTINUOUS
 62
               4
100
AcDbCircle
 10
49.099892452871416
 20
61.667285826654933
 30
0.0
 40
2.7648278140138127
100
AcDbArc
 50
122.76378430057119
 51
124.86033264396943
  0
ARC
  5
483
100
AcDbEntity
  8
0
  6
CONTINUOUS
 62
               4
100
AcDbCircle
 10
49.214970602830448
 20
61.488535797690517
 30
0.0
 40
2.9774179180260334
100
AcDbArc
 50
120.72688420443157
 51
122.76445524253481
  0
ARC
  5
484
100
AcDbEntity
  8
0
  6
CONTINUOUS
 62
               4
100
AcDbCircle
 10
49.330098494908611
 20
61.29480071413451
 30
0.0
 40
3.2027792138376987
100
AcDbArc
 50
118.68383739824675
 51
120.7264756306723
  0
ARC
  5
485
100
AcDbEntity
  8
0
  6
CONTINUOUS
 62
               4
100
AcDbCircle
 10
49.444941203851471
 20
61.084878471218246
 30
0.0
 40
3.4420618830909504
100
AcDbArc
 50
116.64406455646503
 51
118.68370002549318
  0
ARC
  5
486
100
AcDbEntity
  8
0
  6
CONTINUOUS
 62
               4
100
AcDbCircle
 10
49.555914295976379
 20
60.863716782253704
 30
0.0
 40
3.6895038353855494
100
AcDbArc
 50
114.6121694182432
 51
116.64421369814795
  0
ARC
  5
487
100
AcDbEntity
  8
0
  6
CONTINUOUS
 62
               4
100
AcDbCircle
 10
49.659731314918417
 20
60.637118399401317
 30
0.0
 40
3.9387523065594494
100
AcDbArc
 50
112.53649080011284
 51
114.61235399434308
  0
ARC
  5
488
100
AcDbEntity
  8
0
  6
CONTINUOUS
 62
               4
100
AcDbCircle
 10
49.752069898313806
 20
60.414861565404365
 30
0.0
 40
4.179427407790862
100
AcDbArc
 50
110.47273869949545
 51
112.53789510812676
  0
ARC
  5
489
100
AcDbEntity
  8
0
  6
CONTINUOUS
 62
               4
100
AcDbCircle
 10
49.826174832615521
 20
60.216737448051191
 30
0.0
 40
4.3909568183558054
100
AcDbArc
 50
108.4111107687567
 51
110.4744108540722
  0
ARC
  5
48A
100
AcDbEntity
  8
0
  6
CONTINUOUS
 62
               4
100
AcDbCircle
 10
49.877540335553732
 20
60.062954103456704
 30
0.0
 40
4.5530916549443816
100
AcDbArc
 50
106.38334707952616
 51
108.41320583984893
  0
ARC
  5
48B
100
AcDbEntity
  8
0
  6
CONTINUOUS
 62
               4
100
AcDbCircle
 10
49.903677032560097
 20
59.97465729997846
 30
0.0
 40
4.6451754430736036
100
AcDbArc
 50
104.32120035552141
 51
106.38544658599197
  0
ARC
  5
48C
100
AcDbEntity
  8
0
  6
CONTINUOUS
 62
               4
100
AcDbCircle
 10
49.904945309251303
 20
59.970552789927936
 30
0.0
 40
4.649466125201223
100
AcDbArc
 50
102.28752478573125
 51
104.32383235181229
  0
ARC
  5
48D
100
AcDbEntity
  8
0
  6
CONTINUOUS
 62
               4
100
AcDbCircle
 10
49.885171185566065
 20
60.062396061755706
 30
0.0
 40
4.5555185280978989
100
AcDbArc
 50
100.24906748641899
 51
102.29035129179944
  0
ARC
  5
48E
100
AcDbEntity
  8
0
  6
CONTINUOUS
 62
               4
100
AcDbCircle
 10
49.851284356426561
 20
60.251078618906575
 30
0.0
 40
4.3638172725416116
100
AcDbArc
 50
98.215390706155318
 51
100.25203092327695
  0
ARC
  5
48F
100
AcDbEntity
  8
0
  6
CONTINUOUS
 62
               4
100
AcDbCircle
 10
49.812215168366464
 20
60.523227222119687
 30
0.0
 40
4.0888787123857897
100
AcDbArc
 50
96.152863214536382
 51
98.2184785901147
  0
ARC
  5
490
100
AcDbEntity
  8
0
  6
CONTINUOUS
 62
               4
100
AcDbCircle
 10
49.777268995859771
 20
60.847315523916677
 30
0.0
 40
3.7629117474124989
100
AcDbArc
 50
94.225884593226041
 51
96.152732058177435
  0
ARC
  5
491
100
AcDbEntity
  8
0
  6
CONTINUOUS
 62
               4
100
AcDbCircle
 10
48.372713379160956
 20
62.50347316932627
 30
0.0
 40
1.6529288816836427
100
AcDbArc
 50
139.57963476423376
 51
141.68301448589227
  0
ARC
  5
492
100
AcDbEntity
  8
0
  6
CONTINUOUS
 62
               4
100
AcDbCircle
 10
40.303708382557858
 20
63.93162848940753
 30
0.0
 40
0.9070183285139883
100
AcDbArc
 50
334.98548272674856
 51
337.05916177659861
  0
ARC
  5
493
100
AcDbEntity
  8
0
  6
CONTINUOUS
 62
               4
100
AcDbCircle
 10
38.504836155455678
 20
67.456422771401762
 30
0.0
 40
4.9537439884679388
100
AcDbArc
 50
280.46925384142781
 51
282.48318221304498
  0
ARC
  5
494
100
AcDbEntity
  8
0
  6
CONTINUOUS
 62
               4
100
AcDbCircle
 10
38.872335889985521
 20
66.147547427878976
 30
0.0
 40
3.5932234738173441
100
AcDbArc
 50
288.61315457467958
 51
290.66446039759512
  0
ARC
  5
495
100
AcDbEntity
  8
0
  6
CONTINUOUS
 62
               4
100
AcDbCircle
 10
38.658335049622764
 20
66.822568759670261
 30
0.0
 40
4.3014668167016694
100
AcDbArc
 50
284.54026042390211
 51
286.57103213195148
  0
ARC
  5
496
100
AcDbEntity
  8
0
  6
CONTINUOUS
 62
               4
100
AcDbCircle
 10
38.570579948510982
 20
67.16051982402989
 30
0.0
 40
4.6506256211513239
100
AcDbArc
 50
282.48035777535392
 51
284.54147221332261
  0
ARC
  5
497
100
AcDbEntity
  8
0
  6
CONTINUOUS
 62
               4
100
AcDbCircle
 10
38.760253337626381
 20
66.480260801151019
 30
0.0
 40
3.944308487307179
100
AcDbArc
 50
286.57019298143371
 51
288.61352744566261
  0
ARC
  5
498
100
AcDbEntity
  8
0
  6
CONTINUOUS
 62
               4
100
AcDbCircle
 10
38.465849310871675
 20
67.665965114505596
 30
0.0
 40
5.1668822103566283
100
AcDbArc
 50
278.44079659032474
 51
280.47216274009304
  0
ARC
  5
499
100
AcDbEntity
  8
0
  6
CONTINUOUS
 62
               4
100
AcDbCircle
 10
38.454405040402861
 20
67.740645192673256
 30
0.0
 40
5.2424332456517222
100
AcDbArc
 50
276.40093659987474
 51
278.44471158718136
  0
ARC
  5
49A
100
AcDbEntity
  8
0
  6
CONTINUOUS
 62
               4
100
AcDbCircle
 10
38.465399957590506
 20
67.638879389182264
 30
0.0
 40
5.1400760871097102
100
AcDbArc
 50
274.37571833400125
 51
276.40560716991013
  0
ARC
  5
49B
100
AcDbEntity
  8
0
  6
CONTINUOUS
 62
               7
100
AcDbCircle
 10
38.487189334435612
 20
67.348334069773415
 30
0.0
 40
4.8487152236888873
100
AcDbArc
 50
272.34400008633622
 51
274.38093799339788
  0
ARC
  5
49C
100
AcDbEntity
  8
0
  6
CONTINUOUS
 62
               7
100
AcDbCircle
 10
38.505302066465362
 20
66.895337572659557
 30
0.0
 40
4.3953569835635475
100
AcDbArc
 50
270.28397725260595
 51
272.34959983497077
  0
LINE
  5
49D
100
AcDbEntity
  8
0
  6
CONTINUOUS
 62
               4
100
AcDbLine
 10
52.500000037748976
 20
30.500000566234206
 30
0.0
 11
67.500000037748919
 21
30.499999433765794
 31
0.0
  0
LINE
  5
49E
100
AcDbEntity
  8
0
  6
CONTINUOUS
 62
               7
100
AcDbLine
 10
52.500000000000028
 20
30.000000566234206
 30
0.0
 11
52.500000037748976
 21
30.500000566234206
 31
0.0
  0
LINE
  5
49F
100
AcDbEntity
  8
0
  6
CONTINUOUS
 62
               7
100
AcDbLine
 10
67.499999999999972
 20
29.999999433765794
 30
0.0
 11
67.500000037748919
 21
30.499999433765794
 31
0.0
  0
ARC
  5
4A0
100
AcDbEntity
  8
0
  6
CONTINUOUS
 62
               4
100
AcDbCircle
 10
8.2875086135938716
 20
63.939179017950948
 30
0.0
 40
0.9248977473007884
100
AcDbArc
 50
332.94965877026988
 51
334.98510585905677
  0
ARC
  5
4A1
100
AcDbEntity
  8
0
  6
CONTINUOUS
 62
               4
100
AcDbCircle
 10
8.2680179680981496
 20
63.949143979570877
 30
0.0
 40
0.9467880557216587
100
AcDbArc
 50
330.79047142950299
 51
332.94899039172839
  0
ARC
  5
4A2
100
AcDbEntity
  8
0
  6
CONTINUOUS
 62
               7
100
AcDbCircle
 10
8.2432382445009864
 20
63.96301433793225
 30
0.0
 40
0.9751856146405591
100
AcDbArc
 50
328.52513572890246
 51
330.78964935502506
  0
ARC
  5
4A3
100
AcDbEntity
  8
0
  6
CONTINUOUS
 62
               7
100
AcDbCircle
 10
8.2145877224691333
 20
63.980561242802054
 30
0.0
 40
1.0087824336491014
100
AcDbArc
 50
326.32547329285069
 51
328.52479050684587
  0
ARC
  5
4A4
100
AcDbEntity
  8
0
  6
CONTINUOUS
 62
               4
100
AcDbCircle
 10
8.182821850623327
 20
64.001731730632642
 30
0.0
 40
1.0469565105542151
100
AcDbArc
 50
324.19394833181474
 51
326.32521446265264
  0
ARC
  5
4A5
100
AcDbEntity
  8
0
  6
CONTINUOUS
 62
               4
100
AcDbCircle
 10
8.1481435421474373
 20
64.02675227102111
 30
0.0
 40
1.0897187895978158
100
AcDbArc
 50
322.13249726452784
 51
324.19376978971042
  0
ARC
  5
4A6
100
AcDbEntity
  8
0
  6
CONTINUOUS
 62
               4
100
AcDbCircle
 10
8.1098232324547155
 20
64.056564635486964
 30
0.0
 40
1.1382700312170682
100
AcDbArc
 50
320.00116996618073
 51
322.13187306362488
  0
ARC
  5
4A7
100
AcDbEntity
  8
0
  6
CONTINUOUS
 62
               4
100
AcDbCircle
 10
8.0649450280729127
 20
64.094237971431468
 30
0.0
 40
1.1968646836743488
100
AcDbArc
 50
317.81937465146979
 51
320.00052406292548
  0
ARC
  5
4A8
100
AcDbEntity
  8
0
  6
CONTINUOUS
 62
               4
100
AcDbCircle
 10
8.0161786997443869
 20
64.138425423949798
 30
0.0
 40
1.262672629532426
100
AcDbArc
 50
315.7310539854646
 51
317.81941212471537
  0
ARC
  5
4A9
100
AcDbEntity
  8
0
  6
CONTINUOUS
 62
               4
100
AcDbCircle
 10
7.963624813392272
 20
64.189670269264894
 30
0.0
 40
1.336075252302974
100
AcDbArc
 50
313.61051206819258
 51
315.73058613787487
  0
ARC
  5
4AA
100
AcDbEntity
  8
0
  6
CONTINUOUS
 62
               4
100
AcDbCircle
 10
7.8394935257907434
 20
64.325258361169432
 30
0.0
 40
1.519934893233972
100
AcDbArc
 50
309.3397723376915
 51
311.47581497565977
  0
ARC
  5
4AB
100
AcDbEntity
  8
0
  6
CONTINUOUS
 62
               4
100
AcDbCircle
 10
7.7677989592830556
 20
64.412735543661839
 30
0.0
 40
1.6330382455386463
100
AcDbArc
 50
307.21733800905406
 51
309.33960577266504
  0
ARC
  5
4AC
100
AcDbEntity
  8
0
  6
CONTINUOUS
 62
               4
100
AcDbCircle
 10
7.6915186353340346
 20
64.51316998472204
 30
0.0
 40
1.7591563044023779
100
AcDbArc
 50
305.11797332770675
 51
307.21729964211721
  0
ARC
  5
4AD
100
AcDbEntity
  8
0
  6
CONTINUOUS
 62
               4
100
AcDbCircle
 10
7.5190971818627759
 20
64.768694605335611
 30
0.0
 40
2.0674635019234326
100
AcDbArc
 50
300.94666501632582
 51
303.05272129209044
  0
ARC
  5
4AE
100
AcDbEntity
  8
0
  6
CONTINUOUS
 62
               4
100
AcDbCircle
 10
7.4240715272076443
 20
64.927144081914946
 30
0.0
 40
2.2522231062592284
100
AcDbArc
 50
298.90024827716275
 51
300.94710659439653
  0
ARC
  5
4AF
100
AcDbEntity
  8
0
  6
CONTINUOUS
 62
               4
100
AcDbCircle
 10
7.3230438892344694
 20
65.110149077894761
 30
0.0
 40
2.4612623661697048
100
AcDbArc
 50
296.84419992855345
 51
298.9002975557608
  0
ARC
  5
4B0
100
AcDbEntity
  8
0
  6
CONTINUOUS
 62
               4
100
AcDbCircle
 10
7.2161022387751643
 20
65.321421098760155
 30
0.0
 40
2.6980584455748691
100
AcDbArc
 50
294.79688870518265
 51
296.84449975495642
  0
ARC
  5
4B1
100
AcDbEntity
  8
0
  6
CONTINUOUS
 62
               4
100
AcDbCircle
 10
7.1027309946920809
 20
65.566936143116862
 30
0.0
 40
2.9684852815271552
100
AcDbArc
 50
292.70917255837657
 51
294.79589951617982
  0
ARC
  5
4B2
100
AcDbEntity
  8
0
  6
CONTINUOUS
 62
               4
100
AcDbCircle
 10
6.9869861991347477
 20
65.843520569952148
 30
0.0
 40
3.2683115693123259
100
AcDbArc
 50
290.66463514086269
 51
292.70909159173169
  0
ARC
  5
4B3
100
AcDbEntity
  8
0
  6
CONTINUOUS
 62
               4
100
AcDbCircle
 10
6.8723358899855214
 20
66.147532169089914
 30
0.0
 40
3.5932234738173441
100
AcDbArc
 50
288.61315457467958
 51
290.66446039759512
  0
ARC
  5
4B4
100
AcDbEntity
  8
0
  6
CONTINUOUS
 62
               4
100
AcDbCircle
 10
6.6583350496227638
 20
66.822553500881199
 30
0.0
 40
4.3014668167016694
100
AcDbArc
 50
284.54026042390211
 51
286.57103213195148
  0
ARC
  5
4B5
100
AcDbEntity
  8
0
  6
CONTINUOUS
 62
               4
100
AcDbCircle
 10
6.5705799485109821
 20
67.160504565240828
 30
0.0
 40
4.6506256211513239
100
AcDbArc
 50
282.48035777535392
 51
284.54147221332261
  0
ARC
  5
4B6
100
AcDbEntity
  8
0
  6
CONTINUOUS
 62
               4
100
AcDbCircle
 10
6.5048361554556777
 20
67.456407512612699
 30
0.0
 40
4.9537439884679388
100
AcDbArc
 50
280.46925384142781
 51
282.48318221304498
  0
ARC
  5
4B7
100
AcDbEntity
  8
0
  6
CONTINUOUS
 62
               4
100
AcDbCircle
 10
6.4658493108716755
 20
67.665949855716534
 30
0.0
 40
5.1668822103566283
100
AcDbArc
 50
278.44079659032474
 51
280.47216274009304
  0
ARC
  5
4B8
100
AcDbEntity
  8
0
  6
CONTINUOUS
 62
               4
100
AcDbCircle
 10
6.454405040402861
 20
67.740629933884193
 30
0.0
 40
5.2424332456517222
100
AcDbArc
 50
276.40093659987474
 51
278.44471158718136
  0
ARC
  5
4B9
100
AcDbEntity
  8
0
  6
CONTINUOUS
 62
               4
100
AcDbCircle
 10
6.4653999575905061
 20
67.638864130393202
 30
0.0
 40
5.1400760871097102
100
AcDbArc
 50
274.37571833400125
 51
276.40560716991013
  0
ARC
  5
4BA
100
AcDbEntity
  8
0
  6
CONTINUOUS
 62
               7
100
AcDbCircle
 10
6.4871893344356124
 20
67.348318810984352
 30
0.0
 40
4.8487152236888873
100
AcDbArc
 50
272.34400008633622
 51
274.38093799339788
  0
ARC
  5
4BB
100
AcDbEntity
  8
0
  6
CONTINUOUS
 62
               7
100
AcDbCircle
 10
6.5053020664653616
 20
66.895322313870494
 30
0.0
 40
4.3953569835635475
100
AcDbArc
 50
270.28397725260595
 51
272.34959983497077
  0
ARC
  5
4BC
100
AcDbEntity
  8
0
  6
CONTINUOUS
 62
               4
100
AcDbCircle
 10
6.7602533376263807
 20
66.480245542361956
 30
0.0
 40
3.944308487307179
100
AcDbArc
 50
286.57019298143371
 51
288.61352744566261
  0
ARC
  5
4BD
100
AcDbEntity
  8
0
  6
CONTINUOUS
 62
               4
100
AcDbCircle
 10
15.945900337064728
 20
62.752518673581761
 30
0.0
 40
1.1553648381076536
100
AcDbArc
 50
171.42492203625403
 51
172.66714687627734
  0
ARC
  5
4BE
100
AcDbEntity
  8
0
  6
CONTINUOUS
 62
               4
100
AcDbCircle
 10
15.946271915014478
 20
62.75236830208388
 30
0.0
 40
1.1557565612105893
100
AcDbArc
 50
167.10737788627796
 51
169.25807302055375
  0
ARC
  5
4BF
100
AcDbEntity
  8
0
  6
CONTINUOUS
 62
               4
100
AcDbCircle
 10
15.952539652560688
 20
62.750923532114712
 30
0.0
 40
1.1621886524346294
100
AcDbArc
 50
164.97689628126048
 51
167.10689174905789
  0
ARC
  5
4C0
100
AcDbEntity
  8
0
  6
CONTINUOUS
 62
               4
100
AcDbCircle
 10
15.962874320839688
 20
62.748140270037567
 30
0.0
 40
1.172891541321601
100
AcDbArc
 50
162.87207847584108
 51
164.9764419781205
  0
ARC
  5
4C1
100
AcDbEntity
  8
0
  6
CONTINUOUS
 62
               4
100
AcDbCircle
 10
15.977116535504848
 20
62.74374214608406
 30
0.0
 40
1.1877973824267298
100
AcDbArc
 50
160.79746197752058
 51
162.87166138161933
  0
ARC
  5
4C2
100
AcDbEntity
  8
0
  6
CONTINUOUS
 62
               4
100
AcDbCircle
 10
15.995105096632386
 20
62.737468589844411
 30
0.0
 40
1.206848518289146
100
AcDbArc
 50
158.75713470539904
 51
160.79708613330786
  0
ARC
  5
4C3
100
AcDbEntity
  8
0
  6
CONTINUOUS
 62
               4
100
AcDbCircle
 10
16.045528179362719
 20
62.716599939477788
 30
0.0
 40
1.2614288403806175
100
AcDbArc
 50
154.37737662748185
 51
156.61174122654182
  0
ARC
  5
4C4
100
AcDbEntity
  8
0
  6
CONTINUOUS
 62
               4
100
AcDbCircle
 10
16.078572896521905
 20
62.700742832058296
 30
0.0
 40
1.2980812772469721
100
AcDbArc
 50
152.20017722999506
 51
154.37703095038307
  0
ARC
  5
4C5
100
AcDbEntity
  8
0
  6
CONTINUOUS
 62
               4
100
AcDbCircle
 10
16.156299020247843
 20
62.657788604006981
 30
0.0
 40
1.3869018340082298
100
AcDbArc
 50
148.02942719473111
 51
150.08328924595625
  0
ARC
  5
4C6
100
AcDbEntity
  8
0
  6
CONTINUOUS
 62
               4
100
AcDbCircle
 10
16.201432042306152
 20
62.629602929868867
 30
0.0
 40
1.440112939399137
100
AcDbArc
 50
145.91589475520709
 51
148.02889889146286
  0
ARC
  5
4C7
100
AcDbEntity
  8
0
  6
CONTINUOUS
 62
               7
100
AcDbCircle
 10
16.253975272549354
 20
62.594032550829667
 30
0.0
 40
1.5035640443162497
100
AcDbArc
 50
143.75847606669672
 51
145.9153521724142
  0
ARC
  5
4C8
100
AcDbEntity
  8
0
  6
CONTINUOUS
 62
               4
100
AcDbCircle
 10
16.311125079716163
 20
62.552140931860066
 30
0.0
 40
1.5744231171216525
100
AcDbArc
 50
141.68341024094119
 51
143.75845713366215
  0
LINE
  5
4C9
100
AcDbEntity
  8
0
  6
CONTINUOUS
 62
               4
100
AcDbLine
 10
14.79998474121092
 20
62.899981741210922
 30
0.0
 11
14.79998474121092
 21
62.499984741210938
 31
0.0
  0
ARC
  5
4CA
100
AcDbEntity
  8
0
  6
CONTINUOUS
 62
               4
100
AcDbCircle
 10
16.115581527613557
 20
62.681223388097948
 30
0.0
 40
1.3399220161149226
100
AcDbArc
 50
150.08348873429833
 51
152.19990668070685
  0
ARC
  5
4CB
100
AcDbEntity
  8
0
  6
CONTINUOUS
 62
               4
100
AcDbCircle
 10
16.017243856531678
 20
62.728849102930994
 30
0.0
 40
1.2306060453551306
100
AcDbArc
 50
156.61243884655113
 51
158.75655461249124
  0
ARC
  5
4CC
100
AcDbEntity
  8
0
  6
CONTINUOUS
 62
               4
100
AcDbCircle
 10
15.944228688052902
 20
62.752766402943394
 30
0.0
 40
1.1536749381666052
100
AcDbArc
 50
169.25858439343344
 51
171.42470890125855
  0
ARC
  5
4CD
100
AcDbEntity
  8
0
  6
CONTINUOUS
 62
               4
100
AcDbCircle
 10
7.608477851842764
 20
64.631240030035613
 30
0.0
 40
1.9035041734933467
100
AcDbArc
 50
303.05431837145363
 51
305.11808218074952
  0
LINE
  5
4CE
100
AcDbEntity
  8
0
  6
CONTINUOUS
 62
               7
100
AcDbLine
 10
4.4999847412109375
 20
62.499984741210938
 30
0.0
 11
19.499984741210938
 21
62.499984741210938
 31
0.0
  0
ARC
  5
4CF
100
AcDbEntity
  8
0
  6
CONTINUOUS
 62
               4
100
AcDbCircle
 10
7.9040034828621515
 20
64.252270409913194
 30
0.0
 40
1.4225245470859771
100
AcDbArc
 50
311.4760993620244
 51
313.61010722300421
  0
LINE
  5
4D0
100
AcDbEntity
  8
0
  6
CONTINUOUS
 62
               4
100
AcDbLine
 10
4.4999847412109375
 20
64.599981741210925
 30
0.0
 11
19.499984741210909
 21
64.599981741210925
 31
0.0
  0
LINE
  5
4D1
100
AcDbEntity
  8
0
  6
CONTINUOUS
 62
               4
100
AcDbLine
 10
4.6999847412109546
 20
80.799981741210942
 30
0.0
 11
4.4999847412109659
 21
80.999981741210931
 31
0.0
  0
LINE
  5
4D2
100
AcDbEntity
  8
0
  6
CONTINUOUS
 62
               4
100
AcDbLine
 10
4.4999847412109659
 20
82.336022741210954
 30
0.0
 11
4.4999847412109659
 21
80.999981741210931
 31
0.0
  0
LINE
  5
4D3
100
AcDbEntity
  8
0
  6
CONTINUOUS
 62
               4
100
AcDbLine
 10
4.4999847412109659
 20
79.899981741210937
 30
0.0
 11
4.5999847412109318
 21
79.999981741210931
 31
0.0
  0
LINE
  5
4D4
100
AcDbEntity
  8
0
  6
CONTINUOUS
 62
               4
100
AcDbLine
 10
4.6999847412109546
 20
72.899981741210937
 30
0.0
 11
4.4999847412109659
 21
73.099981741210925
 31
0.0
  0
LINE
  5
4D5
100
AcDbEntity
  8
0
  6
CONTINUOUS
 62
               4
100
AcDbLine
 10
4.6999847412109546
 20
72.899981741210937
 30
0.0
 11
4.4999847412109659
 21
72.699981741210948
 31
0.0
  0
LINE
  5
4D6
100
AcDbEntity
  8
0
  6
CONTINUOUS
 62
               4
100
AcDbLine
 10
4.4999847412109659
 20
72.699981741210948
 30
0.0
 11
4.4999847412109233
 21
61.999984741210938
 31
0.0
  0
LINE
  5
4D7
100
AcDbEntity
  8
0
  6
CONTINUOUS
 62
               4
100
AcDbLine
 10
4.4999847412109659
 20
79.899981741210937
 30
0.0
 11
4.4999847412109659
 21
73.099981741210925
 31
0.0
  0
ARC
  5
4D8
100
AcDbEntity
  8
0
  6
CONTINUOUS
 62
               4
100
AcDbCircle
 10
18.599983241210936
 20
86.19997374121094
 30
0.0
 40
0.3
100
AcDbArc
 50
0.0000000000006107
 51
90.000000000000611
  0
ARC
  5
4D9
100
AcDbEntity
  8
0
  6
CONTINUOUS
 62
               4
100
AcDbCircle
 10
17.399984341210967
 20
84.799976741210955
 30
0.0
 40
0.5
100
AcDbArc
 50
89.999999999999815
 51
179.9999999999998
  0
ARC
  5
4DA
100
AcDbEntity
  8
0
  6
CONTINUOUS
 62
               4
100
AcDbCircle
 10
6.5999851412109649
 20
84.799976741210955
 30
0.0
 40
0.5
100
AcDbArc
 50
0.0000000000006107
 51
90.000000000000611
  0
ARC
  5
4DB
100
AcDbEntity
  8
0
  6
CONTINUOUS
 62
               4
100
AcDbCircle
 10
5.3999862412109394
 20
86.19997374121094
 30
0.0
 40
0.3
100
AcDbArc
 50
89.999999999999815
 51
179.9999999999998
  0
LINE
  5
4DC
100
AcDbEntity
  8
0
  6
CONTINUOUS
 62
               4
100
AcDbLine
 10
18.899984741210943
 20
86.19997374121094
 30
0.0
 11
18.899984741210943
 21
85.299976741210955
 31
0.0
  0
LINE
  5
4DD
100
AcDbEntity
  8
0
  6
CONTINUOUS
 62
               4
100
AcDbLine
 10
18.599983241210936
 20
86.499976741210943
 30
0.0
 11
5.3999847412109432
 21
86.499976741210943
 31
0.0
  0
LINE
  5
4DE
100
AcDbEntity
  8
0
  6
CONTINUOUS
 62
               4
100
AcDbLine
 10
5.0999847412109318
 20
85.299976741210955
 30
0.0
 11
18.899984741210943
 21
85.299976741210955
 31
0.0
  0
LINE
  5
4DF
100
AcDbEntity
  8
0
  6
CONTINUOUS
 62
               4
100
AcDbLine
 10
5.0999847412109318
 20
86.19997374121094
 30
0.0
 11
5.0999847412109318
 21
85.299976741210955
 31
0.0
  0
LINE
  5
4E0
100
AcDbEntity
  8
0
  6
CONTINUOUS
 62
               4
100
AcDbLine
 10
17.699984741210955
 20
84.399975741210923
 30
0.0
 11
17.699984741210955
 21
83.399976741210949
 31
0.0
  0
LINE
  5
4E1
100
AcDbEntity
  8
0
  6
CONTINUOUS
 62
               4
100
AcDbLine
 10
17.699984341210921
 20
84.399975741210923
 30
0.0
 11
17.599984341210956
 21
84.499975741210946
 31
0.0
  0
LINE
  5
4E2
100
AcDbEntity
  8
0
  6
CONTINUOUS
 62
               4
100
AcDbLine
 10
6.2999847412109489
 20
84.399975741210923
 30
0.0
 11
6.2999847412109489
 21
83.399976741210949
 31
0.0
  0
LINE
  5
4E3
100
AcDbEntity
  8
0
  6
CONTINUOUS
 62
               4
100
AcDbLine
 10
6.2999851412109535
 20
84.399975741210923
 30
0.0
 11
6.3999851412109479
 21
84.499975741210946
 31
0.0
  0
LINE
  5
4E4
100
AcDbEntity
  8
0
  6
CONTINUOUS
 62
               4
100
AcDbLine
 10
16.899984741210943
 20
84.799976741210955
 30
0.0
 11
16.899984741210943
 21
84.499975741210946
 31
0.0
  0
LINE
  5
4E5
100
AcDbEntity
  8
0
  6
CONTINUOUS
 62
               4
100
AcDbLine
 10
6.3999851412109479
 20
84.499975741210946
 30
0.0
 11
17.599984341210956
 21
84.499975741210946
 31
0.0
  0
LINE
  5
4E6
100
AcDbEntity
  8
0
  6
CONTINUOUS
 62
               4
100
AcDbLine
 10
7.0999847412109318
 20
84.799976741210955
 30
0.0
 11
7.0999847412109318
 21
84.499975741210946
 31
0.0
  0
LINE
  5
4E7
100
AcDbEntity
  8
0
  6
CONTINUOUS
 62
               4
100
AcDbLine
 10
5.6499843412109669
 20
83.399976741210949
 30
0.0
 11
18.349984741210932
 21
83.399976741210949
 31
0.0
  0
LINE
  5
4E8
100
AcDbEntity
  8
0
  6
CONTINUOUS
 62
               4
100
AcDbLine
 10
18.696395141210957
 20
82.799975741210957
 30
0.0
 11
19.499984741210966
 21
82.336022741210954
 31
0.0
  0
LINE
  5
4E9
100
AcDbEntity
  8
0
  6
CONTINUOUS
 62
               4
100
AcDbLine
 10
19.29998474121092
 20
80.799981741210942
 30
0.0
 11
19.499984741210966
 21
80.999981741210931
 31
0.0
  0
LINE
  5
4EA
100
AcDbEntity
  8
0
  6
CONTINUOUS
 62
               4
100
AcDbLine
 10
5.3035743412109468
 20
82.799976741210955
 30
0.0
 11
5.6499847412109432
 21
83.399976741210949
 31
0.0
  0
LINE
  5
4EB
100
AcDbEntity
  8
0
  6
CONTINUOUS
 62
               4
100
AcDbLine
 10
18.696395141210957
 20
82.799976741210955
 30
0.0
 11
18.349984741210932
 21
83.399976741210949
 31
0.0
  0
LINE
  5
4EC
100
AcDbEntity
  8
0
  6
CONTINUOUS
 62
               4
100
AcDbLine
 10
18.79998474121092
 20
80.799981741210942
 30
0.0
 11
18.79998474121092
 21
79.999981741210931
 31
0.0
  0
LINE
  5
4ED
100
AcDbEntity
  8
0
  6
CONTINUOUS
 62
               4
100
AcDbLine
 10
19.499984741210966
 20
82.336022741210954
 30
0.0
 11
19.499984741210966
 21
80.999981741210931
 31
0.0
  0
LINE
  5
4EE
100
AcDbEntity
  8
0
  6
CONTINUOUS
 62
               4
100
AcDbLine
 10
19.29998474121092
 20
72.899981741210937
 30
0.0
 11
19.499984741210966
 21
73.099981741210954
 31
0.0
  0
LINE
  5
4EF
100
AcDbEntity
  8
0
  6
CONTINUOUS
 62
               4
100
AcDbLine
 10
19.399984741210943
 20
79.999981741210931
 30
0.0
 11
19.499984741210966
 21
79.899981741210937
 31
0.0
  0
LINE
  5
4F0
100
AcDbEntity
  8
0
  6
CONTINUOUS
 62
               4
100
AcDbLine
 10
19.499984741210966
 20
79.899981741210937
 30
0.0
 11
19.499984741210966
 21
73.099981741210954
 31
0.0
  0
LINE
  5
4F1
100
AcDbEntity
  8
0
  6
CONTINUOUS
 62
               4
100
AcDbLine
 10
19.29998474121092
 20
72.899981741210937
 30
0.0
 11
19.499984741210966
 21
72.699981741210948
 31
0.0
  0
LINE
  5
4F2
100
AcDbEntity
  8
0
  6
CONTINUOUS
 62
               4
100
AcDbLine
 10
5.1999847412109546
 20
80.799981741210942
 30
0.0
 11
5.1999847412109546
 21
79.999981741210931
 31
0.0
  0
LINE
  5
4F3
100
AcDbEntity
  8
0
  6
CONTINUOUS
 62
               4
100
AcDbLine
 10
6.2999847412109489
 20
84.399975341210947
 30
0.0
 11
17.699984341210921
 21
84.399975341210947
 31
0.0
  0
LINE
  5
4F4
100
AcDbEntity
  8
0
  6
CONTINUOUS
 62
               4
100
AcDbLine
 10
5.3035743412109468
 20
82.799976741210955
 30
0.0
 11
18.696396007237553
 21
82.799976741210955
 31
0.0
  0
LINE
  5
4F5
100
AcDbEntity
  8
0
  6
CONTINUOUS
 62
               4
100
AcDbLine
 10
4.4999847412109659
 20
82.336022741210954
 30
0.0
 11
19.499984741210966
 21
82.336022741210954
 31
0.0
  0
LINE
  5
4F6
100
AcDbEntity
  8
0
  6
CONTINUOUS
 62
               4
100
AcDbLine
 10
4.4999847412109659
 20
80.999981741210931
 30
0.0
 11
19.499984741210966
 21
80.999981741210931
 31
0.0
  0
LINE
  5
4F7
100
AcDbEntity
  8
0
  6
CONTINUOUS
 62
               4
100
AcDbLine
 10
4.4999847412109659
 20
79.899981741210937
 30
0.0
 11
19.499984741210966
 21
79.899981741210937
 31
0.0
  0
LINE
  5
4F8
100
AcDbEntity
  8
0
  6
CONTINUOUS
 62
               4
100
AcDbLine
 10
4.4999847412109659
 20
73.099981741210925
 30
0.0
 11
19.499984741210966
 21
73.099981741210954
 31
0.0
  0
LINE
  5
4F9
100
AcDbEntity
  8
0
  6
CONTINUOUS
 62
               4
100
AcDbLine
 10
4.5999847412109318
 20
79.999981741210931
 30
0.0
 11
19.399984741210943
 21
79.999981741210931
 31
0.0
  0
LINE
  5
4FA
100
AcDbEntity
  8
0
  6
CONTINUOUS
 62
               4
100
AcDbLine
 10
4.6999847412109546
 20
72.899981741210937
 30
0.0
 11
19.29998474121092
 21
72.899981741210937
 31
0.0
  0
LINE
  5
4FB
100
AcDbEntity
  8
0
  6
CONTINUOUS
 62
               4
100
AcDbLine
 10
4.6999847412109546
 20
80.799981741210942
 30
0.0
 11
19.29998474121092
 21
80.799981741210942
 31
0.0
  0
LINE
  5
4FC
100
AcDbEntity
  8
0
  6
CONTINUOUS
 62
               4
100
AcDbLine
 10
4.4999847412109659
 20
82.336022741210954
 30
0.0
 11
5.3035743412109468
 21
82.799975741210957
 31
0.0
  0
LINE
  5
4FD
100
AcDbEntity
  8
0
  6
CONTINUOUS
 62
               4
100
AcDbLine
 10
19.499984741210966
 20
72.699981741210948
 30
0.0
 11
19.499984741210895
 21
61.999984860420227
 31
0.0
  0
LINE
  5
4FE
100
AcDbEntity
  8
0
  6
CONTINUOUS
 62
               4
100
AcDbLine
 10
4.4999847412109659
 20
72.699981741210948
 30
0.0
 11
19.499984741210966
 21
72.699981741210948
 31
0.0
  0
ARC
  5
4FF
100
AcDbEntity
  8
0
  6
CONTINUOUS
 62
               4
100
AcDbCircle
 10
5.6880993669968234
 20
63.452038547954032
 30
0.0
 40
3.5792847910051169
100
AcDbArc
 50
16.692670231366439
 51
18.706388090683092
  0
ARC
  5
500
100
AcDbEntity
  8
0
  6
CONTINUOUS
 62
               4
100
AcDbCircle
 10
6.2998047753904416
 20
63.635769008409042
 30
0.0
 40
2.9405827545696739
100
AcDbArc
 50
14.667172481837277
 51
16.687158220345268
  0
ARC
  5
501
100
AcDbEntity
  8
0
  6
CONTINUOUS
 62
               4
100
AcDbCircle
 10
6.7272553484582147
 20
63.747789683575022
 30
0.0
 40
2.4986974735198264
100
AcDbArc
 50
12.642201714574991
 51
14.664003856686881
  0
ARC
  5
502
100
AcDbEntity
  8
0
  6
CONTINUOUS
 62
               4
100
AcDbCircle
 10
7.0528401003833494
 20
63.820910979229993
 30
0.0
 40
2.1650027850202194
100
AcDbArc
 50
10.622325184027591
 51
12.639809341957955
  0
ARC
  5
503
100
AcDbEntity
  8
0
  6
CONTINUOUS
 62
               4
100
AcDbCircle
 10
7.3109140218556661
 20
63.869349811261188
 30
0.0
 40
1.9024223823912618
100
AcDbArc
 50
8.5904999532902711
 51
10.62121446048406
  0
ARC
  5
504
100
AcDbEntity
  8
0
  6
CONTINUOUS
 62
               4
100
AcDbCircle
 10
7.5196885834984641
 20
63.900930934917923
 30
0.0
 40
1.6912727127528326
100
AcDbArc
 50
6.5761670370759218
 51
8.5890814466550758
  0
ARC
  5
505
100
AcDbEntity
  8
0
  6
CONTINUOUS
 62
               4
100
AcDbCircle
 10
7.6924726322921799
 20
63.920864129782345
 30
0.0
 40
1.5173426706314583
100
AcDbArc
 50
4.5394127768506634
 51
6.5756332807388524
  0
ARC
  5
506
100
AcDbEntity
  8
0
  6
CONTINUOUS
 62
               4
100
AcDbCircle
 10
7.8371390294043977
 20
63.932370648761207
 30
0.0
 40
1.3722193921649677
100
AcDbArc
 50
2.513421062766803
 51
4.5385432169979252
  0
ARC
  5
507
100
AcDbEntity
  8
0
  6
CONTINUOUS
 62
               4
100
AcDbCircle
 10
7.9579724547019453
 20
63.937693961718168
 30
0.0
 40
1.2512687661879294
100
AcDbArc
 50
0.4986662793331421
 51
2.5125403042270871
  0
ARC
  5
508
100
AcDbEntity
  8
0
  6
CONTINUOUS
 62
               4
100
AcDbCircle
 10
8.0605035044671069
 20
63.938602971821211
 30
0.0
 40
1.1487336884614059
100
AcDbArc
 50
358.48535575865219
 51
0.4978372462346162
  0
ARC
  5
509
100
AcDbEntity
  8
0
  6
CONTINUOUS
 62
               4
100
AcDbCircle
 10
8.1491557334572917
 20
63.936257101389685
 30
0.0
 40
1.0600504273031055
100
AcDbArc
 50
356.41199098827894
 51
358.48545062568081
  0
ARC
  5
50A
100
AcDbEntity
  8
0
  6
CONTINUOUS
 62
               4
100
AcDbCircle
 10
8.2253340473851608
 20
63.931500094123422
 30
0.0
 40
0.9837237333251888
100
AcDbArc
 50
354.37936612442081
 51
356.410844652474
  0
ARC
  5
50B
100
AcDbEntity
  8
0
  6
CONTINUOUS
 62
               4
100
AcDbCircle
 10
8.2903886641089741
 20
63.9251008882094
 30
0.0
 40
0.9183551400777058
100
AcDbArc
 50
352.31913550747907
 51
354.37917307806038
  0
ARC
  5
50C
100
AcDbEntity
  8
0
  6
CONTINUOUS
 62
               4
100
AcDbCircle
 10
8.3299989768398461
 20
63.919889696931619
 30
0.0
 40
0.8784037220175889
100
AcDbArc
 50
350.04442337093059
 51
352.31067627383618
  0
ARC
  5
50D
100
AcDbEntity
  8
0
  6
CONTINUOUS
 62
               4
100
AcDbCircle
 10
8.3365847206524393
 20
63.918743869091628
 30
0.0
 40
0.8717190498304943
100
AcDbArc
 50
347.8430796695489
 51
350.04376613556269
  0
ARC
  5
50E
100
AcDbEntity
  8
0
  6
CONTINUOUS
 62
               4
100
AcDbCircle
 10
8.3394134240871551
 20
63.918143371946044
 30
0.0
 40
0.8688273229065229
100
AcDbArc
 50
345.64887660776708
 51
347.84250821435154
  0
ARC
  5
50F
100
AcDbEntity
  8
0
  6
CONTINUOUS
 62
               4
100
AcDbCircle
 10
8.3387448895471721
 20
63.918323149839892
 30
0.0
 40
0.8695195562227179
100
AcDbArc
 50
343.46777810802956
 51
345.6483189778923
  0
ARC
  5
510
100
AcDbEntity
  8
0
  6
CONTINUOUS
 62
               4
100
AcDbCircle
 10
8.3347098349823909
 20
63.919529363146751
 30
0.0
 40
0.8737310345492286
100
AcDbArc
 50
341.30559968152693
 51
343.46724331822628
  0
ARC
  5
511
100
AcDbEntity
  8
0
  6
CONTINUOUS
 62
               4
100
AcDbCircle
 10
8.3274386891178267
 20
63.921997902331569
 30
0.0
 40
0.8814097836866593
100
AcDbArc
 50
339.16783639663868
 51
341.30509574346644
  0
ARC
  5
512
100
AcDbEntity
  8
0
  6
CONTINUOUS
 62
               4
100
AcDbCircle
 10
8.3170615901002236
 20
63.925954232360624
 30
0.0
 40
0.8925154884911465
100
AcDbArc
 50
337.05958525576978
 51
339.16737004731658
  0
ARC
  5
513
100
AcDbEntity
  8
0
  6
CONTINUOUS
 62
               4
100
AcDbCircle
 10
16.442102779135638
 20
62.444346553640997
 30
0.0
 40
1.7440828242107302
100
AcDbArc
 50
137.46181248536647
 51
139.57928943405068
  0
ARC
  5
514
100
AcDbEntity
  8
0
  6
CONTINUOUS
 62
               4
100
AcDbCircle
 10
16.51693537071543
 20
62.375672441642791
 30
0.0
 40
1.8456507835321854
100
AcDbArc
 50
135.33969043925273
 51
137.46156396527454
  0
ARC
  5
515
100
AcDbEntity
  8
0
  6
CONTINUOUS
 62
               4
100
AcDbCircle
 10
16.599507300110531
 20
62.294066359877121
 30
0.0
 40
1.9617441773085496
100
AcDbArc
 50
133.22591051906895
 51
135.33953495864733
  0
ARC
  5
516
100
AcDbEntity
  8
0
  6
CONTINUOUS
 62
               4
100
AcDbCircle
 10
16.686969560744103
 20
62.201010222856894
 30
0.0
 40
2.0894512314174238
100
AcDbArc
 50
131.12797931843048
 51
133.22586068395452
  0
ARC
  5
517
100
AcDbEntity
  8
0
  6
CONTINUOUS
 62
               4
100
AcDbCircle
 10
16.781427028336083
 20
62.092842353125775
 30
0.0
 40
2.2330565976797208
100
AcDbArc
 50
129.05599655959543
 51
131.12804815304699
  0
ARC
  5
518
100
AcDbEntity
  8
0
  6
CONTINUOUS
 62
               4
100
AcDbCircle
 10
16.882221819255648
 20
61.968537009733183
 30
0.0
 40
2.3930922366681844
100
AcDbArc
 50
126.93496757774747
 51
129.05475086524137
  0
ARC
  5
519
100
AcDbEntity
  8
0
  6
CONTINUOUS
 62
               4
100
AcDbCircle
 10
16.988371476292599
 20
61.827364172617635
 30
0.0
 40
2.5697204320578275
100
AcDbArc
 50
124.86028090017243
 51
126.93531160163522
  0
ARC
  5
51A
100
AcDbEntity
  8
0
  6
CONTINUOUS
 62
               4
100
AcDbCircle
 10
17.099892452871416
 20
61.66727056786587
 30
0.0
 40
2.7648278140138127
100
AcDbArc
 50
122.76378430057119
 51
124.86033264396943
  0
ARC
  5
51B
100
AcDbEntity
  8
0
  6
CONTINUOUS
 62
               4
100
AcDbCircle
 10
17.214970602830448
 20
61.488520538901454
 30
0.0
 40
2.9774179180260334
100
AcDbArc
 50
120.72688420443157
 51
122.76445524253481
  0
ARC
  5
51C
100
AcDbEntity
  8
0
  6
CONTINUOUS
 62
               4
100
AcDbCircle
 10
17.330098494908611
 20
61.294785455345448
 30
0.0
 40
3.2027792138376987
100
AcDbArc
 50
118.68383739824675
 51
120.7264756306723
  0
ARC
  5
51D
100
AcDbEntity
  8
0
  6
CONTINUOUS
 62
               4
100
AcDbCircle
 10
17.444941203851471
 20
61.084863212429184
 30
0.0
 40
3.4420618830909504
100
AcDbArc
 50
116.64406455646503
 51
118.68370002549318
  0
ARC
  5
51E
100
AcDbEntity
  8
0
  6
CONTINUOUS
 62
               4
100
AcDbCircle
 10
17.555914295976379
 20
60.863701523464641
 30
0.0
 40
3.6895038353855494
100
AcDbArc
 50
114.6121694182432
 51
116.64421369814795
  0
ARC
  5
51F
100
AcDbEntity
  8
0
  6
CONTINUOUS
 62
               4
100
AcDbCircle
 10
17.659731314918417
 20
60.637103140612254
 30
0.0
 40
3.9387523065594494
100
AcDbArc
 50
112.53649080011284
 51
114.61235399434308
  0
ARC
  5
520
100
AcDbEntity
  8
0
  6
CONTINUOUS
 62
               4
100
AcDbCircle
 10
17.752069898313806
 20
60.414846306615303
 30
0.0
 40
4.179427407790862
100
AcDbArc
 50
110.47273869949545
 51
112.53789510812676
  0
ARC
  5
521
100
AcDbEntity
  8
0
  6
CONTINUOUS
 62
               4
100
AcDbCircle
 10
17.826174832615521
 20
60.216722189262128
 30
0.0
 40
4.3909568183558054
100
AcDbArc
 50
108.4111107687567
 51
110.4744108540722
  0
ARC
  5
522
100
AcDbEntity
  8
0
  6
CONTINUOUS
 62
               4
100
AcDbCircle
 10
17.877540335553732
 20
60.062938844667642
 30
0.0
 40
4.5530916549443816
100
AcDbArc
 50
106.38334707952616
 51
108.41320583984893
  0
ARC
  5
523
100
AcDbEntity
  8
0
  6
CONTINUOUS
 62
               4
100
AcDbCircle
 10
17.903677032560097
 20
59.974642041189398
 30
0.0
 40
4.6451754430736036
100
AcDbArc
 50
104.32120035552141
 51
106.38544658599197
  0
ARC
  5
524
100
AcDbEntity
  8
0
  6
CONTINUOUS
 62
               4
100
AcDbCircle
 10
17.904945309251303
 20
59.970537531138874
 30
0.0
 40
4.649466125201223
100
AcDbArc
 50
102.28752478573125
 51
104.32383235181229
  0
ARC
  5
525
100
AcDbEntity
  8
0
  6
CONTINUOUS
 62
               4
100
AcDbCircle
 10
17.885171185566065
 20
60.062380802966644
 30
0.0
 40
4.5555185280978989
100
AcDbArc
 50
100.24906748641899
 51
102.29035129179944
  0
ARC
  5
526
100
AcDbEntity
  8
0
  6
CONTINUOUS
 62
               4
100
AcDbCircle
 10
17.851284356426561
 20
60.251063360117513
 30
0.0
 40
4.3638172725416116
100
AcDbArc
 50
98.215390706155318
 51
100.25203092327695
  0
ARC
  5
527
100
AcDbEntity
  8
0
  6
CONTINUOUS
 62
               4
100
AcDbCircle
 10
17.812215168366464
 20
60.523211963330624
 30
0.0
 40
4.0888787123857897
100
AcDbArc
 50
96.152863214536382
 51
98.2184785901147
  0
ARC
  5
528
100
AcDbEntity
  8
0
  6
CONTINUOUS
 62
               4
100
AcDbCircle
 10
17.777268995859771
 20
60.847300265127615
 30
0.0
 40
3.7629117474124989
100
AcDbArc
 50
94.225884593226041
 51
96.152732058177435
  0
ARC
  5
529
100
AcDbEntity
  8
0
  6
CONTINUOUS
 62
               4
100
AcDbCircle
 10
16.372713379160956
 20
62.503457910537207
 30
0.0
 40
1.6529288816836427
100
AcDbArc
 50
139.57963476423376
 51
141.68301448589227
  0
ARC
  5
52A
100
AcDbEntity
  8
0
  6
CONTINUOUS
 62
               4
100
AcDbCircle
 10
8.3037083825578577
 20
63.931613230618467
 30
0.0
 40
0.9070183285139883
100
AcDbArc
 50
334.98548272674856
 51
337.05916177659861
  0
ARC
  5
52B
100
AcDbEntity
  8
0
  6
CONTINUOUS
 62
               4
100
AcDbCircle
 10
66.25
 20
32.699996948242188
 30
0.0
 40
1.5
100
AcDbArc
 50
0.0
 51
89.999982013910454
  0
ARC
  5
52C
100
AcDbEntity
  8
0
  6
CONTINUOUS
 62
               4
100
AcDbCircle
 10
64.75
 20
32.699996948242188
 30
0.0
 40
1.5
100
AcDbArc
 50
89.999982013910454
 51
179.99996402782091
  0
ARC
  5
52D
100
AcDbEntity
  8
0
  6
CONTINUOUS
 62
               4
100
AcDbCircle
 10
53.75
 20
32.699996948242188
 30
0.0
 40
1.5
100
AcDbArc
 50
89.999982013910454
 51
179.99996402782091
  0
ARC
  5
52E
100
AcDbEntity
  8
0
  6
CONTINUOUS
 62
               4
100
AcDbCircle
 10
55.25
 20
32.699996948242188
 30
0.0
 40
1.5
100
AcDbArc
 50
0.0
 51
89.999982013910454
  0
ARC
  5
52F
100
AcDbEntity
  8
0
  6
CONTINUOUS
 62
               7
100
AcDbCircle
 10
7.5
 20
54.5
 30
0.0
 40
3.0
100
AcDbArc
 50
270.00001798608872
 51
90.00014593845053
  0
CIRCLE
  5
530
100
AcDbEntity
  8
0
  6
CONTINUOUS
 62
               7
100
AcDbCircle
 10
7.5
 20
54.5
 30
0.0
 40
2.7999992370605469
  0
ARC
  5
531
100
AcDbEntity
  8
0
  6
CONTINUOUS
 62
               7
100
AcDbCircle
 10
16.499984741210937
 20
33.499969482421875
 30
0.0
 40
3.0
100
AcDbArc
 50
89.999982013910454
 51
179.99996402782091
  0
CIRCLE
  5
532
100
AcDbEntity
  8
0
  6
CONTINUOUS
 62
               7
100
AcDbCircle
 10
16.499984741210937
 20
33.499969482421875
 30
0.0
 40
2.7999992370605469
  0
ARC
  5
533
100
AcDbEntity
  8
0
  6
CONTINUOUS
 62
               7
100
AcDbCircle
 10
19.0
 20
61.999984741210938
 30
0.0
 40
0.5
100
AcDbArc
 50
0.00001366037834
 51
89.999982013910454
  0
ARC
  5
534
100
AcDbEntity
  8
0
  6
CONTINUOUS
 62
               7
100
AcDbCircle
 10
5.0
 20
61.999984741210938
 30
0.0
 40
0.5
100
AcDbArc
 50
89.999982013910454
 51
179.99996402782091
  0
LINE
  5
535
100
AcDbEntity
  8
0
  6
CONTINUOUS
 62
               7
100
AcDbLine
 10
83.0
 20
30.0
 30
0.0
 11
83.0
 21
0.0
 31
0.0
  0
LINE
  5
536
100
AcDbEntity
  8
0
  6
CONTINUOUS
 62
               7
100
AcDbLine
 10
-11.0
 20
30.0
 30
0.0
 11
-11.0
 21
0.0
 31
0.0
  0
LINE
  5
537
100
AcDbEntity
  8
0
  6
CONTINUOUS
 62
               7
100
AcDbLine
 10
-11.0
 20
0.0
 30
0.0
 11
83.0
 21
0.0
 31
0.0
  0
LINE
  5
538
100
AcDbEntity
  8
0
  6
CONTINUOUS
 62
               4
100
AcDbLine
 10
67.75
 20
32.699996948242188
 30
0.0
 11
67.75
 21
32.5
 31
0.0
  0
LINE
  5
539
100
AcDbEntity
  8
0
  6
CONTINUOUS
 62
               4
100
AcDbLine
 10
66.25
 20
34.199996948242188
 30
0.0
 11
64.75
 21
34.199996948242188
 31
0.0
  0
LINE
  5
53A
100
AcDbEntity
  8
0
  6
CONTINUOUS
 62
               4
100
AcDbLine
 10
63.25
 20
32.699996948242188
 30
0.0
 11
63.25
 21
32.5
 31
0.0
  0
LINE
  5
53B
100
AcDbEntity
  8
0
  6
CONTINUOUS
 62
             200
100
AcDbLine
 10
60.0
 20
34.962860107421875
 30
0.0
 11
60.0
 21
27.283416748046875
 31
0.0
  0
LINE
  5
53C
100
AcDbEntity
  8
0
  6
CONTINUOUS
 62
               4
100
AcDbLine
 10
53.75
 20
34.199996948242188
 30
0.0
 11
55.25
 21
34.199996948242188
 31
0.0
  0
LINE
  5
53D
100
AcDbEntity
  8
0
  6
CONTINUOUS
 62
               4
100
AcDbLine
 10
52.25
 20
32.699996948242188
 30
0.0
 11
52.25
 21
32.5
 31
0.0
  0
LINE
  5
53E
100
AcDbEntity
  8
0
  6
CONTINUOUS
 62
               4
100
AcDbLine
 10
56.75
 20
32.699996948242188
 30
0.0
 11
56.75
 21
32.5
 31
0.0
  0
LINE
  5
53F
100
AcDbEntity
  8
0
  6
CONTINUOUS
 62
               4
100
AcDbLine
 10
67.5
 20
32.5
 30
0.0
 11
67.5
 21
30.5
 31
0.0
  0
LINE
  5
540
100
AcDbEntity
  8
0
  6
CONTINUOUS
 62
               4
100
AcDbLine
 10
52.5
 20
32.5
 30
0.0
 11
52.5
 21
30.5
 31
0.0
  0
LINE
  5
541
100
AcDbEntity
  8
0
  6
CONTINUOUS
 62
               4
100
AcDbLine
 10
52.25
 20
32.5
 30
0.0
 11
67.75
 21
32.5
 31
0.0
  0
LINE
  5
542
100
AcDbEntity
  8
0
  6
CONTINUOUS
 62
               7
100
AcDbLine
 10
7.5
 20
57.499984741210937
 30
0.0
 11
4.5
 21
57.499984741210937
 31
0.0
  0
LINE
  5
543
100
AcDbEntity
  8
0
  6
CONTINUOUS
 62
               7
100
AcDbLine
 10
8.5606463857603217
 20
53.439328179209838
 30
0.0
 11
6.439326972575202
 21
55.560649559348235
 31
0.0
  0
LINE
  5
544
100
AcDbEntity
  8
0
  6
CONTINUOUS
 62
               7
100
AcDbLine
 10
6.4394352336832412
 20
53.439222615400126
 30
0.0
 11
8.5607566138216384
 21
55.560542028585246
 31
0.0
  0
LINE
  5
545
100
AcDbEntity
  8
0
  6
CONTINUOUS
 62
               7
100
AcDbLine
 10
7.5
 20
51.500015258789063
 30
0.0
 11
4.5
 21
51.500015258789063
 31
0.0
  0
LINE
  5
546
100
AcDbEntity
  8
0
  6
CONTINUOUS
 62
               7
100
AcDbLine
 10
16.499984741210937
 20
36.499954223632812
 30
0.0
 11
19.499984741210938
 21
36.499954223632812
 31
0.0
  0
LINE
  5
547
100
AcDbEntity
  8
0
  6
CONTINUOUS
 62
               7
100
AcDbLine
 10
13.499984741210937
 20
33.499969482421875
 30
0.0
 11
13.499984741210937
 21
30.499969482421875
 31
0.0
  0
LINE
  5
548
100
AcDbEntity
  8
0
  6
CONTINUOUS
 62
               7
100
AcDbLine
 10
15.439344018768097
 20
34.56059598277966
 30
0.0
 11
17.560674579171391
 21
32.439264170672459
 31
0.0
  0
LINE
  5
549
100
AcDbEntity
  8
0
  6
CONTINUOUS
 62
               7
100
AcDbLine
 10
17.560792373226491
 20
34.560464364484687
 30
0.0
 11
15.439472025065754
 21
32.439145268021093
 31
0.0
  0
LINE
  5
54A
100
AcDbEntity
  8
0
  6
CONTINUOUS
 62
               7
100
AcDbLine
 10
18.49994238607178
 20
62.499954709069243
 30
0.0
 11
19.499945217830827
 21
61.499955501943077
 31
0.0
  0
LINE
  5
54B
100
AcDbEntity
  8
0
  6
CONTINUOUS
 62
               7
100
AcDbLine
 10
4.4999602925456657
 20
61.500028184508324
 30
0.0
 11
5.4999627871281973
 21
62.500030510503052
 31
0.0
  0
LINE
  5
54C
100
AcDbEntity
  8
0
  6
CONTINUOUS
 62
               7
100
AcDbLine
 10
4.5
 20
61.499984741210937
 30
0.0
 11
19.5
 21
61.499984741210937
 31
0.0
  0
LINE
  5
54D
100
AcDbEntity
  8
0
  6
CONTINUOUS
 62
               7
100
AcDbLine
 10
4.5
 20
60.499984741210937
 30
0.0
 11
19.5
 21
60.499984741210937
 31
0.0
  0
LINE
  5
54E
100
AcDbEntity
  8
0
  6
CONTINUOUS
 62
               7
100
AcDbLine
 10
19.499984741210938
 20
30.0
 30
0.0
 11
19.499984741210938
 21
61.999984741210938
 31
0.0
  0
LINE
  5
54F
100
AcDbEntity
  8
0
  6
CONTINUOUS
 62
               7
100
AcDbLine
 10
4.4999847412109375
 20
30.0
 30
0.0
 11
4.4999847412109375
 21
61.999984741210938
 31
0.0
  0
LINE
  5
550
100
AcDbEntity
  8
0
  6
CONTINUOUS
 62
               2
100
AcDbLine
 10
11.999984741210938
 20
27.200286865234375
 30
0.0
 11
11.999984741210938
 21
62.499984741210938
 31
0.0
  0
ENDBLK
  5
551
100
AcDbEntity
  8
0
100
AcDbBlockEnd
  0
BLOCK
  5
552
100
AcDbEntity
  8
0
100
AcDbBlockBegin
  2
F15MF-4
 70
               0
 10
0.0
 20
0.0
 30
0.0
  3
F15MF-4
  1

  0
LINE
  5
553
100
AcDbEntity
  8
0
  6
CONTINUOUS
 62
               2
100
AcDbLine
 10
5.5
 20
-46.369999999999997
 30
0.0
 11
5.5
 21
8.5600000000000005
 31
0.0
  0
LINE
  5
554
100
AcDbEntity
  8
0
  6
CONTINUOUS
 62
               4
100
AcDbLine
 10
11.0
 20
0.7
 30
0.0
 11
13.0
 21
0.7
 31
0.0
  0
LINE
  5
555
100
AcDbEntity
  8
0
  6
CONTINUOUS
 62
               4
100
AcDbLine
 10
0.0
 20
-37.700000000000003
 30
0.0
 11
-2.0
 21
-37.700000000000003
 31
0.0
  0
LINE
  5
556
100
AcDbEntity
  8
0
  6
CONTINUOUS
 62
               4
100
AcDbLine
 10
0.0
 20
-32.299999999999997
 30
0.0
 11
-2.0
 21
-32.299999999999997
 31
0.0
  0
LINE
  5
557
100
AcDbEntity
  8
0
  6
CONTINUOUS
 62
               4
100
AcDbLine
 10
11.0
 20
-4.7000000000000002
 30
0.0
 11
13.0
 21
-4.7000000000000002
 31
0.0
  0
LINE
  5
558
100
AcDbEntity
  8
0
  6
CONTINUOUS
 62
               4
100
AcDbLine
 10
13.0
 20
4.2999999999999998
 30
0.0
 11
-2.0
 21
4.2999999999999998
 31
0.0
  0
LINE
  5
559
100
AcDbEntity
  8
0
  6
CONTINUOUS
 62
               4
100
AcDbLine
 10
13.0
 20
-41.299999999999997
 30
0.0
 11
-2.0
 21
-41.299999999999997
 31
0.0
  0
LINE
  5
55A
100
AcDbEntity
  8
0
  6
CONTINUOUS
 62
               4
100
AcDbLine
 10
0.0
 20
-2.7000000000000002
 30
0.0
 11
-2.0
 21
-2.7000000000000002
 31
0.0
  0
LINE
  5
55B
100
AcDbEntity
  8
0
  6
CONTINUOUS
 62
               4
100
AcDbLine
 10
11.0
 20
-34.299999999999997
 30
0.0
 11
13.0
 21
-34.299999999999997
 31
0.0
  0
LINE
  5
55C
100
AcDbEntity
  8
0
  6
CONTINUOUS
 62
               4
100
AcDbLine
 10
8.3000000000000007
 20
-37.0
 30
0.0
 11
8.3000000000000007
 21
-41.299999999999997
 31
0.0
  0
LINE
  5
55D
100
AcDbEntity
  8
0
  6
CONTINUOUS
 62
               4
100
AcDbLine
 10
2.7000000000000002
 20
4.2999999999999998
 30
0.0
 11
2.7000000000000002
 21
0.0
 31
0.0
  0
LINE
  5
55E
100
AcDbEntity
  8
0
  6
CONTINUOUS
 62
               4
100
AcDbLine
 10
8.3000000000000007
 20
-39.299999999999997
 30
0.0
 11
-2.0
 21
-39.299999999999997
 31
0.0
  0
LINE
  5
55F
100
AcDbEntity
  8
0
  6
CONTINUOUS
 62
               4
100
AcDbLine
 10
13.0
 20
2.2999999999999998
 30
0.0
 11
2.7000000000000002
 21
2.2999999999999998
 31
0.0
  0
LINE
  5
560
100
AcDbEntity
  8
0
  6
CONTINUOUS
 62
               4
100
AcDbLine
 10
0.91
 20
-0.91
 30
0.0
 11
-0.91
 21
0.91
 31
0.0
  0
LINE
  5
561
100
AcDbEntity
  8
0
  6
CONTINUOUS
 62
               4
100
AcDbLine
 10
-0.91
 20
-0.91
 30
0.0
 11
0.91
 21
0.91
 31
0.0
  0
LINE
  5
562
100
AcDbEntity
  8
0
  6
CONTINUOUS
 62
               4
100
AcDbLine
 10
13.0
 20
-35.960000000000001
 30
0.0
 11
13.0
 21
-4.7000000000000002
 31
0.0
  0
LINE
  5
563
100
AcDbEntity
  8
0
  6
CONTINUOUS
 62
               4
100
AcDbLine
 10
10.08
 20
-37.909999999999997
 30
0.0
 11
11.91
 21
-36.079999999999998
 31
0.0
  0
LINE
  5
564
100
AcDbEntity
  8
0
  6
CONTINUOUS
 62
               4
100
AcDbLine
 10
11.91
 20
-37.909999999999997
 30
0.0
 11
10.08
 21
-36.079999999999998
 31
0.0
  0
LINE
  5
565
100
AcDbEntity
  8
0
  6
CONTINUOUS
 62
               4
100
AcDbLine
 10
-2.0
 20
-32.299999999999997
 30
0.0
 11
-2.0
 21
-1.03
 31
0.0
  0
LINE
  5
566
100
AcDbEntity
  8
0
  6
CONTINUOUS
 62
               4
100
AcDbLine
 10
13.0
 20
-41.299999999999997
 30
0.0
 11
13.0
 21
-38.030000000000001
 31
0.0
  0
LINE
  5
567
100
AcDbEntity
  8
0
  6
CONTINUOUS
 62
               4
100
AcDbLine
 10
-2.0
 20
-41.299999999999997
 30
0.0
 11
-2.0
 21
-37.700000000000003
 31
0.0
  0
LINE
  5
568
100
AcDbEntity
  8
0
  6
CONTINUOUS
 62
               4
100
AcDbLine
 10
-2.0
 20
1.03
 30
0.0
 11
-2.0
 21
4.2999999999999998
 31
0.0
  0
LINE
  5
569
100
AcDbEntity
  8
0
  6
CONTINUOUS
 62
               4
100
AcDbLine
 10
13.0
 20
0.7
 30
0.0
 11
13.0
 21
4.2999999999999998
 31
0.0
  0
LINE
  5
56A
100
AcDbEntity
  8
0
  6
CONTINUOUS
 62
             200
100
AcDbLine
 10
-3.5299999999999998
 20
-26.25
 30
0.0
 11
14.449999999999999
 21
-26.25
 31
0.0
  0
LINE
  5
56B
100
AcDbEntity
  8
0
  6
CONTINUOUS
 62
             200
100
AcDbLine
 10
-3.5299999999999998
 20
-10.75
 30
0.0
 11
14.449999999999999
 21
-10.75
 31
0.0
  0
LINE
  5
56C
100
AcDbEntity
  8
0
  6
CONTINUOUS
 62
               4
100
AcDbLine
 10
0.91
 20
-35.909999999999997
 30
0.0
 11
-0.91
 21
-34.079999999999998
 31
0.0
  0
LINE
  5
56D
100
AcDbEntity
  8
0
  6
CONTINUOUS
 62
               4
100
AcDbLine
 10
-0.91
 20
-35.909999999999997
 30
0.0
 11
0.91
 21
-34.079999999999998
 31
0.0
  0
LINE
  5
56E
100
AcDbEntity
  8
0
  6
CONTINUOUS
 62
               4
100
AcDbLine
 10
10.08
 20
-2.9100000000000001
 30
0.0
 11
11.91
 21
-1.0800000000000001
 31
0.0
  0
LINE
  5
56F
100
AcDbEntity
  8
0
  6
CONTINUOUS
 62
               4
100
AcDbLine
 10
11.91
 20
-2.9100000000000001
 30
0.0
 11
10.08
 21
-1.0800000000000001
 31
0.0
  0
ARC
  5
570
100
AcDbEntity
  8
0
  6
CONTINUOUS
 62
               4
100
AcDbCircle
 10
11.0
 20
-2.0
 30
0.0
 40
2.7000000000000002
100
AcDbArc
 50
89.999999999999815
 51
269.99999999999937
  0
ARC
  5
571
100
AcDbEntity
  8
0
  6
CONTINUOUS
 62
               4
100
AcDbCircle
 10
0.0
 20
-35.0
 30
0.0
 40
2.7000000000000028
100
AcDbArc
 50
269.99999999999937
 51
89.999999999999801
  0
ARC
  5
572
100
AcDbEntity
  8
0
  6
CONTINUOUS
 62
               4
100
AcDbCircle
 10
-0.0000076294053102
 20
0.0000076294053102
 30
0.0
 40
2.7000076294160897
100
AcDbArc
 50
270.00016190055095
 51
359.99983809944763
  0
ARC
  5
573
100
AcDbEntity
  8
0
  6
CONTINUOUS
 62
               4
100
AcDbCircle
 10
10.999992370616249
 20
-36.999992370616248
 30
0.0
 40
2.6999923706270286
100
AcDbArc
 50
89.999838098990764
 51
180.00016190100865
  0
CIRCLE
  5
574
100
AcDbEntity
  8
0
  6
CONTINUOUS
 62
               4
100
AcDbCircle
 10
0.0
 20
0.0
 30
0.0
 40
2.25
  0
CIRCLE
  5
575
100
AcDbEntity
  8
0
  6
CONTINUOUS
 62
               4
100
AcDbCircle
 10
11.0
 20
-36.999984741210938
 30
0.0
 40
2.25
  0
CIRCLE
  5
576
100
AcDbEntity
  8
0
  6
CONTINUOUS
 62
             200
100
AcDbCircle
 10
5.5
 20
-26.249984741210937
 30
0.0
 40
5.0
  0
CIRCLE
  5
577
100
AcDbEntity
  8
0
  6
CONTINUOUS
 62
               4
100
AcDbCircle
 10
5.5
 20
-26.249984741210937
 30
0.0
 40
4.25
  0
CIRCLE
  5
578
100
AcDbEntity
  8
0
  6
CONTINUOUS
 62
             200
100
AcDbCircle
 10
5.5
 20
-10.749984741210937
 30
0.0
 40
5.0
  0
CIRCLE
  5
579
100
AcDbEntity
  8
0
  6
CONTINUOUS
 62
               4
100
AcDbCircle
 10
5.5
 20
-10.749984741210937
 30
0.0
 40
4.25
  0
CIRCLE
  5
57A
100
AcDbEntity
  8
0
  6
CONTINUOUS
 62
               4
100
AcDbCircle
 10
5.4950000000000001
 20
-10.749983380393861
 30
0.0
 40
7.4916305362626652
  0
CIRCLE
  5
57B
100
AcDbEntity
  8
0
  6
CONTINUOUS
 62
               4
100
AcDbCircle
 10
5.4950000000000001
 20
-26.249986101293718
 30
0.0
 40
7.4997636549446209
  0
CIRCLE
  5
57C
100
AcDbEntity
  8
0
  6
CONTINUOUS
 62
               4
100
AcDbCircle
 10
0.0000152587890625
 20
-34.999969482421875
 30
0.0
 40
2.25
  0
CIRCLE
  5
57D
100
AcDbEntity
  8
0
  6
CONTINUOUS
 62
               4
100
AcDbCircle
 10
11.000015258789063
 20
-1.999969482421875
 30
0.0
 40
2.25
  0
ENDBLK
  5
57E
100
AcDbEntity
  8
0
100
AcDbBlockEnd
  0
BLOCK
  5
57F
100
AcDbEntity
  8
0
100
AcDbBlockBegin
  2
F15MF-5
 70
               0
 10
0.0
 20
0.0
 30
0.0
  3
F15MF-5
  1

  0
LINE
  5
580
100
AcDbEntity
  8
0
  6
CONTINUOUS
 62
               4
100
AcDbLine
 10
5.0
 20
-26.25
 30
0.0
 11
7.0
 21
-26.25
 31
0.0
  0
LINE
  5
581
100
AcDbEntity
  8
0
  6
CONTINUOUS
 62
               4
100
AcDbLine
 10
5.0
 20
-10.749984741210937
 30
0.0
 11
7.0
 21
-10.749984741210937
 31
0.0
  0
LINE
  5
582
100
AcDbEntity
  8
0
  6
CONTINUOUS
 62
               4
100
AcDbLine
 10
7.0
 20
-26.25
 30
0.0
 11
7.0
 21
-39.175704956054687
 31
0.0
  0
LINE
  5
583
100
AcDbEntity
  8
0
  6
CONTINUOUS
 62
               4
100
AcDbLine
 10
5.0
 20
-10.749984741210937
 30
0.0
 11
5.0
 21
-26.25
 31
0.0
  0
LINE
  5
584
100
AcDbEntity
  8
0
  6
CONTINUOUS
 62
               4
100
AcDbLine
 10
10.0
 20
-17.499984741210937
 30
0.0
 11
10.0
 21
-3.9999847412109375
 31
0.0
  0
ARC
  5
585
100
AcDbEntity
  8
0
  6
CONTINUOUS
 62
               4
100
AcDbCircle
 10
0.8000030517578125
 20
-34.25
 30
0.0
 40
1.5
100
AcDbArc
 50
0.0000409811350201
 51
89.999982013910454
  0
ARC
  5
586
100
AcDbEntity
  8
0
  6
CONTINUOUS
 62
               4
100
AcDbCircle
 10
0.8000030517578125
 20
-35.75
 30
0.0
 40
1.5
100
AcDbArc
 50
270.00007262760209
 51
0.0000409811350201
  0
ARC
  5
587
100
AcDbEntity
  8
0
  6
CONTINUOUS
 62
               4
100
AcDbCircle
 10
3.1999969482421875
 20
-0.75
 30
0.0
 40
1.5
100
AcDbArc
 50
270.00007262760209
 51
0.0000409811350201
  0
ARC
  5
588
100
AcDbEntity
  8
0
  6
CONTINUOUS
 62
               4
100
AcDbCircle
 10
3.1999969482421875
 20
0.75
 30
0.0
 40
1.5
100
AcDbArc
 50
0.0000409811350201
 51
89.999982013910454
  0
ARC
  5
589
100
AcDbEntity
  8
0
  6
CONTINUOUS
 62
               4
100
AcDbCircle
 10
4.8757476806640625
 20
4.000030517578125
 30
0.0
 40
0.300000011920929
100
AcDbArc
 50
44.999936365441869
 51
89.999927372397096
  0
ARC
  5
58A
100
AcDbEntity
  8
0
  6
CONTINUOUS
 62
               4
100
AcDbCircle
 10
6.70001220703125
 20
2.1757659912109375
 30
0.0
 40
0.300000011920929
100
AcDbArc
 50
359.99997267924249
 51
44.999936365441869
  0
ARC
  5
58B
100
AcDbEntity
  8
0
  6
CONTINUOUS
 62
               4
100
AcDbCircle
 10
4.8757476806640625
 20
-40.999969482421875
 30
0.0
 40
0.300000011920929
100
AcDbArc
 50
269.99996334457541
 51
314.99995435153068
  0
ARC
  5
58C
100
AcDbEntity
  8
0
  6
CONTINUOUS
 62
               4
100
AcDbCircle
 10
6.6999969482421875
 20
-39.175704956054687
 30
0.0
 40
0.300000011920929
100
AcDbArc
 50
315.00000899304399
 51
359.99997267924249
  0
LINE
  5
58D
100
AcDbEntity
  8
0
  6
CONTINUOUS
 62
               4
100
AcDbLine
 10
0.600006103515625
 20
-37.499984741210938
 30
0.0
 11
0.0
 21
-37.499984741210938
 31
0.0
  0
LINE
  5
58E
100
AcDbEntity
  8
0
  6
CONTINUOUS
 62
               4
100
AcDbLine
 10
0.600006103515625
 20
-32.499984741210937
 30
0.0
 11
0.0
 21
-32.499984741210937
 31
0.0
  0
LINE
  5
58F
100
AcDbEntity
  8
0
  6
CONTINUOUS
 62
               4
100
AcDbLine
 10
0.600006103515625
 20
-37.499984741210938
 30
0.0
 11
0.600006103515625
 21
-32.499984741210937
 31
0.0
  0
LINE
  5
590
100
AcDbEntity
  8
0
  6
CONTINUOUS
 62
               4
100
AcDbLine
 10
2.3000030517578125
 20
-34.25
 30
0.0
 11
2.3000030517578125
 21
-35.75
 31
0.0
  0
LINE
  5
591
100
AcDbEntity
  8
0
  6
CONTINUOUS
 62
               4
100
AcDbLine
 10
0.8000030517578125
 20
-32.749984741210938
 30
0.0
 11
0.600006103515625
 21
-32.749984741210938
 31
0.0
  0
LINE
  5
592
100
AcDbEntity
  8
0
  6
CONTINUOUS
 62
               4
100
AcDbLine
 10
0.8000030517578125
 20
-37.249984741210938
 30
0.0
 11
0.600006103515625
 21
-37.249984741210938
 31
0.0
  0
LINE
  5
594
100
AcDbEntity
  8
0
  6
CENTER
 62
             200
100
AcDbLine
 10
3.8209686279296875
 20
-26.25
 30
0.0
 11
11.578445434570313
 21
-26.25
 31
0.0
  0
LINE
  5
595
100
AcDbEntity
  8
0
  6
CONTINUOUS
 62
               4
100
AcDbLine
 10
10.0
 20
-33.0
 30
0.0
 11
10.0
 21
-19.5
 31
0.0
  0
LINE
  5
596
100
AcDbEntity
  8
0
  6
CENTER
 62
             200
100
AcDbLine
 10
3.8209686279296875
 20
-10.749984741210937
 30
0.0
 11
11.578445434570313
 21
-10.749984741210937
 31
0.0
  0
LINE
  5
597
100
AcDbEntity
  8
0
  6
CONTINUOUS
 62
               4
100
AcDbLine
 10
3.0
 20
-2.699981689453125
 30
0.0
 11
3.0
 21
4.2730865478515625
 31
0.0
  0
LINE
  5
598
100
AcDbEntity
  8
0
  6
CONTINUOUS
 62
               4
100
AcDbLine
 10
3.1999969482421875
 20
-2.2499847412109375
 30
0.0
 11
3.0
 21
-2.2499847412109375
 31
0.0
  0
LINE
  5
599
100
AcDbEntity
  8
0
  6
CONTINUOUS
 62
               4
100
AcDbLine
 10
4.6999969482421875
 20
0.75
 30
0.0
 11
4.6999969482421875
 21
-0.75
 31
0.0
  0
LINE
  5
59A
100
AcDbEntity
  8
0
  6
CONTINUOUS
 62
               4
100
AcDbLine
 10
3.1999969482421875
 20
2.2500152587890625
 30
0.0
 11
3.0
 21
2.2500152587890625
 31
0.0
  0
LINE
  5
59B
100
AcDbEntity
  8
0
  6
CONTINUOUS
 62
               4
100
AcDbLine
 10
7.0
 20
-32.29998779296875
 30
0.0
 11
0.0
 21
-32.29998779296875
 31
0.0
  0
LINE
  5
59C
100
AcDbEntity
  8
0
  6
CONTINUOUS
 62
               4
100
AcDbLine
 10
7.0
 20
-37.699996948242187
 30
0.0
 11
0.0
 21
-37.699996948242187
 31
0.0
  0
LINE
  5
59D
100
AcDbEntity
  8
0
  6
CONTINUOUS
 62
               4
100
AcDbLine
 10
7.0
 20
-2.699981689453125
 30
0.0
 11
3.0
 21
-2.699981689453125
 31
0.0
  0
LINE
  5
59E
100
AcDbEntity
  8
0
  6
CONTINUOUS
 62
               4
100
AcDbLine
 10
6.9121397716979232
 20
-39.387868038808961
 30
0.0
 11
5.0878763870267107
 21
-41.212127271589566
 31
0.0
  0
LINE
  5
59F
100
AcDbEntity
  8
0
  6
CONTINUOUS
 62
               4
100
AcDbLine
 10
6.912121545365153
 20
2.3879096888240383
 30
0.0
 11
5.087858468241393
 21
4.2121692291520958
 31
0.0
  0
LINE
  5
5A0
100
AcDbEntity
  8
0
  6
CONTINUOUS
 62
               4
100
AcDbLine
 10
7.0
 20
2.1757659912109375
 30
0.0
 11
7.0
 21
-10.749984741210937
 31
0.0
  0
LINE
  5
5A1
100
AcDbEntity
  8
0
  6
CONTINUOUS
 62
               4
100
AcDbLine
 10
4.8757474887367067
 20
-41.299972534179688
 30
0.0
 11
0.0
 21
-41.299972534179688
 31
0.0
  0
LINE
  5
5A2
100
AcDbEntity
  8
0
  6
CONTINUOUS
 62
               4
100
AcDbLine
 10
4.8784553036614327
 20
4.300018310546875
 30
0.0
 11
0.0000152587890625
 21
4.300018310546875
 31
0.0
  0
LINE
  5
5A3
100
AcDbEntity
  8
0
  6
CONTINUOUS
 62
               7
100
AcDbLine
 10
0.0
 20
-41.299972534179688
 30
0.0
 11
0.0
 21
4.300018310546875
 31
0.0
  0
LINE
  5
5A4
100
AcDbEntity
  8
0
  6
CONTINUOUS
 62
               4
100
AcDbLine
 10
7.0
 20
-3.4999847412109375
 30
0.0
 11
9.5
 21
-3.4999847412109375
 31
0.0
  0
LINE
  5
5A5
100
AcDbEntity
  8
0
  6
CONTINUOUS
 62
               4
100
AcDbLine
 10
5.0
 20
-17.999984741210937
 30
0.0
 11
9.5
 21
-17.999984741210937
 31
0.0
  0
LINE
  5
5A6
100
AcDbEntity
  8
0
  6
CONTINUOUS
 62
               4
100
AcDbLine
 10
5.0
 20
-19.0
 30
0.0
 11
9.5
 21
-19.0
 31
0.0
  0
LINE
  5
5A7
100
AcDbEntity
  8
0
  6
CONTINUOUS
 62
               4
100
AcDbLine
 10
7.0
 20
-33.5
 30
0.0
 11
9.5
 21
-33.5
 31
0.0
  0
ARC
  5
5A8
100
AcDbEntity
  8
0
  6
CONTINUOUS
 62
               4
100
AcDbCircle
 10
9.5
 20
-3.9999847412109375
 30
0.0
 40
0.5
100
AcDbArc
 50
0.0
 51
89.999999999999815
  0
ARC
  5
5A9
100
AcDbEntity
  8
0
  6
CONTINUOUS
 62
               4
100
AcDbCircle
 10
9.5
 20
-17.499984741210937
 30
0.0
 40
0.5
100
AcDbArc
 50
270.00000000000023
 51
0.0
  0
ARC
  5
5AA
100
AcDbEntity
  8
0
  6
CONTINUOUS
 62
               4
100
AcDbCircle
 10
9.5
 20
-19.5
 30
0.0
 40
0.5
100
AcDbArc
 50
0.0
 51
89.999999999999815
  0
ARC
  5
5AB
100
AcDbEntity
  8
0
  6
CONTINUOUS
 62
               4
100
AcDbCircle
 10
9.5
 20
-33.0
 30
0.0
 40
0.5
100
AcDbArc
 50
269.99999999999937
 51
0.0
  0
ENDBLK
  5
5AC
100
AcDbEntity
  8
0
100
AcDbBlockEnd
  0
BLOCK
  5
5AD
100
AcDbEntity
  8
0
100
AcDbBlockBegin
  2
F15MF-6
 70
               0
 10
0.0
 20
0.0
 30
0.0
  3
F15MF-6
  1

  0
LINE
  5
5AE
100
AcDbEntity
  8
0
  6
CONTINUOUS
 62
               4
100
AcDbLine
 10
8.75
 20
3.2000000000000002
 30
0.0
 11
8.75
 21
3.0
 31
0.0
  0
LINE
  5
5AF
100
AcDbEntity
  8
0
  6
CONTINUOUS
 62
               4
100
AcDbLine
 10
10.25
 20
4.7000000000000002
 30
0.0
 11
11.75
 21
4.7000000000000002
 31
0.0
  0
LINE
  5
5B0
100
AcDbEntity
  8
0
  6
CONTINUOUS
 62
               4
100
AcDbLine
 10
13.25
 20
3.2000000000000002
 30
0.0
 11
13.25
 21
3.0
 31
0.0
  0
LINE
  5
5B1
100
AcDbEntity
  8
0
  6
CONTINUOUS
 62
             200
100
AcDbLine
 10
5.5
 20
-6.4000000000000004
 30
0.0
 11
5.5
 21
16.43
 31
0.0
  0
LINE
  5
5B2
100
AcDbEntity
  8
0
  6
CONTINUOUS
 62
               4
100
AcDbLine
 10
-2.0
 20
0.0
 30
0.0
 11
-2.0
 21
9.5
 31
0.0
  0
LINE
  5
5B3
100
AcDbEntity
  8
0
  6
CONTINUOUS
 62
               4
100
AcDbLine
 10
13.0
 20
0.0
 30
0.0
 11
13.0
 21
3.0
 31
0.0
  0
LINE
  5
5B4
100
AcDbEntity
  8
0
  6
CONTINUOUS
 62
               4
100
AcDbLine
 10
12.5
 20
10.0
 30
0.0
 11
-1.5
 21
10.0
 31
0.0
  0
LINE
  5
5B5
100
AcDbEntity
  8
0
  6
CONTINUOUS
 62
               4
100
AcDbLine
 10
8.3000000000000007
 20
3.0
 30
0.0
 11
8.3000000000000007
 21
7.0
 31
0.0
  0
LINE
  5
5B6
100
AcDbEntity
  8
0
  6
CONTINUOUS
 62
               4
100
AcDbLine
 10
13.25
 20
3.0
 30
0.0
 11
-2.0
 21
3.0
 31
0.0
  0
LINE
  5
5B7
100
AcDbEntity
  8
0
  6
CONTINUOUS
 62
               4
100
AcDbLine
 10
13.0
 20
4.0199999999999996
 30
0.0
 11
13.0
 21
9.5
 31
0.0
  0
ARC
  5
5B8
100
AcDbEntity
  8
0
  6
CONTINUOUS
 62
               4
100
AcDbCircle
 10
10.250024414261183
 20
3.1999755857388177
 30
0.0
 40
1.5000244144598645
100
AcDbArc
 50
90.000932540905353
 51
179.99906745909408
  0
ARC
  5
5B9
100
AcDbEntity
  8
0
  6
CONTINUOUS
 62
               4
100
AcDbCircle
 10
11.749975108893823
 20
3.1999751088938226
 30
0.0
 40
1.5000248913126963
100
AcDbArc
 50
0.0009507544439495
 51
89.999049245555881
  0
ARC
  5
5BA
100
AcDbEntity
  8
0
  6
CONTINUOUS
 62
               4
100
AcDbCircle
 10
12.500000953673407
 20
9.5000009536734069
 30
0.0
 40
0.4999990463275026
100
AcDbArc
 50
359.99989071686832
 51
90.00010928313074
  0
ARC
  5
5BB
100
AcDbEntity
  8
0
  6
CONTINUOUS
 62
               4
100
AcDbCircle
 10
-1.499999999996362
 20
9.499999999996362
 30
0.0
 40
0.500000000003638
100
AcDbArc
 50
90.000000000416691
 51
179.99999999958271
  0
LINE
  5
5BC
100
AcDbEntity
  8
0
  6
CONTINUOUS
 62
               4
100
AcDbLine
 10
-2.0
 20
7.0
 30
0.0
 11
13.0
 21
7.0
 31
0.0
  0
ENDBLK
  5
5BD
100
AcDbEntity
  8
0
100
AcDbBlockEnd
  0
BLOCK
  5
5BE
100
AcDbEntity
  8
0
100
AcDbBlockBegin
  2
F15MF-7
 70
               0
 10
0.0
 20
0.0
 30
0.0
  3
F15MF-7
  1

  0
LINE
  5
5BF
100
AcDbEntity
  8
0
  6
CONTINUOUS
 62
               4
100
AcDbLine
 10
27.0
 20
23.999999913736957
 30
0.0
 11
27.0
 21
-0.0000000862630429
 31
0.0
  0
LINE
  5
5C0
100
AcDbEntity
  8
0
  6
CONTINUOUS
 62
               4
100
AcDbLine
 10
-0.0000000000000036
 20
16.999999913736957
 30
0.0
 11
0.0000000000000071
 21
0.0000049999999874
 31
0.0
  0
LINE
  5
5C1
100
AcDbEntity
  8
0
  6
CONTINUOUS
 62
               4
100
AcDbLine
 10
1.3999999999999915
 20
16.999999913736957
 30
0.0
 11
1.3999999999999915
 21
25.499999909445421
 31
0.0
  0
LINE
  5
5C2
100
AcDbEntity
  8
0
  6
CONTINUOUS
 62
               4
100
AcDbLine
 10
-10.000000000000014
 20
25.499999913736957
 30
0.0
 11
-10.000000000000014
 21
16.999999913736957
 31
0.0
  0
LINE
  5
5C3
100
AcDbEntity
  8
0
  6
CONTINUOUS
 62
               4
100
AcDbLine
 10
-10.000000000000014
 20
25.499999913736957
 30
0.0
 11
1.3999999999999915
 21
25.499999913736957
 31
0.0
  0
LINE
  5
5C4
100
AcDbEntity
  8
0
  6
CONTINUOUS
 62
               4
100
AcDbLine
 10
-10.000000000000014
 20
16.999999913736957
 30
0.0
 11
1.3999999999999915
 21
16.999999913736957
 31
0.0
  0
LINE
  5
5C5
100
AcDbEntity
  8
0
  6
CONTINUOUS
 62
               4
100
AcDbLine
 10
27.0
 20
23.999999913736957
 30
0.0
 11
1.3999999999999915
 21
23.999999913736957
 31
0.0
  0
LINE
  5
5C6
100
AcDbEntity
  8
0
  6
CONTINUOUS
 62
               4
100
AcDbLine
 10
14.295000000000009
 20
23.999999913736957
 30
0.0
 11
12.795000000000009
 21
23.999999913736957
 31
0.0
  0
LINE
  5
5C7
100
AcDbEntity
  8
0
  6
CONTINUOUS
 62
               4
100
AcDbLine
 10
1.4999999999999964
 20
25.599999913736951
 30
0.0
 11
-3.0000000000000142
 21
25.599999913736951
 31
0.0
  0
ARC
  5
5C8
100
AcDbEntity
  8
0
  6
CONTINUOUS
 62
               4
100
AcDbCircle
 10
-2.5015404500182825
 20
32.501540363755225
 30
0.0
 40
0.4984619302958243
100
AcDbArc
 50
89.822932465397898
 51
180.17706753460195
  0
LINE
  5
5C9
100
AcDbEntity
  8
0
  6
CONTINUOUS
 62
               4
100
AcDbLine
 10
-3.0000000000000142
 20
32.499999913736957
 30
0.0
 11
-3.0000000000000142
 21
25.599999913736951
 31
0.0
  0
LINE
  5
5CA
100
AcDbEntity
  8
0
  6
CONTINUOUS
 62
               4
100
AcDbLine
 10
1.4999999999999964
 20
25.599999913736951
 30
0.0
 11
1.4999999999999964
 21
23.999999913736957
 31
0.0
  0
ARC
  5
5CB
100
AcDbEntity
  8
0
  6
CONTINUOUS
 62
               4
100
AcDbCircle
 10
25.501123948313893
 20
28.179394315853983
 30
0.0
 40
1.4988865337462252
100
AcDbArc
 50
0.2142776266259142
 51
24.039904443234629
  0
ARC
  5
5CC
100
AcDbEntity
  8
0
  6
CONTINUOUS
 62
               4
100
AcDbCircle
 10
24.675687863874504
 20
32.50267102581455
 30
0.0
 40
0.4973293636201366
100
AcDbArc
 50
24.005903588636794
 51
90.079246697133684
  0
LINE
  5
5CD
100
AcDbEntity
  8
0
  6
CONTINUOUS
 62
               4
100
AcDbLine
 10
25.129999999999999
 20
32.704999913736941
 30
0.0
 11
26.870000000000008
 21
28.789999913736949
 31
0.0
  0
LINE
  5
5CE
100
AcDbEntity
  8
0
  6
CONTINUOUS
 62
               4
100
AcDbLine
 10
24.674999999999994
 20
32.999999913736957
 30
0.0
 11
-2.503080900033293
 21
32.999999913736957
 31
0.0
  0
LINE
  5
5CF
100
AcDbEntity
  8
0
  6
CONTINUOUS
 62
               4
100
AcDbLine
 10
27.000000000000004
 20
28.184999913736931
 30
0.0
 11
27.000000000000004
 21
23.999999913736957
 31
0.0
  0
LINE
  5
5D0
100
AcDbEntity
  8
0
  6
CONTINUOUS
 62
             200
100
AcDbLine
 10
-20.089214565994553
 20
24.164996126888383
 30
0.0
 11
-21.946103769656474
 21
17.234991332879673
 31
0.0
  0
LINE
  5
5D1
100
AcDbEntity
  8
0
  6
CONTINUOUS
 62
             200
100
AcDbLine
 10
-19.053935707232995
 20
24.165006172564773
 30
0.0
 11
-20.910828860160109
 21
17.234986639697837
 31
0.0
  0
LINE
  5
5D2
100
AcDbEntity
  8
0
  6
CONTINUOUS
 62
               4
100
AcDbLine
 10
-20.491119384765625
 20
22.665023717447895
 30
0.0
 11
-24.500015258789063
 21
22.665023717447895
 31
0.0
  0
LINE
  5
5D3
100
AcDbEntity
  8
0
  6
CONTINUOUS
 62
               4
100
AcDbLine
 10
-20.874298095703125
 20
21.235015782877582
 30
0.0
 11
-24.500015258789063
 21
21.235015782877582
 31
0.0
  0
LINE
  5
5D4
100
AcDbEntity
  8
0
  6
CONTINUOUS
 62
               4
100
AcDbLine
 10
-21.160995483398438
 20
20.165023717447895
 30
0.0
 11
-24.500015258789063
 21
20.165023717447895
 31
0.0
  0
LINE
  5
5D5
100
AcDbEntity
  8
0
  6
CONTINUOUS
 62
               4
100
AcDbLine
 10
-21.544174194335937
 20
18.735015782877582
 30
0.0
 11
-24.500015258789063
 21
18.735015782877582
 31
0.0
  0
LINE
  5
5D6
100
AcDbEntity
  8
0
  6
CONTINUOUS
 62
               4
100
AcDbLine
 10
-24.5
 20
22.665008458658832
 30
0.0
 11
-24.5
 21
21.23500052408852
 31
0.0
  0
LINE
  5
5D7
100
AcDbEntity
  8
0
  6
CONTINUOUS
 62
               4
100
AcDbLine
 10
-24.5
 20
18.73500052408852
 30
0.0
 11
-24.5
 21
20.165008458658832
 31
0.0
  0
LINE
  5
5D8
100
AcDbEntity
  8
0
  6
CONTINUOUS
 62
               4
100
AcDbLine
 10
-29.5
 20
22.350006017252582
 30
0.0
 11
-29.5
 21
21.55000296549477
 31
0.0
  0
LINE
  5
5D9
100
AcDbEntity
  8
0
  6
CONTINUOUS
 62
               4
100
AcDbLine
 10
-24.500015258789063
 20
21.55000296549477
 30
0.0
 11
-29.5
 21
21.55000296549477
 31
0.0
  0
LINE
  5
5DA
100
AcDbEntity
  8
0
  6
CONTINUOUS
 62
               4
100
AcDbLine
 10
-24.500015258789063
 20
22.350006017252582
 30
0.0
 11
-29.5
 21
22.350006017252582
 31
0.0
  0
LINE
  5
5DB
100
AcDbEntity
  8
0
  6
CONTINUOUS
 62
               4
100
AcDbLine
 10
-16.5
 20
20.165023717447895
 30
0.0
 11
-20.125717163085938
 21
20.165023717447895
 31
0.0
  0
LINE
  5
5DC
100
AcDbEntity
  8
0
  6
CONTINUOUS
 62
               4
100
AcDbLine
 10
-16.5
 20
18.735015782877582
 30
0.0
 11
-20.508895874023438
 21
18.735015782877582
 31
0.0
  0
LINE
  5
5DD
100
AcDbEntity
  8
0
  6
CONTINUOUS
 62
               4
100
AcDbLine
 10
-16.5
 20
21.235015782877582
 30
0.0
 11
-19.839019775390625
 21
21.235015782877582
 31
0.0
  0
LINE
  5
5DE
100
AcDbEntity
  8
0
  6
CONTINUOUS
 62
               4
100
AcDbLine
 10
-16.5
 20
22.665023717447895
 30
0.0
 11
-19.455841064453125
 21
22.665023717447895
 31
0.0
  0
LINE
  5
5DF
100
AcDbEntity
  8
0
  6
CONTINUOUS
 62
               4
100
AcDbLine
 10
-24.500015258789063
 20
19.05000296549477
 30
0.0
 11
-29.5
 21
19.05000296549477
 31
0.0
  0
LINE
  5
5E0
100
AcDbEntity
  8
0
  6
CONTINUOUS
 62
               4
100
AcDbLine
 10
-24.500015258789063
 20
19.850006017252582
 30
0.0
 11
-29.5
 21
19.850006017252582
 31
0.0
  0
LINE
  5
5E1
100
AcDbEntity
  8
0
  6
CONTINUOUS
 62
               4
100
AcDbLine
 10
-29.5
 20
19.05000296549477
 30
0.0
 11
-29.5
 21
19.850006017252582
 31
0.0
  0
LINE
  5
5E2
100
AcDbEntity
  8
0
  6
CONTINUOUS
 62
               4
100
AcDbLine
 10
-15.0
 20
27.499999913736957
 30
0.0
 11
-16.5
 21
27.499999913736957
 31
0.0
  0
LINE
  5
5E3
100
AcDbEntity
  8
0
  6
CONTINUOUS
 62
               4
100
AcDbLine
 10
-15.499999958178705
 20
25.499978352823547
 30
0.0
 11
-16.499994209762917
 21
26.077324672805645
 31
0.0
  0
LINE
  5
5E4
100
AcDbEntity
  8
0
  6
CONTINUOUS
 62
               4
100
AcDbLine
 10
-10.0
 20
25.499999913736957
 30
0.0
 11
-16.5
 21
25.499999913736957
 31
0.0
  0
LINE
  5
5E5
100
AcDbEntity
  8
0
  6
CONTINUOUS
 62
               4
100
AcDbLine
 10
-5.998454579468671
 20
26.500071061293767
 30
0.0
 11
-9.5561426631575159
 21
27.000070384309566
 31
0.0
  0
LINE
  5
5E6
100
AcDbEntity
  8
0
  6
CONTINUOUS
 62
               4
100
AcDbLine
 10
-9.55615234375
 20
26.999999913736957
 30
0.0
 11
-15.0
 21
26.999999913736957
 31
0.0
  0
LINE
  5
5E7
100
AcDbEntity
  8
0
  6
CONTINUOUS
 62
               4
100
AcDbLine
 10
-15.5
 20
16.499999913736957
 30
0.0
 11
-15.5
 21
16.999999913736957
 31
0.0
  0
LINE
  5
5E8
100
AcDbEntity
  8
0
  6
CONTINUOUS
 62
               4
100
AcDbLine
 10
-15.5
 20
16.499999913736957
 30
0.0
 11
-16.5
 21
16.499999913736957
 31
0.0
  0
LINE
  5
5E9
100
AcDbEntity
  8
0
  6
CONTINUOUS
 62
               4
100
AcDbLine
 10
-10.0
 20
16.999999913736957
 30
0.0
 11
-15.5
 21
16.999999913736957
 31
0.0
  0
LINE
  5
5EA
100
AcDbEntity
  8
0
  6
CONTINUOUS
 62
               4
100
AcDbLine
 10
-15.0
 20
26.999999913736957
 30
0.0
 11
-15.0
 21
27.499999913736957
 31
0.0
  0
LINE
  5
5EB
100
AcDbEntity
  8
0
  6
CONTINUOUS
 62
               4
100
AcDbLine
 10
-5.9984588623046875
 20
25.499999913736957
 30
0.0
 11
-5.9984588623046875
 21
26.499999913736957
 31
0.0
  0
LINE
  5
5EC
100
AcDbEntity
  8
0
  6
CONTINUOUS
 62
               4
100
AcDbLine
 10
-16.5
 20
26.07734671549477
 30
0.0
 11
-16.5
 21
27.499999913736957
 31
0.0
  0
LINE
  5
5ED
100
AcDbEntity
  8
0
  6
CONTINUOUS
 62
               4
100
AcDbLine
 10
-10.0
 20
25.449996861979145
 30
0.0
 11
-10.0
 21
25.499999913736957
 31
0.0
  0
LINE
  5
5EE
100
AcDbEntity
  8
0
  6
CONTINUOUS
 62
               4
100
AcDbLine
 10
-16.5
 20
16.499999913736957
 30
0.0
 11
-16.5
 21
25.499999913736957
 31
0.0
  0
ENDBLK
  5
5EF
100
AcDbEntity
  8
0
100
AcDbBlockEnd
  0
BLOCK
  5
5F0
100
AcDbEntity
  8
0
100
AcDbBlockBegin
  2
F15MF-8
 70
               0
 10
0.0
 20
0.0
 30
0.0
  3
F15MF-8
  1

  0
LINE
  5
5F1
100
AcDbEntity
  8
0
  6
CONTINUOUS
 62
               4
100
AcDbLine
 10
0.0
 20
24.0
 30
0.0
 11
10.0
 21
24.0
 31
0.0
  0
LINE
  5
5F2
100
AcDbEntity
  8
0
  6
CONTINUOUS
 62
               4
100
AcDbLine
 10
0.05
 20
24.0
 30
0.0
 11
0.05
 21
32.5
 31
0.0
  0
LINE
  5
5F3
100
AcDbEntity
  8
0
  6
CONTINUOUS
 62
               4
100
AcDbLine
 10
9.5
 20
33.0
 30
0.0
 11
0.5
 21
33.0
 31
0.0
  0
LINE
  5
5F4
100
AcDbEntity
  8
0
  6
CONTINUOUS
 62
               4
100
AcDbLine
 10
9.9499999999999993
 20
28.5
 30
0.0
 11
0.05
 21
28.5
 31
0.0
  0
LINE
  5
5F5
100
AcDbEntity
  8
0
  6
CONTINUOUS
 62
               4
100
AcDbLine
 10
9.9499999999999993
 20
24.0
 30
0.0
 11
9.9499999999999993
 21
32.5
 31
0.0
  0
LINE
  5
5F6
100
AcDbEntity
  8
0
  6
CONTINUOUS
 62
               4
100
AcDbLine
 10
0.0
 20
0.0
 30
0.0
 11
0.0
 21
24.0
 31
0.0
  0
LINE
  5
5F7
100
AcDbEntity
  8
0
  6
CONTINUOUS
 62
               4
100
AcDbLine
 10
10.0
 20
0.0
 30
0.0
 11
10.0
 21
24.0
 31
0.0
  0
ARC
  5
5F8
100
AcDbEntity
  8
0
  6
CONTINUOUS
 62
               4
100
AcDbCircle
 10
9.4500137329078271
 20
32.500013732907831
 30
0.0
 40
0.4999862672807696
100
AcDbArc
 50
359.99842628145819
 51
90.001573718540826
  0
ARC
  5
5F9
100
AcDbEntity
  8
0
  6
CONTINUOUS
 62
               4
100
AcDbCircle
 10
0.5499786377791315
 20
32.500021362220863
 30
0.0
 40
0.4999786382354955
100
AcDbArc
 50
89.997551965216786
 51
180.00244803478242
  0
ENDBLK
  5
5FA
100
AcDbEntity
  8
0
100
AcDbBlockEnd
  0
BLOCK
  5
670
100
AcDbEntity
  8
0
  6
ByBlock
 62
               0
100
AcDbBlockBegin
  2
*D8
 70
               1
 10
0.0
 20
0.0
 30
0.0
  3
*D8
  1

  0
LINE
  5
671
100
AcDbEntity
  8
0
  6
CONTINUOUS
 62
               2
100
AcDbLine
 10
-41.000030517578125
 20
159.62998962402344
 30
0.0
 11
-30.000015258789063
 21
159.62998962402344
 31
0.0
  0
LINE
  5
672
100
AcDbEntity
  8
0
  6
CONTINUOUS
 62
               2
100
AcDbLine
 10
-30.000015258789063
 20
64.25
 30
0.0
 11
-30.000015258789063
 21
161.12998962402344
 31
0.0
  0
INSERT
  5
679
100
AcDbEntity
  8
0
  6
CONTINUOUS
 62
               2
100
AcDbBlockReference
  2
_OPEN30
 10
-41.000030517578125
 20
159.62998962402344
 30
0.0
 41
2.77
 42
2.77
 43
2.77
 50
180.0
  0
INSERT
  5
67A
100
AcDbEntity
  8
0
  6
CONTINUOUS
 62
               2
100
AcDbBlockReference
  2
_OPEN30
 10
-30.000015258789063
 20
159.62998962402344
 30
0.0
 41
2.77
 42
2.77
 43
2.77
  0
MTEXT
  5
67B
100
AcDbEntity
  8
0
  6
CONTINUOUS
 62
               2
100
AcDbMText
 10
-35.500030517578125
 20
162.87998962402344
 30
0.0
 40
4.5
 41
0.0
 71
               5
 72
               1
  1
\A1;11
  0
POINT
  5
67C
100
AcDbEntity
  8
DEFPOINTS
  6
CONTINUOUS
 62
               0
100
AcDbPoint
 10
-41.000030517578125
 20
85.0
 30
0.0
  0
POINT
  5
67D
100
AcDbEntity
  8
DEFPOINTS
  6
CONTINUOUS
 62
               0
100
AcDbPoint
 10
-30.000015258789063
 20
64.25
 30
0.0
  0
POINT
  5
67E
100
AcDbEntity
  8
DEFPOINTS
  6
CONTINUOUS
 62
               0
100
AcDbPoint
 10
-30.000015258789063
 20
159.62998962402344
 30
0.0
  0
ENDBLK
  5
67F
100
AcDbEntity
  8
0
  6
ByBlock
 62
               0
100
AcDbBlockEnd
  0
BLOCK
  5
674
100
AcDbEntity
  8
0
  6
ByBlock
 62
               0
100
AcDbBlockBegin
  2
_OPEN30
 70
               2
 10
0.0
 20
0.0
 30
0.0
  3
_OPEN30
  1

  0
LINE
  5
675
100
AcDbEntity
  8
0
  6
ByBlock
 62
               0
100
AcDbLine
 10
-1.0
 20
0.267949
 30
0.0
 11
0.0
 21
0.0
 31
0.0
  0
LINE
  5
676
100
AcDbEntity
  8
0
  6
ByBlock
 62
               0
100
AcDbLine
 10
0.0
 20
0.0
 30
0.0
 11
-1.0
 21
-0.267949
 31
0.0
  0
LINE
  5
677
100
AcDbEntity
  8
0
  6
ByBlock
 62
               0
100
AcDbLine
 10
0.0
 20
0.0
 30
0.0
 11
-1.0
 21
0.0
 31
0.0
  0
ENDBLK
  5
678
100
AcDbEntity
  8
0
  6
ByBlock
 62
               0
100
AcDbBlockEnd
  0
BLOCK
  5
682
100
AcDbEntity
  8
0
  6
ByBlock
 62
               0
100
AcDbBlockBegin
  2
*D10
 70
               1
 10
0.0
 20
0.0
 30
0.0
  3
*D10
  1

  0
LINE
  5
683
100
AcDbEntity
  8
0
  6
CONTINUOUS
 62
               2
100
AcDbLine
 10
-30.000015258789063
 20
159.62998962402344
 30
0.0
 11
41.999969482421875
 21
159.62998962402344
 31
0.0
  0
LINE
  5
684
100
AcDbEntity
  8
0
  6
CONTINUOUS
 62
               2
100
AcDbLine
 10
41.999969482421875
 20
64.25
 30
0.0
 11
41.999969482421875
 21
161.12998962402344
 31
0.0
  0
LINE
  5
685
100
AcDbEntity
  8
0
  6
CONTINUOUS
 62
               2
100
AcDbLine
 10
-30.000015258789063
 20
159.62998962402344
 30
0.0
 11
-33.556015253067017
 21
159.62998962402344
 31
0.0
  0
LINE
  5
686
100
AcDbEntity
  8
0
  6
CONTINUOUS
 62
               2
100
AcDbLine
 10
41.999969482421875
 20
159.62998962402344
 30
0.0
 11
45.555969476699829
 21
159.62998962402344
 31
0.0
  0
INSERT
  5
687
100
AcDbEntity
  8
0
  6
CONTINUOUS
 62
               2
100
AcDbBlockReference
  2
_OPEN30
 10
-30.000015258789063
 20
159.62998962402344
 30
0.0
 41
2.77
 42
2.77
 43
2.77
  0
INSERT
  5
688
100
AcDbEntity
  8
0
  6
CONTINUOUS
 62
               2
100
AcDbBlockReference
  2
_OPEN30
 10
41.999969482421875
 20
159.62998962402344
 30
0.0
 41
2.77
 42
2.77
 43
2.77
 50
180.0
  0
MTEXT
  5
689
100
AcDbEntity
  8
0
  6
CONTINUOUS
 62
               2
100
AcDbMText
 10
5.999969482421875
 20
162.87998962402344
 30
0.0
 40
4.5
 41
0.0
 71
               5
 72
               1
  1
\A1;P
  0
POINT
  5
68A
100
AcDbEntity
  8
DEFPOINTS
  6
CONTINUOUS
 62
               0
100
AcDbPoint
 10
-30.000015258789063
 20
64.25
 30
0.0
  0
POINT
  5
68B
100
AcDbEntity
  8
DEFPOINTS
  6
CONTINUOUS
 62
               0
100
AcDbPoint
 10
41.999969482421875
 20
64.25
 30
0.0
  0
POINT
  5
68C
100
AcDbEntity
  8
DEFPOINTS
  6
CONTINUOUS
 62
               0
100
AcDbPoint
 10
41.999969482421875
 20
159.62998962402344
 30
0.0
  0
ENDBLK
  5
68D
100
AcDbEntity
  8
0
  6
ByBlock
 62
               0
100
AcDbBlockEnd
  0
BLOCK
  5
690
100
AcDbEntity
  8
0
  6
ByBlock
 62
               0
100
AcDbBlockBegin
  2
*D11
 70
               1
 10
0.0
 20
0.0
 30
0.0
  3
*D11
  1

  0
LINE
  5
691
100
AcDbEntity
  8
0
  6
CONTINUOUS
 62
               2
100
AcDbLine
 10
41.999969482421875
 20
159.62998962402344
 30
0.0
 11
52.999969482421875
 21
159.62998962402344
 31
0.0
  0
INSERT
  5
692
100
AcDbEntity
  8
0
  6
CONTINUOUS
 62
               2
100
AcDbBlockReference
  2
_OPEN30
 10
41.999969482421875
 20
159.62998962402344
 30
0.0
 41
2.77
 42
2.77
 43
2.77
 50
180.0
  0
INSERT
  5
693
100
AcDbEntity
  8
0
  6
CONTINUOUS
 62
               2
100
AcDbBlockReference
  2
_OPEN30
 10
52.999969482421875
 20
159.62998962402344
 30
0.0
 41
2.77
 42
2.77
 43
2.77
  0
MTEXT
  5
694
100
AcDbEntity
  8
0
  6
CONTINUOUS
 62
               2
100
AcDbMText
 10
47.499969482421875
 20
162.87998962402344
 30
0.0
 40
4.5
 41
0.0
 71
               5
 72
               1
  1
\A1;11
  0
POINT
  5
695
100
AcDbEntity
  8
DEFPOINTS
  6
CONTINUOUS
 62
               0
100
AcDbPoint
 10
41.999969482421875
 20
64.25
 30
0.0
  0
POINT
  5
696
100
AcDbEntity
  8
DEFPOINTS
  6
CONTINUOUS
 62
               0
100
AcDbPoint
 10
52.999969482421875
 20
85.0
 30
0.0
  0
POINT
  5
697
100
AcDbEntity
  8
DEFPOINTS
  6
CONTINUOUS
 62
               0
100
AcDbPoint
 10
52.999969482421875
 20
159.62998962402344
 30
0.0
  0
ENDBLK
  5
698
100
AcDbEntity
  8
0
  6
ByBlock
 62
               0
100
AcDbBlockEnd
  0
BLOCK
  5
69B
100
AcDbEntity
  8
0
  6
ByBlock
 62
               0
100
AcDbBlockBegin
  2
*D12
 70
               1
 10
0.0
 20
0.0
 30
0.0
  3
*D12
  1

  0
LINE
  5
69C
100
AcDbEntity
  8
0
  6
CONTINUOUS
 62
               2
100
AcDbLine
 10
-41.000030517578125
 20
169.62998962402344
 30
0.0
 11
52.999969482421875
 21
169.62998962402344
 31
0.0
  0
LINE
  5
69D
100
AcDbEntity
  8
0
  6
CONTINUOUS
 62
               2
100
AcDbLine
 10
-41.000030517578125
 20
86.5
 30
0.0
 11
-41.000030517578125
 21
171.12998962402344
 31
0.0
  0
LINE
  5
69E
100
AcDbEntity
  8
0
  6
CONTINUOUS
 62
               2
100
AcDbLine
 10
52.999969482421875
 20
86.5
 30
0.0
 11
52.999969482421875
 21
171.12998962402344
 31
0.0
  0
INSERT
  5
69F
100
AcDbEntity
  8
0
  6
CONTINUOUS
 62
               2
100
AcDbBlockReference
  2
_OPEN30
 10
-41.000030517578125
 20
169.62998962402344
 30
0.0
 41
2.77
 42
2.77
 43
2.77
 50
180.0
  0
INSERT
  5
6A0
100
AcDbEntity
  8
0
  6
CONTINUOUS
 62
               2
100
AcDbBlockReference
  2
_OPEN30
 10
52.999969482421875
 20
169.62998962402344
 30
0.0
 41
2.77
 42
2.77
 43
2.77
  0
MTEXT
  5
6A1
100
AcDbEntity
  8
0
  6
CONTINUOUS
 62
               2
100
AcDbMText
 10
5.999969482421875
 20
172.87998962402344
 30
0.0
 40
4.5
 41
0.0
 71
               5
 72
               1
  1
\A1;L
  0
POINT
  5
6A2
100
AcDbEntity
  8
DEFPOINTS
  6
CONTINUOUS
 62
               0
100
AcDbPoint
 10
-41.000030517578125
 20
85.0
 30
0.0
  0
POINT
  5
6A3
100
AcDbEntity
  8
DEFPOINTS
  6
CONTINUOUS
 62
               0
100
AcDbPoint
 10
52.999969482421875
 20
85.0
 30
0.0
  0
POINT
  5
6A4
100
AcDbEntity
  8
DEFPOINTS
  6
CONTINUOUS
 62
               0
100
AcDbPoint
 10
52.999969482421875
 20
169.62998962402344
 30
0.0
  0
ENDBLK
  5
6A5
100
AcDbEntity
  8
0
  6
ByBlock
 62
               0
100
AcDbBlockEnd
  0
ENDSEC
  0
SECTION
  2
ENTITIES
  0
INSERT
  5
5FB
100
AcDbEntity
  8
0
  6
ByBlock
100
AcDbBlockReference
  2
F15MF-1
 10
-30.000015258789063
 20
61.0
 30
0.0
  0
INSERT
  5
5FC
100
AcDbEntity
  8
0
  6
ByBlock
100
AcDbBlockReference
  2
F15MF-2
 10
-188.0001220703125
 20
61.000030517578125
 30
0.0
  0
INSERT
  5
5FD
100
AcDbEntity
  8
0
  6
ByBlock
100
AcDbBlockReference
  2
F15MF-3
 10
-29.999984741210937
 20
-147.0
 30
0.0
  0
INSERT
  5
5FE
100
AcDbEntity
  8
0
  6
ByBlock
100
AcDbBlockReference
  2
F15MF-4
 10
216.75248718261719
 20
127.27001953125
 30
0.0
  0
INSERT
  5
5FF
100
AcDbEntity
  8
0
  6
ByBlock
100
AcDbBlockReference
  2
F15MF-5
 10
148.25222778320312
 20
127.27001953125
 30
0.0
  0
INSERT
  5
600
100
AcDbEntity
  8
0
  6
ByBlock
100
AcDbBlockReference
  2
F15MF-6
 10
216.75248718261719
 20
36.055572509765625
 30
0.0
  0
INSERT
  5
601
100
AcDbEntity
  8
0
  6
ByBlock
100
AcDbBlockReference
  2
F15MF-7
 10
139.9110107421875
 20
-106.62161254882812
 30
0.0
  0
INSERT
  5
602
100
AcDbEntity
  8
0
  6
ByBlock
100
AcDbBlockReference
  2
F15MF-8
 10
225.4110107421875
 20
-106.62159729003906
 30
0.0
  0
LINE
  5
603
100
AcDbEntity
  8
0
  6
CONTINUOUS
 62
               7
100
AcDbLine
 10
-281.25
 20
195.5
 30
0.0
 11
282.10000000000002
 21
195.5
 31
0.0
  0
LINE
  5
604
100
AcDbEntity
  8
0
  6
CONTINUOUS
 62
               7
100
AcDbLine
 10
282.10000000000002
 20
195.5
 30
0.0
 11
282.10000000000002
 21
-195.0
 31
0.0
  0
LINE
  5
605
100
AcDbEntity
  8
0
  6
CONTINUOUS
 62
               7
100
AcDbLine
 10
-281.25
 20
-195.0
 30
0.0
 11
282.10000000000002
 21
-195.0
 31
0.0
  0
LINE
  5
606
100
AcDbEntity
  8
0
  6
CONTINUOUS
 62
               7
100
AcDbLine
 10
162.09999999999999
 20
-175.0
 30
0.0
 11
162.09999999999999
 21
-195.0
 31
0.0
  0
LINE
  5
607
100
AcDbEntity
  8
0
  6
CONTINUOUS
 62
               7
100
AcDbLine
 10
162.09999999999999
 20
-175.0
 30
0.0
 11
282.10000000000002
 21
-175.0
 31
0.0
  0
LINE
  5
608
100
AcDbEntity
  8
0
  6
CONTINUOUS
 62
               7
100
AcDbLine
 10
162.09999999999999
 20
175.5
 30
0.0
 11
282.10000000000002
 21
175.5
 31
0.0
  0
LINE
  5
609
100
AcDbEntity
  8
0
  6
CONTINUOUS
 62
               7
100
AcDbLine
 10
-281.25
 20
175.5
 30
0.0
 11
-161.25
 21
175.5
 31
0.0
  0
LINE
  5
60A
100
AcDbEntity
  8
0
  6
CONTINUOUS
 62
               7
100
AcDbLine
 10
162.09999999999999
 20
195.5
 30
0.0
 11
162.09999999999999
 21
175.5
 31
0.0
  0
LINE
  5
60B
100
AcDbEntity
  8
0
  6
CONTINUOUS
 62
               7
100
AcDbLine
 10
-161.25
 20
195.5
 30
0.0
 11
-161.25
 21
175.5
 31
0.0
  0
LINE
  5
60C
100
AcDbEntity
  8
0
  6
CONTINUOUS
 62
               7
100
AcDbLine
 10
-271.25
 20
-185.0
 30
0.0
 11
-171.25
 21
-185.0
 31
0.0
  0
LINE
  5
60D
100
AcDbEntity
  8
0
  6
CONTINUOUS
 62
               7
100
AcDbLine
 10
-271.25
 20
-177.0
 30
0.0
 11
-171.25
 21
-177.0
 31
0.0
  0
LINE
  5
60E
100
AcDbEntity
  8
0
  6
CONTINUOUS
 62
               7
100
AcDbLine
 10
-271.25
 20
-169.0
 30
0.0
 11
-171.25
 21
-169.0
 31
0.0
  0
LINE
  5
60F
100
AcDbEntity
  8
0
  6
CONTINUOUS
 62
               7
100
AcDbLine
 10
-271.25
 20
-161.0
 30
0.0
 11
-171.25
 21
-161.0
 31
0.0
  0
LINE
  5
610
100
AcDbEntity
  8
0
  6
CONTINUOUS
 62
               7
100
AcDbLine
 10
-271.25
 20
-153.0
 30
0.0
 11
-171.25
 21
-153.0
 31
0.0
  0
LINE
  5
611
100
AcDbEntity
  8
0
  6
CONTINUOUS
 62
               7
100
AcDbLine
 10
-271.25
 20
-145.0
 30
0.0
 11
-171.25
 21
-145.0
 31
0.0
  0
LINE
  5
612
100
AcDbEntity
  8
0
  6
CONTINUOUS
 62
               7
100
AcDbLine
 10
-271.25
 20
-137.0
 30
0.0
 11
-171.25
 21
-137.0
 31
0.0
  0
LINE
  5
613
100
AcDbEntity
  8
0
  6
CONTINUOUS
 62
               7
100
AcDbLine
 10
-271.25
 20
-129.0
 30
0.0
 11
-171.25
 21
-129.0
 31
0.0
  0
LINE
  5
614
100
AcDbEntity
  8
0
  6
CONTINUOUS
 62
               7
100
AcDbLine
 10
-271.25
 20
-121.0
 30
0.0
 11
-171.25
 21
-121.0
 31
0.0
  0
LINE
  5
615
100
AcDbEntity
  8
0
  6
CONTINUOUS
 62
               7
100
AcDbLine
 10
-271.25
 20
-113.0
 30
0.0
 11
-171.25
 21
-113.0
 31
0.0
  0
LINE
  5
616
100
AcDbEntity
  8
0
  6
CONTINUOUS
 62
               7
100
AcDbLine
 10
-271.25
 20
-105.0
 30
0.0
 11
-171.25
 21
-105.0
 31
0.0
  0
LINE
  5
617
100
AcDbEntity
  8
0
  6
CONTINUOUS
 62
               7
100
AcDbLine
 10
-271.25
 20
-97.0
 30
0.0
 11
-171.25
 21
-97.0
 31
0.0
  0
LINE
  5
618
100
AcDbEntity
  8
0
  6
CONTINUOUS
 62
               7
100
AcDbLine
 10
-271.25
 20
-89.0
 30
0.0
 11
-171.25
 21
-89.0
 31
0.0
  0
LINE
  5
619
100
AcDbEntity
  8
0
  6
CONTINUOUS
 62
               7
100
AcDbLine
 10
-271.25
 20
-81.0
 30
0.0
 11
-171.25
 21
-81.0
 31
0.0
  0
LINE
  5
61A
100
AcDbEntity
  8
0
  6
CONTINUOUS
 62
               7
100
AcDbLine
 10
-271.25
 20
-73.0
 30
0.0
 11
-171.25
 21
-73.0
 31
0.0
  0
LINE
  5
61B
100
AcDbEntity
  8
0
  6
CONTINUOUS
 62
               7
100
AcDbLine
 10
-271.25
 20
-65.0
 30
0.0
 11
-171.25
 21
-65.0
 31
0.0
  0
LINE
  5
61C
100
AcDbEntity
  8
0
  6
CONTINUOUS
 62
               7
100
AcDbLine
 10
-271.25
 20
-57.0
 30
0.0
 11
-171.25
 21
-57.0
 31
0.0
  0
LINE
  5
61D
100
AcDbEntity
  8
0
  6
CONTINUOUS
 62
               7
100
AcDbLine
 10
-271.25
 20
-49.0
 30
0.0
 11
-171.25
 21
-49.0
 31
0.0
  0
LINE
  5
61E
100
AcDbEntity
  8
0
  6
CONTINUOUS
 62
               7
100
AcDbLine
 10
-271.25
 20
-41.0
 30
0.0
 11
-171.25
 21
-41.0
 31
0.0
  0
LINE
  5
61F
100
AcDbEntity
  8
0
  6
CONTINUOUS
 62
               7
100
AcDbLine
 10
-271.25
 20
-33.0
 30
0.0
 11
-171.25
 21
-33.0
 31
0.0
  0
LINE
  5
620
100
AcDbEntity
  8
0
  6
CONTINUOUS
 62
               7
100
AcDbLine
 10
-271.25
 20
-25.0
 30
0.0
 11
-171.25
 21
-25.0
 31
0.0
  0
LINE
  5
621
100
AcDbEntity
  8
0
  6
CONTINUOUS
 62
               7
100
AcDbLine
 10
-231.25
 20
-25.0
 30
0.0
 11
-231.25
 21
-185.0
 31
0.0
  0
LINE
  5
622
100
AcDbEntity
  8
0
  6
CONTINUOUS
 62
               7
100
AcDbLine
 10
-271.25
 20
-25.0
 30
0.0
 11
-271.25
 21
-185.0
 31
0.0
  0
LINE
  5
623
100
AcDbEntity
  8
0
  6
CONTINUOUS
 62
               7
100
AcDbLine
 10
-281.25
 20
-195.0
 30
0.0
 11
-281.25
 21
195.5
 31
0.0
  0
LINE
  5
624
100
AcDbEntity
  8
0
  6
CONTINUOUS
 62
               7
100
AcDbLine
 10
-201.25
 20
-25.0
 30
0.0
 11
-201.25
 21
-185.0
 31
0.0
  0
LINE
  5
625
100
AcDbEntity
  8
0
  6
CONTINUOUS
 62
               7
100
AcDbLine
 10
-171.25
 20
-25.0
 30
0.0
 11
-171.25
 21
-185.0
 31
0.0
  0
LINE
  5
626
100
AcDbEntity
  8
0
  6
CONTINUOUS
 62
               7
100
AcDbLine
 10
94.310000000000002
 20
195.5
 30
0.0
 11
94.310000000000002
 21
-195.0
 31
0.0
  0
LINE
  5
627
100
AcDbEntity
  8
0
  6
CONTINUOUS
 62
               7
100
AcDbLine
 10
94.310000000000002
 20
0.25
 30
0.0
 11
282.10000000000002
 21
0.25
 31
0.0
  0
LINE
  5
628
100
AcDbEntity
  8
0
  6
CONTINUOUS
 62
               7
100
AcDbLine
 10
139.9110107421875
 20
-106.62160754882814
 30
0.0
 11
166.9110107421875
 21
-106.62160754882814
 31
0.0
  0
LINE
  5
629
100
AcDbEntity
  8
0
  6
CONTINUOUS
 62
               7
100
AcDbLine
 10
225.4110107421875
 20
-106.62159729003906
 30
0.0
 11
235.4110107421875
 21
-106.62159729003906
 31
0.0
  0
LINE
  5
62A
100
AcDbEntity
  8
0
  6
CONTINUOUS
 62
               7
100
AcDbLine
 10
148.25
 20
131.56999999999999
 30
0.0
 11
148.25
 21
85.969999999999999
 31
0.0
  0
LINE
  5
62B
100
AcDbEntity
  8
0
  6
CONTINUOUS
 62
               7
100
AcDbLine
 10
214.75
 20
36.049999999999997
 30
0.0
 11
229.75
 21
36.049999999999997
 31
0.0
  0
MTEXT
  5
62C
100
AcDbEntity
  8
0
  6
CONTINUOUS
 62
               7
100
AcDbMText
 10
201.30997488927844
 20
185.5
 30
0.0
 40
6.3000001907348633
 41
0.0
 71
               4
 72
               1
  1
\W1.200;\A1;Ver.3.0
  0
MTEXT
  5
62D
100
AcDbEntity
  8
0
  6
CONTINUOUS
 62
               7
100
AcDbMText
 10
170.28099805280428
 20
-185.0
 30
0.0
 40
9.0
 41
0.0
 71
               4
 72
               1
  1
\W1.121;\A1;KOGANEI CORP.
  0
MTEXT
  5
62E
100
AcDbEntity
  8
0
  6
CONTINUOUS
 62
               7
100
AcDbMText
 10
-251.5746278087926
 20
185.5
 30
0.0
 40
6.3000001907348633
 41
0.0
 71
               4
 72
               1
  1
\W1.119;\A1;F15 SERIES
  0
MTEXT
  5
62F
100
AcDbEntity
  8
0
  6
CONTINUOUS
 62
               7
100
AcDbMText
 10
-268.25454548080415
 20
160.5
 30
0.0
 40
6.3000001907348633
 41
0.0
 71
               4
 72
               1
  1
\W1.091;\A1;MODEL:F15M4F
  0
MTEXT
  5
630
100
AcDbEntity
  8
0
  6
CONTINUOUS
 62
               7
100
AcDbMText
 10
-259.5
 20
-29.0
 30
0.0
 40
4.5
 41
0.0
 71
               4
 72
               1
  1
\A1;TYPE
  0
MTEXT
  5
631
100
AcDbEntity
  8
0
  6
CONTINUOUS
 62
               7
100
AcDbMText
 10
-251.91666665578606
 20
-21.0
 30
0.0
 40
4.5
 41
0.0
 71
               4
 72
               1
  1
\W1.111;\A1;DIMENSION LIST
  0
MTEXT
  5
632
100
AcDbEntity
  8
0
  6
CONTINUOUS
 62
               7
100
AcDbMText
 10
-217.75
 20
-29.0
 30
0.0
 40
4.5
 41
0.0
 71
               4
 72
               1
  1
\A1;L
  0
MTEXT
  5
633
100
AcDbEntity
  8
0
  6
CONTINUOUS
 62
               7
100
AcDbMText
 10
-187.75
 20
-29.0
 30
0.0
 40
4.5
 41
0.0
 71
               4
 72
               1
  1
\A1;P
  0
MTEXT
  5
634
100
AcDbEntity
  8
0
  6
CONTINUOUS
 62
               7
100
AcDbMText
 10
107.30065028182506
 20
160.5
 30
0.0
 40
6.3000001907348633
 41
0.0
 71
               4
 72
               1
  1
\W1.080;\A1;MODEL:-FM
  0
MTEXT
  5
635
100
AcDbEntity
  8
0
  6
CONTINUOUS
 62
               7
100
AcDbMText
 10
107.30065028182506
 20
-14.75
 30
0.0
 40
6.3000001907348633
 41
0.0
 71
               4
 72
               1
  1
\W1.080;\A1;MODEL:-PL
  0
MTEXT
  5
636
100
AcDbEntity
  8
0
  6
CONTINUOUS
 62
               7
100
AcDbMText
 10
-266.19230771599672
 20
-181.0
 30
0.0
 40
4.5
 41
0.0
 71
               4
 72
               1
  1
\W1.077;\A1;F15M20F
  0
MTEXT
  5
637
100
AcDbEntity
  8
0
  6
CONTINUOUS
 62
               7
100
AcDbMText
 10
-261.70588235851022
 20
-37.0
 30
0.0
 40
4.5
 41
0.0
 71
               4
 72
               1
  1
\W1.059;\A1;F15M2F
  0
MTEXT
  5
638
100
AcDbEntity
  8
0
  6
CONTINUOUS
 62
               7
100
AcDbMText
 10
-261.70588235851022
 20
-45.0
 30
0.0
 40
4.5
 41
0.0
 71
               4
 72
               1
  1
\W1.059;\A1;F15M3F
  0
MTEXT
  5
639
100
AcDbEntity
  8
0
  6
CONTINUOUS
 62
               7
100
AcDbMText
 10
-261.70588235851022
 20
-53.0
 30
0.0
 40
4.5
 41
0.0
 71
               4
 72
               1
  1
\W1.059;\A1;F15M4F
  0
MTEXT
  5
63A
100
AcDbEntity
  8
0
  6
CONTINUOUS
 62
               7
100
AcDbMText
 10
-261.70588235851022
 20
-61.0
 30
0.0
 40
4.5
 41
0.0
 71
               4
 72
               1
  1
\W1.059;\A1;F15M5F
  0
MTEXT
  5
63B
100
AcDbEntity
  8
0
  6
CONTINUOUS
 62
               7
100
AcDbMText
 10
-261.70588235851022
 20
-69.0
 30
0.0
 40
4.5
 41
0.0
 71
               4
 72
               1
  1
\W1.059;\A1;F15M6F
  0
MTEXT
  5
63C
100
AcDbEntity
  8
0
  6
CONTINUOUS
 62
               7
100
AcDbMText
 10
-261.70588235851022
 20
-77.0
 30
0.0
 40
4.5
 41
0.0
 71
               4
 72
               1
  1
\W1.059;\A1;F15M7F
  0
MTEXT
  5
63D
100
AcDbEntity
  8
0
  6
CONTINUOUS
 62
               7
100
AcDbMText
 10
-261.70588235851022
 20
-85.0
 30
0.0
 40
4.5
 41
0.0
 71
               4
 72
               1
  1
\W1.059;\A1;F15M8F
  0
MTEXT
  5
63E
100
AcDbEntity
  8
0
  6
CONTINUOUS
 62
               7
100
AcDbMText
 10
-261.70588235851022
 20
-93.0
 30
0.0
 40
4.5
 41
0.0
 71
               4
 72
               1
  1
\W1.059;\A1;F15M9F
  0
MTEXT
  5
63F
100
AcDbEntity
  8
0
  6
CONTINUOUS
 62
               7
100
AcDbMText
 10
-266.1486486944076
 20
-101.0
 30
0.0
 40
4.5
 41
0.0
 71
               4
 72
               1
  1
\W1.135;\A1;F15M10F
  0
MTEXT
  5
640
100
AcDbEntity
  8
0
  6
CONTINUOUS
 62
               7
100
AcDbMText
 10
-266.12499999751896
 20
-109.0
 30
0.0
 40
4.5
 41
0.0
 71
               4
 72
               1
  1
\W1.167;\A1;F15M11F
  0
MTEXT
  5
641
100
AcDbEntity
  8
0
  6
CONTINUOUS
 62
               7
100
AcDbMText
 10
-266.17105266080216
 20
-117.0
 30
0.0
 40
4.5
 41
0.0
 71
               4
 72
               1
  1
\W1.105;\A1;F15M12F
  0
MTEXT
  5
642
100
AcDbEntity
  8
0
  6
CONTINUOUS
 62
               7
100
AcDbMText
 10
-266.17105266080216
 20
-125.0
 30
0.0
 40
4.5
 41
0.0
 71
               4
 72
               1
  1
\W1.105;\A1;F15M13F
  0
MTEXT
  5
643
100
AcDbEntity
  8
0
  6
CONTINUOUS
 62
               7
100
AcDbMText
 10
-266.17105266080216
 20
-133.0
 30
0.0
 40
4.5
 41
0.0
 71
               4
 72
               1
  1
\W1.105;\A1;F15M14F
  0
MTEXT
  5
644
100
AcDbEntity
  8
0
  6
CONTINUOUS
 62
               7
100
AcDbMText
 10
-266.17105266080216
 20
-141.0
 30
0.0
 40
4.5
 41
0.0
 71
               4
 72
               1
  1
\W1.105;\A1;F15M15F
  0
MTEXT
  5
645
100
AcDbEntity
  8
0
  6
CONTINUOUS
 62
               7
100
AcDbMText
 10
-266.17105266080216
 20
-149.0
 30
0.0
 40
4.5
 41
0.0
 71
               4
 72
               1
  1
\W1.105;\A1;F15M16F
  0
MTEXT
  5
646
100
AcDbEntity
  8
0
  6
CONTINUOUS
 62
               7
100
AcDbMText
 10
-266.17105266080216
 20
-157.0
 30
0.0
 40
4.5
 41
0.0
 71
               4
 72
               1
  1
\W1.105;\A1;F15M17F
  0
MTEXT
  5
647
100
AcDbEntity
  8
0
  6
CONTINUOUS
 62
               7
100
AcDbMText
 10
-266.17105266080216
 20
-165.0
 30
0.0
 40
4.5
 41
0.0
 71
               4
 72
               1
  1
\W1.105;\A1;F15M18F
  0
MTEXT
  5
648
100
AcDbEntity
  8
0
  6
CONTINUOUS
 62
               7
100
AcDbMText
 10
-266.17105266080216
 20
-173.0
 30
0.0
 40
4.5
 41
0.0
 71
               4
 72
               1
  1
\W1.105;\A1;F15M19F
  0
MTEXT
  5
649
100
AcDbEntity
  8
0
  6
CONTINUOUS
 62
               7
100
AcDbMText
 10
-221.54411765585775
 20
-181.0
 30
0.0
 40
4.0
 41
0.0
 71
               4
 72
               1
  1
\W1.059;\A1;350
  0
MTEXT
  5
64A
100
AcDbEntity
  8
0
  6
CONTINUOUS
 62
               7
100
AcDbMText
 10
-191.58333333333334
 20
-181.0
 30
0.0
 40
4.0
 41
0.0
 71
               4
 72
               1
  1
\A1;328
  0
MTEXT
  5
64B
100
AcDbEntity
  8
0
  6
CONTINUOUS
 62
               7
100
AcDbMText
 10
-221.58333333333334
 20
-173.0
 30
0.0
 40
4.0
 41
0.0
 71
               4
 72
               1
  1
\A1;334
  0
MTEXT
  5
64C
100
AcDbEntity
  8
0
  6
CONTINUOUS
 62
               7
100
AcDbMText
 10
-221.50000001117587
 20
-165.0
 30
0.0
 40
4.0
 41
0.0
 71
               4
 72
               1
  1
\W1.125;\A1;318
  0
MTEXT
  5
64D
100
AcDbEntity
  8
0
  6
CONTINUOUS
 62
               7
100
AcDbMText
 10
-221.54411765585775
 20
-157.0
 30
0.0
 40
4.0
 41
0.0
 71
               4
 72
               1
  1
\W1.059;\A1;302
  0
MTEXT
  5
64E
100
AcDbEntity
  8
0
  6
CONTINUOUS
 62
               7
100
AcDbMText
 10
-221.58333333333334
 20
-149.0
 30
0.0
 40
4.0
 41
0.0
 71
               4
 72
               1
  1
\A1;286
  0
MTEXT
  5
64F
100
AcDbEntity
  8
0
  6
CONTINUOUS
 62
               7
100
AcDbMText
 10
-221.54411765585775
 20
-141.0
 30
0.0
 40
4.0
 41
0.0
 71
               4
 72
               1
  1
\W1.059;\A1;270
  0
MTEXT
  5
650
100
AcDbEntity
  8
0
  6
CONTINUOUS
 62
               7
100
AcDbMText
 10
-221.58333333333334
 20
-133.0
 30
0.0
 40
4.0
 41
0.0
 71
               4
 72
               1
  1
\A1;254
  0
MTEXT
  5
651
100
AcDbEntity
  8
0
  6
CONTINUOUS
 62
               7
100
AcDbMText
 10
-221.58333333333334
 20
-125.0
 30
0.0
 40
4.0
 41
0.0
 71
               4
 72
               1
  1
\A1;238
  0
MTEXT
  5
652
100
AcDbEntity
  8
0
  6
CONTINUOUS
 62
               7
100
AcDbMText
 10
-221.58333333333334
 20
-117.0
 30
0.0
 40
4.0
 41
0.0
 71
               4
 72
               1
  1
\A1;222
  0
MTEXT
  5
653
100
AcDbEntity
  8
0
  6
CONTINUOUS
 62
               7
100
AcDbMText
 10
-221.54411765585775
 20
-109.0
 30
0.0
 40
4.0
 41
0.0
 71
               4
 72
               1
  1
\W1.059;\A1;206
  0
MTEXT
  5
654
100
AcDbEntity
  8
0
  6
CONTINUOUS
 62
               7
100
AcDbMText
 10
-221.45000003178913
 20
-101.0
 30
0.0
 40
4.0
 41
0.0
 71
               4
 72
               1
  1
\W1.200;\A1;190
  0
MTEXT
  5
655
100
AcDbEntity
  8
0
  6
CONTINUOUS
 62
               7
100
AcDbMText
 10
-221.50000001117587
 20
-93.0
 30
0.0
 40
4.0
 41
0.0
 71
               4
 72
               1
  1
\W1.125;\A1;174
  0
MTEXT
  5
656
100
AcDbEntity
  8
0
  6
CONTINUOUS
 62
               7
100
AcDbMText
 10
-221.50000001117587
 20
-85.0
 30
0.0
 40
4.0
 41
0.0
 71
               4
 72
               1
  1
\W1.125;\A1;158
  0
MTEXT
  5
657
100
AcDbEntity
  8
0
  6
CONTINUOUS
 62
               7
100
AcDbMText
 10
-221.50000001117587
 20
-77.0
 30
0.0
 40
4.0
 41
0.0
 71
               4
 72
               1
  1
\W1.125;\A1;142
  0
MTEXT
  5
658
100
AcDbEntity
  8
0
  6
CONTINUOUS
 62
               7
100
AcDbMText
 10
-221.50000001117587
 20
-69.0
 30
0.0
 40
4.0
 41
0.0
 71
               4
 72
               1
  1
\W1.125;\A1;126
  0
MTEXT
  5
659
100
AcDbEntity
  8
0
  6
CONTINUOUS
 62
               7
100
AcDbMText
 10
-221.32692310608115
 20
-61.0
 30
0.0
 40
4.0
 41
0.0
 71
               4
 72
               1
  1
\W1.385;\A1;110
  0
MTEXT
  5
65A
100
AcDbEntity
  8
0
  6
CONTINUOUS
 62
               7
100
AcDbMText
 10
-217.33333333333334
 20
-53.0
 30
0.0
 40
4.0
 41
0.0
 71
               4
 72
               1
  1
\A1;94
  0
MTEXT
  5
65B
100
AcDbEntity
  8
0
  6
CONTINUOUS
 62
               7
100
AcDbMText
 10
-217.33333333333334
 20
-45.0
 30
0.0
 40
4.0
 41
0.0
 71
               4
 72
               1
  1
\A1;78
  0
MTEXT
  5
65C
100
AcDbEntity
  8
0
  6
CONTINUOUS
 62
               7
100
AcDbMText
 10
-217.33333333333334
 20
-37.0
 30
0.0
 40
4.0
 41
0.0
 71
               4
 72
               1
  1
\A1;62
  0
MTEXT
  5
65D
100
AcDbEntity
  8
0
  6
CONTINUOUS
 62
               7
100
AcDbMText
 10
-191.50000001117587
 20
-173.0
 30
0.0
 40
4.0
 41
0.0
 71
               4
 72
               1
  1
\W1.125;\A1;312
  0
MTEXT
  5
65E
100
AcDbEntity
  8
0
  6
CONTINUOUS
 62
               7
100
AcDbMText
 10
-191.58333333333334
 20
-165.0
 30
0.0
 40
4.0
 41
0.0
 71
               4
 72
               1
  1
\A1;296
  0
MTEXT
  5
65F
100
AcDbEntity
  8
0
  6
CONTINUOUS
 62
               7
100
AcDbMText
 10
-191.54411765585775
 20
-157.0
 30
0.0
 40
4.0
 41
0.0
 71
               4
 72
               1
  1
\W1.059;\A1;280
  0
MTEXT
  5
660
100
AcDbEntity
  8
0
  6
CONTINUOUS
 62
               7
100
AcDbMText
 10
-191.58333333333334
 20
-149.0
 30
0.0
 40
4.0
 41
0.0
 71
               4
 72
               1
  1
\A1;264
  0
MTEXT
  5
661
100
AcDbEntity
  8
0
  6
CONTINUOUS
 62
               7
100
AcDbMText
 10
-191.58333333333334
 20
-141.0
 30
0.0
 40
4.0
 41
0.0
 71
               4
 72
               1
  1
\A1;248
  0
MTEXT
  5
662
100
AcDbEntity
  8
0
  6
CONTINUOUS
 62
               7
100
AcDbMText
 10
-191.58333333333334
 20
-133.0
 30
0.0
 40
4.0
 41
0.0
 71
               4
 72
               1
  1
\A1;232
  0
MTEXT
  5
663
100
AcDbEntity
  8
0
  6
CONTINUOUS
 62
               7
100
AcDbMText
 10
-191.50000001117587
 20
-125.0
 30
0.0
 40
4.0
 41
0.0
 71
               4
 72
               1
  1
\W1.125;\A1;216
  0
MTEXT
  5
664
100
AcDbEntity
  8
0
  6
CONTINUOUS
 62
               7
100
AcDbMText
 10
-191.49999997764826
 20
-117.0
 30
0.0
 40
4.0
 41
0.0
 71
               4
 72
               1
  1
\W1.125;\A1;200
  0
MTEXT
  5
665
100
AcDbEntity
  8
0
  6
CONTINUOUS
 62
               7
100
AcDbMText
 10
-191.50000001117587
 20
-109.0
 30
0.0
 40
4.0
 41
0.0
 71
               4
 72
               1
  1
\W1.125;\A1;184
  0
MTEXT
  5
666
100
AcDbEntity
  8
0
  6
CONTINUOUS
 62
               7
100
AcDbMText
 10
-191.50000001117587
 20
-101.0
 30
0.0
 40
4.0
 41
0.0
 71
               4
 72
               1
  1
\W1.125;\A1;168
  0
MTEXT
  5
667
100
AcDbEntity
  8
0
  6
CONTINUOUS
 62
               7
100
AcDbMText
 10
-191.50000001117587
 20
-93.0
 30
0.0
 40
4.0
 41
0.0
 71
               4
 72
               1
  1
\W1.125;\A1;152
  0
MTEXT
  5
668
100
AcDbEntity
  8
0
  6
CONTINUOUS
 62
               7
100
AcDbMText
 10
-191.50000001117587
 20
-85.0
 30
0.0
 40
4.0
 41
0.0
 71
               4
 72
               1
  1
\W1.125;\A1;136
  0
MTEXT
  5
669
100
AcDbEntity
  8
0
  6
CONTINUOUS
 62
               7
100
AcDbMText
 10
-191.45000003178913
 20
-77.0
 30
0.0
 40
4.0
 41
0.0
 71
               4
 72
               1
  1
\W1.200;\A1;120
  0
MTEXT
  5
66A
100
AcDbEntity
  8
0
  6
CONTINUOUS
 62
               7
100
AcDbMText
 10
-191.45000003178913
 20
-69.0
 30
0.0
 40
4.0
 41
0.0
 71
               4
 72
               1
  1
\W1.200;\A1;104
  0
MTEXT
  5
66B
100
AcDbEntity
  8
0
  6
CONTINUOUS
 62
               7
100
AcDbMText
 10
-187.33333333333334
 20
-61.0
 30
0.0
 40
4.0
 41
0.0
 71
               4
 72
               1
  1
\A1;88
  0
MTEXT
  5
66C
100
AcDbEntity
  8
0
  6
CONTINUOUS
 62
               7
100
AcDbMText
 10
-187.33333333333334
 20
-53.0
 30
0.0
 40
4.0
 41
0.0
 71
               4
 72
               1
  1
\A1;72
  0
MTEXT
  5
66D
100
AcDbEntity
  8
0
  6
CONTINUOUS
 62
               7
100
AcDbMText
 10
-187.33333333333334
 20
-45.0
 30
0.0
 40
4.0
 41
0.0
 71
               4
 72
               1
  1
\A1;56
  0
MTEXT
  5
66E
100
AcDbEntity
  8
0
  6
CONTINUOUS
 62
               7
100
AcDbMText
 10
-187.27272723528898
 20
-37.0
 30
0.0
 40
4.0
 41
0.0
 71
               4
 72
               1
  1
\W1.091;\A1;40
  0
DIMENSION
  5
680
100
AcDbEntity
  8
0
  6
CONTINUOUS
 62
               2
100
AcDbDimension
  2
*D8
 10
-30.000015258789063
 20
159.62998962402344
 30
0.0
 11
-35.500030517578125
 21
159.62998962402344
 31
0.0
 70
             128
  1
<>
  3
MXDIMSTYLE
100
AcDbAlignedDimension
 13
-41.000030517578125
 23
85.0
 33
0.0
 14
-30.000015258789063
 24
64.25
 34
0.0
100
AcDbRotatedDimension
1001
ACAD
1000
DSTYLE
1002
{
1070
               6
1000
_OPEN30
1070
               7
1000
_OPEN30
1070
              41
1040
2.77
1070
              42
1040
0.0
1070
              75
1070
               1
1070
             140
1040
4.5
1070
             173
1070
               1
1070
             271
1070
               0
1070
             284
1070
               8
1070
             341
1005
673
1002
}
  0
DIMENSION
  5
68E
100
AcDbEntity
  8
0
  6
CONTINUOUS
 62
               2
100
AcDbDimension
  2
*D10
 10
41.999969482421875
 20
159.62998962402344
 30
0.0
 11
5.999969482421875
 21
159.62998962402344
 31
0.0
 70
             128
  1
P
  3
MXDIMSTYLE
100
AcDbAlignedDimension
 13
-30.000015258789063
 23
64.25
 33
0.0
 14
41.999969482421875
 24
64.25
 34
0.0
100
AcDbRotatedDimension
1001
ACAD
1000
DSTYLE
1002
{
1070
               6
1000
_OPEN30
1070
               7
1000
_OPEN30
1070
              41
1040
2.77
1070
              42
1040
0.0
1070
              75
1070
               1
1070
              78
1070
               0
1070
             140
1040
4.5
1070
             173
1070
               1
1070
             271
1070
               0
1070
             341
1005
673
1002
}
  0
DIMENSION
  5
699
100
AcDbEntity
  8
0
  6
CONTINUOUS
 62
               2
100
AcDbDimension
  2
*D11
 10
52.999969482421875
 20
159.62998962402344
 30
0.0
 11
47.499969482421875
 21
159.62998962402344
 31
0.0
 70
             128
  1
<>
  3
MXDIMSTYLE
100
AcDbAlignedDimension
 13
41.999969482421875
 23
64.25
 33
0.0
 14
52.999969482421875
 24
85.0
 34
0.0
100
AcDbRotatedDimension
1001
ACAD
1000
DSTYLE
1002
{
1070
               6
1000
_OPEN30
1070
               7
1000
_OPEN30
1070
              41
1040
2.77
1070
              75
1070
               1
1070
              76
1070
               1
1070
             140
1040
4.5
1070
             173
1070
               1
1070
             271
1070
               0
1070
             284
1070
               8
1070
             341
1005
673
1002
}
  0
DIMENSION
  5
6A6
100
AcDbEntity
  8
0
  6
CONTINUOUS
 62
               2
100
AcDbDimension
  2
*D12
 10
52.999969482421875
 20
169.62998962402344
 30
0.0
 11
5.999969482421875
 21
169.62998962402344
 31
0.0
 70
             128
  1
L
  3
MXDIMSTYLE
100
AcDbAlignedDimension
 13
-41.000030517578125
 23
85.0
 33
0.0
 14
52.999969482421875
 24
85.0
 34
0.0
100
AcDbRotatedDimension
1001
ACAD
1000
DSTYLE
1002
{
1070
               6
1000
_OPEN30
1070
               7
1000
_OPEN30
1070
              41
1040
2.77
1070
              78
1070
               0
1070
             140
1040
4.5
1070
             173
1070
               1
1070
             271
1070
               0
1070
             341
1005
673
1002
}
  0
MTEXT
  5
6A7
100
AcDbEntity
  8
0
  6
CONTINUOUS
 62
               2
100
AcDbMText
 10
40.98174526553467
 20
-97.258777822088732
 30
0.0
 40
4.5
 41
0.0
 71
               4
 72
               1
  1
\W1.071;\A1;F15BP
  0
LEADER
  5
6A8
100
AcDbEntity
  8
0
  6
CONTINUOUS
 62
               2
100
AcDbLeader
  3
MXDIMSTYLE
 73
               3
 74
               0
 75
               0
 40
0.0
 76
               3
 10
30.000015258789063
 20
-114.5
 30
0.0
 10
37.265952608752187
 20
-101.91502734525157
 30
0.0
 10
63.481745264697011
 20
-101.91502734525157
 30
0.0
 77
               2
1001
ACAD
1000
DSTYLE
1002
{
1070
               6
1000
_OPEN30
1070
               7
1000
_OPEN30
1070
              41
1040
2.77
1070
             173
1070
               1
1070
             341
1005
673
1002
}
  0
MTEXT
  5
6A9
100
AcDbEntity
  8
0
  6
CONTINUOUS
 62
               2
100
AcDbMText
 10
21.16418481859008
 20
-46.296609588221024
 30
0.0
 40
4.5
 41
0.0
 71
               4
 72
               1
  1
\W1.031;\A1;F15T3-FJ-PS
  0
LEADER
  5
6AA
100
AcDbEntity
  8
0
  6
CONTINUOUS
 62
               2
100
AcDbLeader
  3
MXDIMSTYLE
 73
               3
 74
               0
 75
               0
 40
0.0
 76
               3
 10
14.000015258789063
 20
-59.5
 30
0.0
 10
18.934709351633231
 20
-50.952859111383866
 30
0.0
 10
70.664184849832694
 20
-50.952859111383866
 30
0.0
 77
               2
1001
ACAD
1000
DSTYLE
1002
{
1070
               6
1000
_OPEN30
1070
               7
1000
_OPEN30
1070
              41
1040
2.77
1070
             173
1070
               1
1070
             341
1005
673
1002
}
  0
MTEXT
  5
6AB
100
AcDbEntity
  8
0
  6
CONTINUOUS
 62
               2
100
AcDbMText
 10
13.732599828434241
 20
-35.367238532563491
 30
0.0
 40
4.5
 41
0.0
 71
               4
 72
               1
  1
\W1.031;\A1;F15T2-FJ-PS
  0
LEADER
  5
6AC
100
AcDbEntity
  8
0
  6
CONTINUOUS
 62
               2
100
AcDbLeader
  3
MXDIMSTYLE
 73
               3
 74
               0
 75
               0
 40
0.0
 76
               3
 10
-1.9999847412109375
 20
-59.5
 30
0.0
 10
10.264526730022922
 20
-40.023488055726332
 30
0.0
 10
63.232599859676853
 20
-40.023488055726332
 30
0.0
 77
               2
1001
ACAD
1000
DSTYLE
1002
{
1070
               6
1000
_OPEN30
1070
               7
1000
_OPEN30
1070
              41
1040
2.77
1070
             173
1070
               1
1070
             341
1005
673
1002
}
  0
MTEXT
  5
6AD
100
AcDbEntity
  8
0
  6
CONTINUOUS
 62
               2
100
AcDbMText
 10
-79.613752284798124
 20
-41.5852193197898
 30
0.0
 40
4.5
 41
0.0
 71
               4
 72
               1
  1
\W1.065;\A1;F15T1-FJ-PS
  0
LEADER
  5
6AE
100
AcDbEntity
  8
0
  6
CONTINUOUS
 62
               2
100
AcDbLeader
  3
MXDIMSTYLE
 73
               3
 74
               0
 75
               0
 40
0.0
 76
               3
 10
-17.999984741210937
 20
-59.5
 30
0.0
 10
-25.65480127379125
 20
-46.241468842952642
 30
0.0
 10
-79.613752270190176
 20
-46.241468842952642
 30
0.0
 77
               2
1001
ACAD
1000
DSTYLE
1002
{
1070
               6
1000
_OPEN30
1070
               7
1000
_OPEN30
1070
              41
1040
2.77
1070
             173
1070
               1
1070
             341
1005
673
1002
}
  0
ENDSEC
  0
SECTION
  2
OBJECTS
  0
DICTIONARY
  5
19
100
AcDbDictionary
  3
ACAD_GROUP
350
1A
  3
ACAD_MLINESTYLE
350
1B
  0
DICTIONARY
  5
1A
102
{ACAD_REACTORS
330
19
102
}
100
AcDbDictionary
  0
DICTIONARY
  5
1B
102
{ACAD_REACTORS
330
19
102
}
100
AcDbDictionary
  3
STANDARD
350
1C
  0
MLINESTYLE
  5
1C
102
{ACAD_REACTORS
330
1B
102
}
100
AcDbMlineStyle
  2
Standard
 70
               0
  3

 62
               0
 51
90.0
 52
90.0
 71
               2
 49
0.5
 62
             256
  6
ByLayer
 49
-0.5
 62
             256
  6
ByLayer
  0
ENDSEC
  0
EOF
