  0
SECTION
  2
HEADER
  9
$ACADVER
  1
AC1012
  9
$DWGCODEPAGE
  3
dos932
  9
$INSBASE
 10
0.0
 20
0.0
 30
0.0
  9
$EXTMIN
 10
-281.25
 20
-195.0
 30
0.0
  9
$EXTMAX
 10
285.6319057062413
 20
195.5
 30
0.0
  9
$LIMMIN
 10
-281.25
 20
-195.0
  9
$LIMMAX
 10
285.6319057062413
 20
195.5
  9
$ORTHOMODE
 70
               0
  9
$REGENMODE
 70
               1
  9
$FILLMODE
 70
               1
  9
$QTEXTMODE
 70
               0
  9
$MIRRTEXT
 70
               1
  9
$DRAGMODE
 70
               2
  9
$LTSCALE
 40
1.0
  9
$OSMODE
 70
               0
  9
$ATTMODE
 70
               1
  9
$TEXTSIZE
 40
3.2000000476837158
  9
$TRACEWID
 40
0.05
  9
$TEXTSTYLE
  7
MX_NOTE_STANDARD
  9
$CLAYER
  8
0
  9
$CELTYPE
  6
CONTINUOUS
  9
$CECOLOR
 62
             256
  9
$CELTSCALE
 40
1.0
  9
$DELOBJ
 70
               1
  9
$DISPSILH
 70
               0
  9
$DIMSCALE
 40
1.0
  9
$DIMASZ
 40
2.5
  9
$DIMEXO
 40
1.5
  9
$DIMDLI
 40
3.75
  9
$DIMRND
 40
0.0
  9
$DIMDLE
 40
0.0
  9
$DIMEXE
 40
1.5
  9
$DIMTP
 40
0.0
  9
$DIMTM
 40
0.0
  9
$DIMTXT
 40
3.2000000476837158
  9
$DIMCEN
 40
2.5
  9
$DIMTSZ
 40
0.0
  9
$DIMTOL
 70
               0
  9
$DIMLIM
 70
               0
  9
$DIMTIH
 70
               0
  9
$DIMTOH
 70
               0
  9
$DIMSE1
 70
               0
  9
$DIMSE2
 70
               0
  9
$DIMTAD
 70
               1
  9
$DIMZIN
 70
               8
  9
$DIMBLK
  1

  9
$DIMASO
 70
               1
  9
$DIMSHO
 70
               1
  9
$DIMPOST
  1

  9
$DIMAPOST
  1

  9
$DIMALT
 70
               0
  9
$DIMALTD
 70
               4
  9
$DIMALTF
 40
0.03937007874016
  9
$DIMLFAC
 40
1.0
  9
$DIMTOFL
 70
               1
  9
$DIMTVP
 40
0.0
  9
$DIMTIX
 70
               0
  9
$DIMSOXD
 70
               0
  9
$DIMSAH
 70
               0
  9
$DIMBLK1
  1

  9
$DIMBLK2
  1

  9
$DIMSTYLE
  2
MXDIMSTYLE
  9
$DIMCLRD
 70
               0
  9
$DIMCLRE
 70
               0
  9
$DIMCLRT
 70
               0
  9
$DIMTFAC
 40
1.0
  9
$DIMGAP
 40
1.0
  9
$DIMJUST
 70
               0
  9
$DIMSD1
 70
               0
  9
$DIMSD2
 70
               0
  9
$DIMTOLJ
 70
               1
  9
$DIMTZIN
 70
               0
  9
$DIMALTZ
 70
               0
  9
$DIMALTTZ
 70
               0
  9
$DIMFIT
 70
               3
  9
$DIMUPT
 70
               1
  9
$DIMUNIT
 70
               2
  9
$DIMDEC
 70
               4
  9
$DIMTDEC
 70
               4
  9
$DIMALTU
 70
               2
  9
$DIMALTTD
 70
               4
  9
$DIMTXSTY
  7
MX_NOTE_STANDARD
  9
$DIMAUNIT
 70
               0
  9
$LUNITS
 70
               2
  9
$LUPREC
 70
               4
  9
$SKETCHINC
 40
0.1
  9
$FILLETRAD
 40
0.0
  9
$AUNITS
 70
               0
  9
$AUPREC
 70
               0
  9
$MENU
  1
acad
  9
$ELEVATION
 40
0.0
  9
$PELEVATION
 40
0.0
  9
$THICKNESS
 40
0.0
  9
$LIMCHECK
 70
               0
  9
$BLIPMODE
 70
               1
  9
$CHAMFERA
 40
0.0
  9
$CHAMFERB
 40
0.0
  9
$CHAMFERC
 40
0.0
  9
$CHAMFERD
 40
0.0
  9
$SKPOLY
 70
               0
  9
$TDCREATE
 40
2453378.356435185
  9
$TDUPDATE
 40
2453378.356435185
  9
$TDINDWG
 40
0.0000000000
  9
$TDUSRTIMER
 40
0.0000000000
  9
$USRTIMER
 70
               1
  9
$ANGBASE
 50
0.0
  9
$ANGDIR
 70
               0
  9
$PDMODE
 70
               0
  9
$PDSIZE
 40
0.0
  9
$PLINEWID
 40
0.0
  9
$COORDS
 70
               1
  9
$SPLFRAME
 70
               0
  9
$SPLINETYPE
 70
               6
  9
$SPLINESEGS
 70
               8
  9
$ATTDIA
 70
               0
  9
$ATTREQ
 70
               1
  9
$HANDLING
 70
               1
  9
$HANDSEED
  5
672
  9
$SURFTAB1
 70
               6
  9
$SURFTAB2
 70
               6
  9
$SURFTYPE
 70
               6
  9
$SURFU
 70
               6
  9
$SURFV
 70
               6
  9
$UCSNAME
  2

  9
$UCSORG
 10
0.0
 20
0.0
 30
0.0
  9
$UCSXDIR
 10
1.0
 20
0.0
 30
0.0
  9
$UCSYDIR
 10
0.0
 20
1.0
 30
0.0
  9
$PUCSNAME
  2

  9
$PUCSORG
 10
0.0
 20
0.0
 30
0.0
  9
$PUCSXDIR
 10
1.0
 20
0.0
 30
0.0
  9
$PUCSYDIR
 10
0.0
 20
1.0
 30
0.0
  9
$USERI1
 70
               0
  9
$USERI2
 70
               0
  9
$USERI3
 70
               0
  9
$USERI4
 70
               0
  9
$USERI5
 70
               0
  9
$USERR1
 40
0.0
  9
$USERR2
 40
0.0
  9
$USERR3
 40
0.0
  9
$USERR4
 40
0.0
  9
$USERR5
 40
0.0
  9
$WORLDVIEW
 70
               1
  9
$SHADEDGE
 70
               3
  9
$SHADEDIF
 70
              70
  9
$TILEMODE
 70
               1
  9
$MAXACTVP
 70
              16
  9
$PINSBASE
 10
0.0
 20
0.0
 30
0.0
  9
$PLIMCHECK
 70
               0
  9
$PEXTMIN
 10
1.0000000000000000E+20
 20
1.0000000000000000E+20
 30
1.0000000000000000E+20
  9
$PEXTMAX
 10
-1.0000000000000000E+20
 20
-1.0000000000000000E+20
 30
-1.0000000000000000E+20
  9
$PLIMMIN
 10
0.0
 20
0.0
  9
$PLIMMAX
 10
12.0
 20
9.0
  9
$UNITMODE
 70
               0
  9
$VISRETAIN
 70
               0
  9
$PLINEGEN
 70
               1
  9
$PSLTSCALE
 70
               0
  9
$TREEDEPTH
 70
            3020
  9
$PICKSTYLE
 70
               1
  9
$CMLSTYLE
  2
Standard
  9
$CMLJUST
 70
               0
  9
$CMLSCALE
 40
1.0
  9
$SAVEIMAGES
 70
               0
  0
ENDSEC
  0
SECTION
  2
CLASSES
  0
CLASS
  1
LWPOLYLINE
  2
AcDbPolyline
  3
"AutoCAD"
 90
        0
280
               0
281
               1
  0
CLASS
  1
IMAGE
  2
AcDbRasterImage
  3
ISM
 90
      127
280
               0
281
               1
  0
CLASS
  1
OLE2FRAME
  2
AcDbOle2Frame
  3
""
 90
        0
280
               0
281
               1
  0
CLASS
  1
HATCH
  2
AcDbHatch
  3
"ACAD_SEDONA"
 90
        0
280
               0
281
               1
  0
CLASS
  1
DICTIONARYVAR
  2
AcDbDictionaryVar
  3
"AutoCAD"
 90
        0
280
               0
281
               0
  0
CLASS
  1
RASTERVARIABLES
  2
AcDbRasterVariables
  3
ISM
 90
        0
280
               0
281
               0
  0
CLASS
  1
IMAGEDEF
  2
AcDbRasterImageDef
  3
ISM
 90
        0
280
               0
281
               0
  0
CLASS
  1
IMAGEDEF_REACTOR
  2
AcDbRasterImageDefReactor
  3
ISM
 90
        1
280
               0
281
               0
  0
CLASS
  1
IDBUFFER
  2
AcDbIdBuffer
  3
"Acad"
 90
        0
280
               0
281
               0
  0
CLASS
  1
SPATIAL_FILTER
  2
AcDbSpatialFilter
  3
"Acad"
 90
        0
280
               0
281
               0
  0
CLASS
  1
XRECORD
  2
AcDbXrecord
  3
"<Built In>"
 90
        0
280
               0
281
               0
  0
CLASS
  1
SORTENTSTABLE
  2
AcDbSortentsTable
  3
"AutoCAD"
 90
        0
280
               0
281
               0
  0
CLASS
  1
LAYER_INDEX
  2
AcDbLayerIndex
  3
"Acad"
 90
        0
280
               0
281
               0
  0
CLASS
  1
SPATIAL_INDEX
  2
AcDbSpatialIndex
  3
"Acad"
 90
        0
280
               0
281
               0
  0
CLASS
  1
OBJECT_PTR
  2
CAseDLPNTableRecord
  3
"ASE-LPNTableRecord"
 90
        1
280
               0
281
               0
  0
CLASS
  1
LAYOUT
  2
AcDbLayout
  3
"AutoCAD 2000"
 90
        1
280
               0
281
               0
  0
CLASS
  1
PLOTSETTINGS
  2
AcDbPlotSettings
  3
"AutoCAD 2000"
 90
        1
280
               0
281
               0
  0
CLASS
  1
ACDBDICTIONARYWDFLT
  2
AcDbDictionaryWithDefault
  3
"AutoCAD 2000"
 90
        1
280
               0
281
               0
  0
CLASS
  1
ACDBPLACEHOLDER
  2
AcDbPlaceHolder
  3
"AutoCAD 2000"
 90
        1
280
               0
281
               0
  0
ENDSEC
  0
SECTION
  2
TABLES
  0
TABLE
  2
VPORT
  5
7
100
AcDbSymbolTable
 70
               1
  0
VPORT
  5
15
100
AcDbSymbolTableRecord
100
AcDbViewportTableRecord
  2
*ACTIVE
 70
               0
 10
0.0
 20
0.0
 11
1.0
 21
1.0
 12
2.1909528531206206
 22
0.25
 13
0.0
 23
0.0
 14
1.0
 24
1.0
 15
0.0
 25
0.0
 16
0.0
 26
0.0
 36
1.0
 17
0.0
 27
0.0
 37
0.0
 40
394.40500000000003
 41
1.7320508075688772
 42
50.0
 43
0.0
 44
0.0
 50
0.0
 51
0.0
 71
               0
 72
             100
 73
               1
 74
               1
 75
               0
 76
               0
 77
               0
 78
               0
  0
ENDTAB
  0
TABLE
  2
LTYPE
  5
4
100
AcDbSymbolTable
 70
               4
  0
LTYPE
  5
11
100
AcDbSymbolTableRecord
100
AcDbLinetypeTableRecord
  2
BYBLOCK
 70
              64
  3

 72
              65
 73
               0
 40
0.0
  0
LTYPE
  5
12
100
AcDbSymbolTableRecord
100
AcDbLinetypeTableRecord
  2
BYLAYER
 70
              64
  3

 72
              65
 73
               0
 40
0.0
  0
LTYPE
  5
13
100
AcDbSymbolTableRecord
100
AcDbLinetypeTableRecord
  2
CONTINUOUS
 70
              64
  3
Solid line
 72
              65
 73
               0
 40
0.0
  0
LTYPE
  5
53A
100
AcDbSymbolTableRecord
100
AcDbLinetypeTableRecord
  2
CENTER
 70
              64
  3
Center ____ _ ____ _ ____ _ ____ _ ____ _ ____
 72
              65
 73
               4
 40
26.0
 49
20.0
 74
               0
 49
-2.0
 74
               0
 49
2.0
 74
               0
 49
-2.0
 74
               0
  0
ENDTAB
  0
TABLE
  2
LAYER
  5
2
100
AcDbSymbolTable
 70
               2
  0
LAYER
  5
14
100
AcDbSymbolTableRecord
100
AcDbLayerTableRecord
  2
0
 70
               0
 62
               7
  6
CONTINUOUS
  0
LAYER
  5
1D
100
AcDbSymbolTableRecord
100
AcDbLayerTableRecord
  2
DEFPOINTS
 70
               0
 62
               7
  6
CONTINUOUS
  0
ENDTAB
  0
TABLE
  2
STYLE
  5
3
100
AcDbSymbolTable
 70
               1
  0
STYLE
  5
17
100
AcDbSymbolTableRecord
100
AcDbTextStyleTableRecord
  2
MX_NOTE_STANDARD
 70
               0
 40
0.0
 41
1.0
 50
0.0
 71
               0
 42
3.2000000476837158
  3
txt.shx
  4
extfont.shx
  0
ENDTAB
  0
TABLE
  2
VIEW
  5
5
100
AcDbSymbolTable
 70
               0
  0
ENDTAB
  0
TABLE
  2
UCS
  5
6
100
AcDbSymbolTable
 70
               0
  0
ENDTAB
  0
TABLE
  2
APPID
  5
8
100
AcDbSymbolTable
 70
               1
  0
APPID
  5
16
100
AcDbSymbolTableRecord
100
AcDbRegAppTableRecord
  2
ACAD
 70
               0
  0
ENDTAB
  0
TABLE
  2
DIMSTYLE
  5
9
100
AcDbSymbolTable
 70
               1
  0
DIMSTYLE
105
18
100
AcDbSymbolTableRecord
100
AcDbDimStyleTableRecord
  2
MXDIMSTYLE
 70
               0
  3

  4

  5

  6

  7

 40
1.0
 41
2.5
 42
1.5
 43
3.75
 44
1.5
 45
0.0
 46
0.0
 47
0.0
 48
0.0
 71
               0
 72
               0
 73
               0
 74
               0
 75
               0
 76
               0
 77
               1
 78
               8
140
3.2000000476837158
141
2.5
142
0.0
143
0.03937007874016
144
1.0
145
0.0
146
1.0
147
1.0
170
               0
171
               4
172
               1
173
               0
174
               0
175
               0
176
               0
177
               0
178
               0
270
               2
271
               4
272
               4
273
               2
274
               4
275
               0
280
               0
281
               0
282
               0
283
               1
284
               0
285
               0
286
               0
287
               3
288
               1
340
17
  0
ENDTAB
  0
TABLE
  2
BLOCK_RECORD
  5
1
100
AcDbSymbolTable
 70
              13
  0
BLOCK_RECORD
  5
A
100
AcDbSymbolTableRecord
100
AcDbBlockTableRecord
  2
*MODEL_SPACE
  0
BLOCK_RECORD
  5
B
100
AcDbSymbolTableRecord
100
AcDbBlockTableRecord
  2
*PAPER_SPACE
  0
BLOCK_RECORD
  5
1E
100
AcDbSymbolTableRecord
100
AcDbBlockTableRecord
  2
F15MA-1
  0
BLOCK_RECORD
  5
1F
100
AcDbSymbolTableRecord
100
AcDbBlockTableRecord
  2
F15MA-2
  0
BLOCK_RECORD
  5
20
100
AcDbSymbolTableRecord
100
AcDbBlockTableRecord
  2
F15MA-3
  0
BLOCK_RECORD
  5
21
100
AcDbSymbolTableRecord
100
AcDbBlockTableRecord
  2
F15MA-4
  0
BLOCK_RECORD
  5
22
100
AcDbSymbolTableRecord
100
AcDbBlockTableRecord
  2
F15MA-5
  0
BLOCK_RECORD
  5
23
100
AcDbSymbolTableRecord
100
AcDbBlockTableRecord
  2
F15MA-6
  0
BLOCK_RECORD
  5
24
100
AcDbSymbolTableRecord
100
AcDbBlockTableRecord
  2
F15MA-7
  0
BLOCK_RECORD
  5
25
100
AcDbSymbolTableRecord
100
AcDbBlockTableRecord
  2
F15MA-8
  0
BLOCK_RECORD
  5
62C
100
AcDbSymbolTableRecord
100
AcDbBlockTableRecord
  2
*D8
  0
BLOCK_RECORD
  5
633
100
AcDbSymbolTableRecord
100
AcDbBlockTableRecord
  2
_OPEN30
  0
BLOCK_RECORD
  5
641
100
AcDbSymbolTableRecord
100
AcDbBlockTableRecord
  2
*D10
  0
BLOCK_RECORD
  5
64D
100
AcDbSymbolTableRecord
100
AcDbBlockTableRecord
  2
*D11
  0
BLOCK_RECORD
  5
65B
100
AcDbSymbolTableRecord
100
AcDbBlockTableRecord
  2
*D12
  0
ENDTAB
  0
ENDSEC
  0
SECTION
  2
BLOCKS
  0
BLOCK
  5
D
100
AcDbEntity
  8
0
100
AcDbBlockBegin
  2
*MODEL_SPACE
 70
               0
 10
0.0
 20
0.0
 30
0.0
  3
*MODEL_SPACE
  1

  0
ENDBLK
  5
E
100
AcDbEntity
  8
0
100
AcDbBlockEnd
  0
BLOCK
  5
F
100
AcDbEntity
 67
               1
  8
0
100
AcDbBlockBegin
  2
*PAPER_SPACE
 70
               0
 10
0.0
 20
0.0
 30
0.0
  3
*PAPER_SPACE
  1

  0
ENDBLK
  5
10
100
AcDbEntity
 67
               1
  8
0
100
AcDbBlockEnd
  0
BLOCK
  5
26
100
AcDbEntity
  8
0
100
AcDbBlockBegin
  2
F15MA-1
 70
               0
 10
0.0
 20
0.0
 30
0.0
  3
F15MA-1
  1

  0
LINE
  5
27
100
AcDbEntity
  8
0
  6
CONTINUOUS
 62
               4
100
AcDbLine
 10
7.0
 20
35.999969482421875
 30
0.0
 11
7.0
 21
59.999984741210938
 31
0.0
  0
LINE
  5
28
100
AcDbEntity
  8
0
  6
CONTINUOUS
 62
               4
100
AcDbLine
 10
17.0
 20
35.999969482421875
 30
0.0
 11
17.0
 21
59.999984741210938
 31
0.0
  0
LINE
  5
29
100
AcDbEntity
  8
0
  6
CONTINUOUS
 62
               4
100
AcDbLine
 10
23.0
 20
35.999954223632813
 30
0.0
 11
23.0
 21
59.999969482421875
 31
0.0
  0
LINE
  5
2A
100
AcDbEntity
  8
0
  6
CONTINUOUS
 62
               4
100
AcDbLine
 10
33.0
 20
35.999954223632813
 30
0.0
 11
33.0
 21
59.999969482421875
 31
0.0
  0
LINE
  5
2B
100
AcDbEntity
  8
0
  6
CONTINUOUS
 62
               4
100
AcDbLine
 10
39.0
 20
35.999954223632813
 30
0.0
 11
39.0
 21
59.999969482421875
 31
0.0
  0
LINE
  5
2C
100
AcDbEntity
  8
0
  6
CONTINUOUS
 62
               4
100
AcDbLine
 10
49.0
 20
35.999954223632813
 30
0.0
 11
49.0
 21
59.999969482421875
 31
0.0
  0
LINE
  5
2D
100
AcDbEntity
  8
0
  6
CONTINUOUS
 62
               2
100
AcDbLine
 10
12.0
 20
-42.477618699780876
 30
0.0
 11
12.0
 21
81.75506591796875
 31
0.0
  0
LINE
  5
2E
100
AcDbEntity
  8
0
  6
CONTINUOUS
 62
               2
100
AcDbLine
 10
28.0
 20
-40.757318334550781
 30
0.0
 11
28.0
 21
81.755050659179688
 31
0.0
  0
LINE
  5
2F
100
AcDbEntity
  8
0
  6
CONTINUOUS
 62
               2
100
AcDbLine
 10
44.0
 20
-40.566173849525214
 30
0.0
 11
44.0
 21
81.755050659179688
 31
0.0
  0
LINE
  5
30
100
AcDbEntity
  8
0
  6
CONTINUOUS
 62
               2
100
AcDbLine
 10
60.0
 20
-38.272440029218423
 30
0.0
 11
60.0
 21
24.440475463867188
 31
0.0
  0
LINE
  5
31
100
AcDbEntity
  8
0
  6
CONTINUOUS
 62
               7
100
AcDbLine
 10
23.0
 20
24.499969482421875
 30
0.0
 11
33.0
 21
24.499969482421875
 31
0.0
  0
LINE
  5
32
100
AcDbEntity
  8
0
  6
CONTINUOUS
 62
               7
100
AcDbLine
 10
22.999996185302734
 20
26.499954223632812
 30
0.0
 11
32.999996185302734
 21
26.499954223632812
 31
0.0
  0
LINE
  5
33
100
AcDbEntity
  8
0
  6
CONTINUOUS
 62
               2
100
AcDbLine
 10
25.499996185302734
 20
32.699966430664063
 30
0.0
 11
30.499996185302734
 21
32.699966430664063
 31
0.0
  0
LINE
  5
34
100
AcDbEntity
  8
0
  6
CONTINUOUS
 62
             200
100
AcDbLine
 10
28.0
 20
-71.3123779296875
 30
0.0
 11
28.0
 21
-40.757318334550781
 31
0.0
  0
LINE
  5
35
100
AcDbEntity
  8
0
  6
CONTINUOUS
 62
               4
100
AcDbLine
 10
22.999996185302734
 20
59.999969482421875
 30
0.0
 11
32.999996185302734
 21
59.999969482421875
 31
0.0
  0
LINE
  5
36
100
AcDbEntity
  8
0
  6
CONTINUOUS
 62
               7
100
AcDbLine
 10
22.999996185302734
 20
35.999954223632813
 30
0.0
 11
32.999996185302734
 21
35.999954223632813
 31
0.0
  0
LINE
  5
37
100
AcDbEntity
  8
0
  6
CONTINUOUS
 62
               7
100
AcDbLine
 10
26.073207855224609
 20
32.39996337890625
 30
0.0
 11
29.926784515380859
 21
32.39996337890625
 31
0.0
  0
LINE
  5
38
100
AcDbEntity
  8
0
  6
CONTINUOUS
 62
               7
100
AcDbLine
 10
26.073207855224609
 20
32.999954223632812
 30
0.0
 11
29.926784515380859
 21
32.999954223632812
 31
0.0
  0
LINE
  5
39
100
AcDbEntity
  8
0
  6
CONTINUOUS
 62
               4
100
AcDbLine
 10
23.049995422363281
 20
59.999969482421875
 30
0.0
 11
23.049995422363281
 21
73.499984741210937
 31
0.0
  0
LINE
  5
3A
100
AcDbEntity
  8
0
  6
CONTINUOUS
 62
               4
100
AcDbLine
 10
32.5
 20
68.999969482421875
 30
0.0
 11
23.5
 21
68.999969482421875
 31
0.0
  0
LINE
  5
3B
100
AcDbEntity
  8
0
  6
CONTINUOUS
 62
               2
100
AcDbLine
 10
32.949993133544922
 20
64.499969482421875
 30
0.0
 11
23.049995422363281
 21
64.499969482421875
 31
0.0
  0
LINE
  5
3C
100
AcDbEntity
  8
0
  6
CONTINUOUS
 62
               4
100
AcDbLine
 10
32.949993133544922
 20
59.999969482421875
 30
0.0
 11
32.949993133544922
 21
73.499984741210937
 31
0.0
  0
LINE
  5
3D
100
AcDbEntity
  8
0
  6
CONTINUOUS
 62
               4
100
AcDbLine
 10
29.284996032714844
 20
79.999969482421875
 30
0.0
 11
29.284996032714844
 21
83.484100341796875
 31
0.0
  0
LINE
  5
3E
100
AcDbEntity
  8
0
  6
CONTINUOUS
 62
               4
100
AcDbLine
 10
30.715007781982422
 20
79.999969482421875
 30
0.0
 11
30.715007781982422
 21
84.309722900390625
 31
0.0
  0
LINE
  5
3F
100
AcDbEntity
  8
0
  6
CONTINUOUS
 62
               4
100
AcDbLine
 10
29.599998474121094
 20
87.999969482421875
 30
0.0
 11
29.599998474121094
 21
92.999969482421875
 31
0.0
  0
LINE
  5
40
100
AcDbEntity
  8
0
  6
CONTINUOUS
 62
               4
100
AcDbLine
 10
30.400005340576172
 20
87.999969482421875
 30
0.0
 11
30.400005340576172
 21
92.999969482421875
 31
0.0
  0
LINE
  5
41
100
AcDbEntity
  8
0
  6
CONTINUOUS
 62
               4
100
AcDbLine
 10
29.599994659423828
 20
92.999969482421875
 30
0.0
 11
30.399997711181641
 21
92.999969482421875
 31
0.0
  0
LINE
  5
42
100
AcDbEntity
  8
0
  6
CONTINUOUS
 62
               4
100
AcDbLine
 10
29.284992218017578
 20
87.999969482421875
 30
0.0
 11
30.715000152587891
 21
87.999969482421875
 31
0.0
  0
LINE
  5
43
100
AcDbEntity
  8
0
  6
CONTINUOUS
 62
             200
100
AcDbLine
 10
32.050024369684252
 20
85.080400805896716
 30
0.0
 11
23.950026147076642
 21
80.403864245838122
 31
0.0
  0
LINE
  5
44
100
AcDbEntity
  8
0
  6
CONTINUOUS
 62
               4
100
AcDbLine
 10
29.284996032714844
 20
84.6387939453125
 30
0.0
 11
29.284996032714844
 21
87.999969482421875
 31
0.0
  0
LINE
  5
45
100
AcDbEntity
  8
0
  6
CONTINUOUS
 62
               4
100
AcDbLine
 10
30.715007781982422
 20
85.46441650390625
 30
0.0
 11
30.715007781982422
 21
87.999969482421875
 31
0.0
  0
LINE
  5
46
100
AcDbEntity
  8
0
  6
CONTINUOUS
 62
               4
100
AcDbLine
 10
23.049999237060547
 20
73.499969482421875
 30
0.0
 11
24.5
 21
73.499969482421875
 31
0.0
  0
LINE
  5
47
100
AcDbEntity
  8
0
  6
CONTINUOUS
 62
               4
100
AcDbLine
 10
23.949996948242188
 20
68.999984741210937
 30
0.0
 11
23.949996948242188
 21
71.499984741210938
 31
0.0
  0
LINE
  5
48
100
AcDbEntity
  8
0
  6
CONTINUOUS
 62
               4
100
AcDbLine
 10
32.049999237060547
 20
68.999969482421875
 30
0.0
 11
32.049999237060547
 21
71.499984741210938
 31
0.0
  0
LINE
  5
49
100
AcDbEntity
  8
0
  6
CONTINUOUS
 62
               4
100
AcDbLine
 10
31.5
 20
69.498428344726563
 30
0.0
 11
31.5
 21
79.999969482421875
 31
0.0
  0
LINE
  5
4A
100
AcDbEntity
  8
0
  6
CONTINUOUS
 62
               4
100
AcDbLine
 10
24.5
 20
69.498428344726563
 30
0.0
 11
24.5
 21
79.999969482421875
 31
0.0
  0
LINE
  5
4B
100
AcDbEntity
  8
0
  6
CONTINUOUS
 62
               4
100
AcDbLine
 10
24.5
 20
69.498428344726563
 30
0.0
 11
31.5
 21
69.498428344726563
 31
0.0
  0
LINE
  5
4C
100
AcDbEntity
  8
0
  6
CONTINUOUS
 62
               4
100
AcDbLine
 10
24.5
 20
73.056121826171875
 30
0.0
 11
31.5
 21
73.056121826171875
 31
0.0
  0
LINE
  5
4D
100
AcDbEntity
  8
0
  6
CONTINUOUS
 62
               4
100
AcDbLine
 10
24.5
 20
78.499969482421875
 30
0.0
 11
31.5
 21
78.499969482421875
 31
0.0
  0
LINE
  5
4E
100
AcDbEntity
  8
0
  6
CONTINUOUS
 62
               4
100
AcDbLine
 10
23.100002288818359
 20
79.999969482421875
 30
0.0
 11
32.900001525878906
 21
79.999969482421875
 31
0.0
  0
LINE
  5
4F
100
AcDbEntity
  8
0
  6
CONTINUOUS
 62
               4
100
AcDbLine
 10
31.5
 20
73.499969482421875
 30
0.0
 11
32.949996948242188
 21
73.499969482421875
 31
0.0
  0
LINE
  5
50
100
AcDbEntity
  8
0
  6
CONTINUOUS
 62
               4
100
AcDbLine
 10
31.5
 20
72.499969482421875
 30
0.0
 11
32.050003051757813
 21
72.499969482421875
 31
0.0
  0
LINE
  5
51
100
AcDbEntity
  8
0
  6
CONTINUOUS
 62
               4
100
AcDbLine
 10
31.5
 20
71.499969482421875
 30
0.0
 11
32.050003051757813
 21
71.499969482421875
 31
0.0
  0
LINE
  5
52
100
AcDbEntity
  8
0
  6
CONTINUOUS
 62
               4
100
AcDbLine
 10
23.950000762939453
 20
72.499969482421875
 30
0.0
 11
24.5
 21
72.499969482421875
 31
0.0
  0
LINE
  5
53
100
AcDbEntity
  8
0
  6
CONTINUOUS
 62
               4
100
AcDbLine
 10
23.950000762939453
 20
71.499969482421875
 30
0.0
 11
24.5
 21
71.499969482421875
 31
0.0
  0
LINE
  5
54
100
AcDbEntity
  8
0
  6
CONTINUOUS
 62
               4
100
AcDbLine
 10
23.949996948242188
 20
72.499984741210937
 30
0.0
 11
23.949996948242188
 21
73.499984741210937
 31
0.0
  0
LINE
  5
55
100
AcDbEntity
  8
0
  6
CONTINUOUS
 62
               4
100
AcDbLine
 10
32.049999237060547
 20
72.499984741210937
 30
0.0
 11
32.049999237060547
 21
73.499984741210937
 31
0.0
  0
LINE
  5
56
100
AcDbEntity
  8
0
  6
CONTINUOUS
 62
               4
100
AcDbLine
 10
26.715007781982422
 20
83.155014038085938
 30
0.0
 11
26.715007781982422
 21
87.999969482421875
 31
0.0
  0
LINE
  5
57
100
AcDbEntity
  8
0
  6
CONTINUOUS
 62
               4
100
AcDbLine
 10
25.284996032714844
 20
82.329391479492187
 30
0.0
 11
25.284996032714844
 21
87.999969482421875
 31
0.0
  0
LINE
  5
58
100
AcDbEntity
  8
0
  6
CONTINUOUS
 62
               4
100
AcDbLine
 10
25.284992218017578
 20
87.999969482421875
 30
0.0
 11
26.715000152587891
 21
87.999969482421875
 31
0.0
  0
LINE
  5
59
100
AcDbEntity
  8
0
  6
CONTINUOUS
 62
               4
100
AcDbLine
 10
26.400005340576172
 20
87.999969482421875
 30
0.0
 11
26.400005340576172
 21
92.999969482421875
 31
0.0
  0
LINE
  5
5A
100
AcDbEntity
  8
0
  6
CONTINUOUS
 62
               4
100
AcDbLine
 10
25.599998474121094
 20
87.999969482421875
 30
0.0
 11
25.599998474121094
 21
92.999969482421875
 31
0.0
  0
LINE
  5
5B
100
AcDbEntity
  8
0
  6
CONTINUOUS
 62
               4
100
AcDbLine
 10
25.599994659423828
 20
92.999969482421875
 30
0.0
 11
26.399997711181641
 21
92.999969482421875
 31
0.0
  0
LINE
  5
5C
100
AcDbEntity
  8
0
  6
CONTINUOUS
 62
               4
100
AcDbLine
 10
26.715007781982422
 20
79.999969482421875
 30
0.0
 11
26.715007781982422
 21
82.00030517578125
 31
0.0
  0
LINE
  5
5D
100
AcDbEntity
  8
0
  6
CONTINUOUS
 62
               4
100
AcDbLine
 10
25.284996032714844
 20
79.999969482421875
 30
0.0
 11
25.284996032714844
 21
81.174697875976563
 31
0.0
  0
LINE
  5
5E
100
AcDbEntity
  8
0
  6
CONTINUOUS
 62
             200
100
AcDbLine
 10
32.049996071375062
 20
86.235189516816718
 30
0.0
 11
23.94998463426964
 21
81.558643654901061
 31
0.0
  0
LINE
  5
5F
100
AcDbEntity
  8
0
  6
CONTINUOUS
 62
               7
100
AcDbLine
 10
33.0
 20
24.499969482421875
 30
0.0
 11
33.0
 21
35.999954223632813
 31
0.0
  0
LINE
  5
60
100
AcDbEntity
  8
0
  6
CONTINUOUS
 62
               7
100
AcDbLine
 10
23.0
 20
24.499969482421875
 30
0.0
 11
23.0
 21
35.999954223632813
 31
0.0
  0
LINE
  5
61
100
AcDbEntity
  8
0
  6
CONTINUOUS
 62
               7
100
AcDbLine
 10
35.5
 20
-50.000030517578125
 30
0.0
 11
35.5
 21
-28.030807495117188
 31
0.0
  0
LINE
  5
62
100
AcDbEntity
  8
0
  6
CONTINUOUS
 62
               7
100
AcDbLine
 10
20.499996185302734
 20
14.499969482421875
 30
0.0
 11
35.499996185302734
 21
14.499969482421875
 31
0.0
  0
LINE
  5
63
100
AcDbEntity
  8
0
  6
CONTINUOUS
 62
               7
100
AcDbLine
 10
33.499992370605469
 20
10.699966430664063
 30
0.0
 11
35.200004577636719
 21
10.699966430664063
 31
0.0
  0
LINE
  5
64
100
AcDbEntity
  8
0
  6
CONTINUOUS
 62
               7
100
AcDbLine
 10
22.499992370605469
 20
-27.700027465820313
 30
0.0
 11
20.799995422363281
 21
-27.700027465820313
 31
0.0
  0
LINE
  5
65
100
AcDbEntity
  8
0
  6
CONTINUOUS
 62
               7
100
AcDbLine
 10
22.499992370605469
 20
-22.300033569335937
 30
0.0
 11
20.799995422363281
 21
-22.300033569335937
 31
0.0
  0
LINE
  5
66
100
AcDbEntity
  8
0
  6
CONTINUOUS
 62
               7
100
AcDbLine
 10
33.499988555908203
 20
5.2999763488769531
 30
0.0
 11
35.200004577636719
 21
5.2999763488769531
 31
0.0
  0
LINE
  5
67
100
AcDbEntity
  8
0
  6
CONTINUOUS
 62
               7
100
AcDbLine
 10
35.200004577636719
 20
14.299957275390625
 30
0.0
 11
20.799995422363281
 21
14.299957275390625
 31
0.0
  0
LINE
  5
68
100
AcDbEntity
  8
0
  6
CONTINUOUS
 62
               7
100
AcDbLine
 10
35.200004577636719
 20
-31.300018310546875
 30
0.0
 11
20.799995422363281
 21
-31.300018310546875
 31
0.0
  0
LINE
  5
69
100
AcDbEntity
  8
0
  6
CONTINUOUS
 62
               7
100
AcDbLine
 10
22.499988555908203
 20
7.2999763488769531
 30
0.0
 11
20.499988555908203
 21
7.2999763488769531
 31
0.0
  0
LINE
  5
6A
100
AcDbEntity
  8
0
  6
CONTINUOUS
 62
               7
100
AcDbLine
 10
33.499992370605469
 20
-24.300029754638672
 30
0.0
 11
35.499992370605469
 21
-24.300029754638672
 31
0.0
  0
LINE
  5
6B
100
AcDbEntity
  8
0
  6
CONTINUOUS
 62
               7
100
AcDbLine
 10
30.800003051757813
 20
-27.000030517578125
 30
0.0
 11
30.800003051757813
 21
-31.300018310546875
 31
0.0
  0
LINE
  5
6C
100
AcDbEntity
  8
0
  6
CONTINUOUS
 62
               7
100
AcDbLine
 10
25.20001220703125
 20
14.299957275390625
 30
0.0
 11
25.20001220703125
 21
9.9999542236328125
 31
0.0
  0
LINE
  5
6D
100
AcDbEntity
  8
0
  6
CONTINUOUS
 62
               7
100
AcDbLine
 10
30.799995422363281
 20
-29.300018310546875
 30
0.0
 11
20.499992370605469
 21
-29.300018310546875
 31
0.0
  0
LINE
  5
6E
100
AcDbEntity
  8
0
  6
CONTINUOUS
 62
               7
100
AcDbLine
 10
35.499992370605469
 20
12.299957275390625
 30
0.0
 11
25.200004577636719
 21
12.299957275390625
 31
0.0
  0
LINE
  5
6F
100
AcDbEntity
  8
0
  6
CONTINUOUS
 62
               7
100
AcDbLine
 10
20.499992370605469
 20
-31.500030517578125
 30
0.0
 11
35.499992370605469
 21
-31.500030517578125
 31
0.0
  0
LINE
  5
70
100
AcDbEntity
  8
0
  6
CONTINUOUS
 62
               7
100
AcDbLine
 10
20.499988555908203
 20
-41.500030517578125
 30
0.0
 11
35.499992370605469
 21
-41.500030517578125
 31
0.0
  0
LINE
  5
71
100
AcDbEntity
  8
0
  6
CONTINUOUS
 62
               7
100
AcDbLine
 10
20.999988555908203
 20
-50.500030517578125
 30
0.0
 11
34.999992370605469
 21
-50.500030517578125
 31
0.0
  0
LINE
  5
72
100
AcDbEntity
  8
0
  6
CONTINUOUS
 62
               7
100
AcDbLine
 10
34.419240944867738
 20
7.0807503551437776
 30
0.0
 11
32.580764579178208
 21
8.9192271857492642
 31
0.0
  0
LINE
  5
73
100
AcDbEntity
  8
0
  6
CONTINUOUS
 62
               7
100
AcDbLine
 10
23.419243892336226
 20
9.0807256307792841
 30
0.0
 11
21.580771572743743
 21
10.919198415286701
 31
0.0
  0
LINE
  5
74
100
AcDbEntity
  8
0
  6
CONTINUOUS
 62
               7
100
AcDbLine
 10
21.580776601836533
 20
9.0807226247374047
 30
0.0
 11
23.419250580071548
 21
10.919196448000662
 31
0.0
  0
LINE
  5
75
100
AcDbEntity
  8
0
  6
CONTINUOUS
 62
               7
100
AcDbLine
 10
32.580766405107681
 20
7.0807476019830347
 30
0.0
 11
34.419233639846482
 21
8.9192146817506455
 31
0.0
  0
LINE
  5
76
100
AcDbEntity
  8
0
  6
CONTINUOUS
 62
               4
100
AcDbLine
 10
32.899997711181641
 20
73.499984741210937
 30
0.0
 11
32.899997711181641
 21
79.999969482421875
 31
0.0
  0
LINE
  5
77
100
AcDbEntity
  8
0
  6
CONTINUOUS
 62
               4
100
AcDbLine
 10
23.099998474121094
 20
73.499984741210937
 30
0.0
 11
23.099998474121094
 21
79.999969482421875
 31
0.0
  0
LINE
  5
78
100
AcDbEntity
  8
0
  6
CONTINUOUS
 62
               4
100
AcDbLine
 10
24.0
 20
73.499984741210937
 30
0.0
 11
24.0
 21
79.999969482421875
 31
0.0
  0
LINE
  5
79
100
AcDbEntity
  8
0
  6
CONTINUOUS
 62
               4
100
AcDbLine
 10
32.0
 20
73.499984741210937
 30
0.0
 11
32.0
 21
79.999969482421875
 31
0.0
  0
LINE
  5
7A
100
AcDbEntity
  8
0
  6
CONTINUOUS
 62
               7
100
AcDbLine
 10
32.58076155821891
 20
-27.919279564847557
 30
0.0
 11
34.419239582551654
 21
-26.080801695486912
 31
0.0
  0
LINE
  5
7B
100
AcDbEntity
  8
0
  6
CONTINUOUS
 62
               7
100
AcDbLine
 10
34.419227752901122
 20
-27.919272765588289
 30
0.0
 11
32.58075813070667
 21
-26.080802678479586
 31
0.0
  0
LINE
  5
7C
100
AcDbEntity
  8
0
  6
CONTINUOUS
 62
               7
100
AcDbLine
 10
21.580775126697858
 20
-25.91925396587385
 30
0.0
 11
23.419244384485523
 21
-24.080784863057545
 31
0.0
  0
LINE
  5
7D
100
AcDbEntity
  8
0
  6
CONTINUOUS
 62
               7
100
AcDbLine
 10
23.419238118219141
 20
-25.919265795522847
 30
0.0
 11
21.580761752529611
 21
-24.08078896491736
 31
0.0
  0
LINE
  5
7E
100
AcDbEntity
  8
0
  6
CONTINUOUS
 62
               7
100
AcDbLine
 10
21.5
 20
-41.500030517578125
 30
0.0
 11
21.5
 21
-39.500030517578125
 31
0.0
  0
LINE
  5
7F
100
AcDbEntity
  8
0
  6
CONTINUOUS
 62
               7
100
AcDbLine
 10
21.999997138977051
 20
-39.500030517578125
 30
0.0
 11
20.499997138977051
 21
-39.500030517578125
 31
0.0
  0
LINE
  5
80
100
AcDbEntity
  8
0
  6
CONTINUOUS
 62
               7
100
AcDbLine
 10
21.999998092651367
 20
-33.500030517578125
 30
0.0
 11
20.499998092651367
 21
-33.500030517578125
 31
0.0
  0
LINE
  5
81
100
AcDbEntity
  8
0
  6
CONTINUOUS
 62
               7
100
AcDbLine
 10
21.5
 20
-31.500030517578125
 30
0.0
 11
21.5
 21
-33.500030517578125
 31
0.0
  0
LINE
  5
82
100
AcDbEntity
  8
0
  6
CONTINUOUS
 62
               7
100
AcDbLine
 10
34.499998092651367
 20
-31.500030517578125
 30
0.0
 11
34.499998092651367
 21
-33.500030517578125
 31
0.0
  0
LINE
  5
83
100
AcDbEntity
  8
0
  6
CONTINUOUS
 62
               7
100
AcDbLine
 10
33.999997138977051
 20
-33.500030517578125
 30
0.0
 11
35.499999046325684
 21
-33.500030517578125
 31
0.0
  0
LINE
  5
84
100
AcDbEntity
  8
0
  6
CONTINUOUS
 62
               7
100
AcDbLine
 10
33.999997138977051
 20
-39.500030517578125
 30
0.0
 11
35.499999046325684
 21
-39.500030517578125
 31
0.0
  0
LINE
  5
85
100
AcDbEntity
  8
0
  6
CONTINUOUS
 62
               7
100
AcDbLine
 10
34.499998092651367
 20
-41.500030517578125
 30
0.0
 11
34.499998092651367
 21
-39.500030517578125
 31
0.0
  0
LINE
  5
86
100
AcDbEntity
  8
0
  6
CONTINUOUS
 62
               7
100
AcDbLine
 10
26.073212623596191
 20
-37.800018310546875
 30
0.0
 11
29.926785469055176
 21
-37.800018310546875
 31
0.0
  0
LINE
  5
87
100
AcDbEntity
  8
0
  6
CONTINUOUS
 62
               2
100
AcDbLine
 10
25.383332252502441
 20
-37.500030517578125
 30
0.0
 11
30.616665840148926
 21
-37.500030517578125
 31
0.0
  0
LINE
  5
88
100
AcDbEntity
  8
0
  6
CONTINUOUS
 62
               7
100
AcDbLine
 10
26.073212623596191
 20
-37.200027465820312
 30
0.0
 11
29.926785469055176
 21
-37.200027465820312
 31
0.0
  0
LINE
  5
89
100
AcDbEntity
  8
0
  6
CONTINUOUS
 62
               7
100
AcDbLine
 10
30.5
 20
32.699981689453125
 30
0.0
 11
31.5
 21
32.699981689453125
 31
0.0
  0
LINE
  5
8A
100
AcDbEntity
  8
0
  6
CONTINUOUS
 62
               7
100
AcDbLine
 10
28.0
 20
29.199981689453125
 30
0.0
 11
28.0
 21
30.199981689453125
 31
0.0
  0
LINE
  5
8B
100
AcDbEntity
  8
0
  6
CONTINUOUS
 62
               7
100
AcDbLine
 10
27.999996467425603
 20
29.699978468269705
 30
0.0
 11
28.999995756830231
 21
29.432029525703456
 31
0.0
  0
LINE
  5
8C
100
AcDbEntity
  8
0
  6
CONTINUOUS
 62
               7
100
AcDbLine
 10
35.5
 20
9.5
 30
0.0
 11
35.5
 21
22.999984741210937
 31
0.0
  0
LINE
  5
8D
100
AcDbEntity
  8
0
  6
CONTINUOUS
 62
               7
100
AcDbLine
 10
35.5
 20
-25.969223022460937
 30
0.0
 11
35.5
 21
6.5000114440917969
 31
0.0
  0
LINE
  5
8E
100
AcDbEntity
  8
0
  6
CONTINUOUS
 62
               7
100
AcDbLine
 10
20.5
 20
-23.499996185302734
 30
0.0
 11
20.5
 21
8.9692230224609375
 31
0.0
  0
LINE
  5
8F
100
AcDbEntity
  8
0
  6
CONTINUOUS
 62
               7
100
AcDbLine
 10
20.5
 20
-50.0
 30
0.0
 11
20.5
 21
-26.499984741210938
 31
0.0
  0
LINE
  5
90
100
AcDbEntity
  8
0
  6
CONTINUOUS
 62
               7
100
AcDbLine
 10
33.499954714616251
 20
24.999987472068824
 30
0.0
 11
35.499978248391926
 21
22.999963601114359
 31
0.0
  0
LINE
  5
91
100
AcDbEntity
  8
0
  6
CONTINUOUS
 62
               7
100
AcDbLine
 10
33.5
 20
24.999984741210937
 30
0.0
 11
33.0
 21
24.999984741210937
 31
0.0
  0
LINE
  5
92
100
AcDbEntity
  8
0
  6
CONTINUOUS
 62
               7
100
AcDbLine
 10
22.5
 20
24.999984741210937
 30
0.0
 11
23.0
 21
24.999984741210937
 31
0.0
  0
LINE
  5
93
100
AcDbEntity
  8
0
  6
CONTINUOUS
 62
               7
100
AcDbLine
 10
22.500009587001841
 20
24.999985154001479
 30
0.0
 11
20.500008475348295
 21
22.999982019297022
 31
0.0
  0
LINE
  5
94
100
AcDbEntity
  8
0
  6
CONTINUOUS
 62
               7
100
AcDbLine
 10
20.5
 20
11.030731201171875
 30
0.0
 11
20.5
 21
22.999984741210937
 31
0.0
  0
LINE
  5
95
100
AcDbEntity
  8
0
  6
CONTINUOUS
 62
               7
100
AcDbLine
 10
28.00000190254741
 20
-34.000030517578125
 30
0.0
 11
28.00000190254741
 21
-35.000030517578125
 31
0.0
  0
LINE
  5
96
100
AcDbEntity
  8
0
  6
CONTINUOUS
 62
               7
100
AcDbLine
 10
27.999997176377917
 20
-34.500017718366223
 30
0.0
 11
26.999997948680516
 21
-34.232068590678296
 31
0.0
  0
LINE
  5
97
100
AcDbEntity
  8
0
  6
CONTINUOUS
 62
               7
100
AcDbLine
 10
25.499996185302734
 20
-37.500030517578125
 30
0.0
 11
24.499996185302734
 21
-37.500030517578125
 31
0.0
  0
CIRCLE
  5
98
100
AcDbEntity
  8
0
  6
CONTINUOUS
 62
               7
100
AcDbCircle
 10
28.0
 20
32.699966430664063
 30
0.0
 40
2.0
  0
CIRCLE
  5
99
100
AcDbEntity
  8
0
  6
CONTINUOUS
 62
               7
100
AcDbCircle
 10
28.0
 20
32.699966430664063
 30
0.0
 40
1.9499998092651367
  0
ARC
  5
9A
100
AcDbEntity
  8
0
  6
CONTINUOUS
 62
               4
100
AcDbCircle
 10
32.450000762939453
 20
68.499969482421875
 30
0.0
 40
0.5
100
AcDbArc
 50
359.99995901886416
 51
89.999982013910454
  0
ARC
  5
9B
100
AcDbEntity
  8
0
  6
CONTINUOUS
 62
               4
100
AcDbCircle
 10
23.549999237060547
 20
68.499984741210937
 30
0.0
 40
0.5
100
AcDbArc
 50
89.999982013910454
 51
179.99996402782091
  0
ARC
  5
9C
100
AcDbEntity
  8
0
  6
CONTINUOUS
 62
               7
100
AcDbCircle
 10
33.499988555908203
 20
7.999969482421875
 30
0.0
 40
2.6999998092651367
100
AcDbArc
 50
89.999982013910454
 51
270.00000068324471
  0
ARC
  5
9D
100
AcDbEntity
  8
0
  6
CONTINUOUS
 62
               7
100
AcDbCircle
 10
22.499996185302734
 20
-25.000030517578125
 30
0.0
 40
2.6999998092651367
100
AcDbArc
 50
270.00001798608872
 51
89.999982013910454
  0
CIRCLE
  5
9E
100
AcDbEntity
  8
0
  6
CONTINUOUS
 62
               7
100
AcDbCircle
 10
33.499996185302734
 20
7.9999847412109375
 30
0.0
 40
2.25
  0
ARC
  5
9F
100
AcDbEntity
  8
0
  6
CONTINUOUS
 62
               7
100
AcDbCircle
 10
22.500007629394531
 20
9.999969482421875
 30
0.0
 40
2.6999998092651367
100
AcDbArc
 50
270.00001798608872
 51
0.0
  0
ARC
  5
A0
100
AcDbEntity
  8
0
  6
CONTINUOUS
 62
               7
100
AcDbCircle
 10
35.200004577636719
 20
10.999954223632812
 30
0.0
 40
0.300000011920929
100
AcDbArc
 50
270.00001798608872
 51
0.0
  0
ARC
  5
A1
100
AcDbEntity
  8
0
  6
CONTINUOUS
 62
               7
100
AcDbCircle
 10
20.799999237060547
 20
-22.000038146972656
 30
0.0
 40
0.300000011920929
100
AcDbArc
 50
179.99996402782091
 51
270.00000068324471
  0
ARC
  5
A2
100
AcDbEntity
  8
0
  6
CONTINUOUS
 62
               7
100
AcDbCircle
 10
35.200004577636719
 20
4.9999732971191406
 30
0.0
 40
0.300000011920929
100
AcDbArc
 50
0.0
 51
89.999982013910454
  0
ARC
  5
A3
100
AcDbEntity
  8
0
  6
CONTINUOUS
 62
               7
100
AcDbCircle
 10
20.799999237060547
 20
-28.000015258789063
 30
0.0
 40
0.300000011920929
100
AcDbArc
 50
89.999982013910454
 51
179.99996402782091
  0
ARC
  5
A4
100
AcDbEntity
  8
0
  6
CONTINUOUS
 62
               7
100
AcDbCircle
 10
20.799995422363281
 20
13.999969482421875
 30
0.0
 40
0.300000011920929
100
AcDbArc
 50
89.999982013910454
 51
179.99996402782091
  0
ARC
  5
A5
100
AcDbEntity
  8
0
  6
CONTINUOUS
 62
               7
100
AcDbCircle
 10
35.200004577636719
 20
13.999969482421875
 30
0.0
 40
0.300000011920929
100
AcDbArc
 50
0.0
 51
89.999982013910454
  0
ARC
  5
A6
100
AcDbEntity
  8
0
  6
CONTINUOUS
 62
               7
100
AcDbCircle
 10
35.200004577636719
 20
-31.000015258789063
 30
0.0
 40
0.300000011920929
100
AcDbArc
 50
270.00001798608872
 51
0.0
  0
ARC
  5
A7
100
AcDbEntity
  8
0
  6
CONTINUOUS
 62
               7
100
AcDbCircle
 10
20.799999237060547
 20
-31.000015258789063
 30
0.0
 40
0.300000011920929
100
AcDbArc
 50
179.99996402782091
 51
270.00000068324471
  0
ARC
  5
A8
100
AcDbEntity
  8
0
  6
CONTINUOUS
 62
               7
100
AcDbCircle
 10
33.499996185302734
 20
-27.000030517578125
 30
0.0
 40
2.6999998092651367
100
AcDbArc
 50
89.999982013910454
 51
179.99996402782091
  0
ARC
  5
A9
100
AcDbEntity
  8
0
  6
CONTINUOUS
 62
               7
100
AcDbCircle
 10
20.999992370605469
 20
-50.000030517578125
 30
0.0
 40
0.5
100
AcDbArc
 50
179.99996402782091
 51
269.99994604173139
  0
ARC
  5
AA
100
AcDbEntity
  8
0
  6
CONTINUOUS
 62
               7
100
AcDbCircle
 10
34.999992370605469
 20
-50.000030517578125
 30
0.0
 40
0.5
100
AcDbArc
 50
270.00001798608872
 51
0.00001366037834
  0
CIRCLE
  5
AB
100
AcDbEntity
  8
0
  6
CONTINUOUS
 62
               7
100
AcDbCircle
 10
22.500007629394531
 20
9.9999542236328125
 30
0.0
 40
2.25
  0
CIRCLE
  5
AC
100
AcDbEntity
  8
0
  6
CONTINUOUS
 62
               7
100
AcDbCircle
 10
33.499996185302734
 20
-27.000030517578125
 30
0.0
 40
2.25
  0
CIRCLE
  5
AD
100
AcDbEntity
  8
0
  6
CONTINUOUS
 62
               7
100
AcDbCircle
 10
22.500003814697266
 20
-25.000015258789063
 30
0.0
 40
2.25
  0
CIRCLE
  5
AE
100
AcDbEntity
  8
0
  6
CONTINUOUS
 62
               7
100
AcDbCircle
 10
28.000000981472112
 20
-37.500030517578125
 30
0.0
 40
1.9499998092651367
  0
ARC
  5
AF
100
AcDbEntity
  8
0
  6
CONTINUOUS
 62
               7
100
AcDbCircle
 10
28.099999964237213
 20
32.699981689453125
 30
0.0
 40
3.0
100
AcDbArc
 50
268.089805320533
 51
0.0
  0
ARC
  5
B0
100
AcDbEntity
  8
0
  6
CONTINUOUS
 62
               7
100
AcDbCircle
 10
28.0
 20
32.699981689453125
 30
0.0
 40
3.0
100
AcDbArc
 50
266.17746163595609
 51
3.822566595416411
  0
ARC
  5
B1
100
AcDbEntity
  8
0
  6
CONTINUOUS
 62
               7
100
AcDbCircle
 10
27.900000035762787
 20
32.699981689453125
 30
0.0
 40
3.0
100
AcDbArc
 50
271.91023065164455
 51
0.0
  0
CIRCLE
  5
B2
100
AcDbEntity
  8
0
  6
CONTINUOUS
 62
               7
100
AcDbCircle
 10
33.5
 20
8.0
 30
0.0
 40
2.5
  0
CIRCLE
  5
B3
100
AcDbEntity
  8
0
  6
CONTINUOUS
 62
               7
100
AcDbCircle
 10
22.5
 20
-24.999984741210937
 30
0.0
 40
2.5
  0
ARC
  5
B4
100
AcDbEntity
  8
0
  6
CONTINUOUS
 62
               7
100
AcDbCircle
 10
27.999995681519977
 20
-37.500030517578125
 30
0.0
 40
3.0
100
AcDbArc
 50
86.177425663777811
 51
183.82257501946691
  0
ARC
  5
B5
100
AcDbEntity
  8
0
  6
CONTINUOUS
 62
               7
100
AcDbCircle
 10
27.899995684623718
 20
-37.500030517578125
 30
0.0
 40
3.0
100
AcDbArc
 50
88.08976934835465
 51
179.99996402782091
  0
ARC
  5
B6
100
AcDbEntity
  8
0
  6
CONTINUOUS
 62
               7
100
AcDbCircle
 10
28.099995672702789
 20
-37.500030517578125
 30
0.0
 40
3.0
100
AcDbArc
 50
91.910194679466258
 51
179.99996402782091
  0
LINE
  5
B7
100
AcDbEntity
  8
0
  6
CONTINUOUS
 62
               7
100
AcDbLine
 10
39.0
 20
24.499969482421875
 30
0.0
 11
49.0
 21
24.499969482421875
 31
0.0
  0
LINE
  5
B8
100
AcDbEntity
  8
0
  6
CONTINUOUS
 62
               7
100
AcDbLine
 10
38.999996185302734
 20
26.499954223632812
 30
0.0
 11
48.999996185302734
 21
26.499954223632812
 31
0.0
  0
LINE
  5
B9
100
AcDbEntity
  8
0
  6
CONTINUOUS
 62
               2
100
AcDbLine
 10
41.499996185302734
 20
32.699966430664063
 30
0.0
 11
46.499996185302734
 21
32.699966430664063
 31
0.0
  0
LINE
  5
BA
100
AcDbEntity
  8
0
  6
CONTINUOUS
 62
             200
100
AcDbLine
 10
44.0
 20
-71.3123779296875
 30
0.0
 11
44.0
 21
-40.000015258789063
 31
0.0
  0
LINE
  5
BB
100
AcDbEntity
  8
0
  6
CONTINUOUS
 62
               4
100
AcDbLine
 10
38.999996185302734
 20
59.999969482421875
 30
0.0
 11
48.999996185302734
 21
59.999969482421875
 31
0.0
  0
LINE
  5
BC
100
AcDbEntity
  8
0
  6
CONTINUOUS
 62
               7
100
AcDbLine
 10
38.999996185302734
 20
35.999954223632813
 30
0.0
 11
48.999996185302734
 21
35.999954223632813
 31
0.0
  0
LINE
  5
BD
100
AcDbEntity
  8
0
  6
CONTINUOUS
 62
               7
100
AcDbLine
 10
42.073207855224609
 20
32.39996337890625
 30
0.0
 11
45.926784515380859
 21
32.39996337890625
 31
0.0
  0
LINE
  5
BE
100
AcDbEntity
  8
0
  6
CONTINUOUS
 62
               7
100
AcDbLine
 10
42.073207855224609
 20
32.999954223632812
 30
0.0
 11
45.926784515380859
 21
32.999954223632812
 31
0.0
  0
LINE
  5
BF
100
AcDbEntity
  8
0
  6
CONTINUOUS
 62
               4
100
AcDbLine
 10
39.049995422363281
 20
59.999969482421875
 30
0.0
 11
39.049995422363281
 21
73.499984741210937
 31
0.0
  0
LINE
  5
C0
100
AcDbEntity
  8
0
  6
CONTINUOUS
 62
               4
100
AcDbLine
 10
48.5
 20
68.999969482421875
 30
0.0
 11
39.5
 21
68.999969482421875
 31
0.0
  0
LINE
  5
C1
100
AcDbEntity
  8
0
  6
CONTINUOUS
 62
               2
100
AcDbLine
 10
48.949993133544922
 20
64.499969482421875
 30
0.0
 11
39.049995422363281
 21
64.499969482421875
 31
0.0
  0
LINE
  5
C2
100
AcDbEntity
  8
0
  6
CONTINUOUS
 62
               4
100
AcDbLine
 10
48.949993133544922
 20
59.999969482421875
 30
0.0
 11
48.949993133544922
 21
73.499984741210937
 31
0.0
  0
LINE
  5
C3
100
AcDbEntity
  8
0
  6
CONTINUOUS
 62
               4
100
AcDbLine
 10
45.284996032714844
 20
79.999969482421875
 30
0.0
 11
45.284996032714844
 21
83.484100341796875
 31
0.0
  0
LINE
  5
C4
100
AcDbEntity
  8
0
  6
CONTINUOUS
 62
               4
100
AcDbLine
 10
46.715007781982422
 20
79.999969482421875
 30
0.0
 11
46.715007781982422
 21
84.309722900390625
 31
0.0
  0
LINE
  5
C5
100
AcDbEntity
  8
0
  6
CONTINUOUS
 62
               4
100
AcDbLine
 10
45.599998474121094
 20
87.999969482421875
 30
0.0
 11
45.599998474121094
 21
92.999969482421875
 31
0.0
  0
LINE
  5
C6
100
AcDbEntity
  8
0
  6
CONTINUOUS
 62
               4
100
AcDbLine
 10
46.400005340576172
 20
87.999969482421875
 30
0.0
 11
46.400005340576172
 21
92.999969482421875
 31
0.0
  0
LINE
  5
C7
100
AcDbEntity
  8
0
  6
CONTINUOUS
 62
               4
100
AcDbLine
 10
45.599994659423828
 20
92.999969482421875
 30
0.0
 11
46.399997711181641
 21
92.999969482421875
 31
0.0
  0
LINE
  5
C8
100
AcDbEntity
  8
0
  6
CONTINUOUS
 62
               4
100
AcDbLine
 10
45.284992218017578
 20
87.999969482421875
 30
0.0
 11
46.715000152587891
 21
87.999969482421875
 31
0.0
  0
LINE
  5
C9
100
AcDbEntity
  8
0
  6
CONTINUOUS
 62
             200
100
AcDbLine
 10
48.050024369684252
 20
85.080400805896716
 30
0.0
 11
39.950026147076642
 21
80.403864245838122
 31
0.0
  0
LINE
  5
CA
100
AcDbEntity
  8
0
  6
CONTINUOUS
 62
               4
100
AcDbLine
 10
45.284996032714844
 20
84.6387939453125
 30
0.0
 11
45.284996032714844
 21
87.999969482421875
 31
0.0
  0
LINE
  5
CB
100
AcDbEntity
  8
0
  6
CONTINUOUS
 62
               4
100
AcDbLine
 10
46.715007781982422
 20
85.46441650390625
 30
0.0
 11
46.715007781982422
 21
87.999969482421875
 31
0.0
  0
LINE
  5
CC
100
AcDbEntity
  8
0
  6
CONTINUOUS
 62
               4
100
AcDbLine
 10
39.049999237060547
 20
73.499969482421875
 30
0.0
 11
40.5
 21
73.499969482421875
 31
0.0
  0
LINE
  5
CD
100
AcDbEntity
  8
0
  6
CONTINUOUS
 62
               4
100
AcDbLine
 10
39.949996948242187
 20
68.999984741210937
 30
0.0
 11
39.949996948242187
 21
71.499984741210938
 31
0.0
  0
LINE
  5
CE
100
AcDbEntity
  8
0
  6
CONTINUOUS
 62
               4
100
AcDbLine
 10
48.049999237060547
 20
68.999969482421875
 30
0.0
 11
48.049999237060547
 21
71.499984741210938
 31
0.0
  0
LINE
  5
CF
100
AcDbEntity
  8
0
  6
CONTINUOUS
 62
               4
100
AcDbLine
 10
47.5
 20
69.498428344726563
 30
0.0
 11
47.5
 21
79.999969482421875
 31
0.0
  0
LINE
  5
D0
100
AcDbEntity
  8
0
  6
CONTINUOUS
 62
               4
100
AcDbLine
 10
40.5
 20
69.498428344726563
 30
0.0
 11
40.5
 21
79.999969482421875
 31
0.0
  0
LINE
  5
D1
100
AcDbEntity
  8
0
  6
CONTINUOUS
 62
               4
100
AcDbLine
 10
40.5
 20
69.498428344726563
 30
0.0
 11
47.5
 21
69.498428344726563
 31
0.0
  0
LINE
  5
D2
100
AcDbEntity
  8
0
  6
CONTINUOUS
 62
               4
100
AcDbLine
 10
40.5
 20
73.056121826171875
 30
0.0
 11
47.5
 21
73.056121826171875
 31
0.0
  0
LINE
  5
D3
100
AcDbEntity
  8
0
  6
CONTINUOUS
 62
               4
100
AcDbLine
 10
40.5
 20
78.499969482421875
 30
0.0
 11
47.5
 21
78.499969482421875
 31
0.0
  0
LINE
  5
D4
100
AcDbEntity
  8
0
  6
CONTINUOUS
 62
               4
100
AcDbLine
 10
39.100002288818359
 20
79.999969482421875
 30
0.0
 11
48.900001525878906
 21
79.999969482421875
 31
0.0
  0
LINE
  5
D5
100
AcDbEntity
  8
0
  6
CONTINUOUS
 62
               4
100
AcDbLine
 10
47.5
 20
73.499969482421875
 30
0.0
 11
48.949996948242188
 21
73.499969482421875
 31
0.0
  0
LINE
  5
D6
100
AcDbEntity
  8
0
  6
CONTINUOUS
 62
               4
100
AcDbLine
 10
47.5
 20
72.499969482421875
 30
0.0
 11
48.050003051757813
 21
72.499969482421875
 31
0.0
  0
LINE
  5
D7
100
AcDbEntity
  8
0
  6
CONTINUOUS
 62
               4
100
AcDbLine
 10
47.5
 20
71.499969482421875
 30
0.0
 11
48.050003051757813
 21
71.499969482421875
 31
0.0
  0
LINE
  5
D8
100
AcDbEntity
  8
0
  6
CONTINUOUS
 62
               4
100
AcDbLine
 10
39.950000762939453
 20
72.499969482421875
 30
0.0
 11
40.5
 21
72.499969482421875
 31
0.0
  0
LINE
  5
D9
100
AcDbEntity
  8
0
  6
CONTINUOUS
 62
               4
100
AcDbLine
 10
39.950000762939453
 20
71.499969482421875
 30
0.0
 11
40.5
 21
71.499969482421875
 31
0.0
  0
LINE
  5
DA
100
AcDbEntity
  8
0
  6
CONTINUOUS
 62
               4
100
AcDbLine
 10
39.949996948242187
 20
72.499984741210937
 30
0.0
 11
39.949996948242187
 21
73.499984741210937
 31
0.0
  0
LINE
  5
DB
100
AcDbEntity
  8
0
  6
CONTINUOUS
 62
               4
100
AcDbLine
 10
48.049999237060547
 20
72.499984741210937
 30
0.0
 11
48.049999237060547
 21
73.499984741210937
 31
0.0
  0
LINE
  5
DC
100
AcDbEntity
  8
0
  6
CONTINUOUS
 62
               4
100
AcDbLine
 10
42.715007781982422
 20
83.155014038085938
 30
0.0
 11
42.715007781982422
 21
87.999969482421875
 31
0.0
  0
LINE
  5
DD
100
AcDbEntity
  8
0
  6
CONTINUOUS
 62
               4
100
AcDbLine
 10
41.284996032714844
 20
82.329391479492187
 30
0.0
 11
41.284996032714844
 21
87.999969482421875
 31
0.0
  0
LINE
  5
DE
100
AcDbEntity
  8
0
  6
CONTINUOUS
 62
               4
100
AcDbLine
 10
41.284992218017578
 20
87.999969482421875
 30
0.0
 11
42.715000152587891
 21
87.999969482421875
 31
0.0
  0
LINE
  5
DF
100
AcDbEntity
  8
0
  6
CONTINUOUS
 62
               4
100
AcDbLine
 10
42.400005340576172
 20
87.999969482421875
 30
0.0
 11
42.400005340576172
 21
92.999969482421875
 31
0.0
  0
LINE
  5
E0
100
AcDbEntity
  8
0
  6
CONTINUOUS
 62
               4
100
AcDbLine
 10
41.599998474121094
 20
87.999969482421875
 30
0.0
 11
41.599998474121094
 21
92.999969482421875
 31
0.0
  0
LINE
  5
E1
100
AcDbEntity
  8
0
  6
CONTINUOUS
 62
               4
100
AcDbLine
 10
41.599994659423828
 20
92.999969482421875
 30
0.0
 11
42.399997711181641
 21
92.999969482421875
 31
0.0
  0
LINE
  5
E2
100
AcDbEntity
  8
0
  6
CONTINUOUS
 62
               4
100
AcDbLine
 10
42.715007781982422
 20
79.999969482421875
 30
0.0
 11
42.715007781982422
 21
82.00030517578125
 31
0.0
  0
LINE
  5
E3
100
AcDbEntity
  8
0
  6
CONTINUOUS
 62
               4
100
AcDbLine
 10
41.284996032714844
 20
79.999969482421875
 30
0.0
 11
41.284996032714844
 21
81.174697875976563
 31
0.0
  0
LINE
  5
E4
100
AcDbEntity
  8
0
  6
CONTINUOUS
 62
             200
100
AcDbLine
 10
48.049996071375062
 20
86.235189516816718
 30
0.0
 11
39.94998463426964
 21
81.558643654901061
 31
0.0
  0
LINE
  5
E5
100
AcDbEntity
  8
0
  6
CONTINUOUS
 62
               7
100
AcDbLine
 10
49.0
 20
24.499969482421875
 30
0.0
 11
49.0
 21
35.999954223632813
 31
0.0
  0
LINE
  5
E6
100
AcDbEntity
  8
0
  6
CONTINUOUS
 62
               7
100
AcDbLine
 10
39.0
 20
24.499969482421875
 30
0.0
 11
39.0
 21
35.999954223632813
 31
0.0
  0
LINE
  5
E7
100
AcDbEntity
  8
0
  6
CONTINUOUS
 62
               7
100
AcDbLine
 10
51.5
 20
-50.000030517578125
 30
0.0
 11
51.5
 21
-28.030807495117188
 31
0.0
  0
LINE
  5
E8
100
AcDbEntity
  8
0
  6
CONTINUOUS
 62
               7
100
AcDbLine
 10
36.499996185302734
 20
14.499969482421875
 30
0.0
 11
51.499996185302734
 21
14.499969482421875
 31
0.0
  0
LINE
  5
E9
100
AcDbEntity
  8
0
  6
CONTINUOUS
 62
               7
100
AcDbLine
 10
49.499992370605469
 20
10.699966430664063
 30
0.0
 11
51.200004577636719
 21
10.699966430664063
 31
0.0
  0
LINE
  5
EA
100
AcDbEntity
  8
0
  6
CONTINUOUS
 62
               7
100
AcDbLine
 10
38.499992370605469
 20
-27.700027465820313
 30
0.0
 11
36.799995422363281
 21
-27.700027465820313
 31
0.0
  0
LINE
  5
EB
100
AcDbEntity
  8
0
  6
CONTINUOUS
 62
               7
100
AcDbLine
 10
38.499992370605469
 20
-22.300033569335937
 30
0.0
 11
36.799995422363281
 21
-22.300033569335937
 31
0.0
  0
LINE
  5
EC
100
AcDbEntity
  8
0
  6
CONTINUOUS
 62
               7
100
AcDbLine
 10
49.499988555908203
 20
5.2999763488769531
 30
0.0
 11
51.200004577636719
 21
5.2999763488769531
 31
0.0
  0
LINE
  5
ED
100
AcDbEntity
  8
0
  6
CONTINUOUS
 62
               7
100
AcDbLine
 10
51.200004577636719
 20
14.299957275390625
 30
0.0
 11
36.799995422363281
 21
14.299957275390625
 31
0.0
  0
LINE
  5
EE
100
AcDbEntity
  8
0
  6
CONTINUOUS
 62
               7
100
AcDbLine
 10
51.200004577636719
 20
-31.300018310546875
 30
0.0
 11
36.799995422363281
 21
-31.300018310546875
 31
0.0
  0
LINE
  5
EF
100
AcDbEntity
  8
0
  6
CONTINUOUS
 62
               7
100
AcDbLine
 10
38.499988555908203
 20
7.2999763488769531
 30
0.0
 11
36.499988555908203
 21
7.2999763488769531
 31
0.0
  0
LINE
  5
F0
100
AcDbEntity
  8
0
  6
CONTINUOUS
 62
               7
100
AcDbLine
 10
49.499992370605469
 20
-24.300029754638672
 30
0.0
 11
51.499992370605469
 21
-24.300029754638672
 31
0.0
  0
LINE
  5
F1
100
AcDbEntity
  8
0
  6
CONTINUOUS
 62
               7
100
AcDbLine
 10
46.800003051757813
 20
-27.000030517578125
 30
0.0
 11
46.800003051757813
 21
-31.300018310546875
 31
0.0
  0
LINE
  5
F2
100
AcDbEntity
  8
0
  6
CONTINUOUS
 62
               7
100
AcDbLine
 10
41.20001220703125
 20
14.299957275390625
 30
0.0
 11
41.20001220703125
 21
9.9999542236328125
 31
0.0
  0
LINE
  5
F3
100
AcDbEntity
  8
0
  6
CONTINUOUS
 62
               7
100
AcDbLine
 10
46.799995422363281
 20
-29.300018310546875
 30
0.0
 11
36.499992370605469
 21
-29.300018310546875
 31
0.0
  0
LINE
  5
F4
100
AcDbEntity
  8
0
  6
CONTINUOUS
 62
               7
100
AcDbLine
 10
51.499992370605469
 20
12.299957275390625
 30
0.0
 11
41.200004577636719
 21
12.299957275390625
 31
0.0
  0
LINE
  5
F5
100
AcDbEntity
  8
0
  6
CONTINUOUS
 62
               7
100
AcDbLine
 10
36.499992370605469
 20
-31.500030517578125
 30
0.0
 11
51.499992370605469
 21
-31.500030517578125
 31
0.0
  0
LINE
  5
F6
100
AcDbEntity
  8
0
  6
CONTINUOUS
 62
               7
100
AcDbLine
 10
36.499988555908203
 20
-41.500030517578125
 30
0.0
 11
51.499992370605469
 21
-41.500030517578125
 31
0.0
  0
LINE
  5
F7
100
AcDbEntity
  8
0
  6
CONTINUOUS
 62
               7
100
AcDbLine
 10
36.999988555908203
 20
-50.500030517578125
 30
0.0
 11
50.999992370605469
 21
-50.500030517578125
 31
0.0
  0
LINE
  5
F8
100
AcDbEntity
  8
0
  6
CONTINUOUS
 62
               7
100
AcDbLine
 10
50.419240944867738
 20
7.0807503551437776
 30
0.0
 11
48.580764579178208
 21
8.9192271857492642
 31
0.0
  0
LINE
  5
F9
100
AcDbEntity
  8
0
  6
CONTINUOUS
 62
               7
100
AcDbLine
 10
39.419243892336226
 20
9.0807256307792841
 30
0.0
 11
37.580771572743743
 21
10.919198415286701
 31
0.0
  0
LINE
  5
FA
100
AcDbEntity
  8
0
  6
CONTINUOUS
 62
               7
100
AcDbLine
 10
37.580776601836533
 20
9.0807226247374047
 30
0.0
 11
39.419250580071548
 21
10.919196448000662
 31
0.0
  0
LINE
  5
FB
100
AcDbEntity
  8
0
  6
CONTINUOUS
 62
               7
100
AcDbLine
 10
48.580766405107681
 20
7.0807476019830347
 30
0.0
 11
50.419233639846482
 21
8.9192146817506455
 31
0.0
  0
LINE
  5
FC
100
AcDbEntity
  8
0
  6
CONTINUOUS
 62
               4
100
AcDbLine
 10
48.899997711181641
 20
73.499984741210937
 30
0.0
 11
48.899997711181641
 21
79.999969482421875
 31
0.0
  0
LINE
  5
FD
100
AcDbEntity
  8
0
  6
CONTINUOUS
 62
               4
100
AcDbLine
 10
39.099998474121094
 20
73.499984741210937
 30
0.0
 11
39.099998474121094
 21
79.999969482421875
 31
0.0
  0
LINE
  5
FE
100
AcDbEntity
  8
0
  6
CONTINUOUS
 62
               4
100
AcDbLine
 10
40.0
 20
73.499984741210937
 30
0.0
 11
40.0
 21
79.999969482421875
 31
0.0
  0
LINE
  5
FF
100
AcDbEntity
  8
0
  6
CONTINUOUS
 62
               4
100
AcDbLine
 10
48.0
 20
73.499984741210937
 30
0.0
 11
48.0
 21
79.999969482421875
 31
0.0
  0
LINE
  5
100
100
AcDbEntity
  8
0
  6
CONTINUOUS
 62
               7
100
AcDbLine
 10
48.58076155821891
 20
-27.919279564847557
 30
0.0
 11
50.419239582551654
 21
-26.080801695486912
 31
0.0
  0
LINE
  5
101
100
AcDbEntity
  8
0
  6
CONTINUOUS
 62
               7
100
AcDbLine
 10
50.419227752901122
 20
-27.919272765588289
 30
0.0
 11
48.58075813070667
 21
-26.080802678479586
 31
0.0
  0
LINE
  5
102
100
AcDbEntity
  8
0
  6
CONTINUOUS
 62
               7
100
AcDbLine
 10
37.580775126697858
 20
-25.91925396587385
 30
0.0
 11
39.419244384485523
 21
-24.080784863057545
 31
0.0
  0
LINE
  5
103
100
AcDbEntity
  8
0
  6
CONTINUOUS
 62
               7
100
AcDbLine
 10
39.419238118219141
 20
-25.919265795522847
 30
0.0
 11
37.580761752529611
 21
-24.08078896491736
 31
0.0
  0
LINE
  5
104
100
AcDbEntity
  8
0
  6
CONTINUOUS
 62
               7
100
AcDbLine
 10
37.5
 20
-41.500030517578125
 30
0.0
 11
37.5
 21
-39.500030517578125
 31
0.0
  0
LINE
  5
105
100
AcDbEntity
  8
0
  6
CONTINUOUS
 62
               7
100
AcDbLine
 10
37.999997138977051
 20
-39.500030517578125
 30
0.0
 11
36.499997138977051
 21
-39.500030517578125
 31
0.0
  0
LINE
  5
106
100
AcDbEntity
  8
0
  6
CONTINUOUS
 62
               7
100
AcDbLine
 10
37.999998092651367
 20
-33.500030517578125
 30
0.0
 11
36.499998092651367
 21
-33.500030517578125
 31
0.0
  0
LINE
  5
107
100
AcDbEntity
  8
0
  6
CONTINUOUS
 62
               7
100
AcDbLine
 10
37.5
 20
-31.500030517578125
 30
0.0
 11
37.5
 21
-33.500030517578125
 31
0.0
  0
LINE
  5
108
100
AcDbEntity
  8
0
  6
CONTINUOUS
 62
               7
100
AcDbLine
 10
50.499998092651367
 20
-31.500030517578125
 30
0.0
 11
50.499998092651367
 21
-33.500030517578125
 31
0.0
  0
LINE
  5
109
100
AcDbEntity
  8
0
  6
CONTINUOUS
 62
               7
100
AcDbLine
 10
49.999997138977051
 20
-33.500030517578125
 30
0.0
 11
51.499999046325684
 21
-33.500030517578125
 31
0.0
  0
LINE
  5
10A
100
AcDbEntity
  8
0
  6
CONTINUOUS
 62
               7
100
AcDbLine
 10
49.999997138977051
 20
-39.500030517578125
 30
0.0
 11
51.499999046325684
 21
-39.500030517578125
 31
0.0
  0
LINE
  5
10B
100
AcDbEntity
  8
0
  6
CONTINUOUS
 62
               7
100
AcDbLine
 10
50.499998092651367
 20
-41.500030517578125
 30
0.0
 11
50.499998092651367
 21
-39.500030517578125
 31
0.0
  0
LINE
  5
10C
100
AcDbEntity
  8
0
  6
CONTINUOUS
 62
               7
100
AcDbLine
 10
42.073212623596191
 20
-37.800018310546875
 30
0.0
 11
45.926785469055176
 21
-37.800018310546875
 31
0.0
  0
LINE
  5
10D
100
AcDbEntity
  8
0
  6
CONTINUOUS
 62
               2
100
AcDbLine
 10
41.383332252502441
 20
-37.500030517578125
 30
0.0
 11
46.616665840148926
 21
-37.500030517578125
 31
0.0
  0
LINE
  5
10E
100
AcDbEntity
  8
0
  6
CONTINUOUS
 62
               7
100
AcDbLine
 10
42.073212623596191
 20
-37.200027465820312
 30
0.0
 11
45.926785469055176
 21
-37.200027465820312
 31
0.0
  0
LINE
  5
10F
100
AcDbEntity
  8
0
  6
CONTINUOUS
 62
               7
100
AcDbLine
 10
46.5
 20
32.699981689453125
 30
0.0
 11
47.5
 21
32.699981689453125
 31
0.0
  0
LINE
  5
110
100
AcDbEntity
  8
0
  6
CONTINUOUS
 62
               7
100
AcDbLine
 10
44.0
 20
29.199981689453125
 30
0.0
 11
44.0
 21
30.199981689453125
 31
0.0
  0
LINE
  5
111
100
AcDbEntity
  8
0
  6
CONTINUOUS
 62
               7
100
AcDbLine
 10
43.999996467425603
 20
29.699978468269705
 30
0.0
 11
44.999995756830231
 21
29.432029525703456
 31
0.0
  0
LINE
  5
112
100
AcDbEntity
  8
0
  6
CONTINUOUS
 62
               7
100
AcDbLine
 10
51.5
 20
9.5
 30
0.0
 11
51.5
 21
22.999984741210937
 31
0.0
  0
LINE
  5
113
100
AcDbEntity
  8
0
  6
CONTINUOUS
 62
               7
100
AcDbLine
 10
51.5
 20
-25.969223022460937
 30
0.0
 11
51.5
 21
6.5000114440917969
 31
0.0
  0
LINE
  5
114
100
AcDbEntity
  8
0
  6
CONTINUOUS
 62
               7
100
AcDbLine
 10
36.5
 20
-23.499996185302734
 30
0.0
 11
36.5
 21
8.9692230224609375
 31
0.0
  0
LINE
  5
115
100
AcDbEntity
  8
0
  6
CONTINUOUS
 62
               7
100
AcDbLine
 10
36.5
 20
-50.0
 30
0.0
 11
36.5
 21
-26.499984741210938
 31
0.0
  0
LINE
  5
116
100
AcDbEntity
  8
0
  6
CONTINUOUS
 62
               7
100
AcDbLine
 10
49.499954714616251
 20
24.999987472068824
 30
0.0
 11
51.499978248391926
 21
22.999963601114359
 31
0.0
  0
LINE
  5
117
100
AcDbEntity
  8
0
  6
CONTINUOUS
 62
               7
100
AcDbLine
 10
49.5
 20
24.999984741210937
 30
0.0
 11
49.0
 21
24.999984741210937
 31
0.0
  0
LINE
  5
118
100
AcDbEntity
  8
0
  6
CONTINUOUS
 62
               7
100
AcDbLine
 10
38.5
 20
24.999984741210937
 30
0.0
 11
39.0
 21
24.999984741210937
 31
0.0
  0
LINE
  5
119
100
AcDbEntity
  8
0
  6
CONTINUOUS
 62
               7
100
AcDbLine
 10
38.500009587001841
 20
24.999985154001479
 30
0.0
 11
36.500008475348295
 21
22.999982019297022
 31
0.0
  0
LINE
  5
11A
100
AcDbEntity
  8
0
  6
CONTINUOUS
 62
               7
100
AcDbLine
 10
36.5
 20
11.030731201171875
 30
0.0
 11
36.5
 21
22.999984741210937
 31
0.0
  0
LINE
  5
11B
100
AcDbEntity
  8
0
  6
CONTINUOUS
 62
               7
100
AcDbLine
 10
44.00000190254741
 20
-34.000030517578125
 30
0.0
 11
44.00000190254741
 21
-35.000030517578125
 31
0.0
  0
LINE
  5
11C
100
AcDbEntity
  8
0
  6
CONTINUOUS
 62
               7
100
AcDbLine
 10
43.999997176377917
 20
-34.500017718366223
 30
0.0
 11
42.999997948680516
 21
-34.232068590678296
 31
0.0
  0
LINE
  5
11D
100
AcDbEntity
  8
0
  6
CONTINUOUS
 62
               7
100
AcDbLine
 10
41.499996185302734
 20
-37.500030517578125
 30
0.0
 11
40.499996185302734
 21
-37.500030517578125
 31
0.0
  0
CIRCLE
  5
11E
100
AcDbEntity
  8
0
  6
CONTINUOUS
 62
               7
100
AcDbCircle
 10
44.0
 20
32.699966430664063
 30
0.0
 40
2.0
  0
CIRCLE
  5
11F
100
AcDbEntity
  8
0
  6
CONTINUOUS
 62
               7
100
AcDbCircle
 10
44.0
 20
32.699966430664063
 30
0.0
 40
1.9499998092651367
  0
ARC
  5
120
100
AcDbEntity
  8
0
  6
CONTINUOUS
 62
               4
100
AcDbCircle
 10
48.450000762939453
 20
68.499969482421875
 30
0.0
 40
0.5
100
AcDbArc
 50
359.99995901886416
 51
89.999982013910454
  0
ARC
  5
121
100
AcDbEntity
  8
0
  6
CONTINUOUS
 62
               4
100
AcDbCircle
 10
39.549999237060547
 20
68.499984741210937
 30
0.0
 40
0.5
100
AcDbArc
 50
89.999982013910454
 51
179.99996402782091
  0
ARC
  5
122
100
AcDbEntity
  8
0
  6
CONTINUOUS
 62
               7
100
AcDbCircle
 10
49.499988555908203
 20
7.999969482421875
 30
0.0
 40
2.6999998092651367
100
AcDbArc
 50
89.999982013910454
 51
270.00000068324471
  0
ARC
  5
123
100
AcDbEntity
  8
0
  6
CONTINUOUS
 62
               7
100
AcDbCircle
 10
38.499996185302734
 20
-25.000030517578125
 30
0.0
 40
2.6999998092651367
100
AcDbArc
 50
270.00001798608872
 51
89.999982013910454
  0
CIRCLE
  5
124
100
AcDbEntity
  8
0
  6
CONTINUOUS
 62
               7
100
AcDbCircle
 10
49.499996185302734
 20
7.9999847412109375
 30
0.0
 40
2.25
  0
ARC
  5
125
100
AcDbEntity
  8
0
  6
CONTINUOUS
 62
               7
100
AcDbCircle
 10
38.500007629394531
 20
9.999969482421875
 30
0.0
 40
2.6999998092651367
100
AcDbArc
 50
270.00001798608872
 51
0.0
  0
ARC
  5
126
100
AcDbEntity
  8
0
  6
CONTINUOUS
 62
               7
100
AcDbCircle
 10
51.200004577636719
 20
10.999954223632812
 30
0.0
 40
0.300000011920929
100
AcDbArc
 50
270.00001798608872
 51
0.0
  0
ARC
  5
127
100
AcDbEntity
  8
0
  6
CONTINUOUS
 62
               7
100
AcDbCircle
 10
36.799999237060547
 20
-22.000038146972656
 30
0.0
 40
0.300000011920929
100
AcDbArc
 50
179.99996402782091
 51
270.00000068324471
  0
ARC
  5
128
100
AcDbEntity
  8
0
  6
CONTINUOUS
 62
               7
100
AcDbCircle
 10
51.200004577636719
 20
4.9999732971191406
 30
0.0
 40
0.300000011920929
100
AcDbArc
 50
0.0
 51
89.999982013910454
  0
ARC
  5
129
100
AcDbEntity
  8
0
  6
CONTINUOUS
 62
               7
100
AcDbCircle
 10
36.799999237060547
 20
-28.000015258789063
 30
0.0
 40
0.300000011920929
100
AcDbArc
 50
89.999982013910454
 51
179.99996402782091
  0
ARC
  5
12A
100
AcDbEntity
  8
0
  6
CONTINUOUS
 62
               7
100
AcDbCircle
 10
36.799995422363281
 20
13.999969482421875
 30
0.0
 40
0.300000011920929
100
AcDbArc
 50
89.999982013910454
 51
179.99996402782091
  0
ARC
  5
12B
100
AcDbEntity
  8
0
  6
CONTINUOUS
 62
               7
100
AcDbCircle
 10
51.200004577636719
 20
13.999969482421875
 30
0.0
 40
0.300000011920929
100
AcDbArc
 50
0.0
 51
89.999982013910454
  0
ARC
  5
12C
100
AcDbEntity
  8
0
  6
CONTINUOUS
 62
               7
100
AcDbCircle
 10
51.200004577636719
 20
-31.000015258789063
 30
0.0
 40
0.300000011920929
100
AcDbArc
 50
270.00001798608872
 51
0.0
  0
ARC
  5
12D
100
AcDbEntity
  8
0
  6
CONTINUOUS
 62
               7
100
AcDbCircle
 10
36.799999237060547
 20
-31.000015258789063
 30
0.0
 40
0.300000011920929
100
AcDbArc
 50
179.99996402782091
 51
270.00000068324471
  0
ARC
  5
12E
100
AcDbEntity
  8
0
  6
CONTINUOUS
 62
               7
100
AcDbCircle
 10
49.499996185302734
 20
-27.000030517578125
 30
0.0
 40
2.6999998092651367
100
AcDbArc
 50
89.999982013910454
 51
179.99996402782091
  0
ARC
  5
12F
100
AcDbEntity
  8
0
  6
CONTINUOUS
 62
               7
100
AcDbCircle
 10
36.999992370605469
 20
-50.000030517578125
 30
0.0
 40
0.5
100
AcDbArc
 50
179.99996402782091
 51
269.99994604173139
  0
ARC
  5
130
100
AcDbEntity
  8
0
  6
CONTINUOUS
 62
               7
100
AcDbCircle
 10
50.999992370605469
 20
-50.000030517578125
 30
0.0
 40
0.5
100
AcDbArc
 50
270.00001798608872
 51
0.00001366037834
  0
CIRCLE
  5
131
100
AcDbEntity
  8
0
  6
CONTINUOUS
 62
               7
100
AcDbCircle
 10
38.500007629394531
 20
9.9999542236328125
 30
0.0
 40
2.25
  0
CIRCLE
  5
132
100
AcDbEntity
  8
0
  6
CONTINUOUS
 62
               7
100
AcDbCircle
 10
49.499996185302734
 20
-27.000030517578125
 30
0.0
 40
2.25
  0
CIRCLE
  5
133
100
AcDbEntity
  8
0
  6
CONTINUOUS
 62
               7
100
AcDbCircle
 10
38.500003814697266
 20
-25.000015258789063
 30
0.0
 40
2.25
  0
CIRCLE
  5
134
100
AcDbEntity
  8
0
  6
CONTINUOUS
 62
               7
100
AcDbCircle
 10
44.000000981472112
 20
-37.500030517578125
 30
0.0
 40
1.9499998092651367
  0
ARC
  5
135
100
AcDbEntity
  8
0
  6
CONTINUOUS
 62
               7
100
AcDbCircle
 10
44.099999964237213
 20
32.699981689453125
 30
0.0
 40
3.0
100
AcDbArc
 50
268.089805320533
 51
0.0
  0
ARC
  5
136
100
AcDbEntity
  8
0
  6
CONTINUOUS
 62
               7
100
AcDbCircle
 10
44.0
 20
32.699981689453125
 30
0.0
 40
3.0
100
AcDbArc
 50
266.17746163595609
 51
3.822566595416411
  0
ARC
  5
137
100
AcDbEntity
  8
0
  6
CONTINUOUS
 62
               7
100
AcDbCircle
 10
43.900000035762787
 20
32.699981689453125
 30
0.0
 40
3.0
100
AcDbArc
 50
271.91023065164455
 51
0.0
  0
CIRCLE
  5
138
100
AcDbEntity
  8
0
  6
CONTINUOUS
 62
               7
100
AcDbCircle
 10
49.5
 20
8.0
 30
0.0
 40
2.5
  0
CIRCLE
  5
139
100
AcDbEntity
  8
0
  6
CONTINUOUS
 62
               7
100
AcDbCircle
 10
38.5
 20
-24.999984741210937
 30
0.0
 40
2.5
  0
ARC
  5
13A
100
AcDbEntity
  8
0
  6
CONTINUOUS
 62
               7
100
AcDbCircle
 10
43.999995681519977
 20
-37.500030517578125
 30
0.0
 40
3.0
100
AcDbArc
 50
86.177425663777811
 51
183.82257501946691
  0
ARC
  5
13B
100
AcDbEntity
  8
0
  6
CONTINUOUS
 62
               7
100
AcDbCircle
 10
43.899995684623718
 20
-37.500030517578125
 30
0.0
 40
3.0
100
AcDbArc
 50
88.08976934835465
 51
179.99996402782091
  0
ARC
  5
13C
100
AcDbEntity
  8
0
  6
CONTINUOUS
 62
               7
100
AcDbCircle
 10
44.099995672702789
 20
-37.500030517578125
 30
0.0
 40
3.0
100
AcDbArc
 50
91.910194679466258
 51
179.99996402782091
  0
LINE
  5
13D
100
AcDbEntity
  8
0
  6
CONTINUOUS
 62
               4
100
AcDbLine
 10
36.5
 20
-55.200035888183599
 30
0.0
 11
51.5
 21
-55.200035888183599
 31
0.0
  0
ARC
  5
13E
100
AcDbEntity
  8
0
  6
CONTINUOUS
 62
               4
100
AcDbCircle
 10
50.599998499999998
 20
-68.700027888183584
 30
0.0
 40
0.3
100
AcDbArc
 50
269.99999999999858
 51
359.99999999999858
  0
ARC
  5
13F
100
AcDbEntity
  8
0
  6
CONTINUOUS
 62
               4
100
AcDbCircle
 10
49.399999600000001
 20
-67.300030888183599
 30
0.0
 40
0.5
100
AcDbArc
 50
179.9999999999994
 51
269.99999999999937
  0
ARC
  5
140
100
AcDbEntity
  8
0
  6
CONTINUOUS
 62
               4
100
AcDbCircle
 10
38.600000399999999
 20
-67.300030888183599
 30
0.0
 40
0.5
100
AcDbArc
 50
269.99999999999858
 51
359.99999999999858
  0
ARC
  5
141
100
AcDbEntity
  8
0
  6
CONTINUOUS
 62
               4
100
AcDbCircle
 10
37.400001500000002
 20
-68.700027888183584
 30
0.0
 40
0.3
100
AcDbArc
 50
179.9999999999994
 51
269.99999999999937
  0
LINE
  5
142
100
AcDbEntity
  8
0
  6
CONTINUOUS
 62
               4
100
AcDbLine
 10
50.900000000000006
 20
-68.700027888183584
 30
0.0
 11
50.900000000000006
 21
-67.800030888183599
 31
0.0
  0
LINE
  5
143
100
AcDbEntity
  8
0
  6
CONTINUOUS
 62
               4
100
AcDbLine
 10
50.599998499999998
 20
-69.000030888183588
 30
0.0
 11
37.400000000000006
 21
-69.000030888183588
 31
0.0
  0
LINE
  5
144
100
AcDbEntity
  8
0
  6
CONTINUOUS
 62
               4
100
AcDbLine
 10
37.099999999999994
 20
-67.800030888183599
 30
0.0
 11
50.900000000000006
 21
-67.800030888183599
 31
0.0
  0
LINE
  5
145
100
AcDbEntity
  8
0
  6
CONTINUOUS
 62
               4
100
AcDbLine
 10
37.099999999999994
 20
-68.700027888183584
 30
0.0
 11
37.099999999999994
 21
-67.800030888183599
 31
0.0
  0
LINE
  5
146
100
AcDbEntity
  8
0
  6
CONTINUOUS
 62
               4
100
AcDbLine
 10
49.699999999999989
 20
-66.900029888183582
 30
0.0
 11
49.699999999999989
 21
-65.900030888183608
 31
0.0
  0
LINE
  5
147
100
AcDbEntity
  8
0
  6
CONTINUOUS
 62
               4
100
AcDbLine
 10
49.699999599999984
 20
-66.900029888183582
 30
0.0
 11
49.59999959999999
 21
-67.00002988818359
 31
0.0
  0
LINE
  5
148
100
AcDbEntity
  8
0
  6
CONTINUOUS
 62
               4
100
AcDbLine
 10
38.299999999999983
 20
-66.900029888183582
 30
0.0
 11
38.299999999999983
 21
-65.900030888183608
 31
0.0
  0
LINE
  5
149
100
AcDbEntity
  8
0
  6
CONTINUOUS
 62
               4
100
AcDbLine
 10
38.300000400000016
 20
-66.900029888183582
 30
0.0
 11
38.400000399999982
 21
-67.00002988818359
 31
0.0
  0
LINE
  5
14A
100
AcDbEntity
  8
0
  6
CONTINUOUS
 62
               4
100
AcDbLine
 10
48.900000000000006
 20
-67.300030888183599
 30
0.0
 11
48.900000000000006
 21
-67.00002988818359
 31
0.0
  0
LINE
  5
14B
100
AcDbEntity
  8
0
  6
CONTINUOUS
 62
               4
100
AcDbLine
 10
38.400000399999982
 20
-67.00002988818359
 30
0.0
 11
49.59999959999999
 21
-67.00002988818359
 31
0.0
  0
LINE
  5
14C
100
AcDbEntity
  8
0
  6
CONTINUOUS
 62
               4
100
AcDbLine
 10
39.099999999999994
 20
-67.300030888183599
 30
0.0
 11
39.099999999999994
 21
-67.00002988818359
 31
0.0
  0
LINE
  5
14D
100
AcDbEntity
  8
0
  6
CONTINUOUS
 62
               4
100
AcDbLine
 10
37.649999600000001
 20
-65.900030888183608
 30
0.0
 11
50.349999999999994
 21
-65.900030888183608
 31
0.0
  0
LINE
  5
14E
100
AcDbEntity
  8
0
  6
CONTINUOUS
 62
               4
100
AcDbLine
 10
50.696410399999991
 20
-65.300029888183616
 30
0.0
 11
51.5
 21
-64.836076888183612
 31
0.0
  0
LINE
  5
14F
100
AcDbEntity
  8
0
  6
CONTINUOUS
 62
               4
100
AcDbLine
 10
36.5
 20
-64.836076888183612
 30
0.0
 11
37.303589599999981
 21
-65.300029888183616
 31
0.0
  0
LINE
  5
150
100
AcDbEntity
  8
0
  6
CONTINUOUS
 62
               4
100
AcDbLine
 10
36.700000000000017
 20
-63.300035888183594
 30
0.0
 11
51.299999999999983
 21
-63.300035888183594
 31
0.0
  0
LINE
  5
151
100
AcDbEntity
  8
0
  6
CONTINUOUS
 62
               4
100
AcDbLine
 10
51.299999999999983
 20
-63.300035888183594
 30
0.0
 11
51.5
 21
-63.500035888183582
 31
0.0
  0
LINE
  5
152
100
AcDbEntity
  8
0
  6
CONTINUOUS
 62
               4
100
AcDbLine
 10
36.700000000000017
 20
-63.300035888183594
 30
0.0
 11
36.5
 21
-63.500035888183582
 31
0.0
  0
LINE
  5
153
100
AcDbEntity
  8
0
  6
CONTINUOUS
 62
               4
100
AcDbLine
 10
37.303589599999981
 20
-65.300030888183613
 30
0.0
 11
37.650000000000006
 21
-65.900030888183608
 31
0.0
  0
LINE
  5
154
100
AcDbEntity
  8
0
  6
CONTINUOUS
 62
               4
100
AcDbLine
 10
50.696410399999991
 20
-65.300030888183613
 30
0.0
 11
50.349999999999994
 21
-65.900030888183608
 31
0.0
  0
LINE
  5
155
100
AcDbEntity
  8
0
  6
CONTINUOUS
 62
               4
100
AcDbLine
 10
50.799999999999983
 20
-63.300035888183594
 30
0.0
 11
50.799999999999983
 21
-62.500035888183582
 31
0.0
  0
LINE
  5
156
100
AcDbEntity
  8
0
  6
CONTINUOUS
 62
               4
100
AcDbLine
 10
36.5
 20
-64.836076888183612
 30
0.0
 11
36.5
 21
-63.500035888183582
 31
0.0
  0
LINE
  5
157
100
AcDbEntity
  8
0
  6
CONTINUOUS
 62
               4
100
AcDbLine
 10
51.5
 20
-64.836076888183612
 30
0.0
 11
51.5
 21
-63.500035888183582
 31
0.0
  0
LINE
  5
158
100
AcDbEntity
  8
0
  6
CONTINUOUS
 62
               4
100
AcDbLine
 10
51.299999999999983
 20
-55.400035888183588
 30
0.0
 11
51.5
 21
-55.600035888183605
 31
0.0
  0
LINE
  5
159
100
AcDbEntity
  8
0
  6
CONTINUOUS
 62
               4
100
AcDbLine
 10
36.700000000000017
 20
-55.400035888183588
 30
0.0
 11
36.5
 21
-55.600035888183577
 31
0.0
  0
LINE
  5
15A
100
AcDbEntity
  8
0
  6
CONTINUOUS
 62
               4
100
AcDbLine
 10
36.700000000000017
 20
-55.400035888183588
 30
0.0
 11
51.299999999999983
 21
-55.400035888183588
 31
0.0
  0
LINE
  5
15B
100
AcDbEntity
  8
0
  6
CONTINUOUS
 62
               4
100
AcDbLine
 10
36.5
 20
-62.400035888183588
 30
0.0
 11
36.5
 21
-55.600035888183577
 31
0.0
  0
LINE
  5
15C
100
AcDbEntity
  8
0
  6
CONTINUOUS
 62
               4
100
AcDbLine
 10
36.5
 20
-62.400035888183588
 30
0.0
 11
36.599999999999994
 21
-62.500035888183582
 31
0.0
  0
LINE
  5
15D
100
AcDbEntity
  8
0
  6
CONTINUOUS
 62
               4
100
AcDbLine
 10
36.599999999999994
 20
-62.500035888183582
 30
0.0
 11
51.400000000000006
 21
-62.500035888183582
 31
0.0
  0
LINE
  5
15E
100
AcDbEntity
  8
0
  6
CONTINUOUS
 62
               4
100
AcDbLine
 10
51.400000000000006
 20
-62.500035888183582
 30
0.0
 11
51.5
 21
-62.400035888183588
 31
0.0
  0
LINE
  5
15F
100
AcDbEntity
  8
0
  6
CONTINUOUS
 62
               4
100
AcDbLine
 10
51.5
 20
-62.400035888183588
 30
0.0
 11
51.5
 21
-55.600035888183605
 31
0.0
  0
LINE
  5
160
100
AcDbEntity
  8
0
  6
CONTINUOUS
 62
               4
100
AcDbLine
 10
36.700000000000017
 20
-55.400035888183588
 30
0.0
 11
36.5
 21
-55.200035888183599
 31
0.0
  0
LINE
  5
161
100
AcDbEntity
  8
0
  6
CONTINUOUS
 62
               4
100
AcDbLine
 10
51.299999999999983
 20
-55.400035888183588
 30
0.0
 11
51.5
 21
-55.200035888183599
 31
0.0
  0
LINE
  5
162
100
AcDbEntity
  8
0
  6
CONTINUOUS
 62
               4
100
AcDbLine
 10
36.5
 20
-55.600035888183577
 30
0.0
 11
51.5
 21
-55.600035888183605
 31
0.0
  0
LINE
  5
163
100
AcDbEntity
  8
0
  6
CONTINUOUS
 62
               4
100
AcDbLine
 10
37.199999999999989
 20
-63.300035888183594
 30
0.0
 11
37.199999999999989
 21
-62.500035888183582
 31
0.0
  0
LINE
  5
164
100
AcDbEntity
  8
0
  6
CONTINUOUS
 62
               4
100
AcDbLine
 10
36.5
 20
-63.500035888183582
 30
0.0
 11
51.5
 21
-63.500035888183582
 31
0.0
  0
LINE
  5
165
100
AcDbEntity
  8
0
  6
CONTINUOUS
 62
               4
100
AcDbLine
 10
38.299999999999983
 20
-66.900029488183606
 30
0.0
 11
49.699999599999984
 21
-66.900029488183606
 31
0.0
  0
LINE
  5
166
100
AcDbEntity
  8
0
  6
CONTINUOUS
 62
               4
100
AcDbLine
 10
37.303589599999981
 20
-65.300030888183613
 30
0.0
 11
50.696411266026615
 21
-65.300030888183613
 31
0.0
  0
LINE
  5
167
100
AcDbEntity
  8
0
  6
CONTINUOUS
 62
               4
100
AcDbLine
 10
36.5
 20
-64.836076888183612
 30
0.0
 11
51.5
 21
-64.836076888183612
 31
0.0
  0
LINE
  5
168
100
AcDbEntity
  8
0
  6
CONTINUOUS
 62
               4
100
AcDbLine
 10
36.5
 20
-55.200030888183598
 30
0.0
 11
36.5
 21
-50.000038146972656
 31
0.0
  0
LINE
  5
169
100
AcDbEntity
  8
0
  6
CONTINUOUS
 62
               4
100
AcDbLine
 10
51.5
 20
-55.200030888183598
 30
0.0
 11
51.5
 21
-50.000038146972656
 31
0.0
  0
LINE
  5
16A
100
AcDbEntity
  8
0
  6
CONTINUOUS
 62
               4
100
AcDbLine
 10
20.5
 20
-55.200028258789068
 30
0.0
 11
35.5
 21
-55.200028258789068
 31
0.0
  0
ARC
  5
16B
100
AcDbEntity
  8
0
  6
CONTINUOUS
 62
               4
100
AcDbCircle
 10
34.599998499999998
 20
-68.700020258789053
 30
0.0
 40
0.3
100
AcDbArc
 50
269.99999999999858
 51
359.99999999999858
  0
ARC
  5
16C
100
AcDbEntity
  8
0
  6
CONTINUOUS
 62
               4
100
AcDbCircle
 10
33.399999600000001
 20
-67.300023258789068
 30
0.0
 40
0.5
100
AcDbArc
 50
179.9999999999994
 51
269.99999999999937
  0
ARC
  5
16D
100
AcDbEntity
  8
0
  6
CONTINUOUS
 62
               4
100
AcDbCircle
 10
22.600000399999999
 20
-67.300023258789068
 30
0.0
 40
0.5
100
AcDbArc
 50
269.99999999999858
 51
359.99999999999858
  0
ARC
  5
16E
100
AcDbEntity
  8
0
  6
CONTINUOUS
 62
               4
100
AcDbCircle
 10
21.400001500000002
 20
-68.700020258789053
 30
0.0
 40
0.3
100
AcDbArc
 50
179.9999999999994
 51
269.99999999999937
  0
LINE
  5
16F
100
AcDbEntity
  8
0
  6
CONTINUOUS
 62
               4
100
AcDbLine
 10
34.900000000000006
 20
-68.700020258789053
 30
0.0
 11
34.900000000000006
 21
-67.800023258789068
 31
0.0
  0
LINE
  5
170
100
AcDbEntity
  8
0
  6
CONTINUOUS
 62
               4
100
AcDbLine
 10
34.599998499999998
 20
-69.000023258789057
 30
0.0
 11
21.400000000000006
 21
-69.000023258789057
 31
0.0
  0
LINE
  5
171
100
AcDbEntity
  8
0
  6
CONTINUOUS
 62
               4
100
AcDbLine
 10
21.099999999999994
 20
-67.800023258789068
 30
0.0
 11
34.900000000000006
 21
-67.800023258789068
 31
0.0
  0
LINE
  5
172
100
AcDbEntity
  8
0
  6
CONTINUOUS
 62
               4
100
AcDbLine
 10
21.099999999999994
 20
-68.700020258789053
 30
0.0
 11
21.099999999999994
 21
-67.800023258789068
 31
0.0
  0
LINE
  5
173
100
AcDbEntity
  8
0
  6
CONTINUOUS
 62
               4
100
AcDbLine
 10
33.699999999999989
 20
-66.900022258789051
 30
0.0
 11
33.699999999999989
 21
-65.900023258789076
 31
0.0
  0
LINE
  5
174
100
AcDbEntity
  8
0
  6
CONTINUOUS
 62
               4
100
AcDbLine
 10
33.699999599999984
 20
-66.900022258789051
 30
0.0
 11
33.59999959999999
 21
-67.000022258789059
 31
0.0
  0
LINE
  5
175
100
AcDbEntity
  8
0
  6
CONTINUOUS
 62
               4
100
AcDbLine
 10
22.299999999999983
 20
-66.900022258789051
 30
0.0
 11
22.299999999999983
 21
-65.900023258789076
 31
0.0
  0
LINE
  5
176
100
AcDbEntity
  8
0
  6
CONTINUOUS
 62
               4
100
AcDbLine
 10
22.300000400000016
 20
-66.900022258789051
 30
0.0
 11
22.400000399999982
 21
-67.000022258789059
 31
0.0
  0
LINE
  5
177
100
AcDbEntity
  8
0
  6
CONTINUOUS
 62
               4
100
AcDbLine
 10
32.900000000000006
 20
-67.300023258789068
 30
0.0
 11
32.900000000000006
 21
-67.000022258789059
 31
0.0
  0
LINE
  5
178
100
AcDbEntity
  8
0
  6
CONTINUOUS
 62
               4
100
AcDbLine
 10
22.400000399999982
 20
-67.000022258789059
 30
0.0
 11
33.59999959999999
 21
-67.000022258789059
 31
0.0
  0
LINE
  5
179
100
AcDbEntity
  8
0
  6
CONTINUOUS
 62
               4
100
AcDbLine
 10
23.099999999999994
 20
-67.300023258789068
 30
0.0
 11
23.099999999999994
 21
-67.000022258789059
 31
0.0
  0
LINE
  5
17A
100
AcDbEntity
  8
0
  6
CONTINUOUS
 62
               4
100
AcDbLine
 10
21.649999600000001
 20
-65.900023258789076
 30
0.0
 11
34.349999999999994
 21
-65.900023258789076
 31
0.0
  0
LINE
  5
17B
100
AcDbEntity
  8
0
  6
CONTINUOUS
 62
               4
100
AcDbLine
 10
34.696410399999991
 20
-65.300022258789085
 30
0.0
 11
35.5
 21
-64.836069258789081
 31
0.0
  0
LINE
  5
17C
100
AcDbEntity
  8
0
  6
CONTINUOUS
 62
               4
100
AcDbLine
 10
20.5
 20
-64.836069258789081
 30
0.0
 11
21.303589599999981
 21
-65.300022258789085
 31
0.0
  0
LINE
  5
17D
100
AcDbEntity
  8
0
  6
CONTINUOUS
 62
               4
100
AcDbLine
 10
20.700000000000017
 20
-63.300028258789062
 30
0.0
 11
35.299999999999983
 21
-63.300028258789062
 31
0.0
  0
LINE
  5
17E
100
AcDbEntity
  8
0
  6
CONTINUOUS
 62
               4
100
AcDbLine
 10
35.299999999999983
 20
-63.300028258789062
 30
0.0
 11
35.5
 21
-63.500028258789051
 31
0.0
  0
LINE
  5
17F
100
AcDbEntity
  8
0
  6
CONTINUOUS
 62
               4
100
AcDbLine
 10
20.700000000000017
 20
-63.300028258789062
 30
0.0
 11
20.5
 21
-63.500028258789051
 31
0.0
  0
LINE
  5
180
100
AcDbEntity
  8
0
  6
CONTINUOUS
 62
               4
100
AcDbLine
 10
21.303589599999981
 20
-65.300023258789082
 30
0.0
 11
21.650000000000006
 21
-65.900023258789076
 31
0.0
  0
LINE
  5
181
100
AcDbEntity
  8
0
  6
CONTINUOUS
 62
               4
100
AcDbLine
 10
34.696410399999991
 20
-65.300023258789082
 30
0.0
 11
34.349999999999994
 21
-65.900023258789076
 31
0.0
  0
LINE
  5
182
100
AcDbEntity
  8
0
  6
CONTINUOUS
 62
               4
100
AcDbLine
 10
34.799999999999983
 20
-63.300028258789062
 30
0.0
 11
34.799999999999983
 21
-62.500028258789051
 31
0.0
  0
LINE
  5
183
100
AcDbEntity
  8
0
  6
CONTINUOUS
 62
               4
100
AcDbLine
 10
20.5
 20
-64.836069258789081
 30
0.0
 11
20.5
 21
-63.500028258789051
 31
0.0
  0
LINE
  5
184
100
AcDbEntity
  8
0
  6
CONTINUOUS
 62
               4
100
AcDbLine
 10
35.5
 20
-64.836069258789081
 30
0.0
 11
35.5
 21
-63.500028258789051
 31
0.0
  0
LINE
  5
185
100
AcDbEntity
  8
0
  6
CONTINUOUS
 62
               4
100
AcDbLine
 10
35.299999999999983
 20
-55.400028258789057
 30
0.0
 11
35.5
 21
-55.600028258789074
 31
0.0
  0
LINE
  5
186
100
AcDbEntity
  8
0
  6
CONTINUOUS
 62
               4
100
AcDbLine
 10
20.700000000000017
 20
-55.400028258789057
 30
0.0
 11
20.5
 21
-55.600028258789045
 31
0.0
  0
LINE
  5
187
100
AcDbEntity
  8
0
  6
CONTINUOUS
 62
               4
100
AcDbLine
 10
20.700000000000017
 20
-55.400028258789057
 30
0.0
 11
35.299999999999983
 21
-55.400028258789057
 31
0.0
  0
LINE
  5
188
100
AcDbEntity
  8
0
  6
CONTINUOUS
 62
               4
100
AcDbLine
 10
20.5
 20
-62.400028258789057
 30
0.0
 11
20.5
 21
-55.600028258789045
 31
0.0
  0
LINE
  5
189
100
AcDbEntity
  8
0
  6
CONTINUOUS
 62
               4
100
AcDbLine
 10
20.5
 20
-62.400028258789057
 30
0.0
 11
20.599999999999994
 21
-62.500028258789051
 31
0.0
  0
LINE
  5
18A
100
AcDbEntity
  8
0
  6
CONTINUOUS
 62
               4
100
AcDbLine
 10
20.599999999999994
 20
-62.500028258789051
 30
0.0
 11
35.400000000000006
 21
-62.500028258789051
 31
0.0
  0
LINE
  5
18B
100
AcDbEntity
  8
0
  6
CONTINUOUS
 62
               4
100
AcDbLine
 10
35.400000000000006
 20
-62.500028258789051
 30
0.0
 11
35.5
 21
-62.400028258789057
 31
0.0
  0
LINE
  5
18C
100
AcDbEntity
  8
0
  6
CONTINUOUS
 62
               4
100
AcDbLine
 10
35.5
 20
-62.400028258789057
 30
0.0
 11
35.5
 21
-55.600028258789074
 31
0.0
  0
LINE
  5
18D
100
AcDbEntity
  8
0
  6
CONTINUOUS
 62
               4
100
AcDbLine
 10
20.700000000000017
 20
-55.400028258789057
 30
0.0
 11
20.5
 21
-55.200028258789068
 31
0.0
  0
LINE
  5
18E
100
AcDbEntity
  8
0
  6
CONTINUOUS
 62
               4
100
AcDbLine
 10
35.299999999999983
 20
-55.400028258789057
 30
0.0
 11
35.5
 21
-55.200028258789068
 31
0.0
  0
LINE
  5
18F
100
AcDbEntity
  8
0
  6
CONTINUOUS
 62
               4
100
AcDbLine
 10
20.5
 20
-55.600028258789045
 30
0.0
 11
35.5
 21
-55.600028258789074
 31
0.0
  0
LINE
  5
190
100
AcDbEntity
  8
0
  6
CONTINUOUS
 62
               4
100
AcDbLine
 10
21.199999999999989
 20
-63.300028258789062
 30
0.0
 11
21.199999999999989
 21
-62.500028258789051
 31
0.0
  0
LINE
  5
191
100
AcDbEntity
  8
0
  6
CONTINUOUS
 62
               4
100
AcDbLine
 10
20.5
 20
-63.500028258789051
 30
0.0
 11
35.5
 21
-63.500028258789051
 31
0.0
  0
LINE
  5
192
100
AcDbEntity
  8
0
  6
CONTINUOUS
 62
               4
100
AcDbLine
 10
22.299999999999983
 20
-66.900021858789074
 30
0.0
 11
33.699999599999984
 21
-66.900021858789074
 31
0.0
  0
LINE
  5
193
100
AcDbEntity
  8
0
  6
CONTINUOUS
 62
               4
100
AcDbLine
 10
21.303589599999981
 20
-65.300023258789082
 30
0.0
 11
34.696411266026615
 21
-65.300023258789082
 31
0.0
  0
LINE
  5
194
100
AcDbEntity
  8
0
  6
CONTINUOUS
 62
               4
100
AcDbLine
 10
20.5
 20
-64.836069258789081
 30
0.0
 11
35.5
 21
-64.836069258789081
 31
0.0
  0
LINE
  5
195
100
AcDbEntity
  8
0
  6
CONTINUOUS
 62
               4
100
AcDbLine
 10
20.5
 20
-55.200023258789066
 30
0.0
 11
20.5
 21
-50.000030517578125
 31
0.0
  0
LINE
  5
196
100
AcDbEntity
  8
0
  6
CONTINUOUS
 62
               4
100
AcDbLine
 10
35.5
 20
-55.200023258789066
 30
0.0
 11
35.5
 21
-50.000030517578125
 31
0.0
  0
LINE
  5
197
100
AcDbEntity
  8
0
  6
CONTINUOUS
 62
               4
100
AcDbLine
 10
4.5
 20
-64.83606162939455
 30
0.0
 11
19.5
 21
-64.83606162939455
 31
0.0
  0
LINE
  5
198
100
AcDbEntity
  8
0
  6
CONTINUOUS
 62
               4
100
AcDbLine
 10
5.3035895999999809
 20
-65.300015629394551
 30
0.0
 11
18.696411266026615
 21
-65.300015629394551
 31
0.0
  0
LINE
  5
199
100
AcDbEntity
  8
0
  6
CONTINUOUS
 62
               4
100
AcDbLine
 10
6.2999999999999829
 20
-66.900014229394543
 30
0.0
 11
17.699999599999984
 21
-66.900014229394543
 31
0.0
  0
LINE
  5
19A
100
AcDbEntity
  8
0
  6
CONTINUOUS
 62
               4
100
AcDbLine
 10
4.5
 20
-63.50002062939452
 30
0.0
 11
19.5
 21
-63.50002062939452
 31
0.0
  0
LINE
  5
19B
100
AcDbEntity
  8
0
  6
CONTINUOUS
 62
               4
100
AcDbLine
 10
5.1999999999999886
 20
-63.300020629394531
 30
0.0
 11
5.1999999999999886
 21
-62.50002062939452
 31
0.0
  0
LINE
  5
19C
100
AcDbEntity
  8
0
  6
CONTINUOUS
 62
               4
100
AcDbLine
 10
4.5
 20
-55.600020629394514
 30
0.0
 11
19.5
 21
-55.600020629394542
 31
0.0
  0
LINE
  5
19D
100
AcDbEntity
  8
0
  6
CONTINUOUS
 62
               4
100
AcDbLine
 10
19.299999999999983
 20
-55.400020629394525
 30
0.0
 11
19.5
 21
-55.200020629394537
 31
0.0
  0
LINE
  5
19E
100
AcDbEntity
  8
0
  6
CONTINUOUS
 62
               4
100
AcDbLine
 10
4.7000000000000171
 20
-55.400020629394525
 30
0.0
 11
4.5
 21
-55.200020629394537
 31
0.0
  0
LINE
  5
19F
100
AcDbEntity
  8
0
  6
CONTINUOUS
 62
               4
100
AcDbLine
 10
19.5
 20
-62.400020629394525
 30
0.0
 11
19.5
 21
-55.600020629394542
 31
0.0
  0
LINE
  5
1A0
100
AcDbEntity
  8
0
  6
CONTINUOUS
 62
               4
100
AcDbLine
 10
19.400000000000006
 20
-62.50002062939452
 30
0.0
 11
19.5
 21
-62.400020629394525
 31
0.0
  0
LINE
  5
1A1
100
AcDbEntity
  8
0
  6
CONTINUOUS
 62
               4
100
AcDbLine
 10
4.5999999999999943
 20
-62.50002062939452
 30
0.0
 11
19.400000000000006
 21
-62.50002062939452
 31
0.0
  0
LINE
  5
1A2
100
AcDbEntity
  8
0
  6
CONTINUOUS
 62
               4
100
AcDbLine
 10
4.5
 20
-62.400020629394525
 30
0.0
 11
4.5999999999999943
 21
-62.50002062939452
 31
0.0
  0
LINE
  5
1A3
100
AcDbEntity
  8
0
  6
CONTINUOUS
 62
               4
100
AcDbLine
 10
4.5
 20
-62.400020629394525
 30
0.0
 11
4.5
 21
-55.600020629394514
 31
0.0
  0
LINE
  5
1A4
100
AcDbEntity
  8
0
  6
CONTINUOUS
 62
               4
100
AcDbLine
 10
4.7000000000000171
 20
-55.400020629394525
 30
0.0
 11
19.299999999999983
 21
-55.400020629394525
 31
0.0
  0
LINE
  5
1A5
100
AcDbEntity
  8
0
  6
CONTINUOUS
 62
               4
100
AcDbLine
 10
4.7000000000000171
 20
-55.400020629394525
 30
0.0
 11
4.5
 21
-55.600020629394514
 31
0.0
  0
LINE
  5
1A6
100
AcDbEntity
  8
0
  6
CONTINUOUS
 62
               4
100
AcDbLine
 10
19.299999999999983
 20
-55.400020629394525
 30
0.0
 11
19.5
 21
-55.600020629394542
 31
0.0
  0
LINE
  5
1A7
100
AcDbEntity
  8
0
  6
CONTINUOUS
 62
               4
100
AcDbLine
 10
19.5
 20
-64.83606162939455
 30
0.0
 11
19.5
 21
-63.50002062939452
 31
0.0
  0
LINE
  5
1A8
100
AcDbEntity
  8
0
  6
CONTINUOUS
 62
               4
100
AcDbLine
 10
4.5
 20
-64.83606162939455
 30
0.0
 11
4.5
 21
-63.50002062939452
 31
0.0
  0
LINE
  5
1A9
100
AcDbEntity
  8
0
  6
CONTINUOUS
 62
               4
100
AcDbLine
 10
18.799999999999983
 20
-63.300020629394531
 30
0.0
 11
18.799999999999983
 21
-62.50002062939452
 31
0.0
  0
LINE
  5
1AA
100
AcDbEntity
  8
0
  6
CONTINUOUS
 62
               4
100
AcDbLine
 10
18.696410399999991
 20
-65.300015629394551
 30
0.0
 11
18.349999999999994
 21
-65.900015629394545
 31
0.0
  0
LINE
  5
1AB
100
AcDbEntity
  8
0
  6
CONTINUOUS
 62
               4
100
AcDbLine
 10
5.3035895999999809
 20
-65.300015629394551
 30
0.0
 11
5.6500000000000057
 21
-65.900015629394545
 31
0.0
  0
LINE
  5
1AC
100
AcDbEntity
  8
0
  6
CONTINUOUS
 62
               4
100
AcDbLine
 10
4.7000000000000171
 20
-63.300020629394531
 30
0.0
 11
4.5
 21
-63.50002062939452
 31
0.0
  0
LINE
  5
1AD
100
AcDbEntity
  8
0
  6
CONTINUOUS
 62
               4
100
AcDbLine
 10
19.299999999999983
 20
-63.300020629394531
 30
0.0
 11
19.5
 21
-63.50002062939452
 31
0.0
  0
LINE
  5
1AE
100
AcDbEntity
  8
0
  6
CONTINUOUS
 62
               4
100
AcDbLine
 10
4.7000000000000171
 20
-63.300020629394531
 30
0.0
 11
19.299999999999983
 21
-63.300020629394531
 31
0.0
  0
LINE
  5
1AF
100
AcDbEntity
  8
0
  6
CONTINUOUS
 62
               4
100
AcDbLine
 10
4.5
 20
-64.83606162939455
 30
0.0
 11
5.3035895999999809
 21
-65.300014629394553
 31
0.0
  0
LINE
  5
1B0
100
AcDbEntity
  8
0
  6
CONTINUOUS
 62
               4
100
AcDbLine
 10
18.696410399999991
 20
-65.300014629394553
 30
0.0
 11
19.5
 21
-64.83606162939455
 31
0.0
  0
LINE
  5
1B1
100
AcDbEntity
  8
0
  6
CONTINUOUS
 62
               4
100
AcDbLine
 10
5.649999600000001
 20
-65.900015629394545
 30
0.0
 11
18.349999999999994
 21
-65.900015629394545
 31
0.0
  0
LINE
  5
1B2
100
AcDbEntity
  8
0
  6
CONTINUOUS
 62
               4
100
AcDbLine
 10
7.0999999999999943
 20
-67.300015629394537
 30
0.0
 11
7.0999999999999943
 21
-67.000014629394528
 31
0.0
  0
LINE
  5
1B3
100
AcDbEntity
  8
0
  6
CONTINUOUS
 62
               4
100
AcDbLine
 10
6.4000003999999819
 20
-67.000014629394528
 30
0.0
 11
17.59999959999999
 21
-67.000014629394528
 31
0.0
  0
LINE
  5
1B4
100
AcDbEntity
  8
0
  6
CONTINUOUS
 62
               4
100
AcDbLine
 10
16.900000000000006
 20
-67.300015629394537
 30
0.0
 11
16.900000000000006
 21
-67.000014629394528
 31
0.0
  0
LINE
  5
1B5
100
AcDbEntity
  8
0
  6
CONTINUOUS
 62
               4
100
AcDbLine
 10
6.300000400000016
 20
-66.900014629394519
 30
0.0
 11
6.4000003999999819
 21
-67.000014629394528
 31
0.0
  0
LINE
  5
1B6
100
AcDbEntity
  8
0
  6
CONTINUOUS
 62
               4
100
AcDbLine
 10
6.2999999999999829
 20
-66.900014629394519
 30
0.0
 11
6.2999999999999829
 21
-65.900015629394545
 31
0.0
  0
LINE
  5
1B7
100
AcDbEntity
  8
0
  6
CONTINUOUS
 62
               4
100
AcDbLine
 10
17.699999599999984
 20
-66.900014629394519
 30
0.0
 11
17.59999959999999
 21
-67.000014629394528
 31
0.0
  0
LINE
  5
1B8
100
AcDbEntity
  8
0
  6
CONTINUOUS
 62
               4
100
AcDbLine
 10
17.699999999999989
 20
-66.900014629394519
 30
0.0
 11
17.699999999999989
 21
-65.900015629394545
 31
0.0
  0
LINE
  5
1B9
100
AcDbEntity
  8
0
  6
CONTINUOUS
 62
               4
100
AcDbLine
 10
5.0999999999999943
 20
-68.700012629394521
 30
0.0
 11
5.0999999999999943
 21
-67.800015629394537
 31
0.0
  0
LINE
  5
1BA
100
AcDbEntity
  8
0
  6
CONTINUOUS
 62
               4
100
AcDbLine
 10
5.0999999999999943
 20
-67.800015629394537
 30
0.0
 11
18.900000000000006
 21
-67.800015629394537
 31
0.0
  0
LINE
  5
1BB
100
AcDbEntity
  8
0
  6
CONTINUOUS
 62
               4
100
AcDbLine
 10
18.599998499999998
 20
-69.000015629394525
 30
0.0
 11
5.4000000000000057
 21
-69.000015629394525
 31
0.0
  0
LINE
  5
1BC
100
AcDbEntity
  8
0
  6
CONTINUOUS
 62
               4
100
AcDbLine
 10
18.900000000000006
 20
-68.700012629394521
 30
0.0
 11
18.900000000000006
 21
-67.800015629394537
 31
0.0
  0
ARC
  5
1BD
100
AcDbEntity
  8
0
  6
CONTINUOUS
 62
               4
100
AcDbCircle
 10
5.4000015000000019
 20
-68.700012629394521
 30
0.0
 40
0.3
100
AcDbArc
 50
179.9999999999994
 51
269.99999999999937
  0
ARC
  5
1BE
100
AcDbEntity
  8
0
  6
CONTINUOUS
 62
               4
100
AcDbCircle
 10
6.600000399999999
 20
-67.300015629394537
 30
0.0
 40
0.5
100
AcDbArc
 50
269.99999999999858
 51
359.99999999999858
  0
ARC
  5
1BF
100
AcDbEntity
  8
0
  6
CONTINUOUS
 62
               4
100
AcDbCircle
 10
17.399999600000001
 20
-67.300015629394537
 30
0.0
 40
0.5
100
AcDbArc
 50
179.9999999999994
 51
269.99999999999937
  0
ARC
  5
1C0
100
AcDbEntity
  8
0
  6
CONTINUOUS
 62
               4
100
AcDbCircle
 10
18.599998499999998
 20
-68.700012629394521
 30
0.0
 40
0.3
100
AcDbArc
 50
269.99999999999858
 51
359.99999999999858
  0
LINE
  5
1C1
100
AcDbEntity
  8
0
  6
CONTINUOUS
 62
               4
100
AcDbLine
 10
4.5
 20
-55.200020629394537
 30
0.0
 11
19.5
 21
-55.200020629394537
 31
0.0
  0
LINE
  5
1C2
100
AcDbEntity
  8
0
  6
CONTINUOUS
 62
               4
100
AcDbLine
 10
4.5
 20
-55.200015629394535
 30
0.0
 11
4.5
 21
-50.000022888183594
 31
0.0
  0
LINE
  5
1C3
100
AcDbEntity
  8
0
  6
CONTINUOUS
 62
               4
100
AcDbLine
 10
19.5
 20
-55.200015629394535
 30
0.0
 11
19.5
 21
-50.000022888183594
 31
0.0
  0
LINE
  5
1C4
100
AcDbEntity
  8
0
  6
CONTINUOUS
 62
               4
100
AcDbLine
 10
67.5
 20
-43.000015258789063
 30
0.0
 11
52.25
 21
-43.000015258789063
 31
0.0
  0
LINE
  5
1C5
100
AcDbEntity
  8
0
  6
CONTINUOUS
 62
               4
100
AcDbLine
 10
67.5
 20
-55.200015629394535
 30
0.0
 11
67.5
 21
-43.000015258789063
 31
0.0
  0
LINE
  5
1C6
100
AcDbEntity
  8
0
  6
CONTINUOUS
 62
               4
100
AcDbLine
 10
57.199999999999989
 20
-43.000015258789063
 30
0.0
 11
57.199999999999989
 21
-45.100015629394541
 31
0.0
  0
LINE
  5
1C7
100
AcDbEntity
  8
0
  6
CONTINUOUS
 62
               4
100
AcDbLine
 10
52.25
 20
-43.20001220703125
 30
0.0
 11
52.25
 21
-43.0
 31
0.0
  0
LINE
  5
1C8
100
AcDbEntity
  8
0
  6
CONTINUOUS
 62
               4
100
AcDbLine
 10
56.75
 20
-43.20001220703125
 30
0.0
 11
56.75
 21
-43.000015258789063
 31
0.0
  0
LINE
  5
1C9
100
AcDbEntity
  8
0
  6
CONTINUOUS
 62
               4
100
AcDbLine
 10
55.25
 20
-44.70001220703125
 30
0.0
 11
53.75
 21
-44.70001220703125
 31
0.0
  0
LINE
  5
1CA
100
AcDbEntity
  8
0
  6
CONTINUOUS
 62
               4
100
AcDbLine
 10
52.5
 20
-64.83606162939455
 30
0.0
 11
67.5
 21
-64.83606162939455
 31
0.0
  0
LINE
  5
1CB
100
AcDbEntity
  8
0
  6
CONTINUOUS
 62
               4
100
AcDbLine
 10
53.303589599999981
 20
-65.300015629394551
 30
0.0
 11
66.696411266026615
 21
-65.300015629394551
 31
0.0
  0
LINE
  5
1CC
100
AcDbEntity
  8
0
  6
CONTINUOUS
 62
               4
100
AcDbLine
 10
54.299999999999983
 20
-66.900014229394543
 30
0.0
 11
65.699999599999984
 21
-66.900014229394543
 31
0.0
  0
LINE
  5
1CD
100
AcDbEntity
  8
0
  6
CONTINUOUS
 62
               4
100
AcDbLine
 10
52.5
 20
-63.50002062939452
 30
0.0
 11
67.5
 21
-63.50002062939452
 31
0.0
  0
LINE
  5
1CE
100
AcDbEntity
  8
0
  6
CONTINUOUS
 62
               4
100
AcDbLine
 10
53.199999999999989
 20
-63.300020629394531
 30
0.0
 11
53.199999999999989
 21
-62.50002062939452
 31
0.0
  0
LINE
  5
1CF
100
AcDbEntity
  8
0
  6
CONTINUOUS
 62
               4
100
AcDbLine
 10
52.5
 20
-55.600020629394514
 30
0.0
 11
67.5
 21
-55.600020629394542
 31
0.0
  0
LINE
  5
1D0
100
AcDbEntity
  8
0
  6
CONTINUOUS
 62
               4
100
AcDbLine
 10
67.299999999999983
 20
-55.400020629394525
 30
0.0
 11
67.5
 21
-55.200020629394537
 31
0.0
  0
LINE
  5
1D1
100
AcDbEntity
  8
0
  6
CONTINUOUS
 62
               4
100
AcDbLine
 10
52.700000000000017
 20
-55.400020629394525
 30
0.0
 11
52.5
 21
-55.200020629394537
 31
0.0
  0
LINE
  5
1D2
100
AcDbEntity
  8
0
  6
CONTINUOUS
 62
               4
100
AcDbLine
 10
67.5
 20
-62.400020629394525
 30
0.0
 11
67.5
 21
-55.600020629394542
 31
0.0
  0
LINE
  5
1D3
100
AcDbEntity
  8
0
  6
CONTINUOUS
 62
               4
100
AcDbLine
 10
67.400000000000006
 20
-62.50002062939452
 30
0.0
 11
67.5
 21
-62.400020629394525
 31
0.0
  0
LINE
  5
1D4
100
AcDbEntity
  8
0
  6
CONTINUOUS
 62
               4
100
AcDbLine
 10
52.599999999999994
 20
-62.50002062939452
 30
0.0
 11
67.400000000000006
 21
-62.50002062939452
 31
0.0
  0
LINE
  5
1D5
100
AcDbEntity
  8
0
  6
CONTINUOUS
 62
               4
100
AcDbLine
 10
52.5
 20
-62.400020629394525
 30
0.0
 11
52.599999999999994
 21
-62.50002062939452
 31
0.0
  0
LINE
  5
1D6
100
AcDbEntity
  8
0
  6
CONTINUOUS
 62
               4
100
AcDbLine
 10
52.5
 20
-62.400020629394525
 30
0.0
 11
52.5
 21
-55.600020629394514
 31
0.0
  0
LINE
  5
1D7
100
AcDbEntity
  8
0
  6
CONTINUOUS
 62
               4
100
AcDbLine
 10
52.700000000000017
 20
-55.400020629394525
 30
0.0
 11
67.299999999999983
 21
-55.400020629394525
 31
0.0
  0
LINE
  5
1D8
100
AcDbEntity
  8
0
  6
CONTINUOUS
 62
               4
100
AcDbLine
 10
52.700000000000017
 20
-55.400020629394525
 30
0.0
 11
52.5
 21
-55.600020629394514
 31
0.0
  0
LINE
  5
1D9
100
AcDbEntity
  8
0
  6
CONTINUOUS
 62
               4
100
AcDbLine
 10
67.299999999999983
 20
-55.400020629394525
 30
0.0
 11
67.5
 21
-55.600020629394542
 31
0.0
  0
LINE
  5
1DA
100
AcDbEntity
  8
0
  6
CONTINUOUS
 62
               4
100
AcDbLine
 10
67.5
 20
-64.83606162939455
 30
0.0
 11
67.5
 21
-63.50002062939452
 31
0.0
  0
LINE
  5
1DB
100
AcDbEntity
  8
0
  6
CONTINUOUS
 62
               4
100
AcDbLine
 10
52.5
 20
-64.83606162939455
 30
0.0
 11
52.5
 21
-63.50002062939452
 31
0.0
  0
LINE
  5
1DC
100
AcDbEntity
  8
0
  6
CONTINUOUS
 62
               4
100
AcDbLine
 10
66.799999999999983
 20
-63.300020629394531
 30
0.0
 11
66.799999999999983
 21
-62.50002062939452
 31
0.0
  0
LINE
  5
1DD
100
AcDbEntity
  8
0
  6
CONTINUOUS
 62
               4
100
AcDbLine
 10
66.696410399999991
 20
-65.300015629394551
 30
0.0
 11
66.349999999999994
 21
-65.900015629394545
 31
0.0
  0
LINE
  5
1DE
100
AcDbEntity
  8
0
  6
CONTINUOUS
 62
               4
100
AcDbLine
 10
53.303589599999981
 20
-65.300015629394551
 30
0.0
 11
53.650000000000006
 21
-65.900015629394545
 31
0.0
  0
LINE
  5
1DF
100
AcDbEntity
  8
0
  6
CONTINUOUS
 62
               4
100
AcDbLine
 10
52.700000000000017
 20
-63.300020629394531
 30
0.0
 11
52.5
 21
-63.50002062939452
 31
0.0
  0
LINE
  5
1E0
100
AcDbEntity
  8
0
  6
CONTINUOUS
 62
               4
100
AcDbLine
 10
67.299999999999983
 20
-63.300020629394531
 30
0.0
 11
67.5
 21
-63.50002062939452
 31
0.0
  0
LINE
  5
1E1
100
AcDbEntity
  8
0
  6
CONTINUOUS
 62
               4
100
AcDbLine
 10
52.700000000000017
 20
-63.300020629394531
 30
0.0
 11
67.299999999999983
 21
-63.300020629394531
 31
0.0
  0
LINE
  5
1E2
100
AcDbEntity
  8
0
  6
CONTINUOUS
 62
               4
100
AcDbLine
 10
52.5
 20
-64.83606162939455
 30
0.0
 11
53.303589599999981
 21
-65.300014629394553
 31
0.0
  0
LINE
  5
1E3
100
AcDbEntity
  8
0
  6
CONTINUOUS
 62
               4
100
AcDbLine
 10
66.696410399999991
 20
-65.300014629394553
 30
0.0
 11
67.5
 21
-64.83606162939455
 31
0.0
  0
LINE
  5
1E4
100
AcDbEntity
  8
0
  6
CONTINUOUS
 62
               4
100
AcDbLine
 10
53.649999600000001
 20
-65.900015629394545
 30
0.0
 11
66.349999999999994
 21
-65.900015629394545
 31
0.0
  0
LINE
  5
1E5
100
AcDbEntity
  8
0
  6
CONTINUOUS
 62
               4
100
AcDbLine
 10
55.099999999999994
 20
-67.300015629394537
 30
0.0
 11
55.099999999999994
 21
-67.000014629394528
 31
0.0
  0
LINE
  5
1E6
100
AcDbEntity
  8
0
  6
CONTINUOUS
 62
               4
100
AcDbLine
 10
54.400000399999982
 20
-67.000014629394528
 30
0.0
 11
65.59999959999999
 21
-67.000014629394528
 31
0.0
  0
LINE
  5
1E7
100
AcDbEntity
  8
0
  6
CONTINUOUS
 62
               4
100
AcDbLine
 10
64.900000000000006
 20
-67.300015629394537
 30
0.0
 11
64.900000000000006
 21
-67.000014629394528
 31
0.0
  0
LINE
  5
1E8
100
AcDbEntity
  8
0
  6
CONTINUOUS
 62
               4
100
AcDbLine
 10
54.300000400000016
 20
-66.900014629394519
 30
0.0
 11
54.400000399999982
 21
-67.000014629394528
 31
0.0
  0
LINE
  5
1E9
100
AcDbEntity
  8
0
  6
CONTINUOUS
 62
               4
100
AcDbLine
 10
54.299999999999983
 20
-66.900014629394519
 30
0.0
 11
54.299999999999983
 21
-65.900015629394545
 31
0.0
  0
LINE
  5
1EA
100
AcDbEntity
  8
0
  6
CONTINUOUS
 62
               4
100
AcDbLine
 10
65.699999599999984
 20
-66.900014629394519
 30
0.0
 11
65.59999959999999
 21
-67.000014629394528
 31
0.0
  0
LINE
  5
1EB
100
AcDbEntity
  8
0
  6
CONTINUOUS
 62
               4
100
AcDbLine
 10
65.699999999999989
 20
-66.900014629394519
 30
0.0
 11
65.699999999999989
 21
-65.900015629394545
 31
0.0
  0
LINE
  5
1EC
100
AcDbEntity
  8
0
  6
CONTINUOUS
 62
               4
100
AcDbLine
 10
53.099999999999994
 20
-68.700012629394521
 30
0.0
 11
53.099999999999994
 21
-67.800015629394537
 31
0.0
  0
LINE
  5
1ED
100
AcDbEntity
  8
0
  6
CONTINUOUS
 62
               4
100
AcDbLine
 10
53.099999999999994
 20
-67.800015629394537
 30
0.0
 11
66.900000000000006
 21
-67.800015629394537
 31
0.0
  0
LINE
  5
1EE
100
AcDbEntity
  8
0
  6
CONTINUOUS
 62
               4
100
AcDbLine
 10
66.599998499999998
 20
-69.000015629394525
 30
0.0
 11
53.400000000000006
 21
-69.000015629394525
 31
0.0
  0
LINE
  5
1EF
100
AcDbEntity
  8
0
  6
CONTINUOUS
 62
               4
100
AcDbLine
 10
66.900000000000006
 20
-68.700012629394521
 30
0.0
 11
66.900000000000006
 21
-67.800015629394537
 31
0.0
  0
ARC
  5
1F0
100
AcDbEntity
  8
0
  6
CONTINUOUS
 62
               4
100
AcDbCircle
 10
53.400001500000002
 20
-68.700012629394521
 30
0.0
 40
0.3
100
AcDbArc
 50
179.9999999999994
 51
269.99999999999937
  0
ARC
  5
1F1
100
AcDbEntity
  8
0
  6
CONTINUOUS
 62
               4
100
AcDbCircle
 10
54.600000399999999
 20
-67.300015629394537
 30
0.0
 40
0.5
100
AcDbArc
 50
269.99999999999858
 51
359.99999999999858
  0
ARC
  5
1F2
100
AcDbEntity
  8
0
  6
CONTINUOUS
 62
               4
100
AcDbCircle
 10
65.399999600000001
 20
-67.300015629394537
 30
0.0
 40
0.5
100
AcDbArc
 50
179.9999999999994
 51
269.99999999999937
  0
ARC
  5
1F3
100
AcDbEntity
  8
0
  6
CONTINUOUS
 62
               4
100
AcDbCircle
 10
66.599998499999998
 20
-68.700012629394521
 30
0.0
 40
0.3
100
AcDbArc
 50
269.99999999999858
 51
359.99999999999858
  0
LINE
  5
1F4
100
AcDbEntity
  8
0
  6
CONTINUOUS
 62
               4
100
AcDbLine
 10
52.5
 20
-55.200020629394537
 30
0.0
 11
67.5
 21
-55.200020629394537
 31
0.0
  0
LINE
  5
1F5
100
AcDbEntity
  8
0
  6
CONTINUOUS
 62
               4
100
AcDbLine
 10
52.5
 20
-55.200015629394535
 30
0.0
 11
52.5
 21
-44.029159545898437
 31
0.0
  0
LINE
  5
1F6
100
AcDbEntity
  8
0
  6
CONTINUOUS
 62
               4
100
AcDbLine
 10
52.5
 20
-47.100015629394541
 30
0.0
 11
67.499999999999972
 21
-47.100015629394541
 31
0.0
  0
ARC
  5
1F7
100
AcDbEntity
  8
0
  6
CONTINUOUS
 62
               4
100
AcDbCircle
 10
55.199999999999989
 20
-45.100015629394541
 30
0.0
 40
2.0
100
AcDbArc
 50
270.00000000000023
 51
0.0
  0
LINE
  5
1F8
100
AcDbEntity
  8
0
  6
CONTINUOUS
 62
               4
100
AcDbLine
 10
67.5
 20
-44.500015258789063
 30
0.0
 11
65.5
 21
-44.500015258789063
 31
0.0
  0
ELLIPSE
  5
1F9
100
AcDbEntity
  8
0
  6
CONTINUOUS
 62
               4
100
AcDbEllipse
 10
65.5
 20
-45.800015444091798
 30
0.0
 11
-2.7000000000000028
 21
0.0000000000000003
 31
0.0
210
0.0
220
0.0
230
1.0
 40
0.4814815501121251
 41
4.7123889803846897
 42
1.5707963267948966
  0
ARC
  5
1FA
100
AcDbEntity
  8
0
  6
CONTINUOUS
 62
               4
100
AcDbCircle
 10
53.75
 20
-43.20001220703125
 30
0.0
 40
1.5
100
AcDbArc
 50
179.99996402782091
 51
270.00000068324471
  0
ARC
  5
1FB
100
AcDbEntity
  8
0
  6
CONTINUOUS
 62
               4
100
AcDbCircle
 10
55.25
 20
-43.20001220703125
 30
0.0
 40
1.5
100
AcDbArc
 50
270.00001798608872
 51
0.0
  0
LINE
  5
1FC
100
AcDbEntity
  8
0
  6
CONTINUOUS
 62
               4
100
AcDbLine
 10
67.5
 20
-43.000015258789063
 30
0.0
 11
67.5
 21
-40.000015258789063
 31
0.0
  0
LINE
  5
1FD
100
AcDbEntity
  8
0
  6
CONTINUOUS
 62
               4
100
AcDbLine
 10
52.5
 20
-43.0
 30
0.0
 11
52.5
 21
-40.0
 31
0.0
  0
CIRCLE
  5
1FE
100
AcDbEntity
  8
0
  6
CONTINUOUS
 62
               7
100
AcDbCircle
 10
6.5
 20
-25.000015258789063
 30
0.0
 40
2.5
  0
CIRCLE
  5
1FF
100
AcDbEntity
  8
0
  6
CONTINUOUS
 62
               7
100
AcDbCircle
 10
17.5
 20
8.0
 30
0.0
 40
2.5
  0
ARC
  5
200
100
AcDbEntity
  8
0
  6
CONTINUOUS
 62
               7
100
AcDbCircle
 10
11.899993896484375
 20
32.699981689453125
 30
0.0
 40
3.0
100
AcDbArc
 50
271.91023065164455
 51
0.0
  0
ARC
  5
201
100
AcDbEntity
  8
0
  6
CONTINUOUS
 62
               7
100
AcDbCircle
 10
12.0
 20
32.699981689453125
 30
0.0
 40
3.0
100
AcDbArc
 50
266.17746163595609
 51
3.822566595416411
  0
ARC
  5
202
100
AcDbEntity
  8
0
  6
CONTINUOUS
 62
               7
100
AcDbCircle
 10
12.099990844726563
 20
32.699981689453125
 30
0.0
 40
3.0
100
AcDbArc
 50
268.089805320533
 51
0.0
  0
CIRCLE
  5
203
100
AcDbEntity
  8
0
  6
CONTINUOUS
 62
               7
100
AcDbCircle
 10
6.5
 20
-25.000015258789063
 30
0.0
 40
2.25
  0
CIRCLE
  5
204
100
AcDbEntity
  8
0
  6
CONTINUOUS
 62
               7
100
AcDbCircle
 10
17.5
 20
-27.000030517578125
 30
0.0
 40
2.25
  0
CIRCLE
  5
205
100
AcDbEntity
  8
0
  6
CONTINUOUS
 62
               7
100
AcDbCircle
 10
6.5
 20
9.999969482421875
 30
0.0
 40
2.25
  0
ARC
  5
206
100
AcDbEntity
  8
0
  6
CONTINUOUS
 62
               7
100
AcDbCircle
 10
18.999984741210937
 20
-50.000022888183594
 30
0.0
 40
0.5
100
AcDbArc
 50
270.00001798608872
 51
0.00001366037834
  0
ARC
  5
207
100
AcDbEntity
  8
0
  6
CONTINUOUS
 62
               7
100
AcDbCircle
 10
4.9999847412109375
 20
-50.000022888183594
 30
0.0
 40
0.5
100
AcDbArc
 50
179.99996402782091
 51
269.99994604173139
  0
ARC
  5
208
100
AcDbEntity
  8
0
  6
CONTINUOUS
 62
               7
100
AcDbCircle
 10
17.5
 20
-27.000030517578125
 30
0.0
 40
2.6999998092651367
100
AcDbArc
 50
89.999982013910454
 51
179.99996402782091
  0
ARC
  5
209
100
AcDbEntity
  8
0
  6
CONTINUOUS
 62
               7
100
AcDbCircle
 10
4.8000030517578125
 20
-31.000015258789063
 30
0.0
 40
0.300000011920929
100
AcDbArc
 50
179.99996402782091
 51
270.00000068324471
  0
ARC
  5
20A
100
AcDbEntity
  8
0
  6
CONTINUOUS
 62
               7
100
AcDbCircle
 10
19.199996948242187
 20
-31.000015258789063
 30
0.0
 40
0.300000011920929
100
AcDbArc
 50
270.00001798608872
 51
0.0
  0
ARC
  5
20B
100
AcDbEntity
  8
0
  6
CONTINUOUS
 62
               7
100
AcDbCircle
 10
19.199996948242187
 20
13.999984741210938
 30
0.0
 40
0.300000011920929
100
AcDbArc
 50
0.0
 51
89.999982013910454
  0
ARC
  5
20C
100
AcDbEntity
  8
0
  6
CONTINUOUS
 62
               7
100
AcDbCircle
 10
4.79998779296875
 20
13.999984741210938
 30
0.0
 40
0.300000011920929
100
AcDbArc
 50
89.999982013910454
 51
179.99996402782091
  0
ARC
  5
20D
100
AcDbEntity
  8
0
  6
CONTINUOUS
 62
               7
100
AcDbCircle
 10
4.8000030517578125
 20
-28.000015258789063
 30
0.0
 40
0.300000011920929
100
AcDbArc
 50
89.999982013910454
 51
179.99996402782091
  0
ARC
  5
20E
100
AcDbEntity
  8
0
  6
CONTINUOUS
 62
               7
100
AcDbCircle
 10
19.199996948242187
 20
4.9999847412109375
 30
0.0
 40
0.300000011920929
100
AcDbArc
 50
0.0
 51
89.999982013910454
  0
ARC
  5
20F
100
AcDbEntity
  8
0
  6
CONTINUOUS
 62
               7
100
AcDbCircle
 10
4.8000030517578125
 20
-22.000030517578125
 30
0.0
 40
0.300000011920929
100
AcDbArc
 50
179.99996402782091
 51
270.00000068324471
  0
ARC
  5
210
100
AcDbEntity
  8
0
  6
CONTINUOUS
 62
               7
100
AcDbCircle
 10
19.199996948242187
 20
10.999969482421875
 30
0.0
 40
0.300000011920929
100
AcDbArc
 50
270.00001798608872
 51
0.0
  0
ARC
  5
211
100
AcDbEntity
  8
0
  6
CONTINUOUS
 62
               7
100
AcDbCircle
 10
6.5
 20
9.9999847412109375
 30
0.0
 40
2.6999998092651367
100
AcDbArc
 50
270.00001798608872
 51
0.0
  0
CIRCLE
  5
212
100
AcDbEntity
  8
0
  6
CONTINUOUS
 62
               7
100
AcDbCircle
 10
17.5
 20
8.0
 30
0.0
 40
2.25
  0
ARC
  5
213
100
AcDbEntity
  8
0
  6
CONTINUOUS
 62
               7
100
AcDbCircle
 10
6.5
 20
-25.000030517578125
 30
0.0
 40
2.6999998092651367
100
AcDbArc
 50
270.00001798608872
 51
89.999982013910454
  0
ARC
  5
214
100
AcDbEntity
  8
0
  6
CONTINUOUS
 62
               7
100
AcDbCircle
 10
17.499984741210937
 20
7.9999847412109375
 30
0.0
 40
2.6999998092651367
100
AcDbArc
 50
89.999982013910454
 51
270.00000068324471
  0
ARC
  5
215
100
AcDbEntity
  8
0
  6
CONTINUOUS
 62
               4
100
AcDbCircle
 10
7.5500030517578125
 20
68.5
 30
0.0
 40
0.5
100
AcDbArc
 50
89.999982013910454
 51
179.99996402782091
  0
ARC
  5
216
100
AcDbEntity
  8
0
  6
CONTINUOUS
 62
               4
100
AcDbCircle
 10
16.449996948242188
 20
68.499984741210937
 30
0.0
 40
0.5
100
AcDbArc
 50
359.99995901886416
 51
89.999982013910454
  0
CIRCLE
  5
217
100
AcDbEntity
  8
0
  6
CONTINUOUS
 62
               7
100
AcDbCircle
 10
12.0
 20
32.699981689453125
 30
0.0
 40
1.9499998092651367
  0
CIRCLE
  5
218
100
AcDbEntity
  8
0
  6
CONTINUOUS
 62
               7
100
AcDbCircle
 10
12.0
 20
32.699981689453125
 30
0.0
 40
2.0
  0
CIRCLE
  5
219
100
AcDbEntity
  8
0
  6
CONTINUOUS
 62
               7
100
AcDbCircle
 10
72.0
 20
-20.000015258789063
 30
0.0
 40
2.25
  0
CIRCLE
  5
21A
100
AcDbEntity
  8
0
  6
CONTINUOUS
 62
               7
100
AcDbCircle
 10
72.0
 20
0.0
 30
0.0
 40
2.25
  0
CIRCLE
  5
21B
100
AcDbEntity
  8
0
  6
CONTINUOUS
 62
               7
100
AcDbCircle
 10
0.0
 20
-20.000015258789063
 30
0.0
 40
2.25
  0
CIRCLE
  5
21C
100
AcDbEntity
  8
0
  6
CONTINUOUS
 62
               7
100
AcDbCircle
 10
0.0
 20
0.0
 30
0.0
 40
2.25
  0
CIRCLE
  5
21D
100
AcDbEntity
  8
0
  6
CONTINUOUS
 62
               4
100
AcDbCircle
 10
54.5
 20
-24.999984741210937
 30
0.0
 40
2.25
  0
CIRCLE
  5
21E
100
AcDbEntity
  8
0
  6
CONTINUOUS
 62
               4
100
AcDbCircle
 10
65.5
 20
8.0000152587890625
 30
0.0
 40
2.25
  0
LINE
  5
21F
100
AcDbEntity
  8
0
  6
CONTINUOUS
 62
               7
100
AcDbLine
 10
4.5
 20
11.030731201171875
 30
0.0
 11
4.5
 21
22.999984741210937
 31
0.0
  0
LINE
  5
220
100
AcDbEntity
  8
0
  6
CONTINUOUS
 62
               7
100
AcDbLine
 10
6.499998577747931
 20
24.999984047552459
 30
0.0
 11
4.4999974660943849
 21
22.999980912848002
 31
0.0
  0
LINE
  5
221
100
AcDbEntity
  8
0
  6
CONTINUOUS
 62
               7
100
AcDbLine
 10
6.5
 20
24.999984741210937
 30
0.0
 11
7.0
 21
24.999984741210937
 31
0.0
  0
LINE
  5
222
100
AcDbEntity
  8
0
  6
CONTINUOUS
 62
               7
100
AcDbLine
 10
17.5
 20
24.999984741210937
 30
0.0
 11
17.0
 21
24.999984741210937
 31
0.0
  0
LINE
  5
223
100
AcDbEntity
  8
0
  6
CONTINUOUS
 62
               7
100
AcDbLine
 10
17.499937551887569
 20
24.999967146648032
 30
0.0
 11
19.499961760012752
 21
22.999942601343946
 31
0.0
  0
LINE
  5
224
100
AcDbEntity
  8
0
  6
CONTINUOUS
 62
               7
100
AcDbLine
 10
4.5
 20
-50.000022888183594
 30
0.0
 11
4.5
 21
-26.500015258789063
 31
0.0
  0
LINE
  5
225
100
AcDbEntity
  8
0
  6
CONTINUOUS
 62
               7
100
AcDbLine
 10
4.5
 20
-23.500015258789063
 30
0.0
 11
4.5
 21
8.969207763671875
 31
0.0
  0
LINE
  5
226
100
AcDbEntity
  8
0
  6
CONTINUOUS
 62
               7
100
AcDbLine
 10
19.5
 20
-25.969253540039063
 30
0.0
 11
19.5
 21
6.5
 31
0.0
  0
LINE
  5
227
100
AcDbEntity
  8
0
  6
CONTINUOUS
 62
               7
100
AcDbLine
 10
19.5
 20
9.5
 30
0.0
 11
19.5
 21
22.999984741210937
 31
0.0
  0
LINE
  5
228
100
AcDbEntity
  8
0
  6
CONTINUOUS
 62
               7
100
AcDbLine
 10
11.999988348299667
 20
29.699956377764465
 30
0.0
 11
12.999990401240211
 21
29.432006694711163
 31
0.0
  0
LINE
  5
229
100
AcDbEntity
  8
0
  6
CONTINUOUS
 62
               7
100
AcDbLine
 10
12.0
 20
29.199981689453125
 30
0.0
 11
12.0
 21
30.199981689453125
 31
0.0
  0
LINE
  5
22A
100
AcDbEntity
  8
0
  6
CONTINUOUS
 62
               7
100
AcDbLine
 10
14.5
 20
32.699981689453125
 30
0.0
 11
15.5
 21
32.699981689453125
 31
0.0
  0
LINE
  5
22B
100
AcDbEntity
  8
0
  6
CONTINUOUS
 62
               7
100
AcDbLine
 10
50.499969482421875
 20
24.0
 30
0.0
 11
76.0
 21
24.0
 31
0.0
  0
LINE
  5
22C
100
AcDbEntity
  8
0
  6
CONTINUOUS
 62
               7
100
AcDbLine
 10
34.499969482421875
 20
24.0
 30
0.0
 11
37.500030517578125
 21
24.0
 31
0.0
  0
LINE
  5
22D
100
AcDbEntity
  8
0
  6
CONTINUOUS
 62
               7
100
AcDbLine
 10
18.499969482421875
 20
24.0
 30
0.0
 11
21.500030517578125
 21
24.0
 31
0.0
  0
LINE
  5
22E
100
AcDbEntity
  8
0
  6
CONTINUOUS
 62
               7
100
AcDbLine
 10
-4.0
 20
24.0
 30
0.0
 11
5.500030517578125
 21
24.0
 31
0.0
  0
LINE
  5
22F
100
AcDbEntity
  8
0
  6
CONTINUOUS
 62
               7
100
AcDbLine
 10
51.5
 20
-40.000015258789063
 30
0.0
 11
76.0
 21
-40.000015258789063
 31
0.0
  0
LINE
  5
230
100
AcDbEntity
  8
0
  6
CONTINUOUS
 62
               7
100
AcDbLine
 10
-4.0
 20
-40.000015258789063
 30
0.0
 11
4.5
 21
-40.000015258789063
 31
0.0
  0
LINE
  5
231
100
AcDbEntity
  8
0
  6
CONTINUOUS
 62
               7
100
AcDbLine
 10
76.0
 20
-40.000015258789063
 30
0.0
 11
76.0
 21
24.0
 31
0.0
  0
LINE
  5
232
100
AcDbEntity
  8
0
  6
CONTINUOUS
 62
               7
100
AcDbLine
 10
-4.0
 20
-40.000015258789063
 30
0.0
 11
-4.0
 21
24.0
 31
0.0
  0
LINE
  5
233
100
AcDbEntity
  8
0
  6
CONTINUOUS
 62
               7
100
AcDbLine
 10
7.4192531978342231
 20
-25.919240728790101
 30
0.0
 11
5.5807822269407552
 21
-24.08076929298204
 31
0.0
  0
LINE
  5
234
100
AcDbEntity
  8
0
  6
CONTINUOUS
 62
               7
100
AcDbLine
 10
5.5807894476665751
 20
-25.919254187250772
 30
0.0
 11
7.4192607285031045
 21
-24.080783061385773
 31
0.0
  0
LINE
  5
235
100
AcDbEntity
  8
0
  6
CONTINUOUS
 62
               7
100
AcDbLine
 10
18.419243506866223
 20
-27.919244327107663
 30
0.0
 11
16.580772535972756
 21
-26.080772891299603
 31
0.0
  0
LINE
  5
236
100
AcDbEntity
  8
0
  6
CONTINUOUS
 62
               7
100
AcDbLine
 10
16.580769135691298
 20
-27.919289227118497
 30
0.0
 11
18.419240416527828
 21
-26.080818101253499
 31
0.0
  0
LINE
  5
237
100
AcDbEntity
  8
0
  6
CONTINUOUS
 62
               4
100
AcDbLine
 10
16.0
 20
73.5
 30
0.0
 11
16.0
 21
79.999984741210938
 31
0.0
  0
LINE
  5
238
100
AcDbEntity
  8
0
  6
CONTINUOUS
 62
               4
100
AcDbLine
 10
8.0
 20
73.5
 30
0.0
 11
8.0
 21
79.999984741210938
 31
0.0
  0
LINE
  5
239
100
AcDbEntity
  8
0
  6
CONTINUOUS
 62
               4
100
AcDbLine
 10
7.0999908447265625
 20
73.5
 30
0.0
 11
7.0999908447265625
 21
79.999984741210938
 31
0.0
  0
LINE
  5
23A
100
AcDbEntity
  8
0
  6
CONTINUOUS
 62
               4
100
AcDbLine
 10
16.899993896484375
 20
73.5
 30
0.0
 11
16.899993896484375
 21
79.999984741210938
 31
0.0
  0
LINE
  5
23B
100
AcDbEntity
  8
0
  6
CONTINUOUS
 62
               7
100
AcDbLine
 10
16.58074903164561
 20
7.0807494036562275
 30
0.0
 11
18.419231102076083
 21
8.9192313191142603
 31
0.0
  0
LINE
  5
23C
100
AcDbEntity
  8
0
  6
CONTINUOUS
 62
               7
100
AcDbLine
 10
5.5807747384155846
 20
9.0807358903530258
 30
0.0
 11
7.4192460192521139
 21
10.919207016218024
 31
0.0
  0
LINE
  5
23D
100
AcDbEntity
  8
0
  6
CONTINUOUS
 62
               7
100
AcDbLine
 10
7.4192582976021413
 20
9.080754069260081
 30
0.0
 11
5.5807799088640877
 21
10.919232922914603
 31
0.0
  0
LINE
  5
23E
100
AcDbEntity
  8
0
  6
CONTINUOUS
 62
               7
100
AcDbLine
 10
18.419269511477069
 20
7.0807943036634242
 30
0.0
 11
16.580798540583601
 21
8.9192657394714843
 31
0.0
  0
LINE
  5
23F
100
AcDbEntity
  8
0
  6
CONTINUOUS
 62
               7
100
AcDbLine
 10
4.9999847412109375
 20
-50.500022888183594
 30
0.0
 11
18.999984741210937
 21
-50.500022888183594
 31
0.0
  0
LINE
  5
240
100
AcDbEntity
  8
0
  6
CONTINUOUS
 62
               7
100
AcDbLine
 10
5.500044509862164
 20
-40.500054761539104
 30
0.0
 11
4.5000432796850873
 21
-41.500055823128605
 31
0.0
  0
LINE
  5
241
100
AcDbEntity
  8
0
  6
CONTINUOUS
 62
               7
100
AcDbLine
 10
18.5000162479746
 20
-40.499991119791048
 30
0.0
 11
19.5000173095641
 21
-41.499992349968124
 31
0.0
  0
LINE
  5
242
100
AcDbEntity
  8
0
  6
CONTINUOUS
 62
               7
100
AcDbLine
 10
19.500082890058366
 20
-31.500067207892243
 30
0.0
 11
18.500081659881289
 21
-32.500068269481744
 31
0.0
  0
LINE
  5
243
100
AcDbEntity
  8
0
  6
CONTINUOUS
 62
               7
100
AcDbLine
 10
4.5000009642508303
 20
-31.500001205916305
 30
0.0
 11
5.500002025840331
 21
-32.500002436093382
 31
0.0
  0
LINE
  5
244
100
AcDbEntity
  8
0
  6
CONTINUOUS
 62
               7
100
AcDbLine
 10
5.5
 20
-40.500030517578125
 30
0.0
 11
5.5
 21
-32.500030517578125
 31
0.0
  0
LINE
  5
245
100
AcDbEntity
  8
0
  6
CONTINUOUS
 62
               7
100
AcDbLine
 10
18.5
 20
-40.500030517578125
 30
0.0
 11
18.5
 21
-32.500030517578125
 31
0.0
  0
LINE
  5
246
100
AcDbEntity
  8
0
  6
CONTINUOUS
 62
               7
100
AcDbLine
 10
5.4999847412109375
 20
-32.500030517578125
 30
0.0
 11
18.499984741210938
 21
-32.500030517578125
 31
0.0
  0
LINE
  5
247
100
AcDbEntity
  8
0
  6
CONTINUOUS
 62
               7
100
AcDbLine
 10
5.4999847412109375
 20
-40.500030517578125
 30
0.0
 11
18.499984741210938
 21
-40.500030517578125
 31
0.0
  0
LINE
  5
248
100
AcDbEntity
  8
0
  6
CONTINUOUS
 62
               7
100
AcDbLine
 10
4.4999847412109375
 20
-41.500030517578125
 30
0.0
 11
19.499984741210938
 21
-41.500030517578125
 31
0.0
  0
LINE
  5
249
100
AcDbEntity
  8
0
  6
CONTINUOUS
 62
               7
100
AcDbLine
 10
4.4999847412109375
 20
-31.500030517578125
 30
0.0
 11
19.499984741210938
 21
-31.500030517578125
 31
0.0
  0
LINE
  5
24A
100
AcDbEntity
  8
0
  6
CONTINUOUS
 62
               7
100
AcDbLine
 10
19.499984741210938
 20
12.299972534179688
 30
0.0
 11
9.1999969482421875
 21
12.299972534179688
 31
0.0
  0
LINE
  5
24B
100
AcDbEntity
  8
0
  6
CONTINUOUS
 62
               7
100
AcDbLine
 10
14.79998779296875
 20
-29.300018310546875
 30
0.0
 11
4.4999847412109375
 21
-29.300018310546875
 31
0.0
  0
LINE
  5
24C
100
AcDbEntity
  8
0
  6
CONTINUOUS
 62
               7
100
AcDbLine
 10
9.20001220703125
 20
14.299972534179687
 30
0.0
 11
9.20001220703125
 21
9.999969482421875
 31
0.0
  0
LINE
  5
24D
100
AcDbEntity
  8
0
  6
CONTINUOUS
 62
               7
100
AcDbLine
 10
14.800003051757812
 20
-27.000030517578125
 30
0.0
 11
14.800003051757812
 21
-31.300018310546875
 31
0.0
  0
LINE
  5
24E
100
AcDbEntity
  8
0
  6
CONTINUOUS
 62
               7
100
AcDbLine
 10
17.499984741210937
 20
-24.300018310546875
 30
0.0
 11
19.499984741210938
 21
-24.300018310546875
 31
0.0
  0
LINE
  5
24F
100
AcDbEntity
  8
0
  6
CONTINUOUS
 62
               7
100
AcDbLine
 10
6.4999847412109375
 20
7.29998779296875
 30
0.0
 11
4.4999847412109375
 21
7.29998779296875
 31
0.0
  0
LINE
  5
250
100
AcDbEntity
  8
0
  6
CONTINUOUS
 62
               7
100
AcDbLine
 10
19.199996948242187
 20
-31.300018310546875
 30
0.0
 11
4.79998779296875
 21
-31.300018310546875
 31
0.0
  0
LINE
  5
251
100
AcDbEntity
  8
0
  6
CONTINUOUS
 62
               7
100
AcDbLine
 10
19.199996948242187
 20
14.299972534179687
 30
0.0
 11
4.79998779296875
 21
14.299972534179687
 31
0.0
  0
LINE
  5
252
100
AcDbEntity
  8
0
  6
CONTINUOUS
 62
               7
100
AcDbLine
 10
17.499984741210937
 20
5.29998779296875
 30
0.0
 11
19.199996948242187
 21
5.29998779296875
 31
0.0
  0
LINE
  5
253
100
AcDbEntity
  8
0
  6
CONTINUOUS
 62
               7
100
AcDbLine
 10
6.4999847412109375
 20
-22.300033569335937
 30
0.0
 11
4.79998779296875
 21
-22.300033569335937
 31
0.0
  0
LINE
  5
254
100
AcDbEntity
  8
0
  6
CONTINUOUS
 62
               7
100
AcDbLine
 10
6.4999847412109375
 20
-27.700027465820313
 30
0.0
 11
4.79998779296875
 21
-27.700027465820313
 31
0.0
  0
LINE
  5
255
100
AcDbEntity
  8
0
  6
CONTINUOUS
 62
               7
100
AcDbLine
 10
17.499984741210937
 20
10.699981689453125
 30
0.0
 11
19.199996948242187
 21
10.699981689453125
 31
0.0
  0
LINE
  5
256
100
AcDbEntity
  8
0
  6
CONTINUOUS
 62
               7
100
AcDbLine
 10
4.5
 20
14.499984741210938
 30
0.0
 11
19.5
 21
14.499984741210938
 31
0.0
  0
LINE
  5
257
100
AcDbEntity
  8
0
  6
CONTINUOUS
 62
               7
100
AcDbLine
 10
19.5
 20
-50.000022888183594
 30
0.0
 11
19.5
 21
-28.030807495117188
 31
0.0
  0
LINE
  5
258
100
AcDbEntity
  8
0
  6
CONTINUOUS
 62
               7
100
AcDbLine
 10
7.0
 20
24.499984741210938
 30
0.0
 11
7.0
 21
35.999969482421875
 31
0.0
  0
LINE
  5
259
100
AcDbEntity
  8
0
  6
CONTINUOUS
 62
               7
100
AcDbLine
 10
17.0
 20
24.499984741210938
 30
0.0
 11
17.0
 21
35.999969482421875
 31
0.0
  0
LINE
  5
25A
100
AcDbEntity
  8
0
  6
CONTINUOUS
 62
             200
100
AcDbLine
 10
12.000001720526598
 20
85.732089361965336
 30
0.0
 11
7.9999996616961653
 21
83.422686070238342
 31
0.0
  0
LINE
  5
25B
100
AcDbEntity
  8
0
  6
CONTINUOUS
 62
               4
100
AcDbLine
 10
9.2849884033203125
 20
79.999984741210938
 30
0.0
 11
9.2849884033203125
 21
83.009735107421875
 31
0.0
  0
LINE
  5
25C
100
AcDbEntity
  8
0
  6
CONTINUOUS
 62
               4
100
AcDbLine
 10
10.715011596679687
 20
79.999984741210938
 30
0.0
 11
10.715011596679687
 21
83.835372924804688
 31
0.0
  0
LINE
  5
25D
100
AcDbEntity
  8
0
  6
CONTINUOUS
 62
               4
100
AcDbLine
 10
9.5999908447265625
 20
92.999984741210938
 30
0.0
 11
10.399993896484375
 21
92.999984741210938
 31
0.0
  0
LINE
  5
25E
100
AcDbEntity
  8
0
  6
CONTINUOUS
 62
               4
100
AcDbLine
 10
9.5999908447265625
 20
87.999984741210938
 30
0.0
 11
9.5999908447265625
 21
92.999984741210938
 31
0.0
  0
LINE
  5
25F
100
AcDbEntity
  8
0
  6
CONTINUOUS
 62
               4
100
AcDbLine
 10
10.400009155273437
 20
87.999984741210938
 30
0.0
 11
10.400009155273437
 21
92.999984741210938
 31
0.0
  0
LINE
  5
260
100
AcDbEntity
  8
0
  6
CONTINUOUS
 62
               4
100
AcDbLine
 10
9.2849884033203125
 20
87.999984741210938
 30
0.0
 11
10.714996337890625
 21
87.999984741210938
 31
0.0
  0
LINE
  5
261
100
AcDbEntity
  8
0
  6
CONTINUOUS
 62
               4
100
AcDbLine
 10
9.2849884033203125
 20
84.164566040039063
 30
0.0
 11
9.2849884033203125
 21
87.999984741210938
 31
0.0
  0
LINE
  5
262
100
AcDbEntity
  8
0
  6
CONTINUOUS
 62
               4
100
AcDbLine
 10
10.715011596679687
 20
84.990188598632813
 30
0.0
 11
10.715011596679687
 21
87.999984741210938
 31
0.0
  0
LINE
  5
263
100
AcDbEntity
  8
0
  6
CONTINUOUS
 62
               4
100
AcDbLine
 10
16.050003051757813
 20
72.5
 30
0.0
 11
16.050003051757813
 21
73.5
 31
0.0
  0
LINE
  5
264
100
AcDbEntity
  8
0
  6
CONTINUOUS
 62
               4
100
AcDbLine
 10
7.9499969482421875
 20
72.5
 30
0.0
 11
7.9499969482421875
 21
73.5
 31
0.0
  0
LINE
  5
265
100
AcDbEntity
  8
0
  6
CONTINUOUS
 62
               4
100
AcDbLine
 10
7.9499969482421875
 20
71.499984741210938
 30
0.0
 11
8.5
 21
71.499984741210938
 31
0.0
  0
LINE
  5
266
100
AcDbEntity
  8
0
  6
CONTINUOUS
 62
               4
100
AcDbLine
 10
7.9499969482421875
 20
72.499984741210937
 30
0.0
 11
8.5
 21
72.499984741210937
 31
0.0
  0
LINE
  5
267
100
AcDbEntity
  8
0
  6
CONTINUOUS
 62
               4
100
AcDbLine
 10
15.5
 20
71.499984741210938
 30
0.0
 11
16.050003051757813
 21
71.499984741210938
 31
0.0
  0
LINE
  5
268
100
AcDbEntity
  8
0
  6
CONTINUOUS
 62
               4
100
AcDbLine
 10
15.5
 20
72.499984741210937
 30
0.0
 11
16.050003051757813
 21
72.499984741210937
 31
0.0
  0
LINE
  5
269
100
AcDbEntity
  8
0
  6
CONTINUOUS
 62
               4
100
AcDbLine
 10
15.5
 20
73.499984741210937
 30
0.0
 11
16.949996948242187
 21
73.499984741210937
 31
0.0
  0
LINE
  5
26A
100
AcDbEntity
  8
0
  6
CONTINUOUS
 62
               4
100
AcDbLine
 10
7.100006103515625
 20
79.999984741210938
 30
0.0
 11
16.899993896484375
 21
79.999984741210938
 31
0.0
  0
LINE
  5
26B
100
AcDbEntity
  8
0
  6
CONTINUOUS
 62
               4
100
AcDbLine
 10
8.5
 20
78.499984741210938
 30
0.0
 11
15.5
 21
78.499984741210938
 31
0.0
  0
LINE
  5
26C
100
AcDbEntity
  8
0
  6
CONTINUOUS
 62
               4
100
AcDbLine
 10
8.5
 20
73.056137084960937
 30
0.0
 11
15.5
 21
73.056137084960937
 31
0.0
  0
LINE
  5
26D
100
AcDbEntity
  8
0
  6
CONTINUOUS
 62
               4
100
AcDbLine
 10
8.5
 20
69.498443603515625
 30
0.0
 11
15.5
 21
69.498443603515625
 31
0.0
  0
LINE
  5
26E
100
AcDbEntity
  8
0
  6
CONTINUOUS
 62
               4
100
AcDbLine
 10
8.5
 20
69.498443603515625
 30
0.0
 11
8.5
 21
79.999984741210938
 31
0.0
  0
LINE
  5
26F
100
AcDbEntity
  8
0
  6
CONTINUOUS
 62
               4
100
AcDbLine
 10
15.5
 20
69.498443603515625
 30
0.0
 11
15.5
 21
79.999984741210938
 31
0.0
  0
LINE
  5
270
100
AcDbEntity
  8
0
  6
CONTINUOUS
 62
               4
100
AcDbLine
 10
16.050003051757813
 20
68.999984741210937
 30
0.0
 11
16.050003051757813
 21
71.5
 31
0.0
  0
LINE
  5
271
100
AcDbEntity
  8
0
  6
CONTINUOUS
 62
               4
100
AcDbLine
 10
7.9499969482421875
 20
69.0
 30
0.0
 11
7.9499969482421875
 21
71.5
 31
0.0
  0
LINE
  5
272
100
AcDbEntity
  8
0
  6
CONTINUOUS
 62
               4
100
AcDbLine
 10
7.0500030517578125
 20
73.499984741210937
 30
0.0
 11
8.5
 21
73.499984741210937
 31
0.0
  0
LINE
  5
273
100
AcDbEntity
  8
0
  6
CONTINUOUS
 62
             200
100
AcDbLine
 10
12.000003152118552
 20
84.577258632662961
 30
0.0
 11
8.0000008179858924
 21
82.267855891540421
 31
0.0
  0
LINE
  5
274
100
AcDbEntity
  8
0
  6
CONTINUOUS
 62
               4
100
AcDbLine
 10
16.949996948242187
 20
59.999984741210938
 30
0.0
 11
16.949996948242187
 21
73.5
 31
0.0
  0
LINE
  5
275
100
AcDbEntity
  8
0
  6
CONTINUOUS
 62
               2
100
AcDbLine
 10
16.949996948242187
 20
64.499984741210937
 30
0.0
 11
7.04998779296875
 21
64.499984741210937
 31
0.0
  0
LINE
  5
276
100
AcDbEntity
  8
0
  6
CONTINUOUS
 62
               4
100
AcDbLine
 10
16.5
 20
68.999984741210937
 30
0.0
 11
7.5
 21
68.999984741210937
 31
0.0
  0
LINE
  5
277
100
AcDbEntity
  8
0
  6
CONTINUOUS
 62
               4
100
AcDbLine
 10
7.04998779296875
 20
59.999984741210938
 30
0.0
 11
7.04998779296875
 21
73.5
 31
0.0
  0
LINE
  5
278
100
AcDbEntity
  8
0
  6
CONTINUOUS
 62
               7
100
AcDbLine
 10
10.073211669921875
 20
32.999969482421875
 30
0.0
 11
13.926788330078125
 21
32.999969482421875
 31
0.0
  0
LINE
  5
279
100
AcDbEntity
  8
0
  6
CONTINUOUS
 62
               7
100
AcDbLine
 10
10.073211669921875
 20
32.399978637695313
 30
0.0
 11
13.926788330078125
 21
32.399978637695313
 31
0.0
  0
LINE
  5
27A
100
AcDbEntity
  8
0
  6
CONTINUOUS
 62
               7
100
AcDbLine
 10
7.0
 20
35.999969482421875
 30
0.0
 11
17.0
 21
35.999969482421875
 31
0.0
  0
LINE
  5
27B
100
AcDbEntity
  8
0
  6
CONTINUOUS
 62
               4
100
AcDbLine
 10
7.0
 20
59.999984741210938
 30
0.0
 11
17.0
 21
59.999984741210938
 31
0.0
  0
LINE
  5
27C
100
AcDbEntity
  8
0
  6
CONTINUOUS
 62
             200
100
AcDbLine
 10
12.0
 20
-71.057587623596191
 30
0.0
 11
12.0
 21
-42.477618699780876
 31
0.0
  0
LINE
  5
27D
100
AcDbEntity
  8
0
  6
CONTINUOUS
 62
               2
100
AcDbLine
 10
9.5
 20
32.699981689453125
 30
0.0
 11
14.5
 21
32.699981689453125
 31
0.0
  0
LINE
  5
27E
100
AcDbEntity
  8
0
  6
CONTINUOUS
 62
               7
100
AcDbLine
 10
7.0
 20
26.499969482421875
 30
0.0
 11
17.0
 21
26.499969482421875
 31
0.0
  0
LINE
  5
27F
100
AcDbEntity
  8
0
  6
CONTINUOUS
 62
               7
100
AcDbLine
 10
7.0
 20
24.499984741210938
 30
0.0
 11
17.0
 21
24.499984741210938
 31
0.0
  0
LINE
  5
280
100
AcDbEntity
  8
0
  6
CONTINUOUS
 62
               2
100
AcDbLine
 10
0.0
 20
-16.750015258789063
 30
0.0
 11
0.0
 21
-23.250015258789063
 31
0.0
  0
LINE
  5
281
100
AcDbEntity
  8
0
  6
CONTINUOUS
 62
               2
100
AcDbLine
 10
72.0
 20
-16.750015258789063
 30
0.0
 11
72.0
 21
-23.250015258789063
 31
0.0
  0
LINE
  5
282
100
AcDbEntity
  8
0
  6
CONTINUOUS
 62
               2
100
AcDbLine
 10
68.75
 20
-20.000015258789063
 30
0.0
 11
75.25
 21
-20.000015258789063
 31
0.0
  0
LINE
  5
283
100
AcDbEntity
  8
0
  6
CONTINUOUS
 62
               2
100
AcDbLine
 10
68.75
 20
0.0
 30
0.0
 11
75.25
 21
0.0
 31
0.0
  0
LINE
  5
284
100
AcDbEntity
  8
0
  6
CONTINUOUS
 62
               2
100
AcDbLine
 10
-3.25
 20
-20.000015258789063
 30
0.0
 11
3.25
 21
-20.000015258789063
 31
0.0
  0
LINE
  5
285
100
AcDbEntity
  8
0
  6
CONTINUOUS
 62
               2
100
AcDbLine
 10
-3.25
 20
0.0
 30
0.0
 11
3.25
 21
0.0
 31
0.0
  0
LINE
  5
286
100
AcDbEntity
  8
0
  6
CONTINUOUS
 62
               2
100
AcDbLine
 10
72.0
 20
3.25
 30
0.0
 11
72.0
 21
-3.2500152587890625
 31
0.0
  0
LINE
  5
287
100
AcDbEntity
  8
0
  6
CONTINUOUS
 62
               2
100
AcDbLine
 10
0.0
 20
3.25
 30
0.0
 11
0.0
 21
-3.2500152587890625
 31
0.0
  0
LINE
  5
288
100
AcDbEntity
  8
0
  6
CONTINUOUS
 62
               7
100
AcDbLine
 10
35.5
 20
-40.000015258789063
 30
0.0
 11
36.5
 21
-40.000015258789063
 31
0.0
  0
LINE
  5
289
100
AcDbEntity
  8
0
  6
CONTINUOUS
 62
               7
100
AcDbLine
 10
19.5
 20
-40.000015258789063
 30
0.0
 11
20.5
 21
-40.000015258789063
 31
0.0
  0
LINE
  5
28A
100
AcDbEntity
  8
0
  6
CONTINUOUS
 62
               4
100
AcDbLine
 10
52.5
 20
-26.399993896484375
 30
0.0
 11
52.738601684570313
 21
-26.399993896484375
 31
0.0
  0
LINE
  5
28B
100
AcDbEntity
  8
0
  6
CONTINUOUS
 62
               4
100
AcDbLine
 10
52.5
 20
-23.599990844726563
 30
0.0
 11
52.738601684570313
 21
-23.599990844726563
 31
0.0
  0
LINE
  5
28C
100
AcDbEntity
  8
0
  6
CONTINUOUS
 62
               4
100
AcDbLine
 10
67.261383056640625
 20
9.4000244140625
 30
0.0
 11
67.5
 21
9.4000244140625
 31
0.0
  0
LINE
  5
28D
100
AcDbEntity
  8
0
  6
CONTINUOUS
 62
               4
100
AcDbLine
 10
67.261383056640625
 20
6.6000213623046875
 30
0.0
 11
67.5
 21
6.6000213623046875
 31
0.0
  0
LINE
  5
28E
100
AcDbEntity
  8
0
  6
CONTINUOUS
 62
               4
100
AcDbLine
 10
67.5
 20
9.4000244140625
 30
0.0
 11
67.5
 21
23.000015258789063
 31
0.0
  0
LINE
  5
28F
100
AcDbEntity
  8
0
  6
CONTINUOUS
 62
               4
100
AcDbLine
 10
52.5
 20
23.000015258789063
 30
0.0
 11
67.5
 21
23.000015258789063
 31
0.0
  0
LINE
  5
290
100
AcDbEntity
  8
0
  6
CONTINUOUS
 62
               4
100
AcDbLine
 10
52.5
 20
-31.999984741210937
 30
0.0
 11
67.5
 21
-31.999984741210937
 31
0.0
  0
LINE
  5
291
100
AcDbEntity
  8
0
  6
CONTINUOUS
 62
               4
100
AcDbLine
 10
53.580799268639566
 20
-25.919256210299864
 30
0.0
 11
55.419270549476096
 21
-24.080785084434865
 31
0.0
  0
LINE
  5
292
100
AcDbEntity
  8
0
  6
CONTINUOUS
 62
               4
100
AcDbLine
 10
55.419273808407524
 20
-25.919192849971296
 30
0.0
 11
53.580802837514057
 21
-24.080721414163236
 31
0.0
  0
LINE
  5
293
100
AcDbEntity
  8
0
  6
CONTINUOUS
 62
               4
100
AcDbLine
 10
52.5
 20
-31.999984741210937
 30
0.0
 11
52.5
 21
-26.399993896484375
 31
0.0
  0
LINE
  5
294
100
AcDbEntity
  8
0
  6
CONTINUOUS
 62
               4
100
AcDbLine
 10
52.5
 20
-23.599990844726563
 30
0.0
 11
52.5
 21
23.000015258789063
 31
0.0
  0
LINE
  5
295
100
AcDbEntity
  8
0
  6
CONTINUOUS
 62
               4
100
AcDbLine
 10
67.5
 20
-31.999984741210937
 30
0.0
 11
67.5
 21
6.6000213623046875
 31
0.0
  0
LINE
  5
296
100
AcDbEntity
  8
0
  6
CONTINUOUS
 62
               4
100
AcDbLine
 10
64.580791221399522
 20
7.0807581701992603
 30
0.0
 11
66.419262502236052
 21
8.919229296064259
 31
0.0
  0
LINE
  5
297
100
AcDbEntity
  8
0
  6
CONTINUOUS
 62
               4
100
AcDbLine
 10
66.419268542863392
 20
7.0808421824849574
 30
0.0
 11
64.580797571969924
 21
8.9193136182930175
 31
0.0
  0
LINE
  5
298
100
AcDbEntity
  8
0
  6
CONTINUOUS
 62
             200
100
AcDbLine
 10
60.0
 20
-71.224887847900391
 30
0.0
 11
60.0
 21
-40.000015258789063
 31
0.0
  0
ENDBLK
  5
299
100
AcDbEntity
  8
0
100
AcDbBlockEnd
  0
BLOCK
  5
29A
100
AcDbEntity
  8
0
100
AcDbBlockBegin
  2
F15MA-2
 70
               0
 10
0.0
 20
0.0
 30
0.0
  3
F15MA-2
  1

  0
LINE
  5
29B
100
AcDbEntity
  8
0
  6
CONTINUOUS
 62
             200
100
AcDbLine
 10
15.375
 20
-71.543729437545693
 30
0.0
 11
15.375
 21
-47.17761607038635
 31
0.0
  0
LINE
  5
29C
100
AcDbEntity
  8
0
  6
CONTINUOUS
 62
             200
100
AcDbLine
 10
30.75
 20
-71.543729437545693
 30
0.0
 11
30.75
 21
-47.377616070386338
 31
0.0
  0
LINE
  5
29D
100
AcDbEntity
  8
0
  6
CONTINUOUS
 62
               2
100
AcDbLine
 10
-4.0460525444984796
 20
-20.000015258789063
 30
0.0
 11
5.0
 21
-20.000015258789063
 31
0.0
  0
LINE
  5
29E
100
AcDbEntity
  8
0
  6
CONTINUOUS
 62
               2
100
AcDbLine
 10
-4.0460525444984796
 20
0.0
 30
0.0
 11
5.0
 21
0.0
 31
0.0
  0
LINE
  5
29F
100
AcDbEntity
  8
0
  6
CONTINUOUS
 62
               7
100
AcDbLine
 10
46.499998263549585
 20
-31.499999999999929
 30
0.0
 11
45.999992541503687
 21
-31.499999962250556
 31
0.0
  0
LINE
  5
2A0
100
AcDbEntity
  8
0
  6
CONTINUOUS
 62
               7
100
AcDbLine
 10
46.500002264936825
 20
21.499984741210852
 30
0.0
 11
45.999996542890926
 21
21.499984778960226
 31
0.0
  0
LINE
  5
2A1
100
AcDbEntity
  8
0
  6
CONTINUOUS
 62
               4
100
AcDbLine
 10
3.79998779296875
 20
-45.078469193328047
 30
0.0
 11
3.79998779296875
 21
-40.000022888183594
 31
0.0
  0
LINE
  5
2A2
100
AcDbEntity
  8
0
  6
CONTINUOUS
 62
               4
100
AcDbLine
 10
9.1999893188476563
 20
-47.100015258789057
 30
0.0
 11
9.1999893188476563
 21
-40.000022888183594
 31
0.0
  0
LINE
  5
2A3
100
AcDbEntity
  8
0
  6
CONTINUOUS
 62
               4
100
AcDbLine
 10
45.799999999999997
 20
-43.000015258789063
 30
0.0
 11
45.799999999999997
 21
-40.000015258789063
 31
0.0
  0
LINE
  5
2A4
100
AcDbEntity
  8
0
  6
CONTINUOUS
 62
               4
100
AcDbLine
 10
0.2000000000000028
 20
-43.000015258789063
 30
0.0
 11
0.2000000000000028
 21
-40.000015258789063
 31
0.0
  0
LINE
  5
2A5
100
AcDbEntity
  8
0
  6
CONTINUOUS
 62
              41
100
AcDbLine
 10
45.799999999999997
 20
-43.000015258789063
 30
0.0
 11
45.799999999999997
 21
-40.000015258789063
 31
0.0
  0
LINE
  5
2A6
100
AcDbEntity
  8
0
  6
CONTINUOUS
 62
               4
100
AcDbLine
 10
45.799999940395352
 20
-43.000015303492546
 30
0.0
 11
38.698591727018353
 21
-47.100015252828598
 31
0.0
  0
LINE
  5
2A7
100
AcDbEntity
  8
0
  6
CONTINUOUS
 62
               4
100
AcDbLine
 10
23.25
 20
-64.836061258789073
 30
0.0
 11
38.25
 21
-64.836061258789073
 31
0.0
  0
LINE
  5
2A8
100
AcDbEntity
  8
0
  6
CONTINUOUS
 62
               4
100
AcDbLine
 10
24.053589599999995
 20
-65.300015258789074
 30
0.0
 11
37.446411266026601
 21
-65.300015258789074
 31
0.0
  0
LINE
  5
2A9
100
AcDbEntity
  8
0
  6
CONTINUOUS
 62
               4
100
AcDbLine
 10
25.049999999999997
 20
-66.900013858789066
 30
0.0
 11
36.449999599999984
 21
-66.900013858789066
 31
0.0
  0
LINE
  5
2AA
100
AcDbEntity
  8
0
  6
CONTINUOUS
 62
               4
100
AcDbLine
 10
23.25
 20
-63.50002025878905
 30
0.0
 11
38.25
 21
-63.50002025878905
 31
0.0
  0
LINE
  5
2AB
100
AcDbEntity
  8
0
  6
CONTINUOUS
 62
               4
100
AcDbLine
 10
23.949999999999989
 20
-63.300020258789061
 30
0.0
 11
23.949999999999989
 21
-62.50002025878905
 31
0.0
  0
LINE
  5
2AC
100
AcDbEntity
  8
0
  6
CONTINUOUS
 62
               4
100
AcDbLine
 10
23.25
 20
-62.400020258789056
 30
0.0
 11
38.25
 21
-62.400020258789056
 31
0.0
  0
LINE
  5
2AD
100
AcDbEntity
  8
0
  6
CONTINUOUS
 62
               4
100
AcDbLine
 10
23.25
 20
-55.600020258789044
 30
0.0
 11
38.25
 21
-55.600020258789073
 31
0.0
  0
LINE
  5
2AE
100
AcDbEntity
  8
0
  6
CONTINUOUS
 62
               4
100
AcDbLine
 10
38.049999999999983
 20
-55.400020258789056
 30
0.0
 11
38.25
 21
-55.200020258789067
 31
0.0
  0
LINE
  5
2AF
100
AcDbEntity
  8
0
  6
CONTINUOUS
 62
               4
100
AcDbLine
 10
23.25
 20
-55.200020258789067
 30
0.0
 11
23.25
 21
-47.100020258789044
 31
0.0
  0
LINE
  5
2B0
100
AcDbEntity
  8
0
  6
CONTINUOUS
 62
               4
100
AcDbLine
 10
23.450000000000003
 20
-55.400020258789056
 30
0.0
 11
23.25
 21
-55.200020258789067
 31
0.0
  0
LINE
  5
2B1
100
AcDbEntity
  8
0
  6
CONTINUOUS
 62
               4
100
AcDbLine
 10
38.25
 20
-62.400020258789056
 30
0.0
 11
38.25
 21
-55.600020258789073
 31
0.0
  0
LINE
  5
2B2
100
AcDbEntity
  8
0
  6
CONTINUOUS
 62
               4
100
AcDbLine
 10
38.149999999999991
 20
-62.50002025878905
 30
0.0
 11
38.25
 21
-62.400020258789056
 31
0.0
  0
LINE
  5
2B3
100
AcDbEntity
  8
0
  6
CONTINUOUS
 62
               4
100
AcDbLine
 10
23.349999999999994
 20
-62.50002025878905
 30
0.0
 11
38.149999999999991
 21
-62.50002025878905
 31
0.0
  0
LINE
  5
2B4
100
AcDbEntity
  8
0
  6
CONTINUOUS
 62
               4
100
AcDbLine
 10
23.25
 20
-62.400020258789056
 30
0.0
 11
23.349999999999994
 21
-62.50002025878905
 31
0.0
  0
LINE
  5
2B5
100
AcDbEntity
  8
0
  6
CONTINUOUS
 62
               4
100
AcDbLine
 10
23.25
 20
-62.400020258789056
 30
0.0
 11
23.25
 21
-55.600020258789044
 31
0.0
  0
LINE
  5
2B6
100
AcDbEntity
  8
0
  6
CONTINUOUS
 62
               4
100
AcDbLine
 10
23.450000000000003
 20
-55.400020258789056
 30
0.0
 11
38.049999999999983
 21
-55.400020258789056
 31
0.0
  0
LINE
  5
2B7
100
AcDbEntity
  8
0
  6
CONTINUOUS
 62
               4
100
AcDbLine
 10
23.450000000000003
 20
-55.400020258789056
 30
0.0
 11
23.25
 21
-55.600020258789044
 31
0.0
  0
LINE
  5
2B8
100
AcDbEntity
  8
0
  6
CONTINUOUS
 62
               4
100
AcDbLine
 10
38.049999999999983
 20
-55.400020258789056
 30
0.0
 11
38.25
 21
-55.600020258789073
 31
0.0
  0
LINE
  5
2B9
100
AcDbEntity
  8
0
  6
CONTINUOUS
 62
               4
100
AcDbLine
 10
38.25
 20
-64.836061258789073
 30
0.0
 11
38.25
 21
-63.50002025878905
 31
0.0
  0
LINE
  5
2BA
100
AcDbEntity
  8
0
  6
CONTINUOUS
 62
               4
100
AcDbLine
 10
23.25
 20
-64.836061258789073
 30
0.0
 11
23.25
 21
-63.50002025878905
 31
0.0
  0
LINE
  5
2BB
100
AcDbEntity
  8
0
  6
CONTINUOUS
 62
               4
100
AcDbLine
 10
37.549999999999983
 20
-63.300020258789061
 30
0.0
 11
37.549999999999983
 21
-62.50002025878905
 31
0.0
  0
LINE
  5
2BC
100
AcDbEntity
  8
0
  6
CONTINUOUS
 62
               4
100
AcDbLine
 10
37.446410399999991
 20
-65.300015258789074
 30
0.0
 11
37.099999999999994
 21
-65.900015258789068
 31
0.0
  0
LINE
  5
2BD
100
AcDbEntity
  8
0
  6
CONTINUOUS
 62
               4
100
AcDbLine
 10
24.053589599999995
 20
-65.300015258789074
 30
0.0
 11
24.400000000000006
 21
-65.900015258789068
 31
0.0
  0
LINE
  5
2BE
100
AcDbEntity
  8
0
  6
CONTINUOUS
 62
               4
100
AcDbLine
 10
23.450000000000003
 20
-63.300020258789061
 30
0.0
 11
23.25
 21
-63.50002025878905
 31
0.0
  0
LINE
  5
2BF
100
AcDbEntity
  8
0
  6
CONTINUOUS
 62
               4
100
AcDbLine
 10
38.049999999999983
 20
-63.300020258789061
 30
0.0
 11
38.25
 21
-63.50002025878905
 31
0.0
  0
LINE
  5
2C0
100
AcDbEntity
  8
0
  6
CONTINUOUS
 62
               4
100
AcDbLine
 10
23.450000000000003
 20
-63.300020258789061
 30
0.0
 11
38.049999999999983
 21
-63.300020258789061
 31
0.0
  0
LINE
  5
2C1
100
AcDbEntity
  8
0
  6
CONTINUOUS
 62
               4
100
AcDbLine
 10
23.25
 20
-64.836061258789073
 30
0.0
 11
24.053589599999995
 21
-65.300014258789076
 31
0.0
  0
LINE
  5
2C2
100
AcDbEntity
  8
0
  6
CONTINUOUS
 62
               4
100
AcDbLine
 10
37.446410399999991
 20
-65.300014258789076
 30
0.0
 11
38.25
 21
-64.836061258789073
 31
0.0
  0
LINE
  5
2C3
100
AcDbEntity
  8
0
  6
CONTINUOUS
 62
               4
100
AcDbLine
 10
24.399999600000001
 20
-65.900015258789068
 30
0.0
 11
37.099999999999994
 21
-65.900015258789068
 31
0.0
  0
LINE
  5
2C4
100
AcDbEntity
  8
0
  6
CONTINUOUS
 62
               4
100
AcDbLine
 10
25.849999999999994
 20
-67.300015258789074
 30
0.0
 11
25.849999999999994
 21
-67.000014258789065
 31
0.0
  0
LINE
  5
2C5
100
AcDbEntity
  8
0
  6
CONTINUOUS
 62
               4
100
AcDbLine
 10
25.150000399999996
 20
-67.000014258789065
 30
0.0
 11
36.34999959999999
 21
-67.000014258789065
 31
0.0
  0
LINE
  5
2C6
100
AcDbEntity
  8
0
  6
CONTINUOUS
 62
               4
100
AcDbLine
 10
35.650000000000006
 20
-67.300015258789074
 30
0.0
 11
35.650000000000006
 21
-67.000014258789065
 31
0.0
  0
LINE
  5
2C7
100
AcDbEntity
  8
0
  6
CONTINUOUS
 62
               4
100
AcDbLine
 10
25.050000400000002
 20
-66.900014258789042
 30
0.0
 11
25.150000399999996
 21
-67.000014258789065
 31
0.0
  0
LINE
  5
2C8
100
AcDbEntity
  8
0
  6
CONTINUOUS
 62
               4
100
AcDbLine
 10
25.049999999999997
 20
-66.900014258789042
 30
0.0
 11
25.049999999999997
 21
-65.900015258789068
 31
0.0
  0
LINE
  5
2C9
100
AcDbEntity
  8
0
  6
CONTINUOUS
 62
               4
100
AcDbLine
 10
36.449999599999984
 20
-66.900014258789042
 30
0.0
 11
36.34999959999999
 21
-67.000014258789065
 31
0.0
  0
LINE
  5
2CA
100
AcDbEntity
  8
0
  6
CONTINUOUS
 62
               4
100
AcDbLine
 10
36.449999999999989
 20
-66.900014258789042
 30
0.0
 11
36.449999999999989
 21
-65.900015258789068
 31
0.0
  0
LINE
  5
2CB
100
AcDbEntity
  8
0
  6
CONTINUOUS
 62
               4
100
AcDbLine
 10
23.849999999999994
 20
-68.700012258789059
 30
0.0
 11
23.849999999999994
 21
-67.800015258789074
 31
0.0
  0
LINE
  5
2CC
100
AcDbEntity
  8
0
  6
CONTINUOUS
 62
               4
100
AcDbLine
 10
23.849999999999994
 20
-67.800015258789074
 30
0.0
 11
37.649999999999991
 21
-67.800015258789074
 31
0.0
  0
LINE
  5
2CD
100
AcDbEntity
  8
0
  6
CONTINUOUS
 62
               4
100
AcDbLine
 10
37.349998499999998
 20
-69.000015258789063
 30
0.0
 11
24.150000000000006
 21
-69.000015258789063
 31
0.0
  0
LINE
  5
2CE
100
AcDbEntity
  8
0
  6
CONTINUOUS
 62
               4
100
AcDbLine
 10
37.649999999999991
 20
-68.700012258789059
 30
0.0
 11
37.649999999999991
 21
-67.800015258789074
 31
0.0
  0
ARC
  5
2CF
100
AcDbEntity
  8
0
  6
CONTINUOUS
 62
               4
100
AcDbCircle
 10
24.150001500000002
 20
-68.700012258789059
 30
0.0
 40
0.3
100
AcDbArc
 50
179.9999999999994
 51
269.99999999999937
  0
ARC
  5
2D0
100
AcDbEntity
  8
0
  6
CONTINUOUS
 62
               4
100
AcDbCircle
 10
25.350000399999999
 20
-67.300015258789074
 30
0.0
 40
0.5
100
AcDbArc
 50
269.99999999999858
 51
359.99999999999858
  0
ARC
  5
2D1
100
AcDbEntity
  8
0
  6
CONTINUOUS
 62
               4
100
AcDbCircle
 10
36.149999600000001
 20
-67.300015258789074
 30
0.0
 40
0.5
100
AcDbArc
 50
179.9999999999994
 51
269.99999999999937
  0
ARC
  5
2D2
100
AcDbEntity
  8
0
  6
CONTINUOUS
 62
               4
100
AcDbCircle
 10
37.349998499999998
 20
-68.700012258789059
 30
0.0
 40
0.3
100
AcDbArc
 50
269.99999999999858
 51
359.99999999999858
  0
LINE
  5
2D3
100
AcDbEntity
  8
0
  6
CONTINUOUS
 62
               4
100
AcDbLine
 10
38.25
 20
-55.200020258789067
 30
0.0
 11
38.249999999999986
 21
-47.100020258789073
 31
0.0
  0
LINE
  5
2D4
100
AcDbEntity
  8
0
  6
CONTINUOUS
 62
               4
100
AcDbLine
 10
38.799999999999997
 20
-47.04146714705422
 30
0.0
 11
38.799999999999997
 21
-43.000015258789063
 31
0.0
  0
LINE
  5
2D5
100
AcDbEntity
  8
0
  6
CONTINUOUS
 62
               4
100
AcDbLine
 10
45.799999999999997
 20
-43.000015258789063
 30
0.0
 11
38.799999999999997
 21
-43.000015258789063
 31
0.0
  0
LINE
  5
2D6
100
AcDbEntity
  8
0
  6
CONTINUOUS
 62
               4
100
AcDbLine
 10
38.698591695788039
 20
-47.100015258789057
 30
0.0
 11
23.0
 21
-47.100015258789057
 31
0.0
  0
LINE
  5
2D7
100
AcDbEntity
  8
0
  6
CONTINUOUS
 62
               4
100
AcDbLine
 10
23.0
 20
-55.200020258789067
 30
0.0
 11
38.25
 21
-55.200020258789067
 31
0.0
  0
LINE
  5
2D8
100
AcDbEntity
  8
0
  6
CONTINUOUS
 62
               4
100
AcDbLine
 10
0.2000000596046476
 20
-43.000015303492546
 30
0.0
 11
7.3014082729816465
 21
-47.100015252828598
 31
0.0
  0
LINE
  5
2D9
100
AcDbEntity
  8
0
  6
CONTINUOUS
 62
               4
100
AcDbLine
 10
22.749999999999986
 20
-64.836061258789073
 30
0.0
 11
7.7499999999999858
 21
-64.836061258789073
 31
0.0
  0
LINE
  5
2DA
100
AcDbEntity
  8
0
  6
CONTINUOUS
 62
               4
100
AcDbLine
 10
21.946410399999991
 20
-65.300015258789074
 30
0.0
 11
8.5535887339733847
 21
-65.300015258789074
 31
0.0
  0
LINE
  5
2DB
100
AcDbEntity
  8
0
  6
CONTINUOUS
 62
               4
100
AcDbLine
 10
20.949999999999989
 20
-66.900013858789066
 30
0.0
 11
9.5500004000000018
 21
-66.900013858789066
 31
0.0
  0
LINE
  5
2DC
100
AcDbEntity
  8
0
  6
CONTINUOUS
 62
               4
100
AcDbLine
 10
22.749999999999986
 20
-63.50002025878905
 30
0.0
 11
7.7499999999999858
 21
-63.50002025878905
 31
0.0
  0
LINE
  5
2DD
100
AcDbEntity
  8
0
  6
CONTINUOUS
 62
               4
100
AcDbLine
 10
22.049999999999983
 20
-63.300020258789061
 30
0.0
 11
22.049999999999983
 21
-62.50002025878905
 31
0.0
  0
LINE
  5
2DE
100
AcDbEntity
  8
0
  6
CONTINUOUS
 62
               4
100
AcDbLine
 10
22.749999999999986
 20
-62.400020258789056
 30
0.0
 11
7.7499999999999858
 21
-62.400020258789056
 31
0.0
  0
LINE
  5
2DF
100
AcDbEntity
  8
0
  6
CONTINUOUS
 62
               4
100
AcDbLine
 10
22.749999999999986
 20
-55.600020258789044
 30
0.0
 11
7.7499999999999858
 21
-55.600020258789073
 31
0.0
  0
LINE
  5
2E0
100
AcDbEntity
  8
0
  6
CONTINUOUS
 62
               4
100
AcDbLine
 10
7.9500000000000028
 20
-55.400020258789056
 30
0.0
 11
7.7499999999999858
 21
-55.200020258789067
 31
0.0
  0
LINE
  5
2E1
100
AcDbEntity
  8
0
  6
CONTINUOUS
 62
               4
100
AcDbLine
 10
22.749999999999986
 20
-55.200020258789067
 30
0.0
 11
22.75
 21
-47.100020258789044
 31
0.0
  0
LINE
  5
2E2
100
AcDbEntity
  8
0
  6
CONTINUOUS
 62
               4
100
AcDbLine
 10
22.549999999999983
 20
-55.400020258789056
 30
0.0
 11
22.749999999999986
 21
-55.200020258789067
 31
0.0
  0
LINE
  5
2E3
100
AcDbEntity
  8
0
  6
CONTINUOUS
 62
               4
100
AcDbLine
 10
7.7499999999999858
 20
-62.400020258789056
 30
0.0
 11
7.7499999999999858
 21
-55.600020258789073
 31
0.0
  0
LINE
  5
2E4
100
AcDbEntity
  8
0
  6
CONTINUOUS
 62
               4
100
AcDbLine
 10
7.8499999999999943
 20
-62.50002025878905
 30
0.0
 11
7.7499999999999858
 21
-62.400020258789056
 31
0.0
  0
LINE
  5
2E5
100
AcDbEntity
  8
0
  6
CONTINUOUS
 62
               4
100
AcDbLine
 10
22.649999999999991
 20
-62.50002025878905
 30
0.0
 11
7.8499999999999943
 21
-62.50002025878905
 31
0.0
  0
LINE
  5
2E6
100
AcDbEntity
  8
0
  6
CONTINUOUS
 62
               4
100
AcDbLine
 10
22.749999999999986
 20
-62.400020258789056
 30
0.0
 11
22.649999999999991
 21
-62.50002025878905
 31
0.0
  0
LINE
  5
2E7
100
AcDbEntity
  8
0
  6
CONTINUOUS
 62
               4
100
AcDbLine
 10
22.749999999999986
 20
-62.400020258789056
 30
0.0
 11
22.749999999999986
 21
-55.600020258789044
 31
0.0
  0
LINE
  5
2E8
100
AcDbEntity
  8
0
  6
CONTINUOUS
 62
               4
100
AcDbLine
 10
22.549999999999983
 20
-55.400020258789056
 30
0.0
 11
7.9500000000000028
 21
-55.400020258789056
 31
0.0
  0
LINE
  5
2E9
100
AcDbEntity
  8
0
  6
CONTINUOUS
 62
               4
100
AcDbLine
 10
22.549999999999983
 20
-55.400020258789056
 30
0.0
 11
22.749999999999986
 21
-55.600020258789044
 31
0.0
  0
LINE
  5
2EA
100
AcDbEntity
  8
0
  6
CONTINUOUS
 62
               4
100
AcDbLine
 10
7.9500000000000028
 20
-55.400020258789056
 30
0.0
 11
7.7499999999999858
 21
-55.600020258789073
 31
0.0
  0
LINE
  5
2EB
100
AcDbEntity
  8
0
  6
CONTINUOUS
 62
               4
100
AcDbLine
 10
7.7499999999999858
 20
-64.836061258789073
 30
0.0
 11
7.7499999999999858
 21
-63.50002025878905
 31
0.0
  0
LINE
  5
2EC
100
AcDbEntity
  8
0
  6
CONTINUOUS
 62
               4
100
AcDbLine
 10
22.749999999999986
 20
-64.836061258789073
 30
0.0
 11
22.749999999999986
 21
-63.50002025878905
 31
0.0
  0
LINE
  5
2ED
100
AcDbEntity
  8
0
  6
CONTINUOUS
 62
               4
100
AcDbLine
 10
8.4500000000000028
 20
-63.300020258789061
 30
0.0
 11
8.4500000000000028
 21
-62.50002025878905
 31
0.0
  0
LINE
  5
2EE
100
AcDbEntity
  8
0
  6
CONTINUOUS
 62
               4
100
AcDbLine
 10
8.5535895999999951
 20
-65.300015258789074
 30
0.0
 11
8.8999999999999915
 21
-65.900015258789068
 31
0.0
  0
LINE
  5
2EF
100
AcDbEntity
  8
0
  6
CONTINUOUS
 62
               4
100
AcDbLine
 10
21.946410399999991
 20
-65.300015258789074
 30
0.0
 11
21.59999999999998
 21
-65.900015258789068
 31
0.0
  0
LINE
  5
2F0
100
AcDbEntity
  8
0
  6
CONTINUOUS
 62
               4
100
AcDbLine
 10
22.549999999999983
 20
-63.300020258789061
 30
0.0
 11
22.749999999999986
 21
-63.50002025878905
 31
0.0
  0
LINE
  5
2F1
100
AcDbEntity
  8
0
  6
CONTINUOUS
 62
               4
100
AcDbLine
 10
7.9500000000000028
 20
-63.300020258789061
 30
0.0
 11
7.7499999999999858
 21
-63.50002025878905
 31
0.0
  0
LINE
  5
2F2
100
AcDbEntity
  8
0
  6
CONTINUOUS
 62
               4
100
AcDbLine
 10
22.549999999999983
 20
-63.300020258789061
 30
0.0
 11
7.9500000000000028
 21
-63.300020258789061
 31
0.0
  0
LINE
  5
2F3
100
AcDbEntity
  8
0
  6
CONTINUOUS
 62
               4
100
AcDbLine
 10
22.749999999999986
 20
-64.836061258789073
 30
0.0
 11
21.946410399999991
 21
-65.300014258789076
 31
0.0
  0
LINE
  5
2F4
100
AcDbEntity
  8
0
  6
CONTINUOUS
 62
               4
100
AcDbLine
 10
8.5535895999999951
 20
-65.300014258789076
 30
0.0
 11
7.7499999999999858
 21
-64.836061258789073
 31
0.0
  0
LINE
  5
2F5
100
AcDbEntity
  8
0
  6
CONTINUOUS
 62
               4
100
AcDbLine
 10
21.600000399999985
 20
-65.900015258789068
 30
0.0
 11
8.8999999999999915
 21
-65.900015258789068
 31
0.0
  0
LINE
  5
2F6
100
AcDbEntity
  8
0
  6
CONTINUOUS
 62
               4
100
AcDbLine
 10
20.149999999999991
 20
-67.300015258789074
 30
0.0
 11
20.149999999999991
 21
-67.000014258789065
 31
0.0
  0
LINE
  5
2F7
100
AcDbEntity
  8
0
  6
CONTINUOUS
 62
               4
100
AcDbLine
 10
20.84999959999999
 20
-67.000014258789065
 30
0.0
 11
9.6500003999999961
 21
-67.000014258789065
 31
0.0
  0
LINE
  5
2F8
100
AcDbEntity
  8
0
  6
CONTINUOUS
 62
               4
100
AcDbLine
 10
10.34999999999998
 20
-67.300015258789074
 30
0.0
 11
10.34999999999998
 21
-67.000014258789065
 31
0.0
  0
LINE
  5
2F9
100
AcDbEntity
  8
0
  6
CONTINUOUS
 62
               4
100
AcDbLine
 10
20.949999599999984
 20
-66.900014258789042
 30
0.0
 11
20.84999959999999
 21
-67.000014258789065
 31
0.0
  0
LINE
  5
2FA
100
AcDbEntity
  8
0
  6
CONTINUOUS
 62
               4
100
AcDbLine
 10
20.949999999999989
 20
-66.900014258789042
 30
0.0
 11
20.949999999999989
 21
-65.900015258789068
 31
0.0
  0
LINE
  5
2FB
100
AcDbEntity
  8
0
  6
CONTINUOUS
 62
               4
100
AcDbLine
 10
9.5500004000000018
 20
-66.900014258789042
 30
0.0
 11
9.6500003999999961
 21
-67.000014258789065
 31
0.0
  0
LINE
  5
2FC
100
AcDbEntity
  8
0
  6
CONTINUOUS
 62
               4
100
AcDbLine
 10
9.5499999999999972
 20
-66.900014258789042
 30
0.0
 11
9.5499999999999972
 21
-65.900015258789068
 31
0.0
  0
LINE
  5
2FD
100
AcDbEntity
  8
0
  6
CONTINUOUS
 62
               4
100
AcDbLine
 10
22.149999999999991
 20
-68.700012258789059
 30
0.0
 11
22.149999999999991
 21
-67.800015258789074
 31
0.0
  0
LINE
  5
2FE
100
AcDbEntity
  8
0
  6
CONTINUOUS
 62
               4
100
AcDbLine
 10
22.149999999999991
 20
-67.800015258789074
 30
0.0
 11
8.3499999999999943
 21
-67.800015258789074
 31
0.0
  0
LINE
  5
2FF
100
AcDbEntity
  8
0
  6
CONTINUOUS
 62
               4
100
AcDbLine
 10
8.6500014999999877
 20
-69.000015258789063
 30
0.0
 11
21.84999999999998
 21
-69.000015258789063
 31
0.0
  0
LINE
  5
300
100
AcDbEntity
  8
0
  6
CONTINUOUS
 62
               4
100
AcDbLine
 10
8.3499999999999943
 20
-68.700012258789059
 30
0.0
 11
8.3499999999999943
 21
-67.800015258789074
 31
0.0
  0
ARC
  5
301
100
AcDbEntity
  8
0
  6
CONTINUOUS
 62
               4
100
AcDbCircle
 10
21.849998499999984
 20
-68.700012258789059
 30
0.0
 40
0.3
100
AcDbArc
 50
269.99999999999937
 51
0.0000000000002036
  0
ARC
  5
302
100
AcDbEntity
  8
0
  6
CONTINUOUS
 62
               4
100
AcDbCircle
 10
20.649999599999987
 20
-67.300015258789074
 30
0.0
 40
0.5
100
AcDbArc
 50
180.0000000000002
 51
270.00000000000023
  0
ARC
  5
303
100
AcDbEntity
  8
0
  6
CONTINUOUS
 62
               4
100
AcDbCircle
 10
9.8500003999999848
 20
-67.300015258789074
 30
0.0
 40
0.5
100
AcDbArc
 50
269.99999999999937
 51
0.0000000000002036
  0
ARC
  5
304
100
AcDbEntity
  8
0
  6
CONTINUOUS
 62
               4
100
AcDbCircle
 10
8.6500014999999877
 20
-68.700012258789059
 30
0.0
 40
0.3
100
AcDbArc
 50
180.0000000000002
 51
270.00000000000023
  0
LINE
  5
305
100
AcDbEntity
  8
0
  6
CONTINUOUS
 62
               4
100
AcDbLine
 10
7.7499999999999858
 20
-55.200020258789067
 30
0.0
 11
7.7500000000000142
 21
-47.100020258789073
 31
0.0
  0
LINE
  5
306
100
AcDbEntity
  8
0
  6
CONTINUOUS
 62
               4
100
AcDbLine
 10
7.3014083042119609
 20
-47.100015258789057
 30
0.0
 11
23.0
 21
-47.100015258789057
 31
0.0
  0
LINE
  5
307
100
AcDbEntity
  8
0
  6
CONTINUOUS
 62
               4
100
AcDbLine
 10
23.0
 20
-55.200020258789067
 30
0.0
 11
7.7499999999999858
 21
-55.200020258789067
 31
0.0
  0
ARC
  5
308
100
AcDbEntity
  8
0
  6
CONTINUOUS
 62
               4
100
AcDbCircle
 10
40.749977111816406
 20
-43.200004577636719
 30
0.0
 40
1.5
100
AcDbArc
 50
180.00007262760229
 51
270.00004098113442
  0
ARC
  5
309
100
AcDbEntity
  8
0
  6
CONTINUOUS
 62
               4
100
AcDbCircle
 10
42.249977111816406
 20
-43.200004577636719
 30
0.0
 40
1.5
100
AcDbArc
 50
270.00004098113442
 51
359.99998201390986
  0
LINE
  5
30A
100
AcDbEntity
  8
0
  6
CONTINUOUS
 62
               4
100
AcDbLine
 10
39.249977111816406
 20
-43.200004577636719
 30
0.0
 11
39.249977111816406
 21
-43.000007629394531
 31
0.0
  0
LINE
  5
30B
100
AcDbEntity
  8
0
  6
CONTINUOUS
 62
               4
100
AcDbLine
 10
42.249977111816406
 20
-44.700019836425781
 30
0.0
 11
40.749977111816406
 21
-44.700019836425781
 31
0.0
  0
LINE
  5
30C
100
AcDbEntity
  8
0
  6
CONTINUOUS
 62
               4
100
AcDbLine
 10
43.749977111816406
 20
-43.200004577636719
 30
0.0
 11
43.749977111816406
 21
-43.000007629394531
 31
0.0
  0
LINE
  5
30D
100
AcDbEntity
  8
0
  6
CONTINUOUS
 62
               4
100
AcDbLine
 10
48.099984741210939
 20
52.999969482421875
 30
0.0
 11
48.099984741210939
 21
59.999969482421875
 31
0.0
  0
LINE
  5
30E
100
AcDbEntity
  8
0
  6
CONTINUOUS
 62
               4
100
AcDbLine
 10
47.19998474121094
 20
52.999969482421875
 30
0.0
 11
47.19998474121094
 21
59.999969482421875
 31
0.0
  0
LINE
  5
30F
100
AcDbEntity
  8
0
  6
CONTINUOUS
 62
               4
100
AcDbLine
 10
46.499984741210937
 20
52.999969482421875
 30
0.0
 11
48.099984741210939
 21
52.999969482421875
 31
0.0
  0
LINE
  5
310
100
AcDbEntity
  8
0
  6
CONTINUOUS
 62
               4
100
AcDbLine
 10
46.499984741210937
 20
59.999969482421875
 30
0.0
 11
73.499977111816406
 21
59.999969482421875
 31
0.0
  0
LINE
  5
311
100
AcDbEntity
  8
0
  6
CONTINUOUS
 62
               4
100
AcDbLine
 10
57.599984741210932
 20
73.499969482421875
 30
0.0
 11
57.599984741210932
 21
68.999969482421875
 31
0.0
  0
LINE
  5
312
100
AcDbEntity
  8
0
  6
CONTINUOUS
 62
               4
100
AcDbLine
 10
48.649972534179682
 20
79.999969482421875
 30
0.0
 11
57.649972534179682
 21
79.999969482421875
 31
0.0
  0
LINE
  5
313
100
AcDbEntity
  8
0
  6
CONTINUOUS
 62
               4
100
AcDbLine
 10
48.999984741210937
 20
73.499969482421875
 30
0.0
 11
57.649987792968744
 21
73.499969482421875
 31
0.0
  0
LINE
  5
314
100
AcDbEntity
  8
0
  6
CONTINUOUS
 62
               4
100
AcDbLine
 10
58.227334594726557
 20
79.999969482421875
 30
0.0
 11
59.649980163574213
 21
79.999969482421875
 31
0.0
  0
LINE
  5
315
100
AcDbEntity
  8
0
  6
CONTINUOUS
 62
               4
100
AcDbLine
 10
57.599984741210932
 20
70.998428344726563
 30
0.0
 11
57.649987792968744
 21
70.998428344726563
 31
0.0
  0
LINE
  5
316
100
AcDbEntity
  8
0
  6
CONTINUOUS
 62
               4
100
AcDbLine
 10
57.649987792968744
 20
69.498428344726563
 30
0.0
 11
58.649980163574213
 21
69.498428344726563
 31
0.0
  0
LINE
  5
317
100
AcDbEntity
  8
0
  6
CONTINUOUS
 62
               4
100
AcDbLine
 10
57.649987792968744
 20
70.998428344726563
 30
0.0
 11
57.649987792968744
 21
73.499969482421875
 31
0.0
  0
LINE
  5
318
100
AcDbEntity
  8
0
  6
CONTINUOUS
 62
               4
100
AcDbLine
 10
59.149980163574213
 20
78.499969482421875
 30
0.0
 11
59.649980163574213
 21
78.499969482421875
 31
0.0
  0
LINE
  5
319
100
AcDbEntity
  8
0
  6
CONTINUOUS
 62
               4
100
AcDbLine
 10
57.649984950618631
 20
69.498443634292016
 30
0.0
 11
57.599964397312391
 21
69.548464187598256
 31
0.0
  0
LINE
  5
31A
100
AcDbEntity
  8
0
  6
CONTINUOUS
 62
               4
100
AcDbLine
 10
49.149987792968744
 20
73.499969482421875
 30
0.0
 11
49.149987792968744
 21
78.999969482421875
 31
0.0
  0
LINE
  5
31B
100
AcDbEntity
  8
0
  6
CONTINUOUS
 62
               4
100
AcDbLine
 10
48.649987792968744
 20
78.999969482421875
 30
0.0
 11
48.649987792968744
 21
79.999969482421875
 31
0.0
  0
LINE
  5
31C
100
AcDbEntity
  8
0
  6
CONTINUOUS
 62
               4
100
AcDbLine
 10
48.649972534179682
 20
78.999969482421875
 30
0.0
 11
49.149972534179682
 21
78.999969482421875
 31
0.0
  0
LINE
  5
31D
100
AcDbEntity
  8
0
  6
CONTINUOUS
 62
               4
100
AcDbLine
 10
59.149987792968744
 20
73.056121826171875
 30
0.0
 11
59.149987792968744
 21
78.499969482421875
 31
0.0
  0
LINE
  5
31E
100
AcDbEntity
  8
0
  6
CONTINUOUS
 62
               4
100
AcDbLine
 10
58.649986043447456
 20
69.498420224181245
 30
0.0
 11
59.149985152324547
 21
73.05610830787009
 31
0.0
  0
LINE
  5
31F
100
AcDbEntity
  8
0
  6
CONTINUOUS
 62
               4
100
AcDbLine
 10
57.649987792968744
 20
73.499969482421875
 30
0.0
 11
57.649987792968744
 21
79.999969482421875
 31
0.0
  0
LINE
  5
320
100
AcDbEntity
  8
0
  6
CONTINUOUS
 62
               4
100
AcDbLine
 10
57.65002925281496
 20
78.99992842532356
 30
0.0
 11
58.227381068578865
 21
79.99993713027834
 31
0.0
  0
LINE
  5
321
100
AcDbEntity
  8
0
  6
CONTINUOUS
 62
               4
100
AcDbLine
 10
59.649987792968744
 20
78.499969482421875
 30
0.0
 11
59.649987792968744
 21
79.999969482421875
 31
0.0
  0
LINE
  5
322
100
AcDbEntity
  8
0
  6
CONTINUOUS
 62
               4
100
AcDbLine
 10
54.499993896484369
 20
92.999969482421875
 30
0.0
 11
53.699990844726557
 21
92.999969482421875
 31
0.0
  0
LINE
  5
323
100
AcDbEntity
  8
0
  6
CONTINUOUS
 62
               4
100
AcDbLine
 10
53.699990844726557
 20
87.999969482421875
 30
0.0
 11
53.699990844726557
 21
92.999969482421875
 31
0.0
  0
LINE
  5
324
100
AcDbEntity
  8
0
  6
CONTINUOUS
 62
               4
100
AcDbLine
 10
54.499993896484369
 20
87.999969482421875
 30
0.0
 11
54.499993896484369
 21
92.999969482421875
 31
0.0
  0
LINE
  5
325
100
AcDbEntity
  8
0
  6
CONTINUOUS
 62
               4
100
AcDbLine
 10
54.814996337890619
 20
79.999969482421875
 30
0.0
 11
54.814996337890619
 21
84.598373413085938
 31
0.0
  0
LINE
  5
326
100
AcDbEntity
  8
0
  6
CONTINUOUS
 62
               4
100
AcDbLine
 10
53.384988403320307
 20
79.999969482421875
 30
0.0
 11
53.384988403320307
 21
83.77276611328125
 31
0.0
  0
LINE
  5
327
100
AcDbEntity
  8
0
  6
CONTINUOUS
 62
               4
100
AcDbLine
 10
54.814996337890619
 20
87.999969482421875
 30
0.0
 11
53.384988403320307
 21
87.999969482421875
 31
0.0
  0
LINE
  5
328
100
AcDbEntity
  8
0
  6
CONTINUOUS
 62
               4
100
AcDbLine
 10
53.384988403320307
 20
84.927459716796875
 30
0.0
 11
53.384988403320307
 21
87.999969482421875
 31
0.0
  0
LINE
  5
329
100
AcDbEntity
  8
0
  6
CONTINUOUS
 62
               4
100
AcDbLine
 10
54.814996337890619
 20
85.753082275390625
 30
0.0
 11
54.814996337890619
 21
87.999969482421875
 31
0.0
  0
LINE
  5
32A
100
AcDbEntity
  8
0
  6
CONTINUOUS
 62
               7
100
AcDbLine
 10
46.499984741210937
 20
35.999969482421875
 30
0.0
 11
73.499984741210937
 21
35.999969482421875
 31
0.0
  0
LINE
  5
32B
100
AcDbEntity
  8
0
  6
CONTINUOUS
 62
               4
100
AcDbLine
 10
52.314996337890619
 20
84.309707641601563
 30
0.0
 11
52.314996337890619
 21
87.999969482421875
 31
0.0
  0
LINE
  5
32C
100
AcDbEntity
  8
0
  6
CONTINUOUS
 62
               4
100
AcDbLine
 10
50.884988403320307
 20
83.484085083007812
 30
0.0
 11
50.884988403320307
 21
87.999969482421875
 31
0.0
  0
LINE
  5
32D
100
AcDbEntity
  8
0
  6
CONTINUOUS
 62
               4
100
AcDbLine
 10
50.884988403320307
 20
87.999969482421875
 30
0.0
 11
52.314996337890619
 21
87.999969482421875
 31
0.0
  0
LINE
  5
32E
100
AcDbEntity
  8
0
  6
CONTINUOUS
 62
               4
100
AcDbLine
 10
51.999993896484369
 20
87.999969482421875
 30
0.0
 11
51.999993896484369
 21
92.999969482421875
 31
0.0
  0
LINE
  5
32F
100
AcDbEntity
  8
0
  6
CONTINUOUS
 62
               4
100
AcDbLine
 10
51.199990844726557
 20
87.999969482421875
 30
0.0
 11
51.199990844726557
 21
92.999954223632812
 31
0.0
  0
LINE
  5
330
100
AcDbEntity
  8
0
  6
CONTINUOUS
 62
               4
100
AcDbLine
 10
51.199990844726557
 20
92.999969482421875
 30
0.0
 11
51.999993896484369
 21
92.999969482421875
 31
0.0
  0
LINE
  5
331
100
AcDbEntity
  8
0
  6
CONTINUOUS
 62
               4
100
AcDbLine
 10
52.314996337890619
 20
79.999969482421875
 30
0.0
 11
52.314996337890619
 21
83.154998779296875
 31
0.0
  0
LINE
  5
332
100
AcDbEntity
  8
0
  6
CONTINUOUS
 62
               4
100
AcDbLine
 10
50.884988403320307
 20
79.999969482421875
 30
0.0
 11
50.884988403320307
 21
82.329391479492187
 31
0.0
  0
LINE
  5
333
100
AcDbEntity
  8
0
  6
CONTINUOUS
 62
             200
100
AcDbLine
 10
56.315003632682959
 20
86.619075292356683
 30
0.0
 11
49.384974541119476
 21
82.618026728575387
 31
0.0
  0
LINE
  5
334
100
AcDbEntity
  8
0
  6
CONTINUOUS
 62
             200
100
AcDbLine
 10
56.314979084308646
 20
85.464434297500702
 30
0.0
 11
49.38496893078954
 21
81.463382392985295
 31
0.0
  0
LINE
  5
335
100
AcDbEntity
  8
0
  6
CONTINUOUS
 62
               4
100
AcDbLine
 10
58.749984741210937
 20
60.499969482421875
 30
0.0
 11
61.249984741210938
 21
60.499969482421875
 31
0.0
  0
LINE
  5
336
100
AcDbEntity
  8
0
  6
CONTINUOUS
 62
               4
100
AcDbLine
 10
58.749984741210937
 20
60.499969482421875
 30
0.0
 11
58.749984741210937
 21
59.999969482421875
 31
0.0
  0
LINE
  5
337
100
AcDbEntity
  8
0
  6
CONTINUOUS
 62
               4
100
AcDbLine
 10
61.249984741210938
 20
60.499969482421875
 30
0.0
 11
61.249984741210938
 21
59.999969482421875
 31
0.0
  0
ARC
  5
338
100
AcDbEntity
  8
0
  6
CONTINUOUS
 62
               4
100
AcDbCircle
 10
46.999984741210937
 20
68.499969482421875
 30
0.0
 40
0.5
100
AcDbArc
 50
89.999999999999815
 51
179.99999999999963
  0
LINE
  5
339
100
AcDbEntity
  8
0
  6
CONTINUOUS
 62
               4
100
AcDbLine
 10
48.999984741210937
 20
68.999969482421875
 30
0.0
 11
46.999984741210937
 21
68.999969482421875
 31
0.0
  0
LINE
  5
33A
100
AcDbEntity
  8
0
  6
CONTINUOUS
 62
               4
100
AcDbLine
 10
48.999984741210937
 20
73.499969482421875
 30
0.0
 11
48.999984741210937
 21
68.999969482421875
 31
0.0
  0
LINE
  5
33B
100
AcDbEntity
  8
0
  6
CONTINUOUS
 62
               4
100
AcDbLine
 10
68.599984741210932
 20
61.449969482421892
 30
0.0
 11
66.499984741210938
 21
61.449969482421892
 31
0.0
  0
LINE
  5
33C
100
AcDbEntity
  8
0
  6
CONTINUOUS
 62
               4
100
AcDbLine
 10
53.599984741210932
 20
61.449969482421892
 30
0.0
 11
51.499984741210938
 21
61.449969482421892
 31
0.0
  0
LINE
  5
33D
100
AcDbEntity
  8
0
  6
CONTINUOUS
 62
               4
100
AcDbLine
 10
51.499984741210938
 20
62.399969482421881
 30
0.0
 11
51.499984741210938
 21
61.449969482421892
 31
0.0
  0
LINE
  5
33E
100
AcDbEntity
  8
0
  6
CONTINUOUS
 62
               4
100
AcDbLine
 10
68.599984741210932
 20
62.399969482421881
 30
0.0
 11
68.599984741210932
 21
61.449969482421892
 31
0.0
  0
ARC
  5
33F
100
AcDbEntity
  8
0
  6
CONTINUOUS
 62
               4
100
AcDbCircle
 10
72.002005136571512
 20
64.179580386351176
 30
0.0
 40
1.4979796551727449
100
AcDbArc
 50
0.0148824203654679
 51
24.046309772710686
  0
ARC
  5
340
100
AcDbEntity
  8
0
  6
CONTINUOUS
 62
               4
100
AcDbCircle
 10
71.174005579774985
 20
68.50006941986814
 30
0.0
 40
0.4999010215015999
100
AcDbArc
 50
24.197376208904771
 51
89.887774076864815
  0
LINE
  5
341
100
AcDbEntity
  8
0
  6
CONTINUOUS
 62
               4
100
AcDbLine
 10
71.629984741210933
 20
68.704969482421888
 30
0.0
 11
73.369984741210942
 21
64.789969482421867
 31
0.0
  0
LINE
  5
342
100
AcDbEntity
  8
0
  6
CONTINUOUS
 62
               4
100
AcDbLine
 10
73.499984741210937
 20
64.179969482421882
 30
0.0
 11
73.499984741210937
 21
59.999969482421875
 31
0.0
  0
LINE
  5
343
100
AcDbEntity
  8
0
  6
CONTINUOUS
 62
               4
100
AcDbLine
 10
53.599984741210932
 20
62.399969482421881
 30
0.0
 11
51.499984741210938
 21
62.399969482421881
 31
0.0
  0
LINE
  5
344
100
AcDbEntity
  8
0
  6
CONTINUOUS
 62
               4
100
AcDbLine
 10
68.599984741210932
 20
62.399969482421881
 30
0.0
 11
66.499984741210938
 21
62.399969482421881
 31
0.0
  0
LINE
  5
345
100
AcDbEntity
  8
0
  6
CONTINUOUS
 62
               4
100
AcDbLine
 10
53.599984741210932
 20
62.399969482421881
 30
0.0
 11
53.599984741210932
 21
61.449969482421892
 31
0.0
  0
LINE
  5
346
100
AcDbEntity
  8
0
  6
CONTINUOUS
 62
               4
100
AcDbLine
 10
66.499984741210938
 20
62.399969482421881
 30
0.0
 11
66.499984741210938
 21
61.449969482421892
 31
0.0
  0
LINE
  5
347
100
AcDbEntity
  8
0
  6
CONTINUOUS
 62
               4
100
AcDbLine
 10
46.499984741210937
 20
68.499969482421875
 30
0.0
 11
46.499984741210937
 21
59.999969482421875
 31
0.0
  0
LINE
  5
348
100
AcDbEntity
  8
0
  6
CONTINUOUS
 62
               4
100
AcDbLine
 10
46.499984741210937
 20
35.999969482421875
 30
0.0
 11
46.499984741210937
 21
59.999969482421875
 31
0.0
  0
LINE
  5
349
100
AcDbEntity
  8
0
  6
CONTINUOUS
 62
               4
100
AcDbLine
 10
73.499984741210937
 20
35.999969482421875
 30
0.0
 11
73.499984741210937
 21
59.999969482421875
 31
0.0
  0
LINE
  5
34A
100
AcDbEntity
  8
0
  6
CONTINUOUS
 62
               4
100
AcDbLine
 10
57.599984741210932
 20
68.999969482421875
 30
0.0
 11
71.17498474121092
 21
68.999969482421875
 31
0.0
  0
ARC
  5
34B
100
AcDbEntity
  8
0
  6
CONTINUOUS
 62
               7
100
AcDbCircle
 10
74.299980163574219
 20
-24.250030517578125
 30
0.0
 40
1.5
100
AcDbArc
 50
0.0000409811350201
 51
89.999982013910454
  0
ARC
  5
34C
100
AcDbEntity
  8
0
  6
CONTINUOUS
 62
               7
100
AcDbCircle
 10
74.299980163574219
 20
-25.750030517578125
 30
0.0
 40
1.5
100
AcDbArc
 50
270.00007262760209
 51
0.0000409811350201
  0
CIRCLE
  5
34D
100
AcDbEntity
  8
0
  6
CONTINUOUS
 62
               7
100
AcDbCircle
 10
23.0
 20
-10.000015258789062
 30
0.0
 40
5.7224998474121094
  0
CIRCLE
  5
34E
100
AcDbEntity
  8
0
  6
CONTINUOUS
 62
               2
100
AcDbCircle
 10
23.0
 20
-10.000015258789062
 30
0.0
 40
6.5784997940063477
  0
CIRCLE
  5
34F
100
AcDbEntity
  8
0
  6
CONTINUOUS
 62
               7
100
AcDbCircle
 10
23.0
 20
-30.000015258789063
 30
0.0
 40
5.7224998474121094
  0
CIRCLE
  5
350
100
AcDbEntity
  8
0
  6
CONTINUOUS
 62
               2
100
AcDbCircle
 10
23.0
 20
-30.000015258789063
 30
0.0
 40
6.5784997940063477
  0
CIRCLE
  5
351
100
AcDbEntity
  8
0
  6
CONTINUOUS
 62
               7
100
AcDbCircle
 10
38.0
 20
14.5
 30
0.0
 40
2.0
  0
CIRCLE
  5
352
100
AcDbEntity
  8
0
  6
CONTINUOUS
 62
               2
100
AcDbCircle
 10
38.0
 20
14.5
 30
0.0
 40
2.5
  0
ARC
  5
353
100
AcDbEntity
  8
0
  6
CONTINUOUS
 62
               7
100
AcDbCircle
 10
73.399993896484375
 20
-48.300033569335938
 30
0.0
 40
0.300000011920929
100
AcDbArc
 50
0.0
 51
89.999982013910454
  0
ARC
  5
354
100
AcDbEntity
  8
0
  6
CONTINUOUS
 62
               7
100
AcDbCircle
 10
67.600006103515625
 20
-48.300033569335938
 30
0.0
 40
0.300000011920929
100
AcDbArc
 50
89.999982013910454
 51
179.99996402782091
  0
ARC
  5
355
100
AcDbEntity
  8
0
  6
CONTINUOUS
 62
               7
100
AcDbCircle
 10
67.0
 20
-50.200019836425781
 30
0.0
 40
0.300000011920929
100
AcDbArc
 50
270.00001798608872
 51
0.0
  0
ARC
  5
356
100
AcDbEntity
  8
0
  6
CONTINUOUS
 62
               7
100
AcDbCircle
 10
74.0
 20
-50.200019836425781
 30
0.0
 40
0.300000011920929
100
AcDbArc
 50
179.99998133066492
 51
270.00001798608872
  0
ARC
  5
357
100
AcDbEntity
  8
0
  6
CONTINUOUS
 62
               7
100
AcDbCircle
 10
49.499984741210938
 20
25.999984741210937
 30
0.0
 40
2.4999990463256836
100
AcDbArc
 50
203.57839540219584
 51
336.42161324922495
  0
ARC
  5
358
100
AcDbEntity
  8
0
  6
CONTINUOUS
 62
               7
100
AcDbCircle
 10
76.699974060058594
 20
9.249969482421875
 30
0.0
 40
1.5
100
AcDbArc
 50
270.00007262760209
 51
0.0000409811350201
  0
ARC
  5
359
100
AcDbEntity
  8
0
  6
CONTINUOUS
 62
               7
100
AcDbCircle
 10
76.699974060058594
 20
10.749969482421875
 30
0.0
 40
1.5
100
AcDbArc
 50
0.0000409811350201
 51
89.999982013910454
  0
ARC
  5
35A
100
AcDbEntity
  8
0
  6
CONTINUOUS
 62
               7
100
AcDbCircle
 10
69.25
 20
-48.500015258789063
 30
0.0
 40
1.5
100
AcDbArc
 50
179.99990938630756
 51
269.99994604173139
  0
ARC
  5
35B
100
AcDbEntity
  8
0
  6
CONTINUOUS
 62
               7
100
AcDbCircle
 10
71.749992370605469
 20
-48.500015258789063
 30
0.0
 40
1.5
100
AcDbArc
 50
270.00001798608872
 51
359.99995901886416
  0
ARC
  5
35C
100
AcDbEntity
  8
0
  6
CONTINUOUS
 62
               7
100
AcDbCircle
 10
47.0
 20
-50.000015258789062
 30
0.0
 40
0.5
100
AcDbArc
 50
179.99996402782091
 51
269.99994604173139
  0
ARC
  5
35D
100
AcDbEntity
  8
0
  6
CONTINUOUS
 62
               7
100
AcDbCircle
 10
75.999977111816406
 20
-50.000015258789062
 30
0.0
 40
0.5
100
AcDbArc
 50
270.00001798608872
 51
359.99995901886416
  0
ARC
  5
35E
100
AcDbEntity
  8
0
  6
CONTINUOUS
 62
               7
100
AcDbCircle
 10
76.375724792480469
 20
14.199981689453125
 30
0.0
 40
0.300000011920929
100
AcDbArc
 50
44.999936365441869
 51
89.999927372397096
  0
ARC
  5
35F
100
AcDbEntity
  8
0
  6
CONTINUOUS
 62
               7
100
AcDbCircle
 10
78.199989318847656
 20
12.375717163085938
 30
0.0
 40
0.300000011920929
100
AcDbArc
 50
359.99997267924249
 51
44.999936365441869
  0
ARC
  5
360
100
AcDbEntity
  8
0
  6
CONTINUOUS
 62
               7
100
AcDbCircle
 10
76.375724792480469
 20
-31.20001220703125
 30
0.0
 40
0.300000011920929
100
AcDbArc
 50
269.99996334457541
 51
314.99995435153068
  0
ARC
  5
361
100
AcDbEntity
  8
0
  6
CONTINUOUS
 62
               7
100
AcDbCircle
 10
78.199974060058594
 20
-29.375747680664062
 30
0.0
 40
0.300000011920929
100
AcDbArc
 50
315.00000899304399
 51
359.99997267924249
  0
CIRCLE
  5
362
100
AcDbEntity
  8
0
  6
CONTINUOUS
 62
               7
100
AcDbCircle
 10
23.0
 20
10.0
 30
0.0
 40
5.7224998474121094
  0
CIRCLE
  5
363
100
AcDbEntity
  8
0
  6
CONTINUOUS
 62
               2
100
AcDbCircle
 10
23.0
 20
10.0
 30
0.0
 40
6.5784997940063477
  0
LINE
  5
364
100
AcDbEntity
  8
0
  6
CONTINUOUS
 62
               7
100
AcDbLine
 10
73.499984741210937
 20
24.999969482421875
 30
0.0
 11
46.499984741210937
 21
24.999969482421875
 31
0.0
  0
LINE
  5
365
100
AcDbEntity
  8
0
  6
CONTINUOUS
 62
               7
100
AcDbLine
 10
73.499983301827797
 20
-25.750577024899542
 30
0.0
 11
74.099981876249331
 21
-25.404167745363452
 31
0.0
  0
LINE
  5
366
100
AcDbEntity
  8
0
  6
CONTINUOUS
 62
               7
100
AcDbLine
 10
73.499988643049164
 20
-24.595873442216714
 30
0.0
 11
74.099987217470698
 21
-24.249464162680624
 31
0.0
  0
LINE
  5
367
100
AcDbEntity
  8
0
  6
CONTINUOUS
 62
               7
100
AcDbLine
 10
74.099983215332031
 20
-27.500030517578125
 30
0.0
 11
73.499984741210937
 21
-27.500030517578125
 31
0.0
  0
LINE
  5
368
100
AcDbEntity
  8
0
  6
CONTINUOUS
 62
               7
100
AcDbLine
 10
74.099983215332031
 20
-22.500030517578125
 30
0.0
 11
73.499984741210937
 21
-22.500030517578125
 31
0.0
  0
LINE
  5
369
100
AcDbEntity
  8
0
  6
CONTINUOUS
 62
               7
100
AcDbLine
 10
74.099983215332031
 20
-27.500030517578125
 30
0.0
 11
74.099983215332031
 21
-22.500030517578125
 31
0.0
  0
LINE
  5
36A
100
AcDbEntity
  8
0
  6
CONTINUOUS
 62
               7
100
AcDbLine
 10
75.799980163574219
 20
-24.250030517578125
 30
0.0
 11
75.799980163574219
 21
-25.750030517578125
 31
0.0
  0
LINE
  5
36B
100
AcDbEntity
  8
0
  6
CONTINUOUS
 62
               7
100
AcDbLine
 10
74.299980163574219
 20
-22.750030517578125
 30
0.0
 11
74.099983215332031
 21
-22.750030517578125
 31
0.0
  0
LINE
  5
36C
100
AcDbEntity
  8
0
  6
CONTINUOUS
 62
               7
100
AcDbLine
 10
74.299980163574219
 20
-27.250030517578125
 30
0.0
 11
74.099983215332031
 21
-27.250030517578125
 31
0.0
  0
LINE
  5
36D
100
AcDbEntity
  8
0
  6
CONTINUOUS
 62
               2
100
AcDbLine
 10
15.4215087890625
 20
-10.000015258789062
 30
0.0
 11
30.578506469726563
 21
-10.000015258789062
 31
0.0
  0
LINE
  5
36E
100
AcDbEntity
  8
0
  6
CONTINUOUS
 62
               2
100
AcDbLine
 10
15.4215087890625
 20
-30.000015258789063
 30
0.0
 11
30.578506469726563
 21
-30.000015258789063
 31
0.0
  0
LINE
  5
36F
100
AcDbEntity
  8
0
  6
CONTINUOUS
 62
               2
100
AcDbLine
 10
23.0
 20
-37.578506469726563
 30
0.0
 11
23.0
 21
-22.4215087890625
 31
0.0
  0
LINE
  5
370
100
AcDbEntity
  8
0
  6
CONTINUOUS
 62
               2
100
AcDbLine
 10
38.0
 20
11.0
 30
0.0
 11
38.0
 21
18.0
 31
0.0
  0
LINE
  5
371
100
AcDbEntity
  8
0
  6
CONTINUOUS
 62
               2
100
AcDbLine
 10
34.5
 20
14.5
 30
0.0
 11
41.5
 21
14.5
 31
0.0
  0
LINE
  5
372
100
AcDbEntity
  8
0
  6
CONTINUOUS
 62
               7
100
AcDbLine
 10
0.0
 20
24.0
 30
0.0
 11
46.0
 21
24.0
 31
0.0
  0
LINE
  5
373
100
AcDbEntity
  8
0
  6
CONTINUOUS
 62
               7
100
AcDbLine
 10
0.0
 20
-40.000015258789063
 30
0.0
 11
46.0
 21
-40.000015258789063
 31
0.0
  0
LINE
  5
374
100
AcDbEntity
  8
0
  6
CONTINUOUS
 62
               7
100
AcDbLine
 10
0.0
 20
-40.000015258789063
 30
0.0
 11
0.0
 21
24.0
 31
0.0
  0
LINE
  5
375
100
AcDbEntity
  8
0
  6
CONTINUOUS
 62
               7
100
AcDbLine
 10
73.499984741210937
 20
26.499969482421875
 30
0.0
 11
72.199985504150391
 21
26.499969482421875
 31
0.0
  0
LINE
  5
376
100
AcDbEntity
  8
0
  6
CONTINUOUS
 62
               7
100
AcDbLine
 10
72.199985504150391
 20
24.999969482421875
 30
0.0
 11
72.199985504150391
 21
26.499969482421875
 31
0.0
  0
LINE
  5
377
100
AcDbEntity
  8
0
  6
CONTINUOUS
 62
               7
100
AcDbLine
 10
69.199985504150391
 20
24.999969482421875
 30
0.0
 11
69.199985504150391
 21
26.499969482421875
 31
0.0
  0
LINE
  5
378
100
AcDbEntity
  8
0
  6
CONTINUOUS
 62
               7
100
AcDbLine
 10
49.999984741210938
 20
24.999969482421875
 30
0.0
 11
49.999984741210938
 21
26.499969482421875
 31
0.0
  0
LINE
  5
379
100
AcDbEntity
  8
0
  6
CONTINUOUS
 62
               7
100
AcDbLine
 10
69.199985504150391
 20
26.499969482421875
 30
0.0
 11
49.999984741210938
 21
26.499969482421875
 31
0.0
  0
LINE
  5
37A
100
AcDbEntity
  8
0
  6
CONTINUOUS
 62
               7
100
AcDbLine
 10
47.499984741210938
 20
24.999969482421875
 30
0.0
 11
47.499984741210938
 21
26.499969482421875
 31
0.0
  0
LINE
  5
37B
100
AcDbEntity
  8
0
  6
CONTINUOUS
 62
               7
100
AcDbLine
 10
47.499984741210938
 20
26.499969482421875
 30
0.0
 11
46.499984741210937
 21
26.499969482421875
 31
0.0
  0
LINE
  5
37C
100
AcDbEntity
  8
0
  6
CONTINUOUS
 62
               7
100
AcDbLine
 10
76.499984741210937
 20
7.2999725341796875
 30
0.0
 11
76.499984741210937
 21
14.499969482421875
 31
0.0
  0
LINE
  5
37D
100
AcDbEntity
  8
0
  6
CONTINUOUS
 62
               7
100
AcDbLine
 10
73.399993896484375
 20
-48.000030517578125
 30
0.0
 11
67.600006103515625
 21
-48.000030517578125
 31
0.0
  0
LINE
  5
37E
100
AcDbEntity
  8
0
  6
CONTINUOUS
 62
               7
100
AcDbLine
 10
73.699996948242188
 20
-50.200019836425781
 30
0.0
 11
73.699996948242188
 21
-48.300033569335938
 31
0.0
  0
LINE
  5
37F
100
AcDbEntity
  8
0
  6
CONTINUOUS
 62
               7
100
AcDbLine
 10
67.300003051757813
 20
-50.200019836425781
 30
0.0
 11
67.300003051757813
 21
-48.300033569335938
 31
0.0
  0
LINE
  5
380
100
AcDbEntity
  8
0
  6
CONTINUOUS
 62
               7
100
AcDbLine
 10
73.499984741210937
 20
22.999969482421875
 30
0.0
 11
46.499984741210937
 21
22.999969482421875
 31
0.0
  0
LINE
  5
381
100
AcDbEntity
  8
0
  6
CONTINUOUS
 62
               7
100
AcDbLine
 10
76.699974060058594
 20
7.749969482421875
 30
0.0
 11
76.499977111816406
 21
7.749969482421875
 31
0.0
  0
LINE
  5
382
100
AcDbEntity
  8
0
  6
CONTINUOUS
 62
               7
100
AcDbLine
 10
78.199981689453125
 20
10.749969482421875
 30
0.0
 11
78.199981689453125
 21
9.249969482421875
 31
0.0
  0
LINE
  5
383
100
AcDbEntity
  8
0
  6
CONTINUOUS
 62
               7
100
AcDbLine
 10
76.699974060058594
 20
12.249969482421875
 30
0.0
 11
76.499977111816406
 21
12.249969482421875
 31
0.0
  0
LINE
  5
384
100
AcDbEntity
  8
0
  6
CONTINUOUS
 62
               7
100
AcDbLine
 10
78.499984741210938
 20
-22.300033569335937
 30
0.0
 11
73.499984741210937
 21
-22.300033569335937
 31
0.0
  0
LINE
  5
385
100
AcDbEntity
  8
0
  6
CONTINUOUS
 62
               7
100
AcDbLine
 10
78.499984741210938
 20
-27.700027465820313
 30
0.0
 11
73.499984741210937
 21
-27.700027465820313
 31
0.0
  0
LINE
  5
386
100
AcDbEntity
  8
0
  6
CONTINUOUS
 62
               7
100
AcDbLine
 10
78.499977111816406
 20
7.2999725341796875
 30
0.0
 11
76.499984741210937
 21
7.2999725341796875
 31
0.0
  0
LINE
  5
387
100
AcDbEntity
  8
0
  6
CONTINUOUS
 62
               7
100
AcDbLine
 10
77.499984741210937
 20
-41.500015258789063
 30
0.0
 11
77.499984741210937
 21
-31.500015258789063
 31
0.0
  0
LINE
  5
388
100
AcDbEntity
  8
0
  6
CONTINUOUS
 62
               7
100
AcDbLine
 10
74.599983215332031
 20
-33.4000244140625
 30
0.0
 11
74.599983215332031
 21
-31.500015258789063
 31
0.0
  0
LINE
  5
389
100
AcDbEntity
  8
0
  6
CONTINUOUS
 62
               7
100
AcDbLine
 10
77.299980163574219
 20
-39.600021362304688
 30
0.0
 11
74.5999755859375
 21
-39.600021362304688
 31
0.0
  0
LINE
  5
38A
100
AcDbEntity
  8
0
  6
CONTINUOUS
 62
               7
100
AcDbLine
 10
77.299980163574219
 20
-33.4000244140625
 30
0.0
 11
74.5999755859375
 21
-33.4000244140625
 31
0.0
  0
LINE
  5
38B
100
AcDbEntity
  8
0
  6
CONTINUOUS
 62
               7
100
AcDbLine
 10
74.599983215332031
 20
-41.500015258789063
 30
0.0
 11
74.599983215332031
 21
-39.600021362304688
 31
0.0
  0
LINE
  5
38C
100
AcDbEntity
  8
0
  6
CONTINUOUS
 62
               7
100
AcDbLine
 10
74.499984741210938
 20
-33.500015258789063
 30
0.0
 11
74.499984741210938
 21
-31.500015258789063
 31
0.0
  0
LINE
  5
38D
100
AcDbEntity
  8
0
  6
CONTINUOUS
 62
               7
100
AcDbLine
 10
75.499984741210938
 20
-33.500015258789063
 30
0.0
 11
75.499984741210938
 21
-33.4000244140625
 31
0.0
  0
LINE
  5
38E
100
AcDbEntity
  8
0
  6
CONTINUOUS
 62
               7
100
AcDbLine
 10
74.499984741210938
 20
-41.500015258789063
 30
0.0
 11
74.499984741210938
 21
-39.500015258789063
 31
0.0
  0
LINE
  5
38F
100
AcDbEntity
  8
0
  6
CONTINUOUS
 62
               7
100
AcDbLine
 10
75.499984741210938
 20
-39.600021362304688
 30
0.0
 11
75.499984741210938
 21
-39.500015258789063
 31
0.0
  0
LINE
  5
390
100
AcDbEntity
  8
0
  6
CONTINUOUS
 62
               7
100
AcDbLine
 10
76.499977111816406
 20
-33.500030517578125
 30
0.0
 11
74.499977111816406
 21
-33.500030517578125
 31
0.0
  0
LINE
  5
391
100
AcDbEntity
  8
0
  6
CONTINUOUS
 62
               7
100
AcDbLine
 10
76.499977111816406
 20
-39.500030517578125
 30
0.0
 11
74.499977111816406
 21
-39.500030517578125
 31
0.0
  0
LINE
  5
392
100
AcDbEntity
  8
0
  6
CONTINUOUS
 62
               7
100
AcDbLine
 10
71.749992370605469
 20
-50.000022888183594
 30
0.0
 11
69.25
 21
-50.000022888183594
 31
0.0
  0
LINE
  5
393
100
AcDbEntity
  8
0
  6
CONTINUOUS
 62
               7
100
AcDbLine
 10
67.750015258789063
 20
-48.500015258789063
 30
0.0
 11
67.750015258789063
 21
-48.000015258789063
 31
0.0
  0
LINE
  5
394
100
AcDbEntity
  8
0
  6
CONTINUOUS
 62
               7
100
AcDbLine
 10
73.25
 20
-48.500015258789063
 30
0.0
 11
73.25
 21
-48.000015258789063
 31
0.0
  0
LINE
  5
395
100
AcDbEntity
  8
0
  6
CONTINUOUS
 62
               7
100
AcDbLine
 10
76.499984741210937
 20
-50.000015258789062
 30
0.0
 11
76.499984741210937
 21
-41.500015258789063
 31
0.0
  0
LINE
  5
396
100
AcDbEntity
  8
0
  6
CONTINUOUS
 62
               7
100
AcDbLine
 10
46.5
 20
-50.000015258789062
 30
0.0
 11
46.5
 21
35.999969482421875
 31
0.0
  0
LINE
  5
397
100
AcDbEntity
  8
0
  6
CONTINUOUS
 62
               7
100
AcDbLine
 10
75.999977111816406
 20
-50.500022888183594
 30
0.0
 11
47.0
 21
-50.500022888183594
 31
0.0
  0
LINE
  5
398
100
AcDbEntity
  8
0
  6
CONTINUOUS
 62
               7
100
AcDbLine
 10
77.499977111816406
 20
-41.500030517578125
 30
0.0
 11
46.5
 21
-41.500030517578125
 31
0.0
  0
LINE
  5
399
100
AcDbEntity
  8
0
  6
CONTINUOUS
 62
               7
100
AcDbLine
 10
77.29998779296875
 20
-39.600021362304688
 30
0.0
 11
77.29998779296875
 21
-33.4000244140625
 31
0.0
  0
LINE
  5
39A
100
AcDbEntity
  8
0
  6
CONTINUOUS
 62
               7
100
AcDbLine
 10
77.500001586665576
 20
-41.500037995005982
 30
0.0
 11
78.499998012101514
 21
-40.500041738156824
 31
0.0
  0
LINE
  5
39B
100
AcDbEntity
  8
0
  6
CONTINUOUS
 62
               7
100
AcDbLine
 10
77.499946585098769
 20
-31.500042678080717
 30
0.0
 11
78.499951439908727
 21
-32.500040030743548
 31
0.0
  0
LINE
  5
39C
100
AcDbEntity
  8
0
  6
CONTINUOUS
 62
               7
100
AcDbLine
 10
78.499984741210938
 20
-40.500015258789063
 30
0.0
 11
78.499984741210938
 21
-32.500015258789063
 31
0.0
  0
LINE
  5
39D
100
AcDbEntity
  8
0
  6
CONTINUOUS
 62
               7
100
AcDbLine
 10
76.499984741210937
 20
-39.600021362304688
 30
0.0
 11
76.499984741210937
 21
-33.4000244140625
 31
0.0
  0
LINE
  5
39E
100
AcDbEntity
  8
0
  6
CONTINUOUS
 62
               7
100
AcDbLine
 10
78.412116167340173
 20
-29.587899314190508
 30
0.0
 11
76.587852782668961
 21
-31.412158546971114
 31
0.0
  0
LINE
  5
39F
100
AcDbEntity
  8
0
  6
CONTINUOUS
 62
               7
100
AcDbLine
 10
78.412107499960257
 20
12.587853533093039
 30
0.0
 11
76.587844422836497
 21
14.412113073421096
 31
0.0
  0
LINE
  5
3A0
100
AcDbEntity
  8
0
  6
CONTINUOUS
 62
               7
100
AcDbLine
 10
78.499984741210938
 20
12.375717163085938
 30
0.0
 11
78.499984741210938
 21
-29.375762939453125
 31
0.0
  0
LINE
  5
3A1
100
AcDbEntity
  8
0
  6
CONTINUOUS
 62
               7
100
AcDbLine
 10
76.375724792480469
 20
14.499984741210938
 30
0.0
 11
73.499992370605469
 21
14.499984741210938
 31
0.0
  0
LINE
  5
3A2
100
AcDbEntity
  8
0
  6
CONTINUOUS
 62
               7
100
AcDbLine
 10
73.499984741210937
 20
-31.500015258789063
 30
0.0
 11
73.499984741210937
 21
35.999969482421875
 31
0.0
  0
LINE
  5
3A3
100
AcDbEntity
  8
0
  6
CONTINUOUS
 62
               7
100
AcDbLine
 10
77.499977111816406
 20
-31.500030517578125
 30
0.0
 11
46.499984741210937
 21
-31.500030517578125
 31
0.0
  0
LINE
  5
3A4
100
AcDbEntity
  8
0
  6
CONTINUOUS
 62
               7
100
AcDbLine
 10
73.499984741210937
 20
14.499969482421875
 30
0.0
 11
46.499984741210937
 21
14.499969482421875
 31
0.0
  0
LINE
  5
3A5
100
AcDbEntity
  8
0
  6
CONTINUOUS
 62
               7
100
AcDbLine
 10
74.499984741210938
 20
32.999984741210938
 30
0.0
 11
74.499984741210938
 21
34.649978637695313
 31
0.0
  0
LINE
  5
3A6
100
AcDbEntity
  8
0
  6
CONTINUOUS
 62
               7
100
AcDbLine
 10
74.499984741210938
 20
32.999984741210938
 30
0.0
 11
73.899993896484375
 21
32.999984741210938
 31
0.0
  0
LINE
  5
3A7
100
AcDbEntity
  8
0
  6
CONTINUOUS
 62
               7
100
AcDbLine
 10
74.499984741210938
 20
32.399978637695313
 30
0.0
 11
73.899993896484375
 21
32.399978637695313
 31
0.0
  0
LINE
  5
3A8
100
AcDbEntity
  8
0
  6
CONTINUOUS
 62
               7
100
AcDbLine
 10
73.899986267089844
 20
32.399978637695313
 30
0.0
 11
73.899986267089844
 21
32.999984741210938
 31
0.0
  0
LINE
  5
3A9
100
AcDbEntity
  8
0
  6
CONTINUOUS
 62
               7
100
AcDbLine
 10
74.499984741210938
 20
34.649978637695313
 30
0.0
 11
73.499984741210937
 21
34.649978637695313
 31
0.0
  0
LINE
  5
3AA
100
AcDbEntity
  8
0
  6
CONTINUOUS
 62
               7
100
AcDbLine
 10
74.499984741210938
 20
30.749984741210938
 30
0.0
 11
73.499984741210937
 21
30.749984741210938
 31
0.0
  0
LINE
  5
3AB
100
AcDbEntity
  8
0
  6
CONTINUOUS
 62
               7
100
AcDbLine
 10
74.499984741210938
 20
30.749984741210938
 30
0.0
 11
74.499984741210938
 21
32.399978637695313
 31
0.0
  0
LINE
  5
3AC
100
AcDbEntity
  8
0
  6
CONTINUOUS
 62
               2
100
AcDbLine
 10
75.499984741210938
 20
32.699981689453125
 30
0.0
 11
72.79998779296875
 21
32.699981689453125
 31
0.0
  0
LINE
  5
3AD
100
AcDbEntity
  8
0
  6
CONTINUOUS
 62
               2
100
AcDbLine
 10
23.0
 20
-22.4215087890625
 30
0.0
 11
23.0
 21
17.5784912109375
 31
0.0
  0
LINE
  5
3AE
100
AcDbEntity
  8
0
  6
CONTINUOUS
 62
               2
100
AcDbLine
 10
15.4215087890625
 20
10.0
 30
0.0
 11
30.578506469726563
 21
10.0
 31
0.0
  0
LINE
  5
3AF
100
AcDbEntity
  8
0
  6
CONTINUOUS
 62
               7
100
AcDbLine
 10
46.0
 20
-40.000015258789063
 30
0.0
 11
46.0
 21
24.0
 31
0.0
  0
ENDBLK
  5
3B0
100
AcDbEntity
  8
0
100
AcDbBlockEnd
  0
BLOCK
  5
3B1
100
AcDbEntity
  8
0
100
AcDbBlockBegin
  2
F15MA-3
 70
               0
 10
0.0
 20
0.0
 30
0.0
  3
F15MA-3
  1

  0
LINE
  5
3B2
100
AcDbEntity
  8
0
  6
CONTINUOUS
 62
               7
100
AcDbLine
 10
4.5
 20
45.999984741210938
 30
0.0
 11
4.5
 21
77.999984741210937
 31
0.0
  0
LINE
  5
3B3
100
AcDbEntity
  8
0
  6
CONTINUOUS
 62
               7
100
AcDbLine
 10
19.5
 20
45.999984741210938
 30
0.0
 11
19.5
 21
77.999984741210937
 31
0.0
  0
LINE
  5
3B4
100
AcDbEntity
  8
0
  6
CONTINUOUS
 62
               7
100
AcDbLine
 10
4.4999689342785132
 20
77.499998860928827
 30
0.0
 11
5.4999700801618019
 21
78.499999838224539
 31
0.0
  0
LINE
  5
3B5
100
AcDbEntity
  8
0
  6
CONTINUOUS
 62
               7
100
AcDbLine
 10
18.499954589181471
 20
78.499954656552291
 30
0.0
 11
19.499957420940518
 21
77.499955449426125
 31
0.0
  0
ARC
  5
3B6
100
AcDbEntity
  8
0
  6
CONTINUOUS
 62
               7
100
AcDbCircle
 10
50.25
 20
76.699981689453125
 30
0.0
 40
1.5
100
AcDbArc
 50
0.0
 51
89.999982013910454
  0
ARC
  5
3B7
100
AcDbEntity
  8
0
  6
CONTINUOUS
 62
               7
100
AcDbCircle
 10
48.75
 20
76.699981689453125
 30
0.0
 40
1.5
100
AcDbArc
 50
89.999982013910454
 51
179.99996402782091
  0
LINE
  5
3B8
100
AcDbEntity
  8
0
  6
CONTINUOUS
 62
               7
100
AcDbLine
 10
46.800003051757813
 20
78.199981689453125
 30
0.0
 11
46.800003051757813
 21
76.499984741210937
 31
0.0
  0
LINE
  5
3B9
100
AcDbEntity
  8
0
  6
CONTINUOUS
 62
               7
100
AcDbLine
 10
51.5
 20
77.999984741210937
 30
0.0
 11
51.5
 21
77.529144287109375
 31
0.0
  0
LINE
  5
3BA
100
AcDbEntity
  8
0
  6
CONTINUOUS
 62
               7
100
AcDbLine
 10
36.5
 20
45.999984741210938
 30
0.0
 11
36.5
 21
77.999969482421875
 31
0.0
  0
ARC
  5
3BB
100
AcDbEntity
  8
0
  6
CONTINUOUS
 62
               7
100
AcDbCircle
 10
34.25
 20
76.699981689453125
 30
0.0
 40
1.5
100
AcDbArc
 50
0.0
 51
89.999982013910454
  0
ARC
  5
3BC
100
AcDbEntity
  8
0
  6
CONTINUOUS
 62
               7
100
AcDbCircle
 10
32.75
 20
76.699981689453125
 30
0.0
 40
1.5
100
AcDbArc
 50
89.999982013910454
 51
179.99996402782091
  0
LINE
  5
3BD
100
AcDbEntity
  8
0
  6
CONTINUOUS
 62
               7
100
AcDbLine
 10
30.800003051757813
 20
78.199981689453125
 30
0.0
 11
30.800003051757813
 21
76.499984741210937
 31
0.0
  0
LINE
  5
3BE
100
AcDbEntity
  8
0
  6
CONTINUOUS
 62
               7
100
AcDbLine
 10
35.5
 20
77.999984741210937
 30
0.0
 11
35.5
 21
77.529144287109375
 31
0.0
  0
LINE
  5
3BF
100
AcDbEntity
  8
0
  6
CONTINUOUS
 62
               7
100
AcDbLine
 10
20.5
 20
45.999984741210938
 30
0.0
 11
20.5
 21
77.999969482421875
 31
0.0
  0
LINE
  5
3C0
100
AcDbEntity
  8
0
  6
CONTINUOUS
 62
               2
100
AcDbLine
 10
28.000000953674316
 20
-2.2923011779785156
 30
0.0
 11
28.0
 21
80.481964111328125
 31
0.0
  0
LINE
  5
3C1
100
AcDbEntity
  8
0
  6
CONTINUOUS
 62
               2
100
AcDbLine
 10
44.000000953674316
 20
-2.2923011779785156
 30
0.0
 11
44.0
 21
80.481964111328125
 31
0.0
  0
LINE
  5
3C2
100
AcDbEntity
  8
0
  6
CONTINUOUS
 62
               2
100
AcDbLine
 10
12.000000953674316
 20
-2.2923011779785156
 30
0.0
 11
12.0
 21
79.92755126953125
 31
0.0
  0
LINE
  5
3C3
100
AcDbEntity
  8
0
  6
CONTINUOUS
 62
             200
100
AcDbLine
 10
2.9628610610961914
 20
15.249996185302734
 30
0.0
 11
68.957122802734375
 21
15.25
 31
0.0
  0
LINE
  5
3C4
100
AcDbEntity
  8
0
  6
CONTINUOUS
 62
             200
100
AcDbLine
 10
2.9628610610961914
 20
30.749996185302734
 30
0.0
 11
68.957122802734375
 21
30.75
 31
0.0
  0
LINE
  5
3C5
100
AcDbEntity
  8
0
  6
CONTINUOUS
 62
               2
100
AcDbLine
 10
0.0
 20
3.8519116951919301
 30
0.0
 11
0.0
 21
-3.4931121178102558
 31
0.0
  0
LINE
  5
3C6
100
AcDbEntity
  8
0
  6
CONTINUOUS
 62
               2
100
AcDbLine
 10
72.0
 20
3.8519116951919301
 30
0.0
 11
72.0
 21
-3.4931121178102558
 31
0.0
  0
LINE
  5
3C7
100
AcDbEntity
  8
0
  6
CONTINUOUS
 62
               7
100
AcDbLine
 10
36.500015296538038
 20
46.499985307445144
 30
0.0
 11
51.500015296537981
 21
46.499984174976731
 31
0.0
  0
LINE
  5
3C8
100
AcDbEntity
  8
0
  6
CONTINUOUS
 62
               7
100
AcDbLine
 10
20.500015296538038
 20
46.499985307445144
 30
0.0
 11
35.500015296537981
 21
46.499984174976731
 31
0.0
  0
LINE
  5
3C9
100
AcDbEntity
  8
0
  6
CONTINUOUS
 62
               7
100
AcDbLine
 10
4.500015296538038
 20
46.499985307445144
 30
0.0
 11
19.500015296537981
 21
46.499984174976731
 31
0.0
  0
LINE
  5
3CA
100
AcDbEntity
  8
0
  6
CONTINUOUS
 62
               7
100
AcDbLine
 10
35.5
 20
45.999984741210938
 30
0.0
 11
35.5
 21
76.499984741210937
 31
0.0
  0
LINE
  5
3CB
100
AcDbEntity
  8
0
  6
CONTINUOUS
 62
               7
100
AcDbLine
 10
33.56078401766797
 20
50.560490965812988
 30
0.0
 11
31.439462995157442
 21
48.439171195
 31
0.0
  0
LINE
  5
3CC
100
AcDbEntity
  8
0
  6
CONTINUOUS
 62
               7
100
AcDbLine
 10
31.439342490991521
 20
50.560596537352922
 30
0.0
 11
33.560673051394815
 21
48.439264725245721
 31
0.0
  0
LINE
  5
3CD
100
AcDbEntity
  8
0
  6
CONTINUOUS
 62
               7
100
AcDbLine
 10
29.5
 20
49.499954223632812
 30
0.0
 11
29.5
 21
46.499954223632813
 31
0.0
  0
LINE
  5
3CE
100
AcDbEntity
  8
0
  6
CONTINUOUS
 62
               7
100
AcDbLine
 10
32.5
 20
52.49993896484375
 30
0.0
 11
35.5
 21
52.49993896484375
 31
0.0
  0
LINE
  5
3CF
100
AcDbEntity
  8
0
  6
CONTINUOUS
 62
               7
100
AcDbLine
 10
23.500015258789063
 20
67.5
 30
0.0
 11
20.500015258789063
 21
67.5
 31
0.0
  0
LINE
  5
3D0
100
AcDbEntity
  8
0
  6
CONTINUOUS
 62
               7
100
AcDbLine
 10
22.439441882392657
 20
69.43924087166215
 30
0.0
 11
24.560763262531054
 21
71.56056028484727
 31
0.0
  0
LINE
  5
3D1
100
AcDbEntity
  8
0
  6
CONTINUOUS
 62
               7
100
AcDbLine
 10
24.560657754899069
 20
69.439307997542869
 30
0.0
 11
22.439338341713949
 21
71.560629377681266
 31
0.0
  0
LINE
  5
3D2
100
AcDbEntity
  8
0
  6
CONTINUOUS
 62
               7
100
AcDbLine
 10
23.500015258789063
 20
73.499984741210937
 30
0.0
 11
20.500015258789063
 21
73.499984741210937
 31
0.0
  0
LINE
  5
3D3
100
AcDbEntity
  8
0
  6
CONTINUOUS
 62
               7
100
AcDbLine
 10
26.050018310546875
 20
77.499984741210937
 30
0.0
 11
26.050018310546875
 21
76.499984741210937
 31
0.0
  0
LINE
  5
3D4
100
AcDbEntity
  8
0
  6
CONTINUOUS
 62
               7
100
AcDbLine
 10
29.95001220703125
 20
77.499984741210937
 30
0.0
 11
29.95001220703125
 21
76.499984741210937
 31
0.0
  0
LINE
  5
3D5
100
AcDbEntity
  8
0
  6
CONTINUOUS
 62
               7
100
AcDbLine
 10
26.050018310546875
 20
77.499984741210937
 30
0.0
 11
29.95001220703125
 21
77.499984741210937
 31
0.0
  0
LINE
  5
3D6
100
AcDbEntity
  8
0
  6
CONTINUOUS
 62
               7
100
AcDbLine
 10
20.5
 20
76.499984741210937
 30
0.0
 11
35.75
 21
76.499984741210937
 31
0.0
  0
LINE
  5
3D7
100
AcDbEntity
  8
0
  6
CONTINUOUS
 62
               7
100
AcDbLine
 10
35.75
 20
76.699981689453125
 30
0.0
 11
35.75
 21
76.499984741210937
 31
0.0
  0
LINE
  5
3D8
100
AcDbEntity
  8
0
  6
CONTINUOUS
 62
               7
100
AcDbLine
 10
31.25
 20
76.699981689453125
 30
0.0
 11
31.25
 21
76.499984741210937
 31
0.0
  0
CIRCLE
  5
3D9
100
AcDbEntity
  8
0
  6
CONTINUOUS
 62
               7
100
AcDbCircle
 10
32.5
 20
49.499954223632812
 30
0.0
 40
2.7999992370605469
  0
ARC
  5
3DA
100
AcDbEntity
  8
0
  6
CONTINUOUS
 62
               7
100
AcDbCircle
 10
32.5
 20
49.499954223632812
 30
0.0
 40
3.0
100
AcDbArc
 50
89.999982013910454
 51
179.99996402782091
  0
CIRCLE
  5
3DB
100
AcDbEntity
  8
0
  6
CONTINUOUS
 62
               7
100
AcDbCircle
 10
23.500015258789063
 20
70.499984741210938
 30
0.0
 40
2.7999992370605469
  0
ARC
  5
3DC
100
AcDbEntity
  8
0
  6
CONTINUOUS
 62
               7
100
AcDbCircle
 10
23.500015258789063
 20
70.5
 30
0.0
 40
3.0
100
AcDbArc
 50
270.00001798608872
 51
90.00014593845053
  0
LINE
  5
3DD
100
AcDbEntity
  8
0
  6
CONTINUOUS
 62
               7
100
AcDbLine
 10
51.5
 20
45.999984741210938
 30
0.0
 11
51.5
 21
76.499984741210937
 31
0.0
  0
LINE
  5
3DE
100
AcDbEntity
  8
0
  6
CONTINUOUS
 62
               7
100
AcDbLine
 10
49.56078401766797
 20
50.560490965812988
 30
0.0
 11
47.439462995157442
 21
48.439171195
 31
0.0
  0
LINE
  5
3DF
100
AcDbEntity
  8
0
  6
CONTINUOUS
 62
               7
100
AcDbLine
 10
47.439342490991521
 20
50.560596537352922
 30
0.0
 11
49.560673051394815
 21
48.439264725245721
 31
0.0
  0
LINE
  5
3E0
100
AcDbEntity
  8
0
  6
CONTINUOUS
 62
               7
100
AcDbLine
 10
45.5
 20
49.499954223632812
 30
0.0
 11
45.5
 21
46.499954223632813
 31
0.0
  0
LINE
  5
3E1
100
AcDbEntity
  8
0
  6
CONTINUOUS
 62
               7
100
AcDbLine
 10
48.5
 20
52.49993896484375
 30
0.0
 11
51.5
 21
52.49993896484375
 31
0.0
  0
LINE
  5
3E2
100
AcDbEntity
  8
0
  6
CONTINUOUS
 62
               7
100
AcDbLine
 10
39.500015258789063
 20
67.5
 30
0.0
 11
36.500015258789063
 21
67.5
 31
0.0
  0
LINE
  5
3E3
100
AcDbEntity
  8
0
  6
CONTINUOUS
 62
               7
100
AcDbLine
 10
38.439441882392657
 20
69.43924087166215
 30
0.0
 11
40.560763262531054
 21
71.56056028484727
 31
0.0
  0
LINE
  5
3E4
100
AcDbEntity
  8
0
  6
CONTINUOUS
 62
               7
100
AcDbLine
 10
40.560657754899069
 20
69.439307997542869
 30
0.0
 11
38.439338341713949
 21
71.560629377681266
 31
0.0
  0
LINE
  5
3E5
100
AcDbEntity
  8
0
  6
CONTINUOUS
 62
               7
100
AcDbLine
 10
39.500015258789063
 20
73.499984741210937
 30
0.0
 11
36.500015258789063
 21
73.499984741210937
 31
0.0
  0
LINE
  5
3E6
100
AcDbEntity
  8
0
  6
CONTINUOUS
 62
               7
100
AcDbLine
 10
42.050018310546875
 20
77.499984741210937
 30
0.0
 11
42.050018310546875
 21
76.499984741210937
 31
0.0
  0
LINE
  5
3E7
100
AcDbEntity
  8
0
  6
CONTINUOUS
 62
               7
100
AcDbLine
 10
45.95001220703125
 20
77.499984741210937
 30
0.0
 11
45.95001220703125
 21
76.499984741210937
 31
0.0
  0
LINE
  5
3E8
100
AcDbEntity
  8
0
  6
CONTINUOUS
 62
               7
100
AcDbLine
 10
42.050018310546875
 20
77.499984741210937
 30
0.0
 11
45.95001220703125
 21
77.499984741210937
 31
0.0
  0
LINE
  5
3E9
100
AcDbEntity
  8
0
  6
CONTINUOUS
 62
               7
100
AcDbLine
 10
36.5
 20
76.499984741210937
 30
0.0
 11
51.75
 21
76.499984741210937
 31
0.0
  0
LINE
  5
3EA
100
AcDbEntity
  8
0
  6
CONTINUOUS
 62
               7
100
AcDbLine
 10
51.75
 20
76.699981689453125
 30
0.0
 11
51.75
 21
76.499984741210937
 31
0.0
  0
LINE
  5
3EB
100
AcDbEntity
  8
0
  6
CONTINUOUS
 62
               7
100
AcDbLine
 10
47.25
 20
76.699981689453125
 30
0.0
 11
47.25
 21
76.499984741210937
 31
0.0
  0
CIRCLE
  5
3EC
100
AcDbEntity
  8
0
  6
CONTINUOUS
 62
               7
100
AcDbCircle
 10
48.5
 20
49.499954223632812
 30
0.0
 40
2.7999992370605469
  0
ARC
  5
3ED
100
AcDbEntity
  8
0
  6
CONTINUOUS
 62
               7
100
AcDbCircle
 10
48.5
 20
49.499954223632812
 30
0.0
 40
3.0
100
AcDbArc
 50
89.999982013910454
 51
179.99996402782091
  0
CIRCLE
  5
3EE
100
AcDbEntity
  8
0
  6
CONTINUOUS
 62
               7
100
AcDbCircle
 10
39.500015258789063
 20
70.499984741210938
 30
0.0
 40
2.7999992370605469
  0
ARC
  5
3EF
100
AcDbEntity
  8
0
  6
CONTINUOUS
 62
               7
100
AcDbCircle
 10
39.500015258789063
 20
70.5
 30
0.0
 40
3.0
100
AcDbArc
 50
270.00001798608872
 51
90.00014593845053
  0
LINE
  5
3F0
100
AcDbEntity
  8
0
  6
CONTINUOUS
 62
               7
100
AcDbLine
 10
52.500015296538038
 20
46.499985307445144
 30
0.0
 11
67.500015296537981
 21
46.499984174976731
 31
0.0
  0
LINE
  5
3F1
100
AcDbEntity
  8
0
  6
CONTINUOUS
 62
               7
100
AcDbLine
 10
52.500015258789091
 20
45.999985307445144
 30
0.0
 11
52.500015296538038
 21
46.499985307445144
 31
0.0
  0
LINE
  5
3F2
100
AcDbEntity
  8
0
  6
CONTINUOUS
 62
               7
100
AcDbLine
 10
67.500015258789034
 20
45.999984174976731
 30
0.0
 11
67.500015296537981
 21
46.499984174976731
 31
0.0
  0
LINE
  5
3F3
100
AcDbEntity
  8
0
  6
CONTINUOUS
 62
               4
100
AcDbLine
 10
53.600015258789085
 20
31.550000000000011
 30
0.0
 11
53.17928633900334
 21
31.792907955094137
 31
0.0
  0
LINE
  5
3F4
100
AcDbEntity
  8
0
  6
CONTINUOUS
 62
               4
100
AcDbLine
 10
53.600015258789085
 20
29.949999999999989
 30
0.0
 11
53.17928633900334
 21
29.707092044905863
 31
0.0
  0
LINE
  5
3F5
100
AcDbEntity
  8
0
  6
CONTINUOUS
 62
               4
100
AcDbLine
 10
53.600015258789085
 20
29.949999999999989
 30
0.0
 11
53.600015258789085
 21
31.549999994039524
 31
0.0
  0
LINE
  5
3F6
100
AcDbEntity
  8
0
  6
CONTINUOUS
 62
               4
100
AcDbLine
 10
53.600015258789085
 20
14.450000000000003
 30
0.0
 11
53.17928633900334
 21
14.207092044905863
 31
0.0
  0
LINE
  5
3F7
100
AcDbEntity
  8
0
  6
CONTINUOUS
 62
               4
100
AcDbLine
 10
53.600015258789085
 20
16.049999999999997
 30
0.0
 11
53.17928633900334
 21
16.292907955094137
 31
0.0
  0
LINE
  5
3F8
100
AcDbEntity
  8
0
  6
CONTINUOUS
 62
               4
100
AcDbLine
 10
53.600015258789085
 20
14.450000000000003
 30
0.0
 11
53.600015258789085
 21
16.049999994039538
 31
0.0
  0
LINE
  5
3F9
100
AcDbEntity
  8
0
  6
CONTINUOUS
 62
               4
100
AcDbLine
 10
66.400015258789097
 20
14.450000000000003
 30
0.0
 11
66.400015258789097
 21
16.049999994039538
 31
0.0
  0
LINE
  5
3FA
100
AcDbEntity
  8
0
  6
CONTINUOUS
 62
               4
100
AcDbLine
 10
66.400015258789097
 20
16.049999999999997
 30
0.0
 11
66.820744178574785
 21
16.292907955094137
 31
0.0
  0
LINE
  5
3FB
100
AcDbEntity
  8
0
  6
CONTINUOUS
 62
               4
100
AcDbLine
 10
66.400015258789097
 20
14.450000000000003
 30
0.0
 11
66.820744178574785
 21
14.207092044905863
 31
0.0
  0
LINE
  5
3FC
100
AcDbEntity
  8
0
  6
CONTINUOUS
 62
               4
100
AcDbLine
 10
66.400015258789097
 20
29.949999999999989
 30
0.0
 11
66.400015258789097
 21
31.549999994039524
 31
0.0
  0
LINE
  5
3FD
100
AcDbEntity
  8
0
  6
CONTINUOUS
 62
               4
100
AcDbLine
 10
66.400015258789097
 20
31.550000000000011
 30
0.0
 11
66.820744178574785
 21
31.792907955094137
 31
0.0
  0
LINE
  5
3FE
100
AcDbEntity
  8
0
  6
CONTINUOUS
 62
               4
100
AcDbLine
 10
66.400015258789097
 20
29.949999999999989
 30
0.0
 11
66.820744178574785
 21
29.707092044905863
 31
0.0
  0
ARC
  5
3FF
100
AcDbEntity
  8
0
  6
CONTINUOUS
 62
               4
100
AcDbCircle
 10
61.050015258789074
 20
23.071458471819014
 30
0.0
 40
0.3
100
AcDbArc
 50
97.786600724137088
 51
179.99999999999963
  0
ARC
  5
400
100
AcDbEntity
  8
0
  6
CONTINUOUS
 62
               4
100
AcDbCircle
 10
61.050015258789074
 20
22.928541528180986
 30
0.0
 40
0.3
100
AcDbArc
 50
179.99999999999963
 51
262.21339927586212
  0
ARC
  5
401
100
AcDbEntity
  8
0
  6
CONTINUOUS
 62
               4
100
AcDbCircle
 10
58.95001525878908
 20
23.071458471819014
 30
0.0
 40
0.3
100
AcDbArc
 50
0.0
 51
82.213399275863864
  0
ARC
  5
402
100
AcDbEntity
  8
0
  6
CONTINUOUS
 62
               4
100
AcDbCircle
 10
58.95001525878908
 20
22.928541528180986
 30
0.0
 40
0.3
100
AcDbArc
 50
277.78660072413879
 51
0.0
  0
LINE
  5
403
100
AcDbEntity
  8
0
  6
CONTINUOUS
 62
               4
100
AcDbLine
 10
60.750015258789062
 20
22.928541528180986
 30
0.0
 11
60.750015258789062
 21
23.071458471819014
 31
0.0
  0
LINE
  5
404
100
AcDbEntity
  8
0
  6
CONTINUOUS
 62
               4
100
AcDbLine
 10
59.250015258789063
 20
22.928541528180986
 30
0.0
 11
59.250015258789063
 21
23.071458471819014
 31
0.0
  0
ARC
  5
405
100
AcDbEntity
  8
0
  6
CONTINUOUS
 62
               4
100
AcDbCircle
 10
60.000015258789063
 20
15.25
 30
0.0
 40
6.9000000000000004
100
AcDbArc
 50
188.69334942994371
 51
351.30665057005507
  0
CIRCLE
  5
406
100
AcDbEntity
  8
0
  6
CONTINUOUS
 62
               4
100
AcDbCircle
 10
60.000015258789063
 20
15.25
 30
0.0
 40
3.0499999999999998
  0
CIRCLE
  5
407
100
AcDbEntity
  8
0
  6
CONTINUOUS
 62
               4
100
AcDbCircle
 10
60.000015258789063
 20
15.25
 30
0.0
 40
4.0499999999999998
  0
ARC
  5
408
100
AcDbEntity
  8
0
  6
CONTINUOUS
 62
               4
100
AcDbCircle
 10
60.000015258789063
 20
15.25
 30
0.0
 40
6.9000000000000004
100
AcDbArc
 50
8.6933494299441101
 51
171.3066505700555
  0
CIRCLE
  5
409
100
AcDbEntity
  8
0
  6
CONTINUOUS
 62
               4
100
AcDbCircle
 10
60.000015258789063
 20
15.25
 30
0.0
 40
7.4500000000000002
  0
ARC
  5
40A
100
AcDbEntity
  8
0
  6
CONTINUOUS
 62
               4
100
AcDbCircle
 10
60.000015258789063
 20
30.75
 30
0.0
 40
6.9000000000000004
100
AcDbArc
 50
188.69334942994371
 51
351.30665057005507
  0
CIRCLE
  5
40B
100
AcDbEntity
  8
0
  6
CONTINUOUS
 62
               4
100
AcDbCircle
 10
60.000015258789063
 20
30.75
 30
0.0
 40
3.0499999999999998
  0
CIRCLE
  5
40C
100
AcDbEntity
  8
0
  6
CONTINUOUS
 62
               4
100
AcDbCircle
 10
60.000015258789063
 20
30.75
 30
0.0
 40
4.0499999999999998
  0
ARC
  5
40D
100
AcDbEntity
  8
0
  6
CONTINUOUS
 62
               4
100
AcDbCircle
 10
60.000015258789063
 20
30.75
 30
0.0
 40
6.9000000000000004
100
AcDbArc
 50
8.6933494299441101
 51
171.3066505700555
  0
CIRCLE
  5
40E
100
AcDbEntity
  8
0
  6
CONTINUOUS
 62
               4
100
AcDbCircle
 10
60.000015258789063
 20
30.75
 30
0.0
 40
7.4500000000000002
  0
LINE
  5
40F
100
AcDbEntity
  8
0
  6
CONTINUOUS
 62
               4
100
AcDbLine
 10
57.0783373475075
 20
7.301404489514681
 30
0.0
 11
67.50001526474955
 21
7.301404489514681
 31
0.0
  0
LINE
  5
410
100
AcDbEntity
  8
0
  6
CONTINUOUS
 62
               4
100
AcDbLine
 10
62.892334296708015
 20
38.799996185302732
 30
0.0
 11
52.500015252828632
 21
38.799996185302732
 31
0.0
  0
CIRCLE
  5
411
100
AcDbEntity
  8
0
  6
CONTINUOUS
 62
               4
100
AcDbCircle
 10
65.500015258789063
 20
4.5000152587890625
 30
0.0
 40
2.25
  0
CIRCLE
  5
412
100
AcDbEntity
  8
0
  6
CONTINUOUS
 62
               4
100
AcDbCircle
 10
54.500015258789062
 20
41.5
 30
0.0
 40
2.25
  0
ARC
  5
413
100
AcDbEntity
  8
0
  6
CONTINUOUS
 62
               4
100
AcDbCircle
 10
65.500015258789063
 20
4.5000152587890625
 30
0.0
 40
2.6999998092651367
100
AcDbArc
 50
89.999982013910454
 51
179.99996402782091
  0
ARC
  5
414
100
AcDbEntity
  8
0
  6
CONTINUOUS
 62
               4
100
AcDbCircle
 10
52.800018310546875
 20
0.5000152587890625
 30
0.0
 40
0.300000011920929
100
AcDbArc
 50
179.99996402782091
 51
270.00000068324471
  0
ARC
  5
415
100
AcDbEntity
  8
0
  6
CONTINUOUS
 62
               4
100
AcDbCircle
 10
67.200027465820313
 20
0.5000152587890625
 30
0.0
 40
0.300000011920929
100
AcDbArc
 50
270.00001798608872
 51
0.0
  0
ARC
  5
416
100
AcDbEntity
  8
0
  6
CONTINUOUS
 62
               4
100
AcDbCircle
 10
67.200027465820313
 20
45.500011444091797
 30
0.0
 40
0.300000011920929
100
AcDbArc
 50
0.0
 51
89.999982013910454
  0
ARC
  5
417
100
AcDbEntity
  8
0
  6
CONTINUOUS
 62
               4
100
AcDbCircle
 10
52.800003051757812
 20
45.500019073486328
 30
0.0
 40
0.300000011920929
100
AcDbArc
 50
89.999982013910454
 51
179.99996402782091
  0
ARC
  5
418
100
AcDbEntity
  8
0
  6
CONTINUOUS
 62
               4
100
AcDbCircle
 10
52.800018310546875
 20
3.5000152587890625
 30
0.0
 40
0.300000011920929
100
AcDbArc
 50
89.999982013910454
 51
179.99996402782091
  0
ARC
  5
419
100
AcDbEntity
  8
0
  6
CONTINUOUS
 62
               4
100
AcDbCircle
 10
67.200027465820313
 20
36.500011444091797
 30
0.0
 40
0.300000011920929
100
AcDbArc
 50
0.0
 51
89.999982013910454
  0
ARC
  5
41A
100
AcDbEntity
  8
0
  6
CONTINUOUS
 62
               4
100
AcDbCircle
 10
52.800018310546875
 20
9.5
 30
0.0
 40
0.300000011920929
100
AcDbArc
 50
179.99996402782091
 51
270.00000068324471
  0
ARC
  5
41B
100
AcDbEntity
  8
0
  6
CONTINUOUS
 62
               4
100
AcDbCircle
 10
67.200027465820313
 20
42.499996185302734
 30
0.0
 40
0.300000011920929
100
AcDbArc
 50
270.00001798608872
 51
0.0
  0
ARC
  5
41C
100
AcDbEntity
  8
0
  6
CONTINUOUS
 62
               4
100
AcDbCircle
 10
54.500015258789062
 20
41.500015258789063
 30
0.0
 40
2.6999998092651367
100
AcDbArc
 50
270.00001798608872
 51
0.0
  0
ARC
  5
41D
100
AcDbEntity
  8
0
  6
CONTINUOUS
 62
               4
100
AcDbCircle
 10
54.500015258789062
 20
6.5000152587890625
 30
0.0
 40
2.6999998092651367
100
AcDbArc
 50
270.00001798608872
 51
89.999982013910454
  0
ARC
  5
41E
100
AcDbEntity
  8
0
  6
CONTINUOUS
 62
               4
100
AcDbCircle
 10
65.5
 20
39.500011444091797
 30
0.0
 40
2.6999998092651367
100
AcDbArc
 50
89.999982013910454
 51
270.00000068324471
  0
LINE
  5
41F
100
AcDbEntity
  8
0
  6
CONTINUOUS
 62
               4
100
AcDbLine
 10
67.500015258789063
 20
42.499996185302734
 30
0.0
 11
67.500015258789063
 21
45.500011444091797
 31
0.0
  0
LINE
  5
420
100
AcDbEntity
  8
0
  6
CONTINUOUS
 62
               4
100
AcDbLine
 10
52.500015258789063
 20
42.530757904052734
 30
0.0
 11
52.500015258789063
 21
45.500019073486328
 31
0.0
  0
LINE
  5
421
100
AcDbEntity
  8
0
  6
CONTINUOUS
 62
               4
100
AcDbLine
 10
52.500015258789063
 20
0.5000152587890625
 30
0.0
 11
52.500015258789063
 21
3.5000152587890625
 31
0.0
  0
LINE
  5
422
100
AcDbEntity
  8
0
  6
CONTINUOUS
 62
               4
100
AcDbLine
 10
67.500015258789063
 20
0.5000152587890625
 30
0.0
 11
67.500015258789063
 21
3.46923828125
 31
0.0
  0
LINE
  5
423
100
AcDbEntity
  8
0
  6
CONTINUOUS
 62
               4
100
AcDbLine
 10
52.500015258789063
 20
9.5
 30
0.0
 11
52.500015258789063
 21
40.469242095947266
 31
0.0
  0
LINE
  5
424
100
AcDbEntity
  8
0
  6
CONTINUOUS
 62
               4
100
AcDbLine
 10
66.419263601835155
 20
3.5807813957653707
 30
0.0
 11
64.580792630941687
 21
5.4192528315734307
 31
0.0
  0
LINE
  5
425
100
AcDbEntity
  8
0
  6
CONTINUOUS
 62
               4
100
AcDbLine
 10
64.580795594833944
 20
3.580750109188557
 30
0.0
 11
66.419277665264417
 21
5.4192320246465897
 31
0.0
  0
LINE
  5
426
100
AcDbEntity
  8
0
  6
CONTINUOUS
 62
               4
100
AcDbLine
 10
67.500015258789063
 20
5.530792236328125
 30
0.0
 11
67.500015258789063
 21
36.500011444091797
 31
0.0
  0
LINE
  5
427
100
AcDbEntity
  8
0
  6
CONTINUOUS
 62
               4
100
AcDbLine
 10
53.580786206908641
 20
40.580761894626818
 30
0.0
 11
55.41925748774517
 21
42.419233020491816
 31
0.0
  0
LINE
  5
428
100
AcDbEntity
  8
0
  6
CONTINUOUS
 62
               4
100
AcDbLine
 10
55.419285217025475
 20
40.580769083498581
 30
0.0
 11
53.580803456539883
 21
42.419251308901494
 31
0.0
  0
LINE
  5
429
100
AcDbEntity
  8
0
  6
CONTINUOUS
 62
               4
100
AcDbLine
 10
57.200027465820313
 20
45.799999237060547
 30
0.0
 11
57.200027465820313
 21
41.5
 31
0.0
  0
LINE
  5
42A
100
AcDbEntity
  8
0
  6
CONTINUOUS
 62
               4
100
AcDbLine
 10
62.800018310546875
 20
4.5000152587890625
 30
0.0
 11
62.800018310546875
 21
0.20001220703125
 31
0.0
  0
LINE
  5
42B
100
AcDbEntity
  8
0
  6
CONTINUOUS
 62
               4
100
AcDbLine
 10
65.500015258789063
 20
7.20001220703125
 30
0.0
 11
67.500015258789063
 21
7.20001220703125
 31
0.0
  0
LINE
  5
42C
100
AcDbEntity
  8
0
  6
CONTINUOUS
 62
               4
100
AcDbLine
 10
67.200027465820313
 20
0.20001220703125
 30
0.0
 11
52.800003051757812
 21
0.20001220703125
 31
0.0
  0
LINE
  5
42D
100
AcDbEntity
  8
0
  6
CONTINUOUS
 62
               4
100
AcDbLine
 10
67.200027465820313
 20
45.799999237060547
 30
0.0
 11
52.800003051757812
 21
45.799999237060547
 31
0.0
  0
LINE
  5
42E
100
AcDbEntity
  8
0
  6
CONTINUOUS
 62
               4
100
AcDbLine
 10
65.5
 20
36.800014495849609
 30
0.0
 11
67.200027465820313
 21
36.800014495849609
 31
0.0
  0
LINE
  5
42F
100
AcDbEntity
  8
0
  6
CONTINUOUS
 62
               4
100
AcDbLine
 10
54.500015258789062
 20
9.20001220703125
 30
0.0
 11
52.800003051757812
 21
9.20001220703125
 31
0.0
  0
LINE
  5
430
100
AcDbEntity
  8
0
  6
CONTINUOUS
 62
               4
100
AcDbLine
 10
54.500015258789062
 20
3.800018310546875
 30
0.0
 11
52.800003051757812
 21
3.800018310546875
 31
0.0
  0
LINE
  5
431
100
AcDbEntity
  8
0
  6
CONTINUOUS
 62
               4
100
AcDbLine
 10
65.500015258789063
 20
42.200008392333984
 30
0.0
 11
67.200027465820313
 21
42.200008392333984
 31
0.0
  0
LINE
  5
432
100
AcDbEntity
  8
0
  6
CONTINUOUS
 62
               2
100
AcDbLine
 10
60.000015258789063
 20
-2.29229736328125
 30
0.0
 11
60.000015258789063
 21
53.037607180800563
 31
0.0
  0
LINE
  5
433
100
AcDbEntity
  8
0
  6
CONTINUOUS
 62
               4
100
AcDbLine
 10
37.600000953674339
 20
31.549996185302746
 30
0.0
 11
37.179272033888594
 21
31.792904140396871
 31
0.0
  0
LINE
  5
434
100
AcDbEntity
  8
0
  6
CONTINUOUS
 62
               4
100
AcDbLine
 10
37.600000953674339
 20
29.949996185302723
 30
0.0
 11
37.179272033888594
 21
29.707088230208598
 31
0.0
  0
LINE
  5
435
100
AcDbEntity
  8
0
  6
CONTINUOUS
 62
               4
100
AcDbLine
 10
37.600000953674339
 20
29.949996185302723
 30
0.0
 11
37.600000953674339
 21
31.549996179342259
 31
0.0
  0
LINE
  5
436
100
AcDbEntity
  8
0
  6
CONTINUOUS
 62
               4
100
AcDbLine
 10
37.600000953674339
 20
14.449996185302737
 30
0.0
 11
37.179272033888594
 21
14.207088230208598
 31
0.0
  0
LINE
  5
437
100
AcDbEntity
  8
0
  6
CONTINUOUS
 62
               4
100
AcDbLine
 10
37.600000953674339
 20
16.049996185302732
 30
0.0
 11
37.179272033888594
 21
16.292904140396871
 31
0.0
  0
LINE
  5
438
100
AcDbEntity
  8
0
  6
CONTINUOUS
 62
               4
100
AcDbLine
 10
37.600000953674339
 20
14.449996185302737
 30
0.0
 11
37.600000953674339
 21
16.049996179342273
 31
0.0
  0
LINE
  5
439
100
AcDbEntity
  8
0
  6
CONTINUOUS
 62
               4
100
AcDbLine
 10
50.400000953674351
 20
14.449996185302737
 30
0.0
 11
50.400000953674351
 21
16.049996179342273
 31
0.0
  0
LINE
  5
43A
100
AcDbEntity
  8
0
  6
CONTINUOUS
 62
               4
100
AcDbLine
 10
50.400000953674351
 20
16.049996185302732
 30
0.0
 11
50.820729873460039
 21
16.292904140396871
 31
0.0
  0
LINE
  5
43B
100
AcDbEntity
  8
0
  6
CONTINUOUS
 62
               4
100
AcDbLine
 10
50.400000953674351
 20
14.449996185302737
 30
0.0
 11
50.820729873460039
 21
14.207088230208598
 31
0.0
  0
LINE
  5
43C
100
AcDbEntity
  8
0
  6
CONTINUOUS
 62
               4
100
AcDbLine
 10
50.400000953674351
 20
29.949996185302723
 30
0.0
 11
50.400000953674351
 21
31.549996179342259
 31
0.0
  0
LINE
  5
43D
100
AcDbEntity
  8
0
  6
CONTINUOUS
 62
               4
100
AcDbLine
 10
50.400000953674351
 20
31.549996185302746
 30
0.0
 11
50.820729873460039
 21
31.792904140396871
 31
0.0
  0
LINE
  5
43E
100
AcDbEntity
  8
0
  6
CONTINUOUS
 62
               4
100
AcDbLine
 10
50.400000953674351
 20
29.949996185302723
 30
0.0
 11
50.820729873460039
 21
29.707088230208598
 31
0.0
  0
ARC
  5
43F
100
AcDbEntity
  8
0
  6
CONTINUOUS
 62
               4
100
AcDbCircle
 10
45.050000953674328
 20
23.071454657121748
 30
0.0
 40
0.3
100
AcDbArc
 50
97.786600724137088
 51
179.99999999999963
  0
ARC
  5
440
100
AcDbEntity
  8
0
  6
CONTINUOUS
 62
               4
100
AcDbCircle
 10
45.050000953674328
 20
22.92853771348372
 30
0.0
 40
0.3
100
AcDbArc
 50
179.99999999999963
 51
262.21339927586212
  0
ARC
  5
441
100
AcDbEntity
  8
0
  6
CONTINUOUS
 62
               4
100
AcDbCircle
 10
42.950000953674333
 20
23.071454657121748
 30
0.0
 40
0.3
100
AcDbArc
 50
0.0
 51
82.213399275863864
  0
ARC
  5
442
100
AcDbEntity
  8
0
  6
CONTINUOUS
 62
               4
100
AcDbCircle
 10
42.950000953674333
 20
22.92853771348372
 30
0.0
 40
0.3
100
AcDbArc
 50
277.78660072413879
 51
0.0
  0
LINE
  5
443
100
AcDbEntity
  8
0
  6
CONTINUOUS
 62
               4
100
AcDbLine
 10
44.750000953674316
 20
22.92853771348372
 30
0.0
 11
44.750000953674316
 21
23.071454657121748
 31
0.0
  0
LINE
  5
444
100
AcDbEntity
  8
0
  6
CONTINUOUS
 62
               4
100
AcDbLine
 10
43.250000953674316
 20
22.92853771348372
 30
0.0
 11
43.250000953674316
 21
23.071454657121748
 31
0.0
  0
ARC
  5
445
100
AcDbEntity
  8
0
  6
CONTINUOUS
 62
               4
100
AcDbCircle
 10
44.000000953674316
 20
15.249996185302734
 30
0.0
 40
6.9000000000000004
100
AcDbArc
 50
188.69334942994371
 51
351.30665057005507
  0
CIRCLE
  5
446
100
AcDbEntity
  8
0
  6
CONTINUOUS
 62
               4
100
AcDbCircle
 10
44.000000953674316
 20
15.249996185302734
 30
0.0
 40
3.0499999999999998
  0
CIRCLE
  5
447
100
AcDbEntity
  8
0
  6
CONTINUOUS
 62
               4
100
AcDbCircle
 10
44.000000953674316
 20
15.249996185302734
 30
0.0
 40
4.0499999999999998
  0
ARC
  5
448
100
AcDbEntity
  8
0
  6
CONTINUOUS
 62
               4
100
AcDbCircle
 10
44.000000953674316
 20
15.249996185302734
 30
0.0
 40
6.9000000000000004
100
AcDbArc
 50
8.6933494299441101
 51
171.3066505700555
  0
CIRCLE
  5
449
100
AcDbEntity
  8
0
  6
CONTINUOUS
 62
               4
100
AcDbCircle
 10
44.000000953674316
 20
15.249996185302734
 30
0.0
 40
7.4500000000000002
  0
ARC
  5
44A
100
AcDbEntity
  8
0
  6
CONTINUOUS
 62
               4
100
AcDbCircle
 10
44.000000953674316
 20
30.749996185302734
 30
0.0
 40
6.9000000000000004
100
AcDbArc
 50
188.69334942994371
 51
351.30665057005507
  0
CIRCLE
  5
44B
100
AcDbEntity
  8
0
  6
CONTINUOUS
 62
               4
100
AcDbCircle
 10
44.000000953674316
 20
30.749996185302734
 30
0.0
 40
3.0499999999999998
  0
CIRCLE
  5
44C
100
AcDbEntity
  8
0
  6
CONTINUOUS
 62
               4
100
AcDbCircle
 10
44.000000953674316
 20
30.749996185302734
 30
0.0
 40
4.0499999999999998
  0
ARC
  5
44D
100
AcDbEntity
  8
0
  6
CONTINUOUS
 62
               4
100
AcDbCircle
 10
44.000000953674316
 20
30.749996185302734
 30
0.0
 40
6.9000000000000004
100
AcDbArc
 50
8.6933494299441101
 51
171.3066505700555
  0
CIRCLE
  5
44E
100
AcDbEntity
  8
0
  6
CONTINUOUS
 62
               4
100
AcDbCircle
 10
44.000000953674316
 20
30.749996185302734
 30
0.0
 40
7.4500000000000002
  0
LINE
  5
44F
100
AcDbEntity
  8
0
  6
CONTINUOUS
 62
               4
100
AcDbLine
 10
41.078323042392753
 20
7.3014006748174154
 30
0.0
 11
51.500000959634804
 21
7.3014006748174154
 31
0.0
  0
LINE
  5
450
100
AcDbEntity
  8
0
  6
CONTINUOUS
 62
               4
100
AcDbLine
 10
46.892319991593268
 20
38.799992370605466
 30
0.0
 11
36.500000947713886
 21
38.799992370605466
 31
0.0
  0
CIRCLE
  5
451
100
AcDbEntity
  8
0
  6
CONTINUOUS
 62
               4
100
AcDbCircle
 10
49.500000953674316
 20
4.5000114440917969
 30
0.0
 40
2.25
  0
CIRCLE
  5
452
100
AcDbEntity
  8
0
  6
CONTINUOUS
 62
               4
100
AcDbCircle
 10
38.500000953674316
 20
41.499996185302734
 30
0.0
 40
2.25
  0
ARC
  5
453
100
AcDbEntity
  8
0
  6
CONTINUOUS
 62
               4
100
AcDbCircle
 10
49.500000953674316
 20
4.5000114440917969
 30
0.0
 40
2.6999998092651367
100
AcDbArc
 50
89.999982013910454
 51
179.99996402782091
  0
ARC
  5
454
100
AcDbEntity
  8
0
  6
CONTINUOUS
 62
               4
100
AcDbCircle
 10
36.800004005432129
 20
0.5000114440917969
 30
0.0
 40
0.300000011920929
100
AcDbArc
 50
179.99996402782091
 51
270.00000068324471
  0
ARC
  5
455
100
AcDbEntity
  8
0
  6
CONTINUOUS
 62
               4
100
AcDbCircle
 10
51.200013160705566
 20
0.5000114440917969
 30
0.0
 40
0.300000011920929
100
AcDbArc
 50
270.00001798608872
 51
0.0
  0
ARC
  5
456
100
AcDbEntity
  8
0
  6
CONTINUOUS
 62
               4
100
AcDbCircle
 10
51.200013160705566
 20
45.500007629394531
 30
0.0
 40
0.300000011920929
100
AcDbArc
 50
0.0
 51
89.999982013910454
  0
ARC
  5
457
100
AcDbEntity
  8
0
  6
CONTINUOUS
 62
               4
100
AcDbCircle
 10
36.799988746643066
 20
45.500015258789063
 30
0.0
 40
0.300000011920929
100
AcDbArc
 50
89.999982013910454
 51
179.99996402782091
  0
ARC
  5
458
100
AcDbEntity
  8
0
  6
CONTINUOUS
 62
               4
100
AcDbCircle
 10
36.800004005432129
 20
3.5000114440917969
 30
0.0
 40
0.300000011920929
100
AcDbArc
 50
89.999982013910454
 51
179.99996402782091
  0
ARC
  5
459
100
AcDbEntity
  8
0
  6
CONTINUOUS
 62
               4
100
AcDbCircle
 10
51.200013160705566
 20
36.500007629394531
 30
0.0
 40
0.300000011920929
100
AcDbArc
 50
0.0
 51
89.999982013910454
  0
ARC
  5
45A
100
AcDbEntity
  8
0
  6
CONTINUOUS
 62
               4
100
AcDbCircle
 10
36.800004005432129
 20
9.4999961853027344
 30
0.0
 40
0.300000011920929
100
AcDbArc
 50
179.99996402782091
 51
270.00000068324471
  0
ARC
  5
45B
100
AcDbEntity
  8
0
  6
CONTINUOUS
 62
               4
100
AcDbCircle
 10
51.200013160705566
 20
42.499992370605469
 30
0.0
 40
0.300000011920929
100
AcDbArc
 50
270.00001798608872
 51
0.0
  0
ARC
  5
45C
100
AcDbEntity
  8
0
  6
CONTINUOUS
 62
               4
100
AcDbCircle
 10
38.500000953674316
 20
41.500011444091797
 30
0.0
 40
2.6999998092651367
100
AcDbArc
 50
270.00001798608872
 51
0.0
  0
ARC
  5
45D
100
AcDbEntity
  8
0
  6
CONTINUOUS
 62
               4
100
AcDbCircle
 10
38.500000953674316
 20
6.5000114440917969
 30
0.0
 40
2.6999998092651367
100
AcDbArc
 50
270.00001798608872
 51
89.999982013910454
  0
ARC
  5
45E
100
AcDbEntity
  8
0
  6
CONTINUOUS
 62
               4
100
AcDbCircle
 10
49.499985694885254
 20
39.500007629394531
 30
0.0
 40
2.6999998092651367
100
AcDbArc
 50
89.999982013910454
 51
270.00000068324471
  0
LINE
  5
45F
100
AcDbEntity
  8
0
  6
CONTINUOUS
 62
               4
100
AcDbLine
 10
51.500000953674316
 20
42.499992370605469
 30
0.0
 11
51.500000953674316
 21
45.500007629394531
 31
0.0
  0
LINE
  5
460
100
AcDbEntity
  8
0
  6
CONTINUOUS
 62
               4
100
AcDbLine
 10
36.500000953674316
 20
42.530754089355469
 30
0.0
 11
36.500000953674316
 21
45.500015258789063
 31
0.0
  0
LINE
  5
461
100
AcDbEntity
  8
0
  6
CONTINUOUS
 62
               4
100
AcDbLine
 10
36.500000953674316
 20
0.5000114440917969
 30
0.0
 11
36.500000953674316
 21
3.5000114440917969
 31
0.0
  0
LINE
  5
462
100
AcDbEntity
  8
0
  6
CONTINUOUS
 62
               4
100
AcDbLine
 10
51.500000953674316
 20
0.5000114440917969
 30
0.0
 11
51.500000953674316
 21
3.4692344665527344
 31
0.0
  0
LINE
  5
463
100
AcDbEntity
  8
0
  6
CONTINUOUS
 62
               4
100
AcDbLine
 10
36.500000953674316
 20
9.4999961853027344
 30
0.0
 11
36.500000953674316
 21
40.46923828125
 31
0.0
  0
LINE
  5
464
100
AcDbEntity
  8
0
  6
CONTINUOUS
 62
               4
100
AcDbLine
 10
50.419249296720409
 20
3.5807775810681051
 30
0.0
 11
48.580778325826941
 21
5.4192490168761651
 31
0.0
  0
LINE
  5
465
100
AcDbEntity
  8
0
  6
CONTINUOUS
 62
               4
100
AcDbLine
 10
48.580781289719198
 20
3.5807462944912913
 30
0.0
 11
50.419263360149671
 21
5.4192282099493241
 31
0.0
  0
LINE
  5
466
100
AcDbEntity
  8
0
  6
CONTINUOUS
 62
               4
100
AcDbLine
 10
51.500000953674316
 20
5.5307884216308594
 30
0.0
 11
51.500000953674316
 21
36.500007629394531
 31
0.0
  0
LINE
  5
467
100
AcDbEntity
  8
0
  6
CONTINUOUS
 62
               4
100
AcDbLine
 10
37.580771901793909
 20
40.580758079929552
 30
0.0
 11
39.419243182630439
 21
42.419229205794551
 31
0.0
  0
LINE
  5
468
100
AcDbEntity
  8
0
  6
CONTINUOUS
 62
               4
100
AcDbLine
 10
39.419270911910715
 20
40.580765268801315
 30
0.0
 11
37.580789151425122
 21
42.419247494204228
 31
0.0
  0
LINE
  5
469
100
AcDbEntity
  8
0
  6
CONTINUOUS
 62
               4
100
AcDbLine
 10
41.200013160705566
 20
45.799995422363281
 30
0.0
 11
41.200013160705566
 21
41.499996185302734
 31
0.0
  0
LINE
  5
46A
100
AcDbEntity
  8
0
  6
CONTINUOUS
 62
               4
100
AcDbLine
 10
46.800004005432129
 20
4.5000114440917969
 30
0.0
 11
46.800004005432129
 21
0.2000083923339844
 31
0.0
  0
LINE
  5
46B
100
AcDbEntity
  8
0
  6
CONTINUOUS
 62
               4
100
AcDbLine
 10
49.500000953674316
 20
7.2000083923339844
 30
0.0
 11
51.500000953674316
 21
7.2000083923339844
 31
0.0
  0
LINE
  5
46C
100
AcDbEntity
  8
0
  6
CONTINUOUS
 62
               4
100
AcDbLine
 10
51.200013160705566
 20
0.2000083923339844
 30
0.0
 11
36.799988746643066
 21
0.2000083923339844
 31
0.0
  0
LINE
  5
46D
100
AcDbEntity
  8
0
  6
CONTINUOUS
 62
               4
100
AcDbLine
 10
51.200013160705566
 20
45.799995422363281
 30
0.0
 11
36.799988746643066
 21
45.799995422363281
 31
0.0
  0
LINE
  5
46E
100
AcDbEntity
  8
0
  6
CONTINUOUS
 62
               4
100
AcDbLine
 10
49.499985694885254
 20
36.800010681152344
 30
0.0
 11
51.200013160705566
 21
36.800010681152344
 31
0.0
  0
LINE
  5
46F
100
AcDbEntity
  8
0
  6
CONTINUOUS
 62
               4
100
AcDbLine
 10
38.500000953674316
 20
9.2000083923339844
 30
0.0
 11
36.799988746643066
 21
9.2000083923339844
 31
0.0
  0
LINE
  5
470
100
AcDbEntity
  8
0
  6
CONTINUOUS
 62
               4
100
AcDbLine
 10
38.500000953674316
 20
3.8000144958496094
 30
0.0
 11
36.799988746643066
 21
3.8000144958496094
 31
0.0
  0
LINE
  5
471
100
AcDbEntity
  8
0
  6
CONTINUOUS
 62
               4
100
AcDbLine
 10
49.500000953674316
 20
42.200004577636719
 30
0.0
 11
51.200013160705566
 21
42.200004577636719
 31
0.0
  0
LINE
  5
472
100
AcDbEntity
  8
0
  6
CONTINUOUS
 62
               4
100
AcDbLine
 10
21.600000953674339
 20
31.549996185302746
 30
0.0
 11
21.179272033888594
 21
31.792904140396871
 31
0.0
  0
LINE
  5
473
100
AcDbEntity
  8
0
  6
CONTINUOUS
 62
               4
100
AcDbLine
 10
21.600000953674339
 20
29.949996185302723
 30
0.0
 11
21.179272033888594
 21
29.707088230208598
 31
0.0
  0
LINE
  5
474
100
AcDbEntity
  8
0
  6
CONTINUOUS
 62
               4
100
AcDbLine
 10
21.600000953674339
 20
29.949996185302723
 30
0.0
 11
21.600000953674339
 21
31.549996179342259
 31
0.0
  0
LINE
  5
475
100
AcDbEntity
  8
0
  6
CONTINUOUS
 62
               4
100
AcDbLine
 10
21.600000953674339
 20
14.449996185302737
 30
0.0
 11
21.179272033888594
 21
14.207088230208598
 31
0.0
  0
LINE
  5
476
100
AcDbEntity
  8
0
  6
CONTINUOUS
 62
               4
100
AcDbLine
 10
21.600000953674339
 20
16.049996185302732
 30
0.0
 11
21.179272033888594
 21
16.292904140396871
 31
0.0
  0
LINE
  5
477
100
AcDbEntity
  8
0
  6
CONTINUOUS
 62
               4
100
AcDbLine
 10
21.600000953674339
 20
14.449996185302737
 30
0.0
 11
21.600000953674339
 21
16.049996179342273
 31
0.0
  0
LINE
  5
478
100
AcDbEntity
  8
0
  6
CONTINUOUS
 62
               4
100
AcDbLine
 10
34.400000953674351
 20
14.449996185302737
 30
0.0
 11
34.400000953674351
 21
16.049996179342273
 31
0.0
  0
LINE
  5
479
100
AcDbEntity
  8
0
  6
CONTINUOUS
 62
               4
100
AcDbLine
 10
34.400000953674351
 20
16.049996185302732
 30
0.0
 11
34.820729873460039
 21
16.292904140396871
 31
0.0
  0
LINE
  5
47A
100
AcDbEntity
  8
0
  6
CONTINUOUS
 62
               4
100
AcDbLine
 10
34.400000953674351
 20
14.449996185302737
 30
0.0
 11
34.820729873460039
 21
14.207088230208598
 31
0.0
  0
LINE
  5
47B
100
AcDbEntity
  8
0
  6
CONTINUOUS
 62
               4
100
AcDbLine
 10
34.400000953674351
 20
29.949996185302723
 30
0.0
 11
34.400000953674351
 21
31.549996179342259
 31
0.0
  0
LINE
  5
47C
100
AcDbEntity
  8
0
  6
CONTINUOUS
 62
               4
100
AcDbLine
 10
34.400000953674351
 20
31.549996185302746
 30
0.0
 11
34.820729873460039
 21
31.792904140396871
 31
0.0
  0
LINE
  5
47D
100
AcDbEntity
  8
0
  6
CONTINUOUS
 62
               4
100
AcDbLine
 10
34.400000953674351
 20
29.949996185302723
 30
0.0
 11
34.820729873460039
 21
29.707088230208598
 31
0.0
  0
ARC
  5
47E
100
AcDbEntity
  8
0
  6
CONTINUOUS
 62
               4
100
AcDbCircle
 10
29.050000953674328
 20
23.071454657121748
 30
0.0
 40
0.3
100
AcDbArc
 50
97.786600724137088
 51
179.99999999999963
  0
ARC
  5
47F
100
AcDbEntity
  8
0
  6
CONTINUOUS
 62
               4
100
AcDbCircle
 10
29.050000953674328
 20
22.92853771348372
 30
0.0
 40
0.3
100
AcDbArc
 50
179.99999999999963
 51
262.21339927586212
  0
ARC
  5
480
100
AcDbEntity
  8
0
  6
CONTINUOUS
 62
               4
100
AcDbCircle
 10
26.950000953674333
 20
23.071454657121748
 30
0.0
 40
0.3
100
AcDbArc
 50
0.0
 51
82.213399275863864
  0
ARC
  5
481
100
AcDbEntity
  8
0
  6
CONTINUOUS
 62
               4
100
AcDbCircle
 10
26.950000953674333
 20
22.92853771348372
 30
0.0
 40
0.3
100
AcDbArc
 50
277.78660072413879
 51
0.0
  0
LINE
  5
482
100
AcDbEntity
  8
0
  6
CONTINUOUS
 62
               4
100
AcDbLine
 10
28.750000953674316
 20
22.92853771348372
 30
0.0
 11
28.750000953674316
 21
23.071454657121748
 31
0.0
  0
LINE
  5
483
100
AcDbEntity
  8
0
  6
CONTINUOUS
 62
               4
100
AcDbLine
 10
27.250000953674316
 20
22.92853771348372
 30
0.0
 11
27.250000953674316
 21
23.071454657121748
 31
0.0
  0
ARC
  5
484
100
AcDbEntity
  8
0
  6
CONTINUOUS
 62
               4
100
AcDbCircle
 10
28.000000953674316
 20
15.249996185302734
 30
0.0
 40
6.9000000000000004
100
AcDbArc
 50
188.69334942994371
 51
351.30665057005507
  0
CIRCLE
  5
485
100
AcDbEntity
  8
0
  6
CONTINUOUS
 62
               4
100
AcDbCircle
 10
28.000000953674316
 20
15.249996185302734
 30
0.0
 40
3.0499999999999998
  0
CIRCLE
  5
486
100
AcDbEntity
  8
0
  6
CONTINUOUS
 62
               4
100
AcDbCircle
 10
28.000000953674316
 20
15.249996185302734
 30
0.0
 40
4.0499999999999998
  0
ARC
  5
487
100
AcDbEntity
  8
0
  6
CONTINUOUS
 62
               4
100
AcDbCircle
 10
28.000000953674316
 20
15.249996185302734
 30
0.0
 40
6.9000000000000004
100
AcDbArc
 50
8.6933494299441101
 51
171.3066505700555
  0
CIRCLE
  5
488
100
AcDbEntity
  8
0
  6
CONTINUOUS
 62
               4
100
AcDbCircle
 10
28.000000953674316
 20
15.249996185302734
 30
0.0
 40
7.4500000000000002
  0
ARC
  5
489
100
AcDbEntity
  8
0
  6
CONTINUOUS
 62
               4
100
AcDbCircle
 10
28.000000953674316
 20
30.749996185302734
 30
0.0
 40
6.9000000000000004
100
AcDbArc
 50
188.69334942994371
 51
351.30665057005507
  0
CIRCLE
  5
48A
100
AcDbEntity
  8
0
  6
CONTINUOUS
 62
               4
100
AcDbCircle
 10
28.000000953674316
 20
30.749996185302734
 30
0.0
 40
3.0499999999999998
  0
CIRCLE
  5
48B
100
AcDbEntity
  8
0
  6
CONTINUOUS
 62
               4
100
AcDbCircle
 10
28.000000953674316
 20
30.749996185302734
 30
0.0
 40
4.0499999999999998
  0
ARC
  5
48C
100
AcDbEntity
  8
0
  6
CONTINUOUS
 62
               4
100
AcDbCircle
 10
28.000000953674316
 20
30.749996185302734
 30
0.0
 40
6.9000000000000004
100
AcDbArc
 50
8.6933494299441101
 51
171.3066505700555
  0
CIRCLE
  5
48D
100
AcDbEntity
  8
0
  6
CONTINUOUS
 62
               4
100
AcDbCircle
 10
28.000000953674316
 20
30.749996185302734
 30
0.0
 40
7.4500000000000002
  0
LINE
  5
48E
100
AcDbEntity
  8
0
  6
CONTINUOUS
 62
               4
100
AcDbLine
 10
25.078323042392753
 20
7.3014006748174154
 30
0.0
 11
35.500000959634804
 21
7.3014006748174154
 31
0.0
  0
LINE
  5
48F
100
AcDbEntity
  8
0
  6
CONTINUOUS
 62
               4
100
AcDbLine
 10
30.892319991593268
 20
38.799992370605466
 30
0.0
 11
20.500000947713886
 21
38.799992370605466
 31
0.0
  0
CIRCLE
  5
490
100
AcDbEntity
  8
0
  6
CONTINUOUS
 62
               4
100
AcDbCircle
 10
33.500000953674316
 20
4.5000114440917969
 30
0.0
 40
2.25
  0
CIRCLE
  5
491
100
AcDbEntity
  8
0
  6
CONTINUOUS
 62
               4
100
AcDbCircle
 10
22.500000953674316
 20
41.499996185302734
 30
0.0
 40
2.25
  0
ARC
  5
492
100
AcDbEntity
  8
0
  6
CONTINUOUS
 62
               4
100
AcDbCircle
 10
33.500000953674316
 20
4.5000114440917969
 30
0.0
 40
2.6999998092651367
100
AcDbArc
 50
89.999982013910454
 51
179.99996402782091
  0
ARC
  5
493
100
AcDbEntity
  8
0
  6
CONTINUOUS
 62
               4
100
AcDbCircle
 10
20.800004005432129
 20
0.5000114440917969
 30
0.0
 40
0.300000011920929
100
AcDbArc
 50
179.99996402782091
 51
270.00000068324471
  0
ARC
  5
494
100
AcDbEntity
  8
0
  6
CONTINUOUS
 62
               4
100
AcDbCircle
 10
35.200013160705566
 20
0.5000114440917969
 30
0.0
 40
0.300000011920929
100
AcDbArc
 50
270.00001798608872
 51
0.0
  0
ARC
  5
495
100
AcDbEntity
  8
0
  6
CONTINUOUS
 62
               4
100
AcDbCircle
 10
35.200013160705566
 20
45.500007629394531
 30
0.0
 40
0.300000011920929
100
AcDbArc
 50
0.0
 51
89.999982013910454
  0
ARC
  5
496
100
AcDbEntity
  8
0
  6
CONTINUOUS
 62
               4
100
AcDbCircle
 10
20.799988746643066
 20
45.500015258789063
 30
0.0
 40
0.300000011920929
100
AcDbArc
 50
89.999982013910454
 51
179.99996402782091
  0
ARC
  5
497
100
AcDbEntity
  8
0
  6
CONTINUOUS
 62
               4
100
AcDbCircle
 10
20.800004005432129
 20
3.5000114440917969
 30
0.0
 40
0.300000011920929
100
AcDbArc
 50
89.999982013910454
 51
179.99996402782091
  0
ARC
  5
498
100
AcDbEntity
  8
0
  6
CONTINUOUS
 62
               4
100
AcDbCircle
 10
35.200013160705566
 20
36.500007629394531
 30
0.0
 40
0.300000011920929
100
AcDbArc
 50
0.0
 51
89.999982013910454
  0
ARC
  5
499
100
AcDbEntity
  8
0
  6
CONTINUOUS
 62
               4
100
AcDbCircle
 10
20.800004005432129
 20
9.4999961853027344
 30
0.0
 40
0.300000011920929
100
AcDbArc
 50
179.99996402782091
 51
270.00000068324471
  0
ARC
  5
49A
100
AcDbEntity
  8
0
  6
CONTINUOUS
 62
               4
100
AcDbCircle
 10
35.200013160705566
 20
42.499992370605469
 30
0.0
 40
0.300000011920929
100
AcDbArc
 50
270.00001798608872
 51
0.0
  0
ARC
  5
49B
100
AcDbEntity
  8
0
  6
CONTINUOUS
 62
               4
100
AcDbCircle
 10
22.500000953674316
 20
41.500011444091797
 30
0.0
 40
2.6999998092651367
100
AcDbArc
 50
270.00001798608872
 51
0.0
  0
ARC
  5
49C
100
AcDbEntity
  8
0
  6
CONTINUOUS
 62
               4
100
AcDbCircle
 10
22.500000953674316
 20
6.5000114440917969
 30
0.0
 40
2.6999998092651367
100
AcDbArc
 50
270.00001798608872
 51
89.999982013910454
  0
ARC
  5
49D
100
AcDbEntity
  8
0
  6
CONTINUOUS
 62
               4
100
AcDbCircle
 10
33.499985694885254
 20
39.500007629394531
 30
0.0
 40
2.6999998092651367
100
AcDbArc
 50
89.999982013910454
 51
270.00000068324471
  0
LINE
  5
49E
100
AcDbEntity
  8
0
  6
CONTINUOUS
 62
               4
100
AcDbLine
 10
35.500000953674316
 20
42.499992370605469
 30
0.0
 11
35.500000953674316
 21
45.500007629394531
 31
0.0
  0
LINE
  5
49F
100
AcDbEntity
  8
0
  6
CONTINUOUS
 62
               4
100
AcDbLine
 10
20.500000953674316
 20
42.530754089355469
 30
0.0
 11
20.500000953674316
 21
45.500015258789063
 31
0.0
  0
LINE
  5
4A0
100
AcDbEntity
  8
0
  6
CONTINUOUS
 62
               4
100
AcDbLine
 10
20.500000953674316
 20
0.5000114440917969
 30
0.0
 11
20.500000953674316
 21
3.5000114440917969
 31
0.0
  0
LINE
  5
4A1
100
AcDbEntity
  8
0
  6
CONTINUOUS
 62
               4
100
AcDbLine
 10
35.500000953674316
 20
0.5000114440917969
 30
0.0
 11
35.500000953674316
 21
3.4692344665527344
 31
0.0
  0
LINE
  5
4A2
100
AcDbEntity
  8
0
  6
CONTINUOUS
 62
               4
100
AcDbLine
 10
20.500000953674316
 20
9.4999961853027344
 30
0.0
 11
20.500000953674316
 21
40.46923828125
 31
0.0
  0
LINE
  5
4A3
100
AcDbEntity
  8
0
  6
CONTINUOUS
 62
               4
100
AcDbLine
 10
34.419249296720409
 20
3.5807775810681051
 30
0.0
 11
32.580778325826941
 21
5.4192490168761651
 31
0.0
  0
LINE
  5
4A4
100
AcDbEntity
  8
0
  6
CONTINUOUS
 62
               4
100
AcDbLine
 10
32.580781289719198
 20
3.5807462944912913
 30
0.0
 11
34.419263360149671
 21
5.4192282099493241
 31
0.0
  0
LINE
  5
4A5
100
AcDbEntity
  8
0
  6
CONTINUOUS
 62
               4
100
AcDbLine
 10
35.500000953674316
 20
5.5307884216308594
 30
0.0
 11
35.500000953674316
 21
36.500007629394531
 31
0.0
  0
LINE
  5
4A6
100
AcDbEntity
  8
0
  6
CONTINUOUS
 62
               4
100
AcDbLine
 10
21.580771901793909
 20
40.580758079929552
 30
0.0
 11
23.419243182630439
 21
42.419229205794551
 31
0.0
  0
LINE
  5
4A7
100
AcDbEntity
  8
0
  6
CONTINUOUS
 62
               4
100
AcDbLine
 10
23.419270911910715
 20
40.580765268801315
 30
0.0
 11
21.580789151425122
 21
42.419247494204228
 31
0.0
  0
LINE
  5
4A8
100
AcDbEntity
  8
0
  6
CONTINUOUS
 62
               4
100
AcDbLine
 10
25.200013160705566
 20
45.799995422363281
 30
0.0
 11
25.200013160705566
 21
41.499996185302734
 31
0.0
  0
LINE
  5
4A9
100
AcDbEntity
  8
0
  6
CONTINUOUS
 62
               4
100
AcDbLine
 10
30.800004005432129
 20
4.5000114440917969
 30
0.0
 11
30.800004005432129
 21
0.2000083923339844
 31
0.0
  0
LINE
  5
4AA
100
AcDbEntity
  8
0
  6
CONTINUOUS
 62
               4
100
AcDbLine
 10
33.500000953674316
 20
7.2000083923339844
 30
0.0
 11
35.500000953674316
 21
7.2000083923339844
 31
0.0
  0
LINE
  5
4AB
100
AcDbEntity
  8
0
  6
CONTINUOUS
 62
               4
100
AcDbLine
 10
35.200013160705566
 20
0.2000083923339844
 30
0.0
 11
20.799988746643066
 21
0.2000083923339844
 31
0.0
  0
LINE
  5
4AC
100
AcDbEntity
  8
0
  6
CONTINUOUS
 62
               4
100
AcDbLine
 10
35.200013160705566
 20
45.799995422363281
 30
0.0
 11
20.799988746643066
 21
45.799995422363281
 31
0.0
  0
LINE
  5
4AD
100
AcDbEntity
  8
0
  6
CONTINUOUS
 62
               4
100
AcDbLine
 10
33.499985694885254
 20
36.800010681152344
 30
0.0
 11
35.200013160705566
 21
36.800010681152344
 31
0.0
  0
LINE
  5
4AE
100
AcDbEntity
  8
0
  6
CONTINUOUS
 62
               4
100
AcDbLine
 10
22.500000953674316
 20
9.2000083923339844
 30
0.0
 11
20.799988746643066
 21
9.2000083923339844
 31
0.0
  0
LINE
  5
4AF
100
AcDbEntity
  8
0
  6
CONTINUOUS
 62
               4
100
AcDbLine
 10
22.500000953674316
 20
3.8000144958496094
 30
0.0
 11
20.799988746643066
 21
3.8000144958496094
 31
0.0
  0
LINE
  5
4B0
100
AcDbEntity
  8
0
  6
CONTINUOUS
 62
               4
100
AcDbLine
 10
33.500000953674316
 20
42.200004577636719
 30
0.0
 11
35.200013160705566
 21
42.200004577636719
 31
0.0
  0
LINE
  5
4B1
100
AcDbEntity
  8
0
  6
CONTINUOUS
 62
               4
100
AcDbLine
 10
5.6000009536743391
 20
31.549996185302746
 30
0.0
 11
5.1792720338885943
 21
31.792904140396871
 31
0.0
  0
LINE
  5
4B2
100
AcDbEntity
  8
0
  6
CONTINUOUS
 62
               4
100
AcDbLine
 10
5.6000009536743391
 20
29.949996185302723
 30
0.0
 11
5.1792720338885943
 21
29.707088230208598
 31
0.0
  0
LINE
  5
4B3
100
AcDbEntity
  8
0
  6
CONTINUOUS
 62
               4
100
AcDbLine
 10
5.6000009536743391
 20
29.949996185302723
 30
0.0
 11
5.6000009536743391
 21
31.549996179342259
 31
0.0
  0
LINE
  5
4B4
100
AcDbEntity
  8
0
  6
CONTINUOUS
 62
               4
100
AcDbLine
 10
5.6000009536743391
 20
14.449996185302737
 30
0.0
 11
5.1792720338885943
 21
14.207088230208598
 31
0.0
  0
LINE
  5
4B5
100
AcDbEntity
  8
0
  6
CONTINUOUS
 62
               4
100
AcDbLine
 10
5.6000009536743391
 20
16.049996185302732
 30
0.0
 11
5.1792720338885943
 21
16.292904140396871
 31
0.0
  0
LINE
  5
4B6
100
AcDbEntity
  8
0
  6
CONTINUOUS
 62
               4
100
AcDbLine
 10
5.6000009536743391
 20
14.449996185302737
 30
0.0
 11
5.6000009536743391
 21
16.049996179342273
 31
0.0
  0
LINE
  5
4B7
100
AcDbEntity
  8
0
  6
CONTINUOUS
 62
               4
100
AcDbLine
 10
18.400000953674351
 20
14.449996185302737
 30
0.0
 11
18.400000953674351
 21
16.049996179342273
 31
0.0
  0
LINE
  5
4B8
100
AcDbEntity
  8
0
  6
CONTINUOUS
 62
               4
100
AcDbLine
 10
18.400000953674351
 20
16.049996185302732
 30
0.0
 11
18.820729873460039
 21
16.292904140396871
 31
0.0
  0
LINE
  5
4B9
100
AcDbEntity
  8
0
  6
CONTINUOUS
 62
               4
100
AcDbLine
 10
18.400000953674351
 20
14.449996185302737
 30
0.0
 11
18.820729873460039
 21
14.207088230208598
 31
0.0
  0
LINE
  5
4BA
100
AcDbEntity
  8
0
  6
CONTINUOUS
 62
               4
100
AcDbLine
 10
18.400000953674351
 20
29.949996185302723
 30
0.0
 11
18.400000953674351
 21
31.549996179342259
 31
0.0
  0
LINE
  5
4BB
100
AcDbEntity
  8
0
  6
CONTINUOUS
 62
               4
100
AcDbLine
 10
18.400000953674351
 20
31.549996185302746
 30
0.0
 11
18.820729873460039
 21
31.792904140396871
 31
0.0
  0
LINE
  5
4BC
100
AcDbEntity
  8
0
  6
CONTINUOUS
 62
               4
100
AcDbLine
 10
18.400000953674351
 20
29.949996185302723
 30
0.0
 11
18.820729873460039
 21
29.707088230208598
 31
0.0
  0
ARC
  5
4BD
100
AcDbEntity
  8
0
  6
CONTINUOUS
 62
               4
100
AcDbCircle
 10
13.050000953674328
 20
23.071454657121748
 30
0.0
 40
0.3
100
AcDbArc
 50
97.786600724137088
 51
179.99999999999963
  0
ARC
  5
4BE
100
AcDbEntity
  8
0
  6
CONTINUOUS
 62
               4
100
AcDbCircle
 10
13.050000953674328
 20
22.92853771348372
 30
0.0
 40
0.3
100
AcDbArc
 50
179.99999999999963
 51
262.21339927586212
  0
ARC
  5
4BF
100
AcDbEntity
  8
0
  6
CONTINUOUS
 62
               4
100
AcDbCircle
 10
10.950000953674333
 20
23.071454657121748
 30
0.0
 40
0.3
100
AcDbArc
 50
0.0
 51
82.213399275863864
  0
ARC
  5
4C0
100
AcDbEntity
  8
0
  6
CONTINUOUS
 62
               4
100
AcDbCircle
 10
10.950000953674333
 20
22.92853771348372
 30
0.0
 40
0.3
100
AcDbArc
 50
277.78660072413879
 51
0.0
  0
LINE
  5
4C1
100
AcDbEntity
  8
0
  6
CONTINUOUS
 62
               4
100
AcDbLine
 10
12.750000953674316
 20
22.92853771348372
 30
0.0
 11
12.750000953674316
 21
23.071454657121748
 31
0.0
  0
LINE
  5
4C2
100
AcDbEntity
  8
0
  6
CONTINUOUS
 62
               4
100
AcDbLine
 10
11.250000953674316
 20
22.92853771348372
 30
0.0
 11
11.250000953674316
 21
23.071454657121748
 31
0.0
  0
ARC
  5
4C3
100
AcDbEntity
  8
0
  6
CONTINUOUS
 62
               4
100
AcDbCircle
 10
12.000000953674316
 20
15.249996185302734
 30
0.0
 40
6.9000000000000004
100
AcDbArc
 50
188.69334942994371
 51
351.30665057005507
  0
CIRCLE
  5
4C4
100
AcDbEntity
  8
0
  6
CONTINUOUS
 62
               4
100
AcDbCircle
 10
12.000000953674316
 20
15.249996185302734
 30
0.0
 40
3.0499999999999998
  0
CIRCLE
  5
4C5
100
AcDbEntity
  8
0
  6
CONTINUOUS
 62
               4
100
AcDbCircle
 10
12.000000953674316
 20
15.249996185302734
 30
0.0
 40
4.0499999999999998
  0
ARC
  5
4C6
100
AcDbEntity
  8
0
  6
CONTINUOUS
 62
               4
100
AcDbCircle
 10
12.000000953674316
 20
15.249996185302734
 30
0.0
 40
6.9000000000000004
100
AcDbArc
 50
8.6933494299441101
 51
171.3066505700555
  0
CIRCLE
  5
4C7
100
AcDbEntity
  8
0
  6
CONTINUOUS
 62
               4
100
AcDbCircle
 10
12.000000953674316
 20
15.249996185302734
 30
0.0
 40
7.4500000000000002
  0
ARC
  5
4C8
100
AcDbEntity
  8
0
  6
CONTINUOUS
 62
               4
100
AcDbCircle
 10
12.000000953674316
 20
30.749996185302734
 30
0.0
 40
6.9000000000000004
100
AcDbArc
 50
188.69334942994371
 51
351.30665057005507
  0
CIRCLE
  5
4C9
100
AcDbEntity
  8
0
  6
CONTINUOUS
 62
               4
100
AcDbCircle
 10
12.000000953674316
 20
30.749996185302734
 30
0.0
 40
3.0499999999999998
  0
CIRCLE
  5
4CA
100
AcDbEntity
  8
0
  6
CONTINUOUS
 62
               4
100
AcDbCircle
 10
12.000000953674316
 20
30.749996185302734
 30
0.0
 40
4.0499999999999998
  0
ARC
  5
4CB
100
AcDbEntity
  8
0
  6
CONTINUOUS
 62
               4
100
AcDbCircle
 10
12.000000953674316
 20
30.749996185302734
 30
0.0
 40
6.9000000000000004
100
AcDbArc
 50
8.6933494299441101
 51
171.3066505700555
  0
CIRCLE
  5
4CC
100
AcDbEntity
  8
0
  6
CONTINUOUS
 62
               4
100
AcDbCircle
 10
12.000000953674316
 20
30.749996185302734
 30
0.0
 40
7.4500000000000002
  0
LINE
  5
4CD
100
AcDbEntity
  8
0
  6
CONTINUOUS
 62
               4
100
AcDbLine
 10
9.0783230423927535
 20
7.3014006748174154
 30
0.0
 11
19.500000959634804
 21
7.3014006748174154
 31
0.0
  0
LINE
  5
4CE
100
AcDbEntity
  8
0
  6
CONTINUOUS
 62
               4
100
AcDbLine
 10
14.892319991593268
 20
38.799992370605466
 30
0.0
 11
4.500000947713886
 21
38.799992370605466
 31
0.0
  0
CIRCLE
  5
4CF
100
AcDbEntity
  8
0
  6
CONTINUOUS
 62
               4
100
AcDbCircle
 10
17.500000953674316
 20
4.5000114440917969
 30
0.0
 40
2.25
  0
CIRCLE
  5
4D0
100
AcDbEntity
  8
0
  6
CONTINUOUS
 62
               4
100
AcDbCircle
 10
6.5000009536743164
 20
41.499996185302734
 30
0.0
 40
2.25
  0
ARC
  5
4D1
100
AcDbEntity
  8
0
  6
CONTINUOUS
 62
               4
100
AcDbCircle
 10
17.500000953674316
 20
4.5000114440917969
 30
0.0
 40
2.6999998092651367
100
AcDbArc
 50
89.999982013910454
 51
179.99996402782091
  0
ARC
  5
4D2
100
AcDbEntity
  8
0
  6
CONTINUOUS
 62
               4
100
AcDbCircle
 10
4.8000040054321289
 20
0.5000114440917969
 30
0.0
 40
0.300000011920929
100
AcDbArc
 50
179.99996402782091
 51
270.00000068324471
  0
ARC
  5
4D3
100
AcDbEntity
  8
0
  6
CONTINUOUS
 62
               4
100
AcDbCircle
 10
19.200013160705566
 20
0.5000114440917969
 30
0.0
 40
0.300000011920929
100
AcDbArc
 50
270.00001798608872
 51
0.0
  0
ARC
  5
4D4
100
AcDbEntity
  8
0
  6
CONTINUOUS
 62
               4
100
AcDbCircle
 10
19.200013160705566
 20
45.500007629394531
 30
0.0
 40
0.300000011920929
100
AcDbArc
 50
0.0
 51
89.999982013910454
  0
ARC
  5
4D5
100
AcDbEntity
  8
0
  6
CONTINUOUS
 62
               4
100
AcDbCircle
 10
4.7999887466430664
 20
45.500015258789063
 30
0.0
 40
0.300000011920929
100
AcDbArc
 50
89.999982013910454
 51
179.99996402782091
  0
ARC
  5
4D6
100
AcDbEntity
  8
0
  6
CONTINUOUS
 62
               4
100
AcDbCircle
 10
4.8000040054321289
 20
3.5000114440917969
 30
0.0
 40
0.300000011920929
100
AcDbArc
 50
89.999982013910454
 51
179.99996402782091
  0
ARC
  5
4D7
100
AcDbEntity
  8
0
  6
CONTINUOUS
 62
               4
100
AcDbCircle
 10
19.200013160705566
 20
36.500007629394531
 30
0.0
 40
0.300000011920929
100
AcDbArc
 50
0.0
 51
89.999982013910454
  0
ARC
  5
4D8
100
AcDbEntity
  8
0
  6
CONTINUOUS
 62
               4
100
AcDbCircle
 10
4.8000040054321289
 20
9.4999961853027344
 30
0.0
 40
0.300000011920929
100
AcDbArc
 50
179.99996402782091
 51
270.00000068324471
  0
ARC
  5
4D9
100
AcDbEntity
  8
0
  6
CONTINUOUS
 62
               4
100
AcDbCircle
 10
19.200013160705566
 20
42.499992370605469
 30
0.0
 40
0.300000011920929
100
AcDbArc
 50
270.00001798608872
 51
0.0
  0
ARC
  5
4DA
100
AcDbEntity
  8
0
  6
CONTINUOUS
 62
               4
100
AcDbCircle
 10
6.5000009536743164
 20
41.500011444091797
 30
0.0
 40
2.6999998092651367
100
AcDbArc
 50
270.00001798608872
 51
0.0
  0
ARC
  5
4DB
100
AcDbEntity
  8
0
  6
CONTINUOUS
 62
               4
100
AcDbCircle
 10
6.5000009536743164
 20
6.5000114440917969
 30
0.0
 40
2.6999998092651367
100
AcDbArc
 50
270.00001798608872
 51
89.999982013910454
  0
ARC
  5
4DC
100
AcDbEntity
  8
0
  6
CONTINUOUS
 62
               4
100
AcDbCircle
 10
17.499985694885254
 20
39.500007629394531
 30
0.0
 40
2.6999998092651367
100
AcDbArc
 50
89.999982013910454
 51
270.00000068324471
  0
LINE
  5
4DD
100
AcDbEntity
  8
0
  6
CONTINUOUS
 62
               4
100
AcDbLine
 10
19.500000953674316
 20
42.499992370605469
 30
0.0
 11
19.500000953674316
 21
45.500007629394531
 31
0.0
  0
LINE
  5
4DE
100
AcDbEntity
  8
0
  6
CONTINUOUS
 62
               4
100
AcDbLine
 10
4.5000009536743164
 20
42.530754089355469
 30
0.0
 11
4.5000009536743164
 21
45.500015258789063
 31
0.0
  0
LINE
  5
4DF
100
AcDbEntity
  8
0
  6
CONTINUOUS
 62
               4
100
AcDbLine
 10
4.5000009536743164
 20
0.5000114440917969
 30
0.0
 11
4.5000009536743164
 21
3.5000114440917969
 31
0.0
  0
LINE
  5
4E0
100
AcDbEntity
  8
0
  6
CONTINUOUS
 62
               4
100
AcDbLine
 10
19.500000953674316
 20
0.5000114440917969
 30
0.0
 11
19.500000953674316
 21
3.4692344665527344
 31
0.0
  0
LINE
  5
4E1
100
AcDbEntity
  8
0
  6
CONTINUOUS
 62
               4
100
AcDbLine
 10
4.5000009536743164
 20
9.4999961853027344
 30
0.0
 11
4.5000009536743164
 21
40.46923828125
 31
0.0
  0
LINE
  5
4E2
100
AcDbEntity
  8
0
  6
CONTINUOUS
 62
               4
100
AcDbLine
 10
18.419249296720409
 20
3.5807775810681051
 30
0.0
 11
16.580778325826941
 21
5.4192490168761651
 31
0.0
  0
LINE
  5
4E3
100
AcDbEntity
  8
0
  6
CONTINUOUS
 62
               4
100
AcDbLine
 10
16.580781289719198
 20
3.5807462944912913
 30
0.0
 11
18.419263360149671
 21
5.4192282099493241
 31
0.0
  0
LINE
  5
4E4
100
AcDbEntity
  8
0
  6
CONTINUOUS
 62
               4
100
AcDbLine
 10
19.500000953674316
 20
5.5307884216308594
 30
0.0
 11
19.500000953674316
 21
36.500007629394531
 31
0.0
  0
LINE
  5
4E5
100
AcDbEntity
  8
0
  6
CONTINUOUS
 62
               4
100
AcDbLine
 10
5.5807719017939093
 20
40.580758079929552
 30
0.0
 11
7.4192431826304386
 21
42.419229205794551
 31
0.0
  0
LINE
  5
4E6
100
AcDbEntity
  8
0
  6
CONTINUOUS
 62
               4
100
AcDbLine
 10
7.419270911910715
 20
40.580765268801315
 30
0.0
 11
5.5807891514251224
 21
42.419247494204228
 31
0.0
  0
LINE
  5
4E7
100
AcDbEntity
  8
0
  6
CONTINUOUS
 62
               4
100
AcDbLine
 10
9.2000131607055664
 20
45.799995422363281
 30
0.0
 11
9.2000131607055664
 21
41.499996185302734
 31
0.0
  0
LINE
  5
4E8
100
AcDbEntity
  8
0
  6
CONTINUOUS
 62
               4
100
AcDbLine
 10
14.800004005432129
 20
4.5000114440917969
 30
0.0
 11
14.800004005432129
 21
0.2000083923339844
 31
0.0
  0
LINE
  5
4E9
100
AcDbEntity
  8
0
  6
CONTINUOUS
 62
               4
100
AcDbLine
 10
17.500000953674316
 20
7.2000083923339844
 30
0.0
 11
19.500000953674316
 21
7.2000083923339844
 31
0.0
  0
LINE
  5
4EA
100
AcDbEntity
  8
0
  6
CONTINUOUS
 62
               4
100
AcDbLine
 10
19.200013160705566
 20
0.2000083923339844
 30
0.0
 11
4.7999887466430664
 21
0.2000083923339844
 31
0.0
  0
LINE
  5
4EB
100
AcDbEntity
  8
0
  6
CONTINUOUS
 62
               4
100
AcDbLine
 10
19.200013160705566
 20
45.799995422363281
 30
0.0
 11
4.7999887466430664
 21
45.799995422363281
 31
0.0
  0
LINE
  5
4EC
100
AcDbEntity
  8
0
  6
CONTINUOUS
 62
               4
100
AcDbLine
 10
17.499985694885254
 20
36.800010681152344
 30
0.0
 11
19.200013160705566
 21
36.800010681152344
 31
0.0
  0
LINE
  5
4ED
100
AcDbEntity
  8
0
  6
CONTINUOUS
 62
               4
100
AcDbLine
 10
6.5000009536743164
 20
9.2000083923339844
 30
0.0
 11
4.7999887466430664
 21
9.2000083923339844
 31
0.0
  0
LINE
  5
4EE
100
AcDbEntity
  8
0
  6
CONTINUOUS
 62
               4
100
AcDbLine
 10
6.5000009536743164
 20
3.8000144958496094
 30
0.0
 11
4.7999887466430664
 21
3.8000144958496094
 31
0.0
  0
LINE
  5
4EF
100
AcDbEntity
  8
0
  6
CONTINUOUS
 62
               4
100
AcDbLine
 10
17.500000953674316
 20
42.200004577636719
 30
0.0
 11
19.200013160705566
 21
42.200004577636719
 31
0.0
  0
ARC
  5
4F0
100
AcDbEntity
  8
0
  6
CONTINUOUS
 62
               4
100
AcDbCircle
 10
66.250015258789063
 20
48.699981689453125
 30
0.0
 40
1.5
100
AcDbArc
 50
0.0
 51
89.999982013910454
  0
ARC
  5
4F1
100
AcDbEntity
  8
0
  6
CONTINUOUS
 62
               4
100
AcDbCircle
 10
64.750015258789062
 20
48.699981689453125
 30
0.0
 40
1.5
100
AcDbArc
 50
89.999982013910454
 51
179.99996402782091
  0
ARC
  5
4F2
100
AcDbEntity
  8
0
  6
CONTINUOUS
 62
               4
100
AcDbCircle
 10
53.750015258789063
 20
48.699981689453125
 30
0.0
 40
1.5
100
AcDbArc
 50
89.999982013910454
 51
179.99996402782091
  0
ARC
  5
4F3
100
AcDbEntity
  8
0
  6
CONTINUOUS
 62
               4
100
AcDbCircle
 10
55.250015258789063
 20
48.699981689453125
 30
0.0
 40
1.5
100
AcDbArc
 50
0.0
 51
89.999982013910454
  0
ARC
  5
4F4
100
AcDbEntity
  8
0
  6
CONTINUOUS
 62
               7
100
AcDbCircle
 10
7.5000152587890625
 20
70.5
 30
0.0
 40
3.0
100
AcDbArc
 50
270.00001798608872
 51
90.00014593845053
  0
CIRCLE
  5
4F5
100
AcDbEntity
  8
0
  6
CONTINUOUS
 62
               7
100
AcDbCircle
 10
7.5000152587890625
 20
70.5
 30
0.0
 40
2.7999992370605469
  0
ARC
  5
4F6
100
AcDbEntity
  8
0
  6
CONTINUOUS
 62
               7
100
AcDbCircle
 10
16.5
 20
49.499954223632812
 30
0.0
 40
3.0
100
AcDbArc
 50
89.999982013910454
 51
179.99996402782091
  0
CIRCLE
  5
4F7
100
AcDbEntity
  8
0
  6
CONTINUOUS
 62
               7
100
AcDbCircle
 10
16.5
 20
49.499954223632812
 30
0.0
 40
2.7999992370605469
  0
LINE
  5
4F8
100
AcDbEntity
  8
0
  6
CONTINUOUS
 62
               7
100
AcDbLine
 10
76.0
 20
0.0
 30
0.0
 11
76.0
 21
45.999984741210938
 31
0.0
  0
LINE
  5
4F9
100
AcDbEntity
  8
0
  6
CONTINUOUS
 62
               7
100
AcDbLine
 10
-4.0
 20
0.0
 30
0.0
 11
-4.0
 21
45.999984741210938
 31
0.0
  0
LINE
  5
4FA
100
AcDbEntity
  8
0
  6
CONTINUOUS
 62
               7
100
AcDbLine
 10
-4.0
 20
0.0
 30
0.0
 11
76.0
 21
0.0
 31
0.0
  0
LINE
  5
4FB
100
AcDbEntity
  8
0
  6
CONTINUOUS
 62
               4
100
AcDbLine
 10
67.750015258789063
 20
48.699981689453125
 30
0.0
 11
67.750015258789063
 21
48.499984741210937
 31
0.0
  0
LINE
  5
4FC
100
AcDbEntity
  8
0
  6
CONTINUOUS
 62
               4
100
AcDbLine
 10
66.250015258789063
 20
50.199981689453125
 30
0.0
 11
64.750015258789062
 21
50.199981689453125
 31
0.0
  0
LINE
  5
4FD
100
AcDbEntity
  8
0
  6
CONTINUOUS
 62
               4
100
AcDbLine
 10
63.250015258789063
 20
48.699981689453125
 30
0.0
 11
63.250015258789063
 21
48.499984741210937
 31
0.0
  0
LINE
  5
4FE
100
AcDbEntity
  8
0
  6
CONTINUOUS
 62
               4
100
AcDbLine
 10
53.750015258789063
 20
50.199981689453125
 30
0.0
 11
55.250015258789063
 21
50.199981689453125
 31
0.0
  0
LINE
  5
4FF
100
AcDbEntity
  8
0
  6
CONTINUOUS
 62
               4
100
AcDbLine
 10
52.250015258789062
 20
48.699981689453125
 30
0.0
 11
52.250015258789062
 21
48.499984741210937
 31
0.0
  0
LINE
  5
500
100
AcDbEntity
  8
0
  6
CONTINUOUS
 62
               4
100
AcDbLine
 10
56.750015258789062
 20
48.699981689453125
 30
0.0
 11
56.750015258789062
 21
48.499984741210937
 31
0.0
  0
LINE
  5
501
100
AcDbEntity
  8
0
  6
CONTINUOUS
 62
               4
100
AcDbLine
 10
67.500015258789063
 20
48.499984741210937
 30
0.0
 11
67.500015258789063
 21
46.499984741210937
 31
0.0
  0
LINE
  5
502
100
AcDbEntity
  8
0
  6
CONTINUOUS
 62
               4
100
AcDbLine
 10
52.500015258789063
 20
48.499984741210937
 30
0.0
 11
52.500015258789063
 21
46.499984741210937
 31
0.0
  0
LINE
  5
503
100
AcDbEntity
  8
0
  6
CONTINUOUS
 62
               4
100
AcDbLine
 10
52.250015258789062
 20
48.499984741210937
 30
0.0
 11
67.750015258789063
 21
48.499984741210937
 31
0.0
  0
LINE
  5
504
100
AcDbEntity
  8
0
  6
CONTINUOUS
 62
               7
100
AcDbLine
 10
-4.0
 20
45.999984741210938
 30
0.0
 11
76.0
 21
45.999984741210938
 31
0.0
  0
LINE
  5
505
100
AcDbEntity
  8
0
  6
CONTINUOUS
 62
               7
100
AcDbLine
 10
7.5000152587890625
 20
73.499984741210937
 30
0.0
 11
4.5000152587890625
 21
73.499984741210937
 31
0.0
  0
LINE
  5
506
100
AcDbEntity
  8
0
  6
CONTINUOUS
 62
               7
100
AcDbLine
 10
8.5606673975989906
 20
69.439324206961828
 30
0.0
 11
6.439347984413871
 21
71.560645587100225
 31
0.0
  0
LINE
  5
507
100
AcDbEntity
  8
0
  6
CONTINUOUS
 62
               7
100
AcDbLine
 10
6.4394548968220988
 20
69.439217294453556
 30
0.0
 11
8.560776276960496
 21
71.560536707638676
 31
0.0
  0
LINE
  5
508
100
AcDbEntity
  8
0
  6
CONTINUOUS
 62
               7
100
AcDbLine
 10
7.5000152587890625
 20
67.5
 30
0.0
 11
4.5000152587890625
 21
67.5
 31
0.0
  0
LINE
  5
509
100
AcDbEntity
  8
0
  6
CONTINUOUS
 62
               7
100
AcDbLine
 10
16.5
 20
52.49993896484375
 30
0.0
 11
19.5
 21
52.49993896484375
 31
0.0
  0
LINE
  5
50A
100
AcDbEntity
  8
0
  6
CONTINUOUS
 62
               7
100
AcDbLine
 10
13.5
 20
49.499954223632812
 30
0.0
 11
13.5
 21
46.499954223632813
 31
0.0
  0
LINE
  5
50B
100
AcDbEntity
  8
0
  6
CONTINUOUS
 62
               7
100
AcDbLine
 10
15.439361237388766
 20
50.560592516292672
 30
0.0
 11
17.56069179779206
 21
48.439260704185472
 31
0.0
  0
LINE
  5
50C
100
AcDbEntity
  8
0
  6
CONTINUOUS
 62
               7
100
AcDbLine
 10
17.56080031953752
 20
50.560451625693531
 30
0.0
 11
15.439479297026992
 21
48.439131854880543
 31
0.0
  0
LINE
  5
50D
100
AcDbEntity
  8
0
  6
CONTINUOUS
 62
               7
100
AcDbLine
 10
4.5000152587890625
 20
77.499984741210937
 30
0.0
 11
19.500015258789063
 21
77.499984741210937
 31
0.0
  0
LINE
  5
50E
100
AcDbEntity
  8
0
  6
CONTINUOUS
 62
               7
100
AcDbLine
 10
4.5000152587890625
 20
76.499984741210937
 30
0.0
 11
19.500015258789063
 21
76.499984741210937
 31
0.0
  0
LINE
  5
50F
100
AcDbEntity
  8
0
  6
CONTINUOUS
 62
               7
100
AcDbLine
 10
21.000015258789063
 20
78.499984741210938
 30
0.0
 11
35.000015258789063
 21
78.499984741210938
 31
0.0
  0
LINE
  5
510
100
AcDbEntity
  8
0
  6
CONTINUOUS
 62
               7
100
AcDbLine
 10
32.75
 20
78.199981689453125
 30
0.0
 11
34.25
 21
78.199981689453125
 31
0.0
  0
ARC
  5
511
100
AcDbEntity
  8
0
  6
CONTINUOUS
 62
               7
100
AcDbCircle
 10
21.000015258789063
 20
77.999969482421875
 30
0.0
 40
0.5
100
AcDbArc
 50
89.999982013910454
 51
179.99996402782091
  0
ARC
  5
512
100
AcDbEntity
  8
0
  6
CONTINUOUS
 62
               7
100
AcDbCircle
 10
35.0
 20
77.999984741210937
 30
0.0
 40
0.5
100
AcDbArc
 50
0.0
 51
89.999982013910454
  0
ARC
  5
513
100
AcDbEntity
  8
0
  6
CONTINUOUS
 62
               7
100
AcDbCircle
 10
30.5
 20
78.199981689453125
 30
0.0
 40
0.300000011920929
100
AcDbArc
 50
0.0
 51
89.999982013910454
  0
LINE
  5
514
100
AcDbEntity
  8
0
  6
CONTINUOUS
 62
               7
100
AcDbLine
 10
37.000015258789063
 20
78.499984741210938
 30
0.0
 11
51.000015258789063
 21
78.499984741210938
 31
0.0
  0
LINE
  5
515
100
AcDbEntity
  8
0
  6
CONTINUOUS
 62
               7
100
AcDbLine
 10
48.75
 20
78.199981689453125
 30
0.0
 11
50.25
 21
78.199981689453125
 31
0.0
  0
ARC
  5
516
100
AcDbEntity
  8
0
  6
CONTINUOUS
 62
               7
100
AcDbCircle
 10
37.000015258789063
 20
77.999969482421875
 30
0.0
 40
0.5
100
AcDbArc
 50
89.999982013910454
 51
179.99996402782091
  0
ARC
  5
517
100
AcDbEntity
  8
0
  6
CONTINUOUS
 62
               7
100
AcDbCircle
 10
51.0
 20
77.999984741210937
 30
0.0
 40
0.5
100
AcDbArc
 50
0.0
 51
89.999982013910454
  0
ARC
  5
518
100
AcDbEntity
  8
0
  6
CONTINUOUS
 62
               7
100
AcDbCircle
 10
46.5
 20
78.199981689453125
 30
0.0
 40
0.300000011920929
100
AcDbArc
 50
0.0
 51
89.999982013910454
  0
ARC
  5
519
100
AcDbEntity
  8
0
  6
CONTINUOUS
 62
               7
100
AcDbCircle
 10
19.000015258789063
 20
77.999984741210937
 30
0.0
 40
0.5
100
AcDbArc
 50
0.00001366037834
 51
89.999982013910454
  0
ARC
  5
51A
100
AcDbEntity
  8
0
  6
CONTINUOUS
 62
               7
100
AcDbCircle
 10
5.0000152587890625
 20
77.999984741210937
 30
0.0
 40
0.5
100
AcDbArc
 50
89.999982013910454
 51
179.99996402782091
  0
LINE
  5
51B
100
AcDbEntity
  8
0
  6
CONTINUOUS
 62
               7
100
AcDbLine
 10
5.0000152587890625
 20
78.499984741210938
 30
0.0
 11
19.000015258789063
 21
78.499984741210938
 31
0.0
  0
ENDBLK
  5
51C
100
AcDbEntity
  8
0
100
AcDbBlockEnd
  0
BLOCK
  5
51D
100
AcDbEntity
  8
0
100
AcDbBlockBegin
  2
F15MA-4
 70
               0
 10
0.0
 20
0.0
 30
0.0
  3
F15MA-4
  1

  0
LINE
  5
51E
100
AcDbEntity
  8
0
  6
CONTINUOUS
 62
               4
100
AcDbLine
 10
2.25
 20
-3.2000000000000002
 30
0.0
 11
2.25
 21
-3.0
 31
0.0
  0
LINE
  5
51F
100
AcDbEntity
  8
0
  6
CONTINUOUS
 62
               4
100
AcDbLine
 10
0.75
 20
-4.7000000000000002
 30
0.0
 11
-0.75
 21
-4.7000000000000002
 31
0.0
  0
LINE
  5
520
100
AcDbEntity
  8
0
  6
CONTINUOUS
 62
               4
100
AcDbLine
 10
-2.25
 20
-3.2000000000000002
 30
0.0
 11
-2.25
 21
-3.0
 31
0.0
  0
LINE
  5
521
100
AcDbEntity
  8
0
  6
CONTINUOUS
 62
             200
100
AcDbLine
 10
5.5
 20
6.4000000000000004
 30
0.0
 11
5.5
 21
-16.43
 31
0.0
  0
LINE
  5
522
100
AcDbEntity
  8
0
  6
CONTINUOUS
 62
               4
100
AcDbLine
 10
13.0
 20
0.0
 30
0.0
 11
13.0
 21
-9.5
 31
0.0
  0
LINE
  5
523
100
AcDbEntity
  8
0
  6
CONTINUOUS
 62
               4
100
AcDbLine
 10
-2.0
 20
0.0
 30
0.0
 11
-2.0
 21
-3.0
 31
0.0
  0
LINE
  5
524
100
AcDbEntity
  8
0
  6
CONTINUOUS
 62
               4
100
AcDbLine
 10
-1.5
 20
-10.0
 30
0.0
 11
12.5
 21
-10.0
 31
0.0
  0
LINE
  5
525
100
AcDbEntity
  8
0
  6
CONTINUOUS
 62
               4
100
AcDbLine
 10
2.7000000000000002
 20
-3.0
 30
0.0
 11
2.7000000000000002
 21
-7.0
 31
0.0
  0
LINE
  5
526
100
AcDbEntity
  8
0
  6
CONTINUOUS
 62
               4
100
AcDbLine
 10
-2.25
 20
-3.0
 30
0.0
 11
13.0
 21
-3.0
 31
0.0
  0
LINE
  5
527
100
AcDbEntity
  8
0
  6
CONTINUOUS
 62
               4
100
AcDbLine
 10
-2.0
 20
-4.0199999999999996
 30
0.0
 11
-2.0
 21
-9.5
 31
0.0
  0
ARC
  5
528
100
AcDbEntity
  8
0
  6
CONTINUOUS
 62
               4
100
AcDbCircle
 10
0.7499755857388175
 20
-3.1999755857388177
 30
0.0
 40
1.5000244144598645
100
AcDbArc
 50
270.0009325409049
 51
359.99906745909368
  0
ARC
  5
529
100
AcDbEntity
  8
0
  6
CONTINUOUS
 62
               4
100
AcDbCircle
 10
-0.7499755857388175
 20
-3.1999755857388177
 30
0.0
 40
1.5000244144598645
100
AcDbArc
 50
180.0009325409051
 51
269.99906745909391
  0
ARC
  5
52A
100
AcDbEntity
  8
0
  6
CONTINUOUS
 62
               4
100
AcDbCircle
 10
-1.5
 20
-9.5
 30
0.0
 40
0.5
100
AcDbArc
 50
179.99999999999963
 51
269.99999999999937
  0
ARC
  5
52B
100
AcDbEntity
  8
0
  6
CONTINUOUS
 62
               4
100
AcDbCircle
 10
12.5
 20
-9.5
 30
0.0
 40
0.5
100
AcDbArc
 50
269.99999999999937
 51
0.0
  0
LINE
  5
52C
100
AcDbEntity
  8
0
  6
CONTINUOUS
 62
               4
100
AcDbLine
 10
-2.0
 20
-7.0
 30
0.0
 11
13.0
 21
-7.0
 31
0.0
  0
ENDBLK
  5
52D
100
AcDbEntity
  8
0
100
AcDbBlockEnd
  0
BLOCK
  5
52E
100
AcDbEntity
  8
0
100
AcDbBlockBegin
  2
F15MA-5
 70
               0
 10
0.0
 20
0.0
 30
0.0
  3
F15MA-5
  1

  0
LINE
  5
52F
100
AcDbEntity
  8
0
  6
CONTINUOUS
 62
               4
100
AcDbLine
 10
-26.25
 20
-5.0000000000000009
 30
0.0
 11
-26.25
 21
-7.0000000000000009
 31
0.0
  0
LINE
  5
530
100
AcDbEntity
  8
0
  6
CONTINUOUS
 62
               4
100
AcDbLine
 10
-10.749984741210937
 20
-4.9999999999999991
 30
0.0
 11
-10.749984741210937
 21
-6.9999999999999991
 31
0.0
  0
LINE
  5
531
100
AcDbEntity
  8
0
  6
CONTINUOUS
 62
               4
100
AcDbLine
 10
-26.25
 20
-7.0000000000000009
 30
0.0
 11
-39.175704956054687
 21
-7.0000000000000009
 31
0.0
  0
LINE
  5
532
100
AcDbEntity
  8
0
  6
CONTINUOUS
 62
               4
100
AcDbLine
 10
-10.749984741210937
 20
-4.9999999999999991
 30
0.0
 11
-26.25
 21
-5.0000000000000009
 31
0.0
  0
LINE
  5
533
100
AcDbEntity
  8
0
  6
CONTINUOUS
 62
               4
100
AcDbLine
 10
-17.499984741210937
 20
-10.0
 30
0.0
 11
-3.9999847412109375
 21
-10.0
 31
0.0
  0
ARC
  5
534
100
AcDbEntity
  8
0
  6
CONTINUOUS
 62
               4
100
AcDbCircle
 10
-0.75
 20
-3.1999969482421866
 30
0.0
 40
1.5
100
AcDbArc
 50
180.00007262760229
 51
270.00004098113442
  0
ARC
  5
535
100
AcDbEntity
  8
0
  6
CONTINUOUS
 62
               4
100
AcDbCircle
 10
0.75
 20
-3.1999969482421862
 30
0.0
 40
1.5
100
AcDbArc
 50
270.00004098113442
 51
359.99998201390986
  0
ARC
  5
536
100
AcDbEntity
  8
0
  6
CONTINUOUS
 62
               4
100
AcDbCircle
 10
4.000030517578125
 20
-4.8757476806640607
 30
0.0
 40
0.300000011920929
100
AcDbArc
 50
314.99993636544127
 51
359.99992737239648
  0
ARC
  5
537
100
AcDbEntity
  8
0
  6
CONTINUOUS
 62
               4
100
AcDbCircle
 10
2.1757659912109375
 20
-6.7000122070312491
 30
0.0
 40
0.300000011920929
100
AcDbArc
 50
269.99997267924272
 51
314.99993636544127
  0
ARC
  5
538
100
AcDbEntity
  8
0
  6
CONTINUOUS
 62
               4
100
AcDbCircle
 10
-40.999969482421875
 20
-4.8757476806640643
 30
0.0
 40
0.300000011920929
100
AcDbArc
 50
179.99996334457558
 51
224.99995435153082
  0
ARC
  5
539
100
AcDbEntity
  8
0
  6
CONTINUOUS
 62
               4
100
AcDbCircle
 10
-39.175704956054687
 20
-6.6999969482421884
 30
0.0
 40
0.300000011920929
100
AcDbArc
 50
225.00000899304416
 51
269.99997267924272
  0
LINE
  5
53B
100
AcDbEntity
  8
0
  6
CENTER
 62
             200
100
AcDbLine
 10
-26.25
 20
-3.8209686279296879
 30
0.0
 11
-26.25
 21
-11.578445434570313
 31
0.0
  0
LINE
  5
53C
100
AcDbEntity
  8
0
  6
CONTINUOUS
 62
               4
100
AcDbLine
 10
-33.0
 20
-10.0
 30
0.0
 11
-19.5
 21
-10.0
 31
0.0
  0
LINE
  5
53D
100
AcDbEntity
  8
0
  6
CENTER
 62
             200
100
AcDbLine
 10
-10.749984741210937
 20
-3.8209686279296871
 30
0.0
 11
-10.749984741210937
 21
-11.578445434570313
 31
0.0
  0
LINE
  5
53E
100
AcDbEntity
  8
0
  6
CONTINUOUS
 62
               4
100
AcDbLine
 10
-2.699981689453125
 20
-2.9999999999999991
 30
0.0
 11
4.2730865478515625
 21
-2.9999999999999987
 31
0.0
  0
LINE
  5
53F
100
AcDbEntity
  8
0
  6
CONTINUOUS
 62
               4
100
AcDbLine
 10
-2.2499847412109375
 20
-3.1999969482421866
 30
0.0
 11
-2.2499847412109375
 21
-2.9999999999999991
 31
0.0
  0
LINE
  5
540
100
AcDbEntity
  8
0
  6
CONTINUOUS
 62
               4
100
AcDbLine
 10
0.75
 20
-4.6999969482421866
 30
0.0
 11
-0.75
 21
-4.6999969482421866
 31
0.0
  0
LINE
  5
541
100
AcDbEntity
  8
0
  6
CONTINUOUS
 62
               4
100
AcDbLine
 10
2.2500152587890625
 20
-3.1999969482421862
 30
0.0
 11
2.2500152587890625
 21
-2.9999999999999987
 31
0.0
  0
LINE
  5
542
100
AcDbEntity
  8
0
  6
CONTINUOUS
 62
               4
100
AcDbLine
 10
-32.29998779296875
 20
-7.0000000000000009
 30
0.0
 11
-32.29998779296875
 21
-0.0000000000000008
 31
0.0
  0
LINE
  5
543
100
AcDbEntity
  8
0
  6
CONTINUOUS
 62
               4
100
AcDbLine
 10
-37.699996948242187
 20
-7.0000000000000009
 30
0.0
 11
-37.699996948242187
 21
-0.0000000000000012
 31
0.0
  0
LINE
  5
544
100
AcDbEntity
  8
0
  6
CONTINUOUS
 62
               4
100
AcDbLine
 10
-2.699981689453125
 20
-6.9999999999999991
 30
0.0
 11
-2.699981689453125
 21
-2.9999999999999991
 31
0.0
  0
LINE
  5
545
100
AcDbEntity
  8
0
  6
CONTINUOUS
 62
               4
100
AcDbLine
 10
-39.387868038808961
 20
-6.912139771697924
 30
0.0
 11
-41.212127271589566
 21
-5.0878763870267125
 31
0.0
  0
LINE
  5
546
100
AcDbEntity
  8
0
  6
CONTINUOUS
 62
               4
100
AcDbLine
 10
2.3879096888240383
 20
-6.9121215453651521
 30
0.0
 11
4.2121692291520958
 21
-5.0878584682413912
 31
0.0
  0
LINE
  5
547
100
AcDbEntity
  8
0
  6
CONTINUOUS
 62
               4
100
AcDbLine
 10
2.1757659912109375
 20
-6.9999999999999991
 30
0.0
 11
-10.749984741210937
 21
-6.9999999999999991
 31
0.0
  0
LINE
  5
548
100
AcDbEntity
  8
0
  6
CONTINUOUS
 62
               4
100
AcDbLine
 10
-41.299972534179688
 20
-4.8757474887367085
 30
0.0
 11
-41.299972534179688
 21
-0.0000000000000014
 31
0.0
  0
LINE
  5
549
100
AcDbEntity
  8
0
  6
CONTINUOUS
 62
               4
100
AcDbLine
 10
4.300018310546875
 20
-4.8784553036614309
 30
0.0
 11
4.300018310546875
 21
-0.0000152587890611
 31
0.0
  0
LINE
  5
54A
100
AcDbEntity
  8
0
  6
CONTINUOUS
 62
               7
100
AcDbLine
 10
-41.299972534179688
 20
-0.0000000000000014
 30
0.0
 11
4.300018310546875
 21
0.0000000000000014
 31
0.0
  0
LINE
  5
54B
100
AcDbEntity
  8
0
  6
CONTINUOUS
 62
               4
100
AcDbLine
 10
-3.4999847412109375
 20
-6.9999999999999991
 30
0.0
 11
-3.4999847412109375
 21
-9.4999999999999982
 31
0.0
  0
LINE
  5
54C
100
AcDbEntity
  8
0
  6
CONTINUOUS
 62
               4
100
AcDbLine
 10
-17.999984741210937
 20
-5.0
 30
0.0
 11
-17.999984741210937
 21
-9.5
 31
0.0
  0
LINE
  5
54D
100
AcDbEntity
  8
0
  6
CONTINUOUS
 62
               4
100
AcDbLine
 10
-19.0
 20
-5.0
 30
0.0
 11
-19.0
 21
-9.5
 31
0.0
  0
LINE
  5
54E
100
AcDbEntity
  8
0
  6
CONTINUOUS
 62
               4
100
AcDbLine
 10
-33.5
 20
-7.0000000000000009
 30
0.0
 11
-33.5
 21
-9.5000000000000018
 31
0.0
  0
ARC
  5
54F
100
AcDbEntity
  8
0
  6
CONTINUOUS
 62
               4
100
AcDbCircle
 10
-3.9999847412109375
 20
-9.5
 30
0.0
 40
0.5
100
AcDbArc
 50
269.99999999999937
 51
0.0
  0
ARC
  5
550
100
AcDbEntity
  8
0
  6
CONTINUOUS
 62
               4
100
AcDbCircle
 10
-17.499984741210937
 20
-9.5
 30
0.0
 40
0.5
100
AcDbArc
 50
179.99999999999963
 51
269.99999999999937
  0
ARC
  5
551
100
AcDbEntity
  8
0
  6
CONTINUOUS
 62
               4
100
AcDbCircle
 10
-19.5
 20
-9.5
 30
0.0
 40
0.5
100
AcDbArc
 50
269.99999999999937
 51
0.0
  0
ARC
  5
552
100
AcDbEntity
  8
0
  6
CONTINUOUS
 62
               4
100
AcDbCircle
 10
-33.0
 20
-9.5
 30
0.0
 40
0.5
100
AcDbArc
 50
179.99999999999963
 51
269.99999999999937
  0
ENDBLK
  5
553
100
AcDbEntity
  8
0
100
AcDbBlockEnd
  0
BLOCK
  5
554
100
AcDbEntity
  8
0
100
AcDbBlockBegin
  2
F15MA-6
 70
               0
 10
0.0
 20
0.0
 30
0.0
  3
F15MA-6
  1

  0
LINE
  5
555
100
AcDbEntity
  8
0
  6
CONTINUOUS
 62
             200
100
AcDbLine
 10
5.5
 20
-46.369999999999997
 30
0.0
 11
5.5
 21
8.5600000000000005
 31
0.0
  0
LINE
  5
556
100
AcDbEntity
  8
0
  6
CONTINUOUS
 62
               4
100
AcDbLine
 10
11.0
 20
0.7
 30
0.0
 11
13.0
 21
0.7
 31
0.0
  0
LINE
  5
557
100
AcDbEntity
  8
0
  6
CONTINUOUS
 62
               4
100
AcDbLine
 10
0.0
 20
-37.700000000000003
 30
0.0
 11
-2.0
 21
-37.700000000000003
 31
0.0
  0
LINE
  5
558
100
AcDbEntity
  8
0
  6
CONTINUOUS
 62
               4
100
AcDbLine
 10
0.0
 20
-32.299999999999997
 30
0.0
 11
-2.0
 21
-32.299999999999997
 31
0.0
  0
LINE
  5
559
100
AcDbEntity
  8
0
  6
CONTINUOUS
 62
               4
100
AcDbLine
 10
11.0
 20
-4.7000000000000002
 30
0.0
 11
13.0
 21
-4.7000000000000002
 31
0.0
  0
LINE
  5
55A
100
AcDbEntity
  8
0
  6
CONTINUOUS
 62
               4
100
AcDbLine
 10
13.0
 20
4.2999999999999998
 30
0.0
 11
-2.0
 21
4.2999999999999998
 31
0.0
  0
LINE
  5
55B
100
AcDbEntity
  8
0
  6
CONTINUOUS
 62
               4
100
AcDbLine
 10
13.0
 20
-41.299999999999997
 30
0.0
 11
-2.0
 21
-41.299999999999997
 31
0.0
  0
LINE
  5
55C
100
AcDbEntity
  8
0
  6
CONTINUOUS
 62
               4
100
AcDbLine
 10
0.0
 20
-2.7000000000000002
 30
0.0
 11
-2.0
 21
-2.7000000000000002
 31
0.0
  0
LINE
  5
55D
100
AcDbEntity
  8
0
  6
CONTINUOUS
 62
               4
100
AcDbLine
 10
11.0
 20
-34.299999999999997
 30
0.0
 11
13.0
 21
-34.299999999999997
 31
0.0
  0
LINE
  5
55E
100
AcDbEntity
  8
0
  6
CONTINUOUS
 62
               4
100
AcDbLine
 10
8.3000000000000007
 20
-37.0
 30
0.0
 11
8.3000000000000007
 21
-41.299999999999997
 31
0.0
  0
LINE
  5
55F
100
AcDbEntity
  8
0
  6
CONTINUOUS
 62
               4
100
AcDbLine
 10
2.7000000000000002
 20
4.2999999999999998
 30
0.0
 11
2.7000000000000002
 21
0.0
 31
0.0
  0
LINE
  5
560
100
AcDbEntity
  8
0
  6
CONTINUOUS
 62
               4
100
AcDbLine
 10
8.3000000000000007
 20
-39.299999999999997
 30
0.0
 11
-2.0
 21
-39.299999999999997
 31
0.0
  0
LINE
  5
561
100
AcDbEntity
  8
0
  6
CONTINUOUS
 62
               4
100
AcDbLine
 10
13.0
 20
2.2999999999999998
 30
0.0
 11
2.7000000000000002
 21
2.2999999999999998
 31
0.0
  0
LINE
  5
562
100
AcDbEntity
  8
0
  6
CONTINUOUS
 62
               4
100
AcDbLine
 10
0.91
 20
-0.91
 30
0.0
 11
-0.91
 21
0.91
 31
0.0
  0
LINE
  5
563
100
AcDbEntity
  8
0
  6
CONTINUOUS
 62
               4
100
AcDbLine
 10
-0.91
 20
-0.91
 30
0.0
 11
0.91
 21
0.91
 31
0.0
  0
LINE
  5
564
100
AcDbEntity
  8
0
  6
CONTINUOUS
 62
               4
100
AcDbLine
 10
13.0
 20
-35.960000000000001
 30
0.0
 11
13.0
 21
-4.7000000000000002
 31
0.0
  0
LINE
  5
565
100
AcDbEntity
  8
0
  6
CONTINUOUS
 62
               4
100
AcDbLine
 10
10.08
 20
-37.909999999999997
 30
0.0
 11
11.91
 21
-36.079999999999998
 31
0.0
  0
LINE
  5
566
100
AcDbEntity
  8
0
  6
CONTINUOUS
 62
               4
100
AcDbLine
 10
11.91
 20
-37.909999999999997
 30
0.0
 11
10.08
 21
-36.079999999999998
 31
0.0
  0
LINE
  5
567
100
AcDbEntity
  8
0
  6
CONTINUOUS
 62
               4
100
AcDbLine
 10
-2.0
 20
-32.299999999999997
 30
0.0
 11
-2.0
 21
-1.03
 31
0.0
  0
LINE
  5
568
100
AcDbEntity
  8
0
  6
CONTINUOUS
 62
               4
100
AcDbLine
 10
13.0
 20
-41.299999999999997
 30
0.0
 11
13.0
 21
-38.030000000000001
 31
0.0
  0
LINE
  5
569
100
AcDbEntity
  8
0
  6
CONTINUOUS
 62
               4
100
AcDbLine
 10
-2.0
 20
-41.299999999999997
 30
0.0
 11
-2.0
 21
-37.700000000000003
 31
0.0
  0
LINE
  5
56A
100
AcDbEntity
  8
0
  6
CONTINUOUS
 62
               4
100
AcDbLine
 10
-2.0
 20
1.03
 30
0.0
 11
-2.0
 21
4.2999999999999998
 31
0.0
  0
LINE
  5
56B
100
AcDbEntity
  8
0
  6
CONTINUOUS
 62
               4
100
AcDbLine
 10
13.0
 20
0.7
 30
0.0
 11
13.0
 21
4.2999999999999998
 31
0.0
  0
LINE
  5
56C
100
AcDbEntity
  8
0
  6
CONTINUOUS
 62
             200
100
AcDbLine
 10
-3.5299999999999998
 20
-26.25
 30
0.0
 11
14.449999999999999
 21
-26.25
 31
0.0
  0
LINE
  5
56D
100
AcDbEntity
  8
0
  6
CONTINUOUS
 62
             200
100
AcDbLine
 10
-3.5299999999999998
 20
-10.75
 30
0.0
 11
14.449999999999999
 21
-10.75
 31
0.0
  0
ARC
  5
56E
100
AcDbEntity
  8
0
  6
CONTINUOUS
 62
               4
100
AcDbCircle
 10
11.0
 20
-2.0
 30
0.0
 40
2.7000000000000002
100
AcDbArc
 50
89.999999999999815
 51
269.99999999999937
  0
ARC
  5
56F
100
AcDbEntity
  8
0
  6
CONTINUOUS
 62
               4
100
AcDbCircle
 10
0.0
 20
-35.0
 30
0.0
 40
2.7000000000000028
100
AcDbArc
 50
269.99999999999937
 51
89.999999999999801
  0
ARC
  5
570
100
AcDbEntity
  8
0
  6
CONTINUOUS
 62
               4
100
AcDbCircle
 10
-0.0000076294053102
 20
0.0000076294053102
 30
0.0
 40
2.7000076294160897
100
AcDbArc
 50
270.00016190055095
 51
359.99983809944763
  0
ARC
  5
571
100
AcDbEntity
  8
0
  6
CONTINUOUS
 62
               4
100
AcDbCircle
 10
10.999992370616249
 20
-36.999992370616248
 30
0.0
 40
2.6999923706270286
100
AcDbArc
 50
89.999838098990764
 51
180.00016190100865
  0
CIRCLE
  5
572
100
AcDbEntity
  8
0
  6
CONTINUOUS
 62
               4
100
AcDbCircle
 10
0.0
 20
0.0
 30
0.0
 40
2.25
  0
CIRCLE
  5
573
100
AcDbEntity
  8
0
  6
CONTINUOUS
 62
               4
100
AcDbCircle
 10
11.0
 20
-36.999984741210938
 30
0.0
 40
2.25
  0
CIRCLE
  5
574
100
AcDbEntity
  8
0
  6
CONTINUOUS
 62
             200
100
AcDbCircle
 10
5.5
 20
-26.249984741210937
 30
0.0
 40
5.0
  0
CIRCLE
  5
575
100
AcDbEntity
  8
0
  6
CONTINUOUS
 62
               4
100
AcDbCircle
 10
5.5
 20
-26.249984741210937
 30
0.0
 40
4.25
  0
CIRCLE
  5
576
100
AcDbEntity
  8
0
  6
CONTINUOUS
 62
             200
100
AcDbCircle
 10
5.5
 20
-10.749984741210937
 30
0.0
 40
5.0
  0
CIRCLE
  5
577
100
AcDbEntity
  8
0
  6
CONTINUOUS
 62
               4
100
AcDbCircle
 10
5.5
 20
-10.749984741210937
 30
0.0
 40
4.25
  0
CIRCLE
  5
578
100
AcDbEntity
  8
0
  6
CONTINUOUS
 62
               4
100
AcDbCircle
 10
5.4950000000000001
 20
-10.749983380393861
 30
0.0
 40
7.4916305362626652
  0
CIRCLE
  5
579
100
AcDbEntity
  8
0
  6
CONTINUOUS
 62
               4
100
AcDbCircle
 10
5.4950000000000001
 20
-26.249986101293718
 30
0.0
 40
7.4997636549446209
  0
ENDBLK
  5
57A
100
AcDbEntity
  8
0
100
AcDbBlockEnd
  0
BLOCK
  5
57B
100
AcDbEntity
  8
0
100
AcDbBlockBegin
  2
F15MA-7
 70
               0
 10
0.0
 20
0.0
 30
0.0
  3
F15MA-7
  1

  0
LINE
  5
57C
100
AcDbEntity
  8
0
  6
CONTINUOUS
 62
               4
100
AcDbLine
 10
27.0
 20
23.999999913736957
 30
0.0
 11
27.0
 21
-0.0000000862630429
 31
0.0
  0
LINE
  5
57D
100
AcDbEntity
  8
0
  6
CONTINUOUS
 62
               4
100
AcDbLine
 10
-0.0000000000000036
 20
16.999999913736957
 30
0.0
 11
0.0000000000000071
 21
0.0000049999999874
 31
0.0
  0
LINE
  5
57E
100
AcDbEntity
  8
0
  6
CONTINUOUS
 62
               4
100
AcDbLine
 10
1.3999999999999915
 20
16.999999913736957
 30
0.0
 11
1.3999999999999915
 21
25.499999909445421
 31
0.0
  0
LINE
  5
57F
100
AcDbEntity
  8
0
  6
CONTINUOUS
 62
               4
100
AcDbLine
 10
-10.000000000000014
 20
25.499999913736957
 30
0.0
 11
-10.000000000000014
 21
16.999999913736957
 31
0.0
  0
LINE
  5
580
100
AcDbEntity
  8
0
  6
CONTINUOUS
 62
               4
100
AcDbLine
 10
-10.000000000000014
 20
25.499999913736957
 30
0.0
 11
1.3999999999999915
 21
25.499999913736957
 31
0.0
  0
LINE
  5
581
100
AcDbEntity
  8
0
  6
CONTINUOUS
 62
               4
100
AcDbLine
 10
-10.000000000000014
 20
16.999999913736957
 30
0.0
 11
1.3999999999999915
 21
16.999999913736957
 31
0.0
  0
LINE
  5
582
100
AcDbEntity
  8
0
  6
CONTINUOUS
 62
               4
100
AcDbLine
 10
27.0
 20
23.999999913736957
 30
0.0
 11
1.3999999999999915
 21
23.999999913736957
 31
0.0
  0
LINE
  5
583
100
AcDbEntity
  8
0
  6
CONTINUOUS
 62
               4
100
AcDbLine
 10
14.295000000000009
 20
23.999999913736957
 30
0.0
 11
12.795000000000009
 21
23.999999913736957
 31
0.0
  0
LINE
  5
584
100
AcDbEntity
  8
0
  6
CONTINUOUS
 62
               4
100
AcDbLine
 10
1.4999999999999964
 20
25.599999913736951
 30
0.0
 11
-3.0000000000000142
 21
25.599999913736951
 31
0.0
  0
ARC
  5
585
100
AcDbEntity
  8
0
  6
CONTINUOUS
 62
               4
100
AcDbCircle
 10
-2.5015404500182825
 20
32.501540363755225
 30
0.0
 40
0.4984619302958243
100
AcDbArc
 50
89.822932465397898
 51
180.17706753460195
  0
LINE
  5
586
100
AcDbEntity
  8
0
  6
CONTINUOUS
 62
               4
100
AcDbLine
 10
-3.0000000000000142
 20
32.499999913736957
 30
0.0
 11
-3.0000000000000142
 21
25.599999913736951
 31
0.0
  0
LINE
  5
587
100
AcDbEntity
  8
0
  6
CONTINUOUS
 62
               4
100
AcDbLine
 10
1.4999999999999964
 20
25.599999913736951
 30
0.0
 11
1.4999999999999964
 21
23.999999913736957
 31
0.0
  0
ARC
  5
588
100
AcDbEntity
  8
0
  6
CONTINUOUS
 62
               4
100
AcDbCircle
 10
25.501123948313893
 20
28.179394315853983
 30
0.0
 40
1.4988865337462252
100
AcDbArc
 50
0.2142776266259142
 51
24.039904443234629
  0
ARC
  5
589
100
AcDbEntity
  8
0
  6
CONTINUOUS
 62
               4
100
AcDbCircle
 10
24.675687863874504
 20
32.50267102581455
 30
0.0
 40
0.4973293636201366
100
AcDbArc
 50
24.005903588636794
 51
90.079246697133684
  0
LINE
  5
58A
100
AcDbEntity
  8
0
  6
CONTINUOUS
 62
               4
100
AcDbLine
 10
25.129999999999999
 20
32.704999913736941
 30
0.0
 11
26.870000000000008
 21
28.789999913736949
 31
0.0
  0
LINE
  5
58B
100
AcDbEntity
  8
0
  6
CONTINUOUS
 62
               4
100
AcDbLine
 10
24.674999999999994
 20
32.999999913736957
 30
0.0
 11
-2.503080900033293
 21
32.999999913736957
 31
0.0
  0
LINE
  5
58C
100
AcDbEntity
  8
0
  6
CONTINUOUS
 62
               4
100
AcDbLine
 10
27.000000000000004
 20
28.184999913736931
 30
0.0
 11
27.000000000000004
 21
23.999999913736957
 31
0.0
  0
LINE
  5
58D
100
AcDbEntity
  8
0
  6
CONTINUOUS
 62
             200
100
AcDbLine
 10
-20.089214565994553
 20
24.164996126888383
 30
0.0
 11
-21.946103769656474
 21
17.234991332879673
 31
0.0
  0
LINE
  5
58E
100
AcDbEntity
  8
0
  6
CONTINUOUS
 62
             200
100
AcDbLine
 10
-19.053935707232995
 20
24.165006172564773
 30
0.0
 11
-20.910828860160109
 21
17.234986639697837
 31
0.0
  0
LINE
  5
58F
100
AcDbEntity
  8
0
  6
CONTINUOUS
 62
               4
100
AcDbLine
 10
-20.491119384765625
 20
22.665023717447895
 30
0.0
 11
-24.500015258789063
 21
22.665023717447895
 31
0.0
  0
LINE
  5
590
100
AcDbEntity
  8
0
  6
CONTINUOUS
 62
               4
100
AcDbLine
 10
-20.874298095703125
 20
21.235015782877582
 30
0.0
 11
-24.500015258789063
 21
21.235015782877582
 31
0.0
  0
LINE
  5
591
100
AcDbEntity
  8
0
  6
CONTINUOUS
 62
               4
100
AcDbLine
 10
-21.160995483398438
 20
20.165023717447895
 30
0.0
 11
-24.500015258789063
 21
20.165023717447895
 31
0.0
  0
LINE
  5
592
100
AcDbEntity
  8
0
  6
CONTINUOUS
 62
               4
100
AcDbLine
 10
-21.544174194335937
 20
18.735015782877582
 30
0.0
 11
-24.500015258789063
 21
18.735015782877582
 31
0.0
  0
LINE
  5
593
100
AcDbEntity
  8
0
  6
CONTINUOUS
 62
               4
100
AcDbLine
 10
-24.5
 20
22.665008458658832
 30
0.0
 11
-24.5
 21
21.23500052408852
 31
0.0
  0
LINE
  5
594
100
AcDbEntity
  8
0
  6
CONTINUOUS
 62
               4
100
AcDbLine
 10
-24.5
 20
18.73500052408852
 30
0.0
 11
-24.5
 21
20.165008458658832
 31
0.0
  0
LINE
  5
595
100
AcDbEntity
  8
0
  6
CONTINUOUS
 62
               4
100
AcDbLine
 10
-29.5
 20
22.350006017252582
 30
0.0
 11
-29.5
 21
21.55000296549477
 31
0.0
  0
LINE
  5
596
100
AcDbEntity
  8
0
  6
CONTINUOUS
 62
               4
100
AcDbLine
 10
-24.500015258789063
 20
21.55000296549477
 30
0.0
 11
-29.5
 21
21.55000296549477
 31
0.0
  0
LINE
  5
597
100
AcDbEntity
  8
0
  6
CONTINUOUS
 62
               4
100
AcDbLine
 10
-24.500015258789063
 20
22.350006017252582
 30
0.0
 11
-29.5
 21
22.350006017252582
 31
0.0
  0
LINE
  5
598
100
AcDbEntity
  8
0
  6
CONTINUOUS
 62
               4
100
AcDbLine
 10
-16.5
 20
20.165023717447895
 30
0.0
 11
-20.125717163085938
 21
20.165023717447895
 31
0.0
  0
LINE
  5
599
100
AcDbEntity
  8
0
  6
CONTINUOUS
 62
               4
100
AcDbLine
 10
-16.5
 20
18.735015782877582
 30
0.0
 11
-20.508895874023438
 21
18.735015782877582
 31
0.0
  0
LINE
  5
59A
100
AcDbEntity
  8
0
  6
CONTINUOUS
 62
               4
100
AcDbLine
 10
-16.5
 20
21.235015782877582
 30
0.0
 11
-19.839019775390625
 21
21.235015782877582
 31
0.0
  0
LINE
  5
59B
100
AcDbEntity
  8
0
  6
CONTINUOUS
 62
               4
100
AcDbLine
 10
-16.5
 20
22.665023717447895
 30
0.0
 11
-19.455841064453125
 21
22.665023717447895
 31
0.0
  0
LINE
  5
59C
100
AcDbEntity
  8
0
  6
CONTINUOUS
 62
               4
100
AcDbLine
 10
-24.500015258789063
 20
19.05000296549477
 30
0.0
 11
-29.5
 21
19.05000296549477
 31
0.0
  0
LINE
  5
59D
100
AcDbEntity
  8
0
  6
CONTINUOUS
 62
               4
100
AcDbLine
 10
-24.500015258789063
 20
19.850006017252582
 30
0.0
 11
-29.5
 21
19.850006017252582
 31
0.0
  0
LINE
  5
59E
100
AcDbEntity
  8
0
  6
CONTINUOUS
 62
               4
100
AcDbLine
 10
-29.5
 20
19.05000296549477
 30
0.0
 11
-29.5
 21
19.850006017252582
 31
0.0
  0
LINE
  5
59F
100
AcDbEntity
  8
0
  6
CONTINUOUS
 62
               4
100
AcDbLine
 10
-15.0
 20
27.499999913736957
 30
0.0
 11
-16.5
 21
27.499999913736957
 31
0.0
  0
LINE
  5
5A0
100
AcDbEntity
  8
0
  6
CONTINUOUS
 62
               4
100
AcDbLine
 10
-15.499999958178705
 20
25.499978352823547
 30
0.0
 11
-16.499994209762917
 21
26.077324672805645
 31
0.0
  0
LINE
  5
5A1
100
AcDbEntity
  8
0
  6
CONTINUOUS
 62
               4
100
AcDbLine
 10
-10.0
 20
25.499999913736957
 30
0.0
 11
-16.5
 21
25.499999913736957
 31
0.0
  0
LINE
  5
5A2
100
AcDbEntity
  8
0
  6
CONTINUOUS
 62
               4
100
AcDbLine
 10
-5.998454579468671
 20
26.500071061293767
 30
0.0
 11
-9.5561426631575159
 21
27.000070384309566
 31
0.0
  0
LINE
  5
5A3
100
AcDbEntity
  8
0
  6
CONTINUOUS
 62
               4
100
AcDbLine
 10
-9.55615234375
 20
26.999999913736957
 30
0.0
 11
-15.0
 21
26.999999913736957
 31
0.0
  0
LINE
  5
5A4
100
AcDbEntity
  8
0
  6
CONTINUOUS
 62
               4
100
AcDbLine
 10
-15.5
 20
16.499999913736957
 30
0.0
 11
-15.5
 21
16.999999913736957
 31
0.0
  0
LINE
  5
5A5
100
AcDbEntity
  8
0
  6
CONTINUOUS
 62
               4
100
AcDbLine
 10
-15.5
 20
16.499999913736957
 30
0.0
 11
-16.5
 21
16.499999913736957
 31
0.0
  0
LINE
  5
5A6
100
AcDbEntity
  8
0
  6
CONTINUOUS
 62
               4
100
AcDbLine
 10
-10.0
 20
16.999999913736957
 30
0.0
 11
-15.5
 21
16.999999913736957
 31
0.0
  0
LINE
  5
5A7
100
AcDbEntity
  8
0
  6
CONTINUOUS
 62
               4
100
AcDbLine
 10
-15.0
 20
26.999999913736957
 30
0.0
 11
-15.0
 21
27.499999913736957
 31
0.0
  0
LINE
  5
5A8
100
AcDbEntity
  8
0
  6
CONTINUOUS
 62
               4
100
AcDbLine
 10
-5.9984588623046875
 20
25.499999913736957
 30
0.0
 11
-5.9984588623046875
 21
26.499999913736957
 31
0.0
  0
LINE
  5
5A9
100
AcDbEntity
  8
0
  6
CONTINUOUS
 62
               4
100
AcDbLine
 10
-16.5
 20
26.07734671549477
 30
0.0
 11
-16.5
 21
27.499999913736957
 31
0.0
  0
LINE
  5
5AA
100
AcDbEntity
  8
0
  6
CONTINUOUS
 62
               4
100
AcDbLine
 10
-10.0
 20
25.449996861979145
 30
0.0
 11
-10.0
 21
25.499999913736957
 31
0.0
  0
LINE
  5
5AB
100
AcDbEntity
  8
0
  6
CONTINUOUS
 62
               4
100
AcDbLine
 10
-16.5
 20
16.499999913736957
 30
0.0
 11
-16.5
 21
25.499999913736957
 31
0.0
  0
ENDBLK
  5
5AC
100
AcDbEntity
  8
0
100
AcDbBlockEnd
  0
BLOCK
  5
5AD
100
AcDbEntity
  8
0
100
AcDbBlockBegin
  2
F15MA-8
 70
               0
 10
0.0
 20
0.0
 30
0.0
  3
F15MA-8
  1

  0
LINE
  5
5AE
100
AcDbEntity
  8
0
  6
CONTINUOUS
 62
               4
100
AcDbLine
 10
0.0
 20
24.0
 30
0.0
 11
10.0
 21
24.0
 31
0.0
  0
LINE
  5
5AF
100
AcDbEntity
  8
0
  6
CONTINUOUS
 62
               4
100
AcDbLine
 10
0.05
 20
24.0
 30
0.0
 11
0.05
 21
32.5
 31
0.0
  0
LINE
  5
5B0
100
AcDbEntity
  8
0
  6
CONTINUOUS
 62
               4
100
AcDbLine
 10
9.5
 20
33.0
 30
0.0
 11
0.5
 21
33.0
 31
0.0
  0
LINE
  5
5B1
100
AcDbEntity
  8
0
  6
CONTINUOUS
 62
               4
100
AcDbLine
 10
9.9499999999999993
 20
28.5
 30
0.0
 11
0.05
 21
28.5
 31
0.0
  0
LINE
  5
5B2
100
AcDbEntity
  8
0
  6
CONTINUOUS
 62
               4
100
AcDbLine
 10
9.9499999999999993
 20
24.0
 30
0.0
 11
9.9499999999999993
 21
32.5
 31
0.0
  0
LINE
  5
5B3
100
AcDbEntity
  8
0
  6
CONTINUOUS
 62
               4
100
AcDbLine
 10
0.0
 20
0.0
 30
0.0
 11
0.0
 21
24.0
 31
0.0
  0
LINE
  5
5B4
100
AcDbEntity
  8
0
  6
CONTINUOUS
 62
               4
100
AcDbLine
 10
10.0
 20
0.0
 30
0.0
 11
10.0
 21
24.0
 31
0.0
  0
ARC
  5
5B5
100
AcDbEntity
  8
0
  6
CONTINUOUS
 62
               4
100
AcDbCircle
 10
9.4500137329078271
 20
32.500013732907831
 30
0.0
 40
0.4999862672807696
100
AcDbArc
 50
359.99842628145819
 51
90.001573718540826
  0
ARC
  5
5B6
100
AcDbEntity
  8
0
  6
CONTINUOUS
 62
               4
100
AcDbCircle
 10
0.5499786377791315
 20
32.500021362220863
 30
0.0
 40
0.4999786382354955
100
AcDbArc
 50
89.997551965216786
 51
180.00244803478242
  0
ENDBLK
  5
5B7
100
AcDbEntity
  8
0
100
AcDbBlockEnd
  0
BLOCK
  5
62D
100
AcDbEntity
  8
0
  6
ByBlock
 62
               0
100
AcDbBlockBegin
  2
*D8
 70
               1
 10
0.0
 20
0.0
 30
0.0
  3
*D8
  1

  0
LINE
  5
62E
100
AcDbEntity
  8
0
  6
CONTINUOUS
 62
               2
100
AcDbLine
 10
-34.000030517578125
 20
162.16825866699219
 30
0.0
 11
-30.000015258789063
 21
162.16825866699219
 31
0.0
  0
LINE
  5
62F
100
AcDbEntity
  8
0
  6
CONTINUOUS
 62
               2
100
AcDbLine
 10
-43.579743385314941
 20
162.16825866699219
 30
0.0
 11
-34.000030517578125
 21
162.16825866699219
 31
0.0
  0
LINE
  5
630
100
AcDbEntity
  8
0
  6
CONTINUOUS
 62
               2
100
AcDbLine
 10
-30.000015258789063
 20
64.25
 30
0.0
 11
-30.000015258789063
 21
163.66827392578125
 31
0.0
  0
LINE
  5
631
100
AcDbEntity
  8
0
  6
CONTINUOUS
 62
               2
100
AcDbLine
 10
-34.000030517578125
 20
162.16825866699219
 30
0.0
 11
-37.556030511856079
 21
162.16825866699219
 31
0.0
  0
LINE
  5
632
100
AcDbEntity
  8
0
  6
CONTINUOUS
 62
               2
100
AcDbLine
 10
-30.000015258789063
 20
162.16825866699219
 30
0.0
 11
-26.444015264511108
 21
162.16825866699219
 31
0.0
  0
INSERT
  5
639
100
AcDbEntity
  8
0
  6
CONTINUOUS
 62
               2
100
AcDbBlockReference
  2
_OPEN30
 10
-34.000030517578125
 20
162.16825866699219
 30
0.0
 41
2.77
 42
2.77
 43
2.77
  0
INSERT
  5
63A
100
AcDbEntity
  8
0
  6
CONTINUOUS
 62
               2
100
AcDbBlockReference
  2
_OPEN30
 10
-30.000015258789063
 20
162.16825866699219
 30
0.0
 41
2.77
 42
2.77
 43
2.77
 50
180.0
  0
MTEXT
  5
63B
100
AcDbEntity
  8
0
  6
CONTINUOUS
 62
               2
100
AcDbMText
 10
-41.329743385314941
 20
165.41825866699219
 30
0.0
 40
4.5
 41
0.0
 71
               5
 72
               1
  1
\A1;4
  0
POINT
  5
63C
100
AcDbEntity
  8
DEFPOINTS
  6
CONTINUOUS
 62
               0
100
AcDbPoint
 10
-34.000030517578125
 20
90.0
 30
0.0
  0
POINT
  5
63D
100
AcDbEntity
  8
DEFPOINTS
  6
CONTINUOUS
 62
               0
100
AcDbPoint
 10
-30.000015258789063
 20
64.25
 30
0.0
  0
POINT
  5
63E
100
AcDbEntity
  8
DEFPOINTS
  6
CONTINUOUS
 62
               0
100
AcDbPoint
 10
-30.000015258789063
 20
162.16825866699219
 30
0.0
  0
ENDBLK
  5
63F
100
AcDbEntity
  8
0
  6
ByBlock
 62
               0
100
AcDbBlockEnd
  0
BLOCK
  5
634
100
AcDbEntity
  8
0
  6
ByBlock
 62
               0
100
AcDbBlockBegin
  2
_OPEN30
 70
               2
 10
0.0
 20
0.0
 30
0.0
  3
_OPEN30
  1

  0
LINE
  5
635
100
AcDbEntity
  8
0
  6
ByBlock
 62
               0
100
AcDbLine
 10
-1.0
 20
0.267949
 30
0.0
 11
0.0
 21
0.0
 31
0.0
  0
LINE
  5
636
100
AcDbEntity
  8
0
  6
ByBlock
 62
               0
100
AcDbLine
 10
0.0
 20
0.0
 30
0.0
 11
-1.0
 21
-0.267949
 31
0.0
  0
LINE
  5
637
100
AcDbEntity
  8
0
  6
ByBlock
 62
               0
100
AcDbLine
 10
0.0
 20
0.0
 30
0.0
 11
-1.0
 21
0.0
 31
0.0
  0
ENDBLK
  5
638
100
AcDbEntity
  8
0
  6
ByBlock
 62
               0
100
AcDbBlockEnd
  0
BLOCK
  5
642
100
AcDbEntity
  8
0
  6
ByBlock
 62
               0
100
AcDbBlockBegin
  2
*D10
 70
               1
 10
0.0
 20
0.0
 30
0.0
  3
*D10
  1

  0
LINE
  5
643
100
AcDbEntity
  8
0
  6
CONTINUOUS
 62
               2
100
AcDbLine
 10
-30.000015258789063
 20
162.16825866699219
 30
0.0
 11
41.999969482421875
 21
162.16825866699219
 31
0.0
  0
LINE
  5
644
100
AcDbEntity
  8
0
  6
CONTINUOUS
 62
               2
100
AcDbLine
 10
41.999969482421875
 20
64.25
 30
0.0
 11
41.999969482421875
 21
163.66827392578125
 31
0.0
  0
INSERT
  5
645
100
AcDbEntity
  8
0
  6
CONTINUOUS
 62
               2
100
AcDbBlockReference
  2
_OPEN30
 10
-30.000015258789063
 20
162.16825866699219
 30
0.0
 41
2.77
 42
2.77
 43
2.77
 50
180.0
  0
INSERT
  5
646
100
AcDbEntity
  8
0
  6
CONTINUOUS
 62
               2
100
AcDbBlockReference
  2
_OPEN30
 10
41.999969482421875
 20
162.16825866699219
 30
0.0
 41
2.77
 42
2.77
 43
2.77
  0
MTEXT
  5
647
100
AcDbEntity
  8
0
  6
CONTINUOUS
 62
               2
100
AcDbMText
 10
5.9999771118164062
 20
165.41825866699219
 30
0.0
 40
4.5
 41
0.0
 71
               5
 72
               1
  1
\A1;P
  0
POINT
  5
648
100
AcDbEntity
  8
DEFPOINTS
  6
CONTINUOUS
 62
               0
100
AcDbPoint
 10
-30.000015258789063
 20
69.25
 30
0.0
  0
POINT
  5
649
100
AcDbEntity
  8
DEFPOINTS
  6
CONTINUOUS
 62
               0
100
AcDbPoint
 10
41.999969482421875
 20
64.25
 30
0.0
  0
POINT
  5
64A
100
AcDbEntity
  8
DEFPOINTS
  6
CONTINUOUS
 62
               0
100
AcDbPoint
 10
41.999969482421875
 20
162.16825866699219
 30
0.0
  0
ENDBLK
  5
64B
100
AcDbEntity
  8
0
  6
ByBlock
 62
               0
100
AcDbBlockEnd
  0
BLOCK
  5
64E
100
AcDbEntity
  8
0
  6
ByBlock
 62
               0
100
AcDbBlockBegin
  2
*D11
 70
               1
 10
0.0
 20
0.0
 30
0.0
  3
*D11
  1

  0
LINE
  5
64F
100
AcDbEntity
  8
0
  6
CONTINUOUS
 62
               2
100
AcDbLine
 10
41.999969482421875
 20
162.16825866699219
 30
0.0
 11
45.999969482421875
 21
162.16825866699219
 31
0.0
  0
LINE
  5
650
100
AcDbEntity
  8
0
  6
CONTINUOUS
 62
               2
100
AcDbLine
 10
45.999969482421875
 20
162.16825866699219
 30
0.0
 11
55.233066558837891
 21
162.16825866699219
 31
0.0
  0
LINE
  5
651
100
AcDbEntity
  8
0
  6
CONTINUOUS
 62
               2
100
AcDbLine
 10
41.999969482421875
 20
162.16825866699219
 30
0.0
 11
38.443969488143921
 21
162.16825866699219
 31
0.0
  0
LINE
  5
652
100
AcDbEntity
  8
0
  6
CONTINUOUS
 62
               2
100
AcDbLine
 10
45.999969482421875
 20
162.16825866699219
 30
0.0
 11
49.555969476699829
 21
162.16825866699219
 31
0.0
  0
INSERT
  5
653
100
AcDbEntity
  8
0
  6
CONTINUOUS
 62
               2
100
AcDbBlockReference
  2
_OPEN30
 10
41.999969482421875
 20
162.16825866699219
 30
0.0
 41
2.77
 42
2.77
 43
2.77
  0
INSERT
  5
654
100
AcDbEntity
  8
0
  6
CONTINUOUS
 62
               2
100
AcDbBlockReference
  2
_OPEN30
 10
45.999969482421875
 20
162.16825866699219
 30
0.0
 41
2.77
 42
2.77
 43
2.77
 50
180.0
  0
MTEXT
  5
655
100
AcDbEntity
  8
0
  6
CONTINUOUS
 62
               2
100
AcDbMText
 10
52.983066558837891
 20
165.41825866699219
 30
0.0
 40
4.5
 41
0.0
 71
               5
 72
               1
  1
\A1;4
  0
POINT
  5
656
100
AcDbEntity
  8
DEFPOINTS
  6
CONTINUOUS
 62
               0
100
AcDbPoint
 10
41.999969482421875
 20
69.25
 30
0.0
  0
POINT
  5
657
100
AcDbEntity
  8
DEFPOINTS
  6
CONTINUOUS
 62
               0
100
AcDbPoint
 10
45.999969482421875
 20
90.0
 30
0.0
  0
POINT
  5
658
100
AcDbEntity
  8
DEFPOINTS
  6
CONTINUOUS
 62
               0
100
AcDbPoint
 10
45.999969482421875
 20
162.16825866699219
 30
0.0
  0
ENDBLK
  5
659
100
AcDbEntity
  8
0
  6
ByBlock
 62
               0
100
AcDbBlockEnd
  0
BLOCK
  5
65C
100
AcDbEntity
  8
0
  6
ByBlock
 62
               0
100
AcDbBlockBegin
  2
*D12
 70
               1
 10
0.0
 20
0.0
 30
0.0
  3
*D12
  1

  0
LINE
  5
65D
100
AcDbEntity
  8
0
  6
CONTINUOUS
 62
               2
100
AcDbLine
 10
-34.000030517578125
 20
172.16825866699219
 30
0.0
 11
45.999969482421875
 21
172.16825866699219
 31
0.0
  0
LINE
  5
65E
100
AcDbEntity
  8
0
  6
CONTINUOUS
 62
               2
100
AcDbLine
 10
-34.000030517578125
 20
86.5
 30
0.0
 11
-34.000030517578125
 21
173.66827392578125
 31
0.0
  0
LINE
  5
65F
100
AcDbEntity
  8
0
  6
CONTINUOUS
 62
               2
100
AcDbLine
 10
45.999969482421875
 20
86.5
 30
0.0
 11
45.999969482421875
 21
173.66827392578125
 31
0.0
  0
INSERT
  5
660
100
AcDbEntity
  8
0
  6
CONTINUOUS
 62
               2
100
AcDbBlockReference
  2
_OPEN30
 10
-34.000030517578125
 20
172.16825866699219
 30
0.0
 41
2.77
 42
2.77
 43
2.77
 50
180.0
  0
INSERT
  5
661
100
AcDbEntity
  8
0
  6
CONTINUOUS
 62
               2
100
AcDbBlockReference
  2
_OPEN30
 10
45.999969482421875
 20
172.16825866699219
 30
0.0
 41
2.77
 42
2.77
 43
2.77
  0
MTEXT
  5
662
100
AcDbEntity
  8
0
  6
CONTINUOUS
 62
               2
100
AcDbMText
 10
5.999969482421875
 20
175.41825866699219
 30
0.0
 40
4.5
 41
0.0
 71
               5
 72
               1
  1
\A1;L
  0
POINT
  5
663
100
AcDbEntity
  8
DEFPOINTS
  6
CONTINUOUS
 62
               0
100
AcDbPoint
 10
-34.000030517578125
 20
85.0
 30
0.0
  0
POINT
  5
664
100
AcDbEntity
  8
DEFPOINTS
  6
CONTINUOUS
 62
               0
100
AcDbPoint
 10
45.999969482421875
 20
85.0
 30
0.0
  0
POINT
  5
665
100
AcDbEntity
  8
DEFPOINTS
  6
CONTINUOUS
 62
               0
100
AcDbPoint
 10
45.999969482421875
 20
172.16825866699219
 30
0.0
  0
ENDBLK
  5
666
100
AcDbEntity
  8
0
  6
ByBlock
 62
               0
100
AcDbBlockEnd
  0
ENDSEC
  0
SECTION
  2
ENTITIES
  0
INSERT
  5
5B8
100
AcDbEntity
  8
0
  6
ByBlock
100
AcDbBlockReference
  2
F15MA-1
 10
-30.000015258789063
 20
61.0
 30
0.0
  0
INSERT
  5
5B9
100
AcDbEntity
  8
0
  6
ByBlock
100
AcDbBlockReference
  2
F15MA-2
 10
-180.00006103515625
 20
61.0
 30
0.0
  0
INSERT
  5
5BA
100
AcDbEntity
  8
0
  6
ByBlock
100
AcDbBlockReference
  2
F15MA-3
 10
-30.000015258789063
 20
-146.99996948242187
 30
0.0
  0
INSERT
  5
5BB
100
AcDbEntity
  8
0
  6
ByBlock
100
AcDbBlockReference
  2
F15MA-4
 10
216.7523193359375
 20
126.05557250976562
 30
0.0
  0
INSERT
  5
5BC
100
AcDbEntity
  8
0
  6
ByBlock
100
AcDbBlockReference
  2
F15MA-5
 10
162.00221252441406
 20
126.05557250976562
 30
0.0
  0
INSERT
  5
5BD
100
AcDbEntity
  8
0
  6
ByBlock
100
AcDbBlockReference
  2
F15MA-6
 10
216.7523193359375
 20
56.055572509765625
 30
0.0
  0
INSERT
  5
5BE
100
AcDbEntity
  8
0
  6
ByBlock
100
AcDbBlockReference
  2
F15MA-7
 10
139.91
 20
-106.62000499999999
 30
0.0
  0
INSERT
  5
5BF
100
AcDbEntity
  8
0
  6
ByBlock
100
AcDbBlockReference
  2
F15MA-8
 10
225.41
 20
-106.62
 30
0.0
  0
LINE
  5
5C0
100
AcDbEntity
  8
0
  6
CONTINUOUS
 62
               7
100
AcDbLine
 10
-281.25
 20
195.5
 30
0.0
 11
282.10000000000002
 21
195.5
 31
0.0
  0
LINE
  5
5C1
100
AcDbEntity
  8
0
  6
CONTINUOUS
 62
               7
100
AcDbLine
 10
282.10000000000002
 20
195.5
 30
0.0
 11
282.10000000000002
 21
-195.0
 31
0.0
  0
LINE
  5
5C2
100
AcDbEntity
  8
0
  6
CONTINUOUS
 62
               7
100
AcDbLine
 10
-281.25
 20
-195.0
 30
0.0
 11
282.10000000000002
 21
-195.0
 31
0.0
  0
LINE
  5
5C3
100
AcDbEntity
  8
0
  6
CONTINUOUS
 62
               7
100
AcDbLine
 10
162.09999999999999
 20
-175.0
 30
0.0
 11
162.09999999999999
 21
-195.0
 31
0.0
  0
LINE
  5
5C4
100
AcDbEntity
  8
0
  6
CONTINUOUS
 62
               7
100
AcDbLine
 10
162.09999999999999
 20
-175.0
 30
0.0
 11
282.10000000000002
 21
-175.0
 31
0.0
  0
LINE
  5
5C5
100
AcDbEntity
  8
0
  6
CONTINUOUS
 62
               7
100
AcDbLine
 10
162.09999999999999
 20
175.5
 30
0.0
 11
282.10000000000002
 21
175.5
 31
0.0
  0
LINE
  5
5C6
100
AcDbEntity
  8
0
  6
CONTINUOUS
 62
               7
100
AcDbLine
 10
-281.25
 20
175.5
 30
0.0
 11
-161.25
 21
175.5
 31
0.0
  0
LINE
  5
5C7
100
AcDbEntity
  8
0
  6
CONTINUOUS
 62
               7
100
AcDbLine
 10
162.09999999999999
 20
195.5
 30
0.0
 11
162.09999999999999
 21
175.5
 31
0.0
  0
LINE
  5
5C8
100
AcDbEntity
  8
0
  6
CONTINUOUS
 62
               7
100
AcDbLine
 10
-161.25
 20
195.5
 30
0.0
 11
-161.25
 21
175.5
 31
0.0
  0
LINE
  5
5C9
100
AcDbEntity
  8
0
  6
CONTINUOUS
 62
               7
100
AcDbLine
 10
-271.25
 20
-185.0
 30
0.0
 11
-171.25
 21
-185.0
 31
0.0
  0
LINE
  5
5CA
100
AcDbEntity
  8
0
  6
CONTINUOUS
 62
               7
100
AcDbLine
 10
-271.25
 20
-177.0
 30
0.0
 11
-171.25
 21
-177.0
 31
0.0
  0
LINE
  5
5CB
100
AcDbEntity
  8
0
  6
CONTINUOUS
 62
               7
100
AcDbLine
 10
-271.25
 20
-169.0
 30
0.0
 11
-171.25
 21
-169.0
 31
0.0
  0
LINE
  5
5CC
100
AcDbEntity
  8
0
  6
CONTINUOUS
 62
               7
100
AcDbLine
 10
-271.25
 20
-161.0
 30
0.0
 11
-171.25
 21
-161.0
 31
0.0
  0
LINE
  5
5CD
100
AcDbEntity
  8
0
  6
CONTINUOUS
 62
               7
100
AcDbLine
 10
-271.25
 20
-153.0
 30
0.0
 11
-171.25
 21
-153.0
 31
0.0
  0
LINE
  5
5CE
100
AcDbEntity
  8
0
  6
CONTINUOUS
 62
               7
100
AcDbLine
 10
-271.25
 20
-145.0
 30
0.0
 11
-171.25
 21
-145.0
 31
0.0
  0
LINE
  5
5CF
100
AcDbEntity
  8
0
  6
CONTINUOUS
 62
               7
100
AcDbLine
 10
-271.25
 20
-137.0
 30
0.0
 11
-171.25
 21
-137.0
 31
0.0
  0
LINE
  5
5D0
100
AcDbEntity
  8
0
  6
CONTINUOUS
 62
               7
100
AcDbLine
 10
-271.25
 20
-129.0
 30
0.0
 11
-171.25
 21
-129.0
 31
0.0
  0
LINE
  5
5D1
100
AcDbEntity
  8
0
  6
CONTINUOUS
 62
               7
100
AcDbLine
 10
-271.25
 20
-121.0
 30
0.0
 11
-171.25
 21
-121.0
 31
0.0
  0
LINE
  5
5D2
100
AcDbEntity
  8
0
  6
CONTINUOUS
 62
               7
100
AcDbLine
 10
-271.25
 20
-113.0
 30
0.0
 11
-171.25
 21
-113.0
 31
0.0
  0
LINE
  5
5D3
100
AcDbEntity
  8
0
  6
CONTINUOUS
 62
               7
100
AcDbLine
 10
-271.25
 20
-105.0
 30
0.0
 11
-171.25
 21
-105.0
 31
0.0
  0
LINE
  5
5D4
100
AcDbEntity
  8
0
  6
CONTINUOUS
 62
               7
100
AcDbLine
 10
-271.25
 20
-97.0
 30
0.0
 11
-171.25
 21
-97.0
 31
0.0
  0
LINE
  5
5D5
100
AcDbEntity
  8
0
  6
CONTINUOUS
 62
               7
100
AcDbLine
 10
-271.25
 20
-89.0
 30
0.0
 11
-171.25
 21
-89.0
 31
0.0
  0
LINE
  5
5D6
100
AcDbEntity
  8
0
  6
CONTINUOUS
 62
               7
100
AcDbLine
 10
-271.25
 20
-81.0
 30
0.0
 11
-171.25
 21
-81.0
 31
0.0
  0
LINE
  5
5D7
100
AcDbEntity
  8
0
  6
CONTINUOUS
 62
               7
100
AcDbLine
 10
-271.25
 20
-73.0
 30
0.0
 11
-171.25
 21
-73.0
 31
0.0
  0
LINE
  5
5D8
100
AcDbEntity
  8
0
  6
CONTINUOUS
 62
               7
100
AcDbLine
 10
-271.25
 20
-65.0
 30
0.0
 11
-171.25
 21
-65.0
 31
0.0
  0
LINE
  5
5D9
100
AcDbEntity
  8
0
  6
CONTINUOUS
 62
               7
100
AcDbLine
 10
-271.25
 20
-57.0
 30
0.0
 11
-171.25
 21
-57.0
 31
0.0
  0
LINE
  5
5DA
100
AcDbEntity
  8
0
  6
CONTINUOUS
 62
               7
100
AcDbLine
 10
-271.25
 20
-49.0
 30
0.0
 11
-171.25
 21
-49.0
 31
0.0
  0
LINE
  5
5DB
100
AcDbEntity
  8
0
  6
CONTINUOUS
 62
               7
100
AcDbLine
 10
-271.25
 20
-41.0
 30
0.0
 11
-171.25
 21
-41.0
 31
0.0
  0
LINE
  5
5DC
100
AcDbEntity
  8
0
  6
CONTINUOUS
 62
               7
100
AcDbLine
 10
-271.25
 20
-33.0
 30
0.0
 11
-171.25
 21
-33.0
 31
0.0
  0
LINE
  5
5DD
100
AcDbEntity
  8
0
  6
CONTINUOUS
 62
               7
100
AcDbLine
 10
-271.25
 20
-25.0
 30
0.0
 11
-171.25
 21
-25.0
 31
0.0
  0
LINE
  5
5DE
100
AcDbEntity
  8
0
  6
CONTINUOUS
 62
               7
100
AcDbLine
 10
-231.25
 20
-25.0
 30
0.0
 11
-231.25
 21
-185.0
 31
0.0
  0
LINE
  5
5DF
100
AcDbEntity
  8
0
  6
CONTINUOUS
 62
               7
100
AcDbLine
 10
-271.25
 20
-25.0
 30
0.0
 11
-271.25
 21
-185.0
 31
0.0
  0
LINE
  5
5E0
100
AcDbEntity
  8
0
  6
CONTINUOUS
 62
               7
100
AcDbLine
 10
-281.25
 20
-195.0
 30
0.0
 11
-281.25
 21
195.5
 31
0.0
  0
LINE
  5
5E1
100
AcDbEntity
  8
0
  6
CONTINUOUS
 62
               7
100
AcDbLine
 10
-201.25
 20
-25.0
 30
0.0
 11
-201.25
 21
-185.0
 31
0.0
  0
LINE
  5
5E2
100
AcDbEntity
  8
0
  6
CONTINUOUS
 62
               7
100
AcDbLine
 10
-171.25
 20
-25.0
 30
0.0
 11
-171.25
 21
-185.0
 31
0.0
  0
LINE
  5
5E3
100
AcDbEntity
  8
0
  6
CONTINUOUS
 62
               7
100
AcDbLine
 10
94.310000000000002
 20
195.5
 30
0.0
 11
94.310000000000002
 21
-195.0
 31
0.0
  0
LINE
  5
5E4
100
AcDbEntity
  8
0
  6
CONTINUOUS
 62
               7
100
AcDbLine
 10
94.310000000000002
 20
0.25
 30
0.0
 11
282.10000000000002
 21
0.25
 31
0.0
  0
LINE
  5
5E5
100
AcDbEntity
  8
0
  6
CONTINUOUS
 62
               7
100
AcDbLine
 10
139.91
 20
-106.62
 30
0.0
 11
166.91
 21
-106.62
 31
0.0
  0
LINE
  5
5E6
100
AcDbEntity
  8
0
  6
CONTINUOUS
 62
               7
100
AcDbLine
 10
225.41
 20
-106.62
 30
0.0
 11
235.41
 21
-106.62
 31
0.0
  0
LINE
  5
5E7
100
AcDbEntity
  8
0
  6
CONTINUOUS
 62
               7
100
AcDbLine
 10
120.7
 20
126.05
 30
0.0
 11
166.30000000000001
 21
126.05
 31
0.0
  0
LINE
  5
5E8
100
AcDbEntity
  8
0
  6
CONTINUOUS
 62
               7
100
AcDbLine
 10
229.75
 20
126.05
 30
0.0
 11
214.75
 21
126.05
 31
0.0
  0
MTEXT
  5
5E9
100
AcDbEntity
  8
0
  6
CONTINUOUS
 62
               7
100
AcDbMText
 10
201.30997488927844
 20
185.5
 30
0.0
 40
6.3000001907348633
 41
0.0
 71
               4
 72
               1
  1
\W1.200;\A1;Ver.3.0
  0
MTEXT
  5
5EA
100
AcDbEntity
  8
0
  6
CONTINUOUS
 62
               7
100
AcDbMText
 10
170.28099805280428
 20
-185.0
 30
0.0
 40
9.0
 41
0.0
 71
               4
 72
               1
  1
\W1.121;\A1;KOGANEI CORP.
  0
MTEXT
  5
5EB
100
AcDbEntity
  8
0
  6
CONTINUOUS
 62
               7
100
AcDbMText
 10
-251.5746278087926
 20
185.5
 30
0.0
 40
6.3000001907348633
 41
0.0
 71
               4
 72
               1
  1
\W1.119;\A1;F15 SERIES
  0
MTEXT
  5
5EC
100
AcDbEntity
  8
0
  6
CONTINUOUS
 62
               7
100
AcDbMText
 10
-268.26250007319049
 20
160.5
 30
0.0
 40
6.3000001907348633
 41
0.0
 71
               4
 72
               1
  1
\W1.083;\A1;MODEL:F15M4AJ
  0
MTEXT
  5
5ED
100
AcDbEntity
  8
0
  6
CONTINUOUS
 62
               7
100
AcDbMText
 10
-259.5
 20
-29.0
 30
0.0
 40
4.5
 41
0.0
 71
               4
 72
               1
  1
\A1;TYPE
  0
MTEXT
  5
5EE
100
AcDbEntity
  8
0
  6
CONTINUOUS
 62
               7
100
AcDbMText
 10
-251.91666665578606
 20
-21.0
 30
0.0
 40
4.5
 41
0.0
 71
               4
 72
               1
  1
\W1.111;\A1;DIMENSION LIST
  0
MTEXT
  5
5EF
100
AcDbEntity
  8
0
  6
CONTINUOUS
 62
               7
100
AcDbMText
 10
-217.75
 20
-29.0
 30
0.0
 40
4.5
 41
0.0
 71
               4
 72
               1
  1
\A1;L
  0
MTEXT
  5
5F0
100
AcDbEntity
  8
0
  6
CONTINUOUS
 62
               7
100
AcDbMText
 10
-187.75
 20
-29.0
 30
0.0
 40
4.5
 41
0.0
 71
               4
 72
               1
  1
\A1;P
  0
MTEXT
  5
5F1
100
AcDbEntity
  8
0
  6
CONTINUOUS
 62
               7
100
AcDbMText
 10
-222.25
 20
-181.0
 30
0.0
 40
4.5
 41
0.0
 71
               4
 72
               1
  1
\A1;336
  0
MTEXT
  5
5F2
100
AcDbEntity
  8
0
  6
CONTINUOUS
 62
               7
100
AcDbMText
 10
-222.20588234180306
 20
-173.0
 30
0.0
 40
4.5
 41
0.0
 71
               4
 72
               1
  1
\W1.059;\A1;320
  0
MTEXT
  5
5F3
100
AcDbEntity
  8
0
  6
CONTINUOUS
 62
               7
100
AcDbMText
 10
-222.20588234180306
 20
-165.0
 30
0.0
 40
4.5
 41
0.0
 71
               4
 72
               1
  1
\W1.059;\A1;304
  0
MTEXT
  5
5F4
100
AcDbEntity
  8
0
  6
CONTINUOUS
 62
               7
100
AcDbMText
 10
-222.25
 20
-157.0
 30
0.0
 40
4.5
 41
0.0
 71
               4
 72
               1
  1
\A1;288
  0
MTEXT
  5
5F5
100
AcDbEntity
  8
0
  6
CONTINUOUS
 62
               7
100
AcDbMText
 10
-222.25
 20
-149.0
 30
0.0
 40
4.5
 41
0.0
 71
               4
 72
               1
  1
\A1;272
  0
MTEXT
  5
5F6
100
AcDbEntity
  8
0
  6
CONTINUOUS
 62
               7
100
AcDbMText
 10
-222.25
 20
-141.0
 30
0.0
 40
4.5
 41
0.0
 71
               4
 72
               1
  1
\A1;256
  0
MTEXT
  5
5F7
100
AcDbEntity
  8
0
  6
CONTINUOUS
 62
               7
100
AcDbMText
 10
-222.20588234180306
 20
-133.0
 30
0.0
 40
4.5
 41
0.0
 71
               4
 72
               1
  1
\W1.059;\A1;240
  0
MTEXT
  5
5F8
100
AcDbEntity
  8
0
  6
CONTINUOUS
 62
               7
100
AcDbMText
 10
-222.25
 20
-125.0
 30
0.0
 40
4.5
 41
0.0
 71
               4
 72
               1
  1
\A1;224
  0
MTEXT
  5
5F9
100
AcDbEntity
  8
0
  6
CONTINUOUS
 62
               7
100
AcDbMText
 10
-222.20588234180306
 20
-117.0
 30
0.0
 40
4.5
 41
0.0
 71
               4
 72
               1
  1
\W1.059;\A1;208
  0
MTEXT
  5
5FA
100
AcDbEntity
  8
0
  6
CONTINUOUS
 62
               7
100
AcDbMText
 10
-222.15625001257285
 20
-109.0
 30
0.0
 40
4.5
 41
0.0
 71
               4
 72
               1
  1
\W1.125;\A1;192
  0
MTEXT
  5
5FB
100
AcDbEntity
  8
0
  6
CONTINUOUS
 62
               7
100
AcDbMText
 10
-222.15625001257285
 20
-101.0
 30
0.0
 40
4.5
 41
0.0
 71
               4
 72
               1
  1
\W1.125;\A1;176
  0
MTEXT
  5
5FC
100
AcDbEntity
  8
0
  6
CONTINUOUS
 62
               7
100
AcDbMText
 10
-222.10000003576278
 20
-93.0
 30
0.0
 40
4.5
 41
0.0
 71
               4
 72
               1
  1
\W1.200;\A1;160
  0
MTEXT
  5
5FD
100
AcDbEntity
  8
0
  6
CONTINUOUS
 62
               7
100
AcDbMText
 10
-222.15625001257285
 20
-85.0
 30
0.0
 40
4.5
 41
0.0
 71
               4
 72
               1
  1
\W1.125;\A1;144
  0
MTEXT
  5
5FE
100
AcDbEntity
  8
0
  6
CONTINUOUS
 62
               7
100
AcDbMText
 10
-222.15625001257285
 20
-77.0
 30
0.0
 40
4.5
 41
0.0
 71
               4
 72
               1
  1
\W1.125;\A1;128
  0
MTEXT
  5
5FF
100
AcDbEntity
  8
0
  6
CONTINUOUS
 62
               7
100
AcDbMText
 10
-222.03571434410617
 20
-69.0
 30
0.0
 40
4.5
 41
0.0
 71
               4
 72
               1
  1
\W1.286;\A1;112
  0
MTEXT
  5
600
100
AcDbEntity
  8
0
  6
CONTINUOUS
 62
               7
100
AcDbMText
 10
-217.75
 20
-61.0
 30
0.0
 40
4.5
 41
0.0
 71
               4
 72
               1
  1
\A1;96
  0
MTEXT
  5
601
100
AcDbEntity
  8
0
  6
CONTINUOUS
 62
               7
100
AcDbMText
 10
-217.68181817221173
 20
-53.0
 30
0.0
 40
4.5
 41
0.0
 71
               4
 72
               1
  1
\W1.091;\A1;80
  0
MTEXT
  5
602
100
AcDbEntity
  8
0
  6
CONTINUOUS
 62
               7
100
AcDbMText
 10
-217.75
 20
-45.0
 30
0.0
 40
4.5
 41
0.0
 71
               4
 72
               1
  1
\A1;64
  0
MTEXT
  5
603
100
AcDbEntity
  8
0
  6
CONTINUOUS
 62
               7
100
AcDbMText
 10
-217.75
 20
-37.0
 30
0.0
 40
4.5
 41
0.0
 71
               4
 72
               1
  1
\A1;48
  0
MTEXT
  5
604
100
AcDbEntity
  8
0
  6
CONTINUOUS
 62
               7
100
AcDbMText
 10
-268.45000003377595
 20
-181.0
 30
0.0
 40
4.5
 41
0.0
 71
               4
 72
               1
  1
\W1.067;\A1;F15M20AJ
  0
MTEXT
  5
605
100
AcDbEntity
  8
0
  6
CONTINUOUS
 62
               7
100
AcDbMText
 10
-263.96249996893107
 20
-37.0
 30
0.0
 40
4.5
 41
0.0
 71
               4
 72
               1
  1
\W1.050;\A1;F15M2AJ
  0
MTEXT
  5
606
100
AcDbEntity
  8
0
  6
CONTINUOUS
 62
               7
100
AcDbMText
 10
-263.96249996893107
 20
-45.0
 30
0.0
 40
4.5
 41
0.0
 71
               4
 72
               1
  1
\W1.050;\A1;F15M3AJ
  0
MTEXT
  5
607
100
AcDbEntity
  8
0
  6
CONTINUOUS
 62
               7
100
AcDbMText
 10
-263.96249996893107
 20
-53.0
 30
0.0
 40
4.5
 41
0.0
 71
               4
 72
               1
  1
\W1.050;\A1;F15M4AJ
  0
MTEXT
  5
608
100
AcDbEntity
  8
0
  6
CONTINUOUS
 62
               7
100
AcDbMText
 10
-263.96249996893107
 20
-61.0
 30
0.0
 40
4.5
 41
0.0
 71
               4
 72
               1
  1
\W1.050;\A1;F15M5AJ
  0
MTEXT
  5
609
100
AcDbEntity
  8
0
  6
CONTINUOUS
 62
               7
100
AcDbMText
 10
-263.96249996893107
 20
-69.0
 30
0.0
 40
4.5
 41
0.0
 71
               4
 72
               1
  1
\W1.050;\A1;F15M6AJ
  0
MTEXT
  5
60A
100
AcDbEntity
  8
0
  6
CONTINUOUS
 62
               7
100
AcDbMText
 10
-263.96249996893107
 20
-77.0
 30
0.0
 40
4.5
 41
0.0
 71
               4
 72
               1
  1
\W1.050;\A1;F15M7AJ
  0
MTEXT
  5
60B
100
AcDbEntity
  8
0
  6
CONTINUOUS
 62
               7
100
AcDbMText
 10
-263.96249996893107
 20
-85.0
 30
0.0
 40
4.5
 41
0.0
 71
               4
 72
               1
  1
\W1.050;\A1;F15M8AJ
  0
MTEXT
  5
60C
100
AcDbEntity
  8
0
  6
CONTINUOUS
 62
               7
100
AcDbMText
 10
-263.96249996893107
 20
-93.0
 30
0.0
 40
4.5
 41
0.0
 71
               4
 72
               1
  1
\W1.050;\A1;F15M9AJ
  0
MTEXT
  5
60D
100
AcDbEntity
  8
0
  6
CONTINUOUS
 62
               7
100
AcDbMText
 10
-268.41279080697052
 20
-101.0
 30
0.0
 40
4.5
 41
0.0
 71
               4
 72
               1
  1
\W1.116;\A1;F15M10AJ
  0
MTEXT
  5
60E
100
AcDbEntity
  8
0
  6
CONTINUOUS
 62
               7
100
AcDbMText
 10
-268.39285713049111
 20
-109.0
 30
0.0
 40
4.5
 41
0.0
 71
               4
 72
               1
  1
\W1.143;\A1;F15M11AJ
  0
MTEXT
  5
60F
100
AcDbEntity
  8
0
  6
CONTINUOUS
 62
               7
100
AcDbMText
 10
-268.43181819881323
 20
-117.0
 30
0.0
 40
4.5
 41
0.0
 71
               4
 72
               1
  1
\W1.091;\A1;F15M12AJ
  0
MTEXT
  5
610
100
AcDbEntity
  8
0
  6
CONTINUOUS
 62
               7
100
AcDbMText
 10
-268.43181819881323
 20
-125.0
 30
0.0
 40
4.5
 41
0.0
 71
               4
 72
               1
  1
\W1.091;\A1;F15M13AJ
  0
MTEXT
  5
611
100
AcDbEntity
  8
0
  6
CONTINUOUS
 62
               7
100
AcDbMText
 10
-268.43181819881323
 20
-133.0
 30
0.0
 40
4.5
 41
0.0
 71
               4
 72
               1
  1
\W1.091;\A1;F15M14AJ
  0
MTEXT
  5
612
100
AcDbEntity
  8
0
  6
CONTINUOUS
 62
               7
100
AcDbMText
 10
-268.43181819881323
 20
-141.0
 30
0.0
 40
4.5
 41
0.0
 71
               4
 72
               1
  1
\W1.091;\A1;F15M15AJ
  0
MTEXT
  5
613
100
AcDbEntity
  8
0
  6
CONTINUOUS
 62
               7
100
AcDbMText
 10
-268.43181819881323
 20
-149.0
 30
0.0
 40
4.5
 41
0.0
 71
               4
 72
               1
  1
\W1.091;\A1;F15M16AJ
  0
MTEXT
  5
614
100
AcDbEntity
  8
0
  6
CONTINUOUS
 62
               7
100
AcDbMText
 10
-268.43181819881323
 20
-157.0
 30
0.0
 40
4.5
 41
0.0
 71
               4
 72
               1
  1
\W1.091;\A1;F15M17AJ
  0
MTEXT
  5
615
100
AcDbEntity
  8
0
  6
CONTINUOUS
 62
               7
100
AcDbMText
 10
-268.43181819881323
 20
-165.0
 30
0.0
 40
4.5
 41
0.0
 71
               4
 72
               1
  1
\W1.091;\A1;F15M18AJ
  0
MTEXT
  5
616
100
AcDbEntity
  8
0
  6
CONTINUOUS
 62
               7
100
AcDbMText
 10
-268.43181819881323
 20
-173.0
 30
0.0
 40
4.5
 41
0.0
 71
               4
 72
               1
  1
\W1.091;\A1;F15M19AJ
  0
MTEXT
  5
617
100
AcDbEntity
  8
0
  6
CONTINUOUS
 62
               7
100
AcDbMText
 10
-187.68181817221173
 20
-37.0
 30
0.0
 40
4.5
 41
0.0
 71
               4
 72
               1
  1
\W1.091;\A1;40
  0
MTEXT
  5
618
100
AcDbEntity
  8
0
  6
CONTINUOUS
 62
               7
100
AcDbMText
 10
-187.75
 20
-45.0
 30
0.0
 40
4.5
 41
0.0
 71
               4
 72
               1
  1
\A1;56
  0
MTEXT
  5
619
100
AcDbEntity
  8
0
  6
CONTINUOUS
 62
               7
100
AcDbMText
 10
-187.75
 20
-53.0
 30
0.0
 40
4.5
 41
0.0
 71
               4
 72
               1
  1
\A1;72
  0
MTEXT
  5
61A
100
AcDbEntity
  8
0
  6
CONTINUOUS
 62
               7
100
AcDbMText
 10
-187.75
 20
-61.0
 30
0.0
 40
4.5
 41
0.0
 71
               4
 72
               1
  1
\A1;88
  0
MTEXT
  5
61B
100
AcDbEntity
  8
0
  6
CONTINUOUS
 62
               7
100
AcDbMText
 10
-192.10000003576278
 20
-69.0
 30
0.0
 40
4.5
 41
0.0
 71
               4
 72
               1
  1
\W1.200;\A1;104
  0
MTEXT
  5
61C
100
AcDbEntity
  8
0
  6
CONTINUOUS
 62
               7
100
AcDbMText
 10
-192.10000003576278
 20
-77.0
 30
0.0
 40
4.5
 41
0.0
 71
               4
 72
               1
  1
\W1.200;\A1;120
  0
MTEXT
  5
61D
100
AcDbEntity
  8
0
  6
CONTINUOUS
 62
               7
100
AcDbMText
 10
-192.15625001257285
 20
-85.0
 30
0.0
 40
4.5
 41
0.0
 71
               4
 72
               1
  1
\W1.125;\A1;136
  0
MTEXT
  5
61E
100
AcDbEntity
  8
0
  6
CONTINUOUS
 62
               7
100
AcDbMText
 10
-192.15625001257285
 20
-93.0
 30
0.0
 40
4.5
 41
0.0
 71
               4
 72
               1
  1
\W1.125;\A1;152
  0
MTEXT
  5
61F
100
AcDbEntity
  8
0
  6
CONTINUOUS
 62
               7
100
AcDbMText
 10
-192.15625001257285
 20
-101.0
 30
0.0
 40
4.5
 41
0.0
 71
               4
 72
               1
  1
\W1.125;\A1;168
  0
MTEXT
  5
620
100
AcDbEntity
  8
0
  6
CONTINUOUS
 62
               7
100
AcDbMText
 10
-192.15625001257285
 20
-109.0
 30
0.0
 40
4.5
 41
0.0
 71
               4
 72
               1
  1
\W1.125;\A1;184
  0
MTEXT
  5
621
100
AcDbEntity
  8
0
  6
CONTINUOUS
 62
               7
100
AcDbMText
 10
-192.15624997485429
 20
-117.0
 30
0.0
 40
4.5
 41
0.0
 71
               4
 72
               1
  1
\W1.125;\A1;200
  0
MTEXT
  5
622
100
AcDbEntity
  8
0
  6
CONTINUOUS
 62
               7
100
AcDbMText
 10
-192.15625001257285
 20
-125.0
 30
0.0
 40
4.5
 41
0.0
 71
               4
 72
               1
  1
\W1.125;\A1;216
  0
MTEXT
  5
623
100
AcDbEntity
  8
0
  6
CONTINUOUS
 62
               7
100
AcDbMText
 10
-192.25
 20
-133.0
 30
0.0
 40
4.5
 41
0.0
 71
               4
 72
               1
  1
\A1;232
  0
MTEXT
  5
624
100
AcDbEntity
  8
0
  6
CONTINUOUS
 62
               7
100
AcDbMText
 10
-192.25
 20
-141.0
 30
0.0
 40
4.5
 41
0.0
 71
               4
 72
               1
  1
\A1;248
  0
MTEXT
  5
625
100
AcDbEntity
  8
0
  6
CONTINUOUS
 62
               7
100
AcDbMText
 10
-192.25
 20
-149.0
 30
0.0
 40
4.5
 41
0.0
 71
               4
 72
               1
  1
\A1;264
  0
MTEXT
  5
626
100
AcDbEntity
  8
0
  6
CONTINUOUS
 62
               7
100
AcDbMText
 10
-192.20588234180306
 20
-157.0
 30
0.0
 40
4.5
 41
0.0
 71
               4
 72
               1
  1
\W1.059;\A1;280
  0
MTEXT
  5
627
100
AcDbEntity
  8
0
  6
CONTINUOUS
 62
               7
100
AcDbMText
 10
-192.25
 20
-165.0
 30
0.0
 40
4.5
 41
0.0
 71
               4
 72
               1
  1
\A1;296
  0
MTEXT
  5
628
100
AcDbEntity
  8
0
  6
CONTINUOUS
 62
               7
100
AcDbMText
 10
-192.15625001257285
 20
-173.0
 30
0.0
 40
4.5
 41
0.0
 71
               4
 72
               1
  1
\W1.125;\A1;312
  0
MTEXT
  5
629
100
AcDbEntity
  8
0
  6
CONTINUOUS
 62
               7
100
AcDbMText
 10
-192.25
 20
-181.0
 30
0.0
 40
4.5
 41
0.0
 71
               4
 72
               1
  1
\A1;328
  0
MTEXT
  5
62A
100
AcDbEntity
  8
0
  6
CONTINUOUS
 62
               7
100
AcDbMText
 10
107.32717668646974
 20
160.5
 30
0.0
 40
6.3000001907348633
 41
0.0
 71
               4
 72
               1
  1
\W1.105;\A1;MODEL:M
  0
MTEXT
  5
62B
100
AcDbEntity
  8
0
  6
CONTINUOUS
 62
               7
100
AcDbMText
 10
107.30065028182506
 20
-14.75
 30
0.0
 40
6.3000001907348633
 41
0.0
 71
               4
 72
               1
  1
\W1.080;\A1;MODEL:-PL
  0
DIMENSION
  5
640
100
AcDbEntity
  8
0
  6
CONTINUOUS
 62
               2
100
AcDbDimension
  2
*D8
 10
-30.000015258789063
 20
162.16825866699219
 30
0.0
 11
-41.329743385314941
 21
162.16825866699219
 31
0.0
 70
             128
  1
<>
  3
MXDIMSTYLE
100
AcDbAlignedDimension
 13
-34.000030517578125
 23
90.0
 33
0.0
 14
-30.000015258789063
 24
64.25
 34
0.0
100
AcDbRotatedDimension
1001
ACAD
1000
DSTYLE
1002
{
1070
               6
1000
_OPEN30
1070
               7
1000
_OPEN30
1070
              41
1040
2.77
1070
              42
1040
0.0
1070
              44
1040
1.5000152587890625
1070
              75
1070
               1
1070
             140
1040
4.5
1070
             173
1070
               1
1070
             271
1070
               0
1070
             284
1070
               8
1070
             341
1005
633
1002
}
  0
DIMENSION
  5
64C
100
AcDbEntity
  8
0
  6
CONTINUOUS
 62
               2
100
AcDbDimension
  2
*D10
 10
41.999969482421875
 20
162.16825866699219
 30
0.0
 11
5.9999771118164062
 21
162.16825866699219
 31
0.0
 70
             128
  1
P
  3
MXDIMSTYLE
100
AcDbAlignedDimension
 13
-30.000015258789063
 23
69.25
 33
0.0
 14
41.999969482421875
 24
64.25
 34
0.0
100
AcDbRotatedDimension
1001
ACAD
1000
DSTYLE
1002
{
1070
               6
1000
_OPEN30
1070
               7
1000
_OPEN30
1070
              41
1040
2.77
1070
              42
1040
0.0
1070
              44
1040
1.5000152587890625
1070
              75
1070
               1
1070
              78
1070
               0
1070
             140
1040
4.5
1070
             173
1070
               1
1070
             271
1070
               0
1070
             341
1005
633
1002
}
  0
DIMENSION
  5
65A
100
AcDbEntity
  8
0
  6
CONTINUOUS
 62
               2
100
AcDbDimension
  2
*D11
 10
45.999969482421875
 20
162.16825866699219
 30
0.0
 11
52.983066558837891
 21
162.16825866699219
 31
0.0
 70
             128
  1
<>
  3
MXDIMSTYLE
100
AcDbAlignedDimension
 13
41.999969482421875
 23
69.25
 33
0.0
 14
45.999969482421875
 24
90.0
 34
0.0
100
AcDbRotatedDimension
1001
ACAD
1000
DSTYLE
1002
{
1070
               6
1000
_OPEN30
1070
               7
1000
_OPEN30
1070
              41
1040
2.77
1070
              44
1040
1.5000152587890625
1070
              75
1070
               1
1070
              76
1070
               1
1070
             140
1040
4.5
1070
             173
1070
               1
1070
             271
1070
               0
1070
             284
1070
               8
1070
             341
1005
633
1002
}
  0
DIMENSION
  5
667
100
AcDbEntity
  8
0
  6
CONTINUOUS
 62
               2
100
AcDbDimension
  2
*D12
 10
45.999969482421875
 20
172.16825866699219
 30
0.0
 11
5.999969482421875
 21
172.16825866699219
 31
0.0
 70
             128
  1
L
  3
MXDIMSTYLE
100
AcDbAlignedDimension
 13
-34.000030517578125
 23
85.0
 33
0.0
 14
45.999969482421875
 24
85.0
 34
0.0
100
AcDbRotatedDimension
1001
ACAD
1000
DSTYLE
1002
{
1070
               6
1000
_OPEN30
1070
               7
1000
_OPEN30
1070
              41
1040
2.77
1070
              44
1040
1.5000152587890625
1070
              78
1070
               0
1070
             140
1040
4.5
1070
             173
1070
               1
1070
             271
1070
               0
1070
             341
1005
633
1002
}
  0
MTEXT
  5
668
100
AcDbEntity
  8
0
  6
CONTINUOUS
 62
               2
100
AcDbMText
 10
40.950424695569794
 20
-77.476346563212132
 30
0.0
 40
4.5
 41
0.0
 71
               4
 72
               1
  1
\W1.071;\A1;F15BP
  0
LEADER
  5
669
100
AcDbEntity
  8
0
  6
CONTINUOUS
 62
               2
100
AcDbLeader
  3
MXDIMSTYLE
 73
               3
 74
               0
 75
               0
 40
0.0
 76
               3
 10
30.000048136855039
 20
-98.499969482421875
 30
0.0
 10
39.449755572989886
 20
-82.132596086374974
 30
0.0
 10
63.450424694732135
 20
-82.132596086374974
 30
0.0
 77
               2
1001
ACAD
1000
DSTYLE
1002
{
1070
               6
1000
_OPEN30
1070
               7
1000
_OPEN30
1070
              41
1040
2.77
1070
             173
1070
               1
1070
             341
1005
633
1002
}
  0
MTEXT
  5
66A
100
AcDbEntity
  8
0
  6
CONTINUOUS
 62
               2
100
AcDbMText
 10
23.147116169626674
 20
-55.183439099947876
 30
0.0
 40
4.5
 41
0.0
 71
               4
 72
               1
  1
\W1.065;\A1;F15T3-A1-PS
  0
LEADER
  5
66B
100
AcDbEntity
  8
0
  6
CONTINUOUS
 62
               2
100
AcDbLeader
  3
MXDIMSTYLE
 73
               3
 74
               0
 75
               0
 40
0.0
 76
               3
 10
13.999984741210938
 20
-68.499889802959217
 30
0.0
 10
18.999954223632813
 20
-59.839688623110717
 30
0.0
 10
72.647116184234619
 20
-59.839688623110717
 30
0.0
 77
               2
1001
ACAD
1000
DSTYLE
1002
{
1070
               6
1000
_OPEN30
1070
               7
1000
_OPEN30
1070
              41
1040
2.77
1070
             173
1070
               1
1070
             341
1005
633
1002
}
  0
MTEXT
  5
66C
100
AcDbEntity
  8
0
  6
CONTINUOUS
 62
               2
100
AcDbMText
 10
12.062543333245461
 20
-46.309522836850761
 30
0.0
 40
4.5
 41
0.0
 71
               4
 72
               1
  1
\W1.065;\A1;F15T2-A1-PS
  0
LEADER
  5
66D
100
AcDbEntity
  8
0
  6
CONTINUOUS
 62
               2
100
AcDbLeader
  3
MXDIMSTYLE
 73
               3
 74
               0
 75
               0
 40
0.0
 76
               3
 10
-2.0000152587890625
 20
-68.499846070898556
 30
0.0
 10
8.1232869181811651
 20
-50.965772360013602
 30
0.0
 10
61.562543347853406
 20
-50.965772360013602
 30
0.0
 77
               2
1001
ACAD
1000
DSTYLE
1002
{
1070
               6
1000
_OPEN30
1070
               7
1000
_OPEN30
1070
              41
1040
2.77
1070
             173
1070
               1
1070
             341
1005
633
1002
}
  0
MTEXT
  5
66E
100
AcDbEntity
  8
0
  6
CONTINUOUS
 62
               2
100
AcDbMText
 10
-80.018943789339332
 20
-47.03390727074904
 30
0.0
 40
4.5
 41
0.0
 71
               4
 72
               1
  1
\W1.100;\A1;F15T1-A1-PS
  0
LEADER
  5
66F
100
AcDbEntity
  8
0
  6
CONTINUOUS
 62
               2
100
AcDbLeader
  3
MXDIMSTYLE
 73
               3
 74
               0
 75
               0
 40
0.0
 76
               3
 10
-18.000039327238841
 20
-68.499969482421875
 30
0.0
 10
-27.705189207977327
 20
-51.690156793911882
 30
0.0
 10
-80.018943766540559
 20
-51.690156793911882
 30
0.0
 77
               2
1001
ACAD
1000
DSTYLE
1002
{
1070
               6
1000
_OPEN30
1070
               7
1000
_OPEN30
1070
              41
1040
2.77
1070
             173
1070
               1
1070
             341
1005
633
1002
}
  0
ENDSEC
  0
SECTION
  2
OBJECTS
  0
DICTIONARY
  5
19
100
AcDbDictionary
  3
ACAD_GROUP
350
1A
  3
ACAD_MLINESTYLE
350
1B
  0
DICTIONARY
  5
1A
102
{ACAD_REACTORS
330
19
102
}
100
AcDbDictionary
  0
DICTIONARY
  5
1B
102
{ACAD_REACTORS
330
19
102
}
100
AcDbDictionary
  3
STANDARD
350
1C
  0
MLINESTYLE
  5
1C
102
{ACAD_REACTORS
330
1B
102
}
100
AcDbMlineStyle
  2
Standard
 70
               0
  3

 62
               0
 51
90.0
 52
90.0
 71
               2
 49
0.5
 62
             256
  6
ByLayer
 49
-0.5
 62
             256
  6
ByLayer
  0
ENDSEC
  0
EOF
