  0
SECTION
  2
HEADER
  9
$ACADVER
  1
AC1012
  9
$DWGCODEPAGE
  3
dos932
  9
$INSBASE
 10
0.0
 20
0.0
 30
0.0
  9
$EXTMIN
 10
-281.25
 20
-195.0
 30
0.0
  9
$EXTMAX
 10
285.6319057062413
 20
195.5
 30
0.0
  9
$LIMMIN
 10
-281.25
 20
-195.0
  9
$LIMMAX
 10
285.6319057062413
 20
195.5
  9
$ORTHOMODE
 70
               0
  9
$REGENMODE
 70
               1
  9
$FILLMODE
 70
               1
  9
$QTEXTMODE
 70
               0
  9
$MIRRTEXT
 70
               1
  9
$DRAGMODE
 70
               2
  9
$LTSCALE
 40
1.0
  9
$OSMODE
 70
               0
  9
$ATTMODE
 70
               1
  9
$TEXTSIZE
 40
3.2000000476837158
  9
$TRACEWID
 40
0.05
  9
$TEXTSTYLE
  7
MX_NOTE_STANDARD
  9
$CLAYER
  8
0
  9
$CELTYPE
  6
CONTINUOUS
  9
$CECOLOR
 62
             256
  9
$CELTSCALE
 40
1.0
  9
$DELOBJ
 70
               1
  9
$DISPSILH
 70
               0
  9
$DIMSCALE
 40
1.0
  9
$DIMASZ
 40
2.5
  9
$DIMEXO
 40
1.5
  9
$DIMDLI
 40
3.75
  9
$DIMRND
 40
0.0
  9
$DIMDLE
 40
0.0
  9
$DIMEXE
 40
1.5
  9
$DIMTP
 40
0.0
  9
$DIMTM
 40
0.0
  9
$DIMTXT
 40
3.2000000476837158
  9
$DIMCEN
 40
2.5
  9
$DIMTSZ
 40
0.0
  9
$DIMTOL
 70
               0
  9
$DIMLIM
 70
               0
  9
$DIMTIH
 70
               0
  9
$DIMTOH
 70
               0
  9
$DIMSE1
 70
               0
  9
$DIMSE2
 70
               0
  9
$DIMTAD
 70
               1
  9
$DIMZIN
 70
               8
  9
$DIMBLK
  1

  9
$DIMASO
 70
               1
  9
$DIMSHO
 70
               1
  9
$DIMPOST
  1

  9
$DIMAPOST
  1

  9
$DIMALT
 70
               0
  9
$DIMALTD
 70
               4
  9
$DIMALTF
 40
0.03937007874016
  9
$DIMLFAC
 40
1.0
  9
$DIMTOFL
 70
               1
  9
$DIMTVP
 40
0.0
  9
$DIMTIX
 70
               0
  9
$DIMSOXD
 70
               0
  9
$DIMSAH
 70
               0
  9
$DIMBLK1
  1

  9
$DIMBLK2
  1

  9
$DIMSTYLE
  2
MXDIMSTYLE
  9
$DIMCLRD
 70
               0
  9
$DIMCLRE
 70
               0
  9
$DIMCLRT
 70
               0
  9
$DIMTFAC
 40
1.0
  9
$DIMGAP
 40
1.0
  9
$DIMJUST
 70
               0
  9
$DIMSD1
 70
               0
  9
$DIMSD2
 70
               0
  9
$DIMTOLJ
 70
               1
  9
$DIMTZIN
 70
               0
  9
$DIMALTZ
 70
               0
  9
$DIMALTTZ
 70
               0
  9
$DIMFIT
 70
               3
  9
$DIMUPT
 70
               1
  9
$DIMUNIT
 70
               2
  9
$DIMDEC
 70
               4
  9
$DIMTDEC
 70
               4
  9
$DIMALTU
 70
               2
  9
$DIMALTTD
 70
               4
  9
$DIMTXSTY
  7
MX_NOTE_STANDARD
  9
$DIMAUNIT
 70
               0
  9
$LUNITS
 70
               2
  9
$LUPREC
 70
               4
  9
$SKETCHINC
 40
0.1
  9
$FILLETRAD
 40
0.0
  9
$AUNITS
 70
               0
  9
$AUPREC
 70
               0
  9
$MENU
  1
acad
  9
$ELEVATION
 40
0.0
  9
$PELEVATION
 40
0.0
  9
$THICKNESS
 40
0.0
  9
$LIMCHECK
 70
               0
  9
$BLIPMODE
 70
               1
  9
$CHAMFERA
 40
0.0
  9
$CHAMFERB
 40
0.0
  9
$CHAMFERC
 40
0.0
  9
$CHAMFERD
 40
0.0
  9
$SKPOLY
 70
               0
  9
$TDCREATE
 40
2453378.356377315
  9
$TDUPDATE
 40
2453378.356377315
  9
$TDINDWG
 40
0.0000000000
  9
$TDUSRTIMER
 40
0.0000000000
  9
$USRTIMER
 70
               1
  9
$ANGBASE
 50
0.0
  9
$ANGDIR
 70
               0
  9
$PDMODE
 70
               0
  9
$PDSIZE
 40
0.0
  9
$PLINEWID
 40
0.0
  9
$COORDS
 70
               1
  9
$SPLFRAME
 70
               0
  9
$SPLINETYPE
 70
               6
  9
$SPLINESEGS
 70
               8
  9
$ATTDIA
 70
               0
  9
$ATTREQ
 70
               1
  9
$HANDLING
 70
               1
  9
$HANDSEED
  5
514
  9
$SURFTAB1
 70
               6
  9
$SURFTAB2
 70
               6
  9
$SURFTYPE
 70
               6
  9
$SURFU
 70
               6
  9
$SURFV
 70
               6
  9
$UCSNAME
  2

  9
$UCSORG
 10
0.0
 20
0.0
 30
0.0
  9
$UCSXDIR
 10
1.0
 20
0.0
 30
0.0
  9
$UCSYDIR
 10
0.0
 20
1.0
 30
0.0
  9
$PUCSNAME
  2

  9
$PUCSORG
 10
0.0
 20
0.0
 30
0.0
  9
$PUCSXDIR
 10
1.0
 20
0.0
 30
0.0
  9
$PUCSYDIR
 10
0.0
 20
1.0
 30
0.0
  9
$USERI1
 70
               0
  9
$USERI2
 70
               0
  9
$USERI3
 70
               0
  9
$USERI4
 70
               0
  9
$USERI5
 70
               0
  9
$USERR1
 40
0.0
  9
$USERR2
 40
0.0
  9
$USERR3
 40
0.0
  9
$USERR4
 40
0.0
  9
$USERR5
 40
0.0
  9
$WORLDVIEW
 70
               1
  9
$SHADEDGE
 70
               3
  9
$SHADEDIF
 70
              70
  9
$TILEMODE
 70
               1
  9
$MAXACTVP
 70
              16
  9
$PINSBASE
 10
0.0
 20
0.0
 30
0.0
  9
$PLIMCHECK
 70
               0
  9
$PEXTMIN
 10
1.0000000000000000E+20
 20
1.0000000000000000E+20
 30
1.0000000000000000E+20
  9
$PEXTMAX
 10
-1.0000000000000000E+20
 20
-1.0000000000000000E+20
 30
-1.0000000000000000E+20
  9
$PLIMMIN
 10
0.0
 20
0.0
  9
$PLIMMAX
 10
12.0
 20
9.0
  9
$UNITMODE
 70
               0
  9
$VISRETAIN
 70
               0
  9
$PLINEGEN
 70
               1
  9
$PSLTSCALE
 70
               0
  9
$TREEDEPTH
 70
            3020
  9
$PICKSTYLE
 70
               1
  9
$CMLSTYLE
  2
Standard
  9
$CMLJUST
 70
               0
  9
$CMLSCALE
 40
1.0
  9
$SAVEIMAGES
 70
               0
  0
ENDSEC
  0
SECTION
  2
CLASSES
  0
CLASS
  1
LWPOLYLINE
  2
AcDbPolyline
  3
"AutoCAD"
 90
        0
280
               0
281
               1
  0
CLASS
  1
IMAGE
  2
AcDbRasterImage
  3
ISM
 90
      127
280
               0
281
               1
  0
CLASS
  1
OLE2FRAME
  2
AcDbOle2Frame
  3
""
 90
        0
280
               0
281
               1
  0
CLASS
  1
HATCH
  2
AcDbHatch
  3
"ACAD_SEDONA"
 90
        0
280
               0
281
               1
  0
CLASS
  1
DICTIONARYVAR
  2
AcDbDictionaryVar
  3
"AutoCAD"
 90
        0
280
               0
281
               0
  0
CLASS
  1
RASTERVARIABLES
  2
AcDbRasterVariables
  3
ISM
 90
        0
280
               0
281
               0
  0
CLASS
  1
IMAGEDEF
  2
AcDbRasterImageDef
  3
ISM
 90
        0
280
               0
281
               0
  0
CLASS
  1
IMAGEDEF_REACTOR
  2
AcDbRasterImageDefReactor
  3
ISM
 90
        1
280
               0
281
               0
  0
CLASS
  1
IDBUFFER
  2
AcDbIdBuffer
  3
"Acad"
 90
        0
280
               0
281
               0
  0
CLASS
  1
SPATIAL_FILTER
  2
AcDbSpatialFilter
  3
"Acad"
 90
        0
280
               0
281
               0
  0
CLASS
  1
XRECORD
  2
AcDbXrecord
  3
"<Built In>"
 90
        0
280
               0
281
               0
  0
CLASS
  1
SORTENTSTABLE
  2
AcDbSortentsTable
  3
"AutoCAD"
 90
        0
280
               0
281
               0
  0
CLASS
  1
LAYER_INDEX
  2
AcDbLayerIndex
  3
"Acad"
 90
        0
280
               0
281
               0
  0
CLASS
  1
SPATIAL_INDEX
  2
AcDbSpatialIndex
  3
"Acad"
 90
        0
280
               0
281
               0
  0
CLASS
  1
OBJECT_PTR
  2
CAseDLPNTableRecord
  3
"ASE-LPNTableRecord"
 90
        1
280
               0
281
               0
  0
CLASS
  1
LAYOUT
  2
AcDbLayout
  3
"AutoCAD 2000"
 90
        1
280
               0
281
               0
  0
CLASS
  1
PLOTSETTINGS
  2
AcDbPlotSettings
  3
"AutoCAD 2000"
 90
        1
280
               0
281
               0
  0
CLASS
  1
ACDBDICTIONARYWDFLT
  2
AcDbDictionaryWithDefault
  3
"AutoCAD 2000"
 90
        1
280
               0
281
               0
  0
CLASS
  1
ACDBPLACEHOLDER
  2
AcDbPlaceHolder
  3
"AutoCAD 2000"
 90
        1
280
               0
281
               0
  0
ENDSEC
  0
SECTION
  2
TABLES
  0
TABLE
  2
VPORT
  5
7
100
AcDbSymbolTable
 70
               1
  0
VPORT
  5
15
100
AcDbSymbolTableRecord
100
AcDbViewportTableRecord
  2
*ACTIVE
 70
               0
 10
0.0
 20
0.0
 11
1.0
 21
1.0
 12
2.1909528531206206
 22
0.25
 13
0.0
 23
0.0
 14
1.0
 24
1.0
 15
0.0
 25
0.0
 16
0.0
 26
0.0
 36
1.0
 17
0.0
 27
0.0
 37
0.0
 40
394.40500000000003
 41
1.7320508075688772
 42
50.0
 43
0.0
 44
0.0
 50
0.0
 51
0.0
 71
               0
 72
             100
 73
               1
 74
               1
 75
               0
 76
               0
 77
               0
 78
               0
  0
ENDTAB
  0
TABLE
  2
LTYPE
  5
4
100
AcDbSymbolTable
 70
               3
  0
LTYPE
  5
11
100
AcDbSymbolTableRecord
100
AcDbLinetypeTableRecord
  2
BYBLOCK
 70
              64
  3

 72
              65
 73
               0
 40
0.0
  0
LTYPE
  5
12
100
AcDbSymbolTableRecord
100
AcDbLinetypeTableRecord
  2
BYLAYER
 70
              64
  3

 72
              65
 73
               0
 40
0.0
  0
LTYPE
  5
13
100
AcDbSymbolTableRecord
100
AcDbLinetypeTableRecord
  2
CONTINUOUS
 70
              64
  3
Solid line
 72
              65
 73
               0
 40
0.0
  0
ENDTAB
  0
TABLE
  2
LAYER
  5
2
100
AcDbSymbolTable
 70
               2
  0
LAYER
  5
14
100
AcDbSymbolTableRecord
100
AcDbLayerTableRecord
  2
0
 70
               0
 62
               7
  6
CONTINUOUS
  0
LAYER
  5
1D
100
AcDbSymbolTableRecord
100
AcDbLayerTableRecord
  2
DEFPOINTS
 70
               0
 62
               7
  6
CONTINUOUS
  0
ENDTAB
  0
TABLE
  2
STYLE
  5
3
100
AcDbSymbolTable
 70
               1
  0
STYLE
  5
17
100
AcDbSymbolTableRecord
100
AcDbTextStyleTableRecord
  2
MX_NOTE_STANDARD
 70
               0
 40
0.0
 41
1.0
 50
0.0
 71
               0
 42
3.2000000476837158
  3
txt.shx
  4
extfont.shx
  0
ENDTAB
  0
TABLE
  2
VIEW
  5
5
100
AcDbSymbolTable
 70
               0
  0
ENDTAB
  0
TABLE
  2
UCS
  5
6
100
AcDbSymbolTable
 70
               0
  0
ENDTAB
  0
TABLE
  2
APPID
  5
8
100
AcDbSymbolTable
 70
               1
  0
APPID
  5
16
100
AcDbSymbolTableRecord
100
AcDbRegAppTableRecord
  2
ACAD
 70
               0
  0
ENDTAB
  0
TABLE
  2
DIMSTYLE
  5
9
100
AcDbSymbolTable
 70
               1
  0
DIMSTYLE
105
18
100
AcDbSymbolTableRecord
100
AcDbDimStyleTableRecord
  2
MXDIMSTYLE
 70
               0
  3

  4

  5

  6

  7

 40
1.0
 41
2.5
 42
1.5
 43
3.75
 44
1.5
 45
0.0
 46
0.0
 47
0.0
 48
0.0
 71
               0
 72
               0
 73
               0
 74
               0
 75
               0
 76
               0
 77
               1
 78
               8
140
3.2000000476837158
141
2.5
142
0.0
143
0.03937007874016
144
1.0
145
0.0
146
1.0
147
1.0
170
               0
171
               4
172
               1
173
               0
174
               0
175
               0
176
               0
177
               0
178
               0
270
               2
271
               4
272
               4
273
               2
274
               4
275
               0
280
               0
281
               0
282
               0
283
               1
284
               0
285
               0
286
               0
287
               3
288
               1
340
17
  0
ENDTAB
  0
TABLE
  2
BLOCK_RECORD
  5
1
100
AcDbSymbolTable
 70
              13
  0
BLOCK_RECORD
  5
A
100
AcDbSymbolTableRecord
100
AcDbBlockTableRecord
  2
*MODEL_SPACE
  0
BLOCK_RECORD
  5
B
100
AcDbSymbolTableRecord
100
AcDbBlockTableRecord
  2
*PAPER_SPACE
  0
BLOCK_RECORD
  5
1E
100
AcDbSymbolTableRecord
100
AcDbBlockTableRecord
  2
F10MF-1
  0
BLOCK_RECORD
  5
1F
100
AcDbSymbolTableRecord
100
AcDbBlockTableRecord
  2
F10MF-2
  0
BLOCK_RECORD
  5
20
100
AcDbSymbolTableRecord
100
AcDbBlockTableRecord
  2
F10MF-3
  0
BLOCK_RECORD
  5
21
100
AcDbSymbolTableRecord
100
AcDbBlockTableRecord
  2
F10MF-4
  0
BLOCK_RECORD
  5
22
100
AcDbSymbolTableRecord
100
AcDbBlockTableRecord
  2
F10MF-5
  0
BLOCK_RECORD
  5
23
100
AcDbSymbolTableRecord
100
AcDbBlockTableRecord
  2
F10MF-6
  0
BLOCK_RECORD
  5
24
100
AcDbSymbolTableRecord
100
AcDbBlockTableRecord
  2
F10MF-7
  0
BLOCK_RECORD
  5
25
100
AcDbSymbolTableRecord
100
AcDbBlockTableRecord
  2
F10MF-8
  0
BLOCK_RECORD
  5
4D4
100
AcDbSymbolTableRecord
100
AcDbBlockTableRecord
  2
*D8
  0
BLOCK_RECORD
  5
4DA
100
AcDbSymbolTableRecord
100
AcDbBlockTableRecord
  2
_OPEN30
  0
BLOCK_RECORD
  5
4E8
100
AcDbSymbolTableRecord
100
AcDbBlockTableRecord
  2
*D10
  0
BLOCK_RECORD
  5
4F4
100
AcDbSymbolTableRecord
100
AcDbBlockTableRecord
  2
*D11
  0
BLOCK_RECORD
  5
501
100
AcDbSymbolTableRecord
100
AcDbBlockTableRecord
  2
*D12
  0
ENDTAB
  0
ENDSEC
  0
SECTION
  2
BLOCKS
  0
BLOCK
  5
D
100
AcDbEntity
  8
0
100
AcDbBlockBegin
  2
*MODEL_SPACE
 70
               0
 10
0.0
 20
0.0
 30
0.0
  3
*MODEL_SPACE
  1

  0
ENDBLK
  5
E
100
AcDbEntity
  8
0
100
AcDbBlockEnd
  0
BLOCK
  5
F
100
AcDbEntity
 67
               1
  8
0
100
AcDbBlockBegin
  2
*PAPER_SPACE
 70
               0
 10
0.0
 20
0.0
 30
0.0
  3
*PAPER_SPACE
  1

  0
ENDBLK
  5
10
100
AcDbEntity
 67
               1
  8
0
100
AcDbBlockEnd
  0
BLOCK
  5
26
100
AcDbEntity
  8
0
100
AcDbBlockBegin
  2
F10MF-1
 70
               0
 10
0.0
 20
0.0
 30
0.0
  3
F10MF-1
  1

  0
LINE
  5
27
100
AcDbEntity
  8
0
  6
CONTINUOUS
 62
             200
100
AcDbLine
 10
4.0
 20
-12.5
 30
0.0
 11
37.0
 21
-12.5
 31
0.0
  0
LINE
  5
28
100
AcDbEntity
  8
0
  6
CONTINUOUS
 62
             200
100
AcDbLine
 10
4.0
 20
-1.5
 30
0.0
 11
37.0
 21
-1.5
 31
0.0
  0
LINE
  5
29
100
AcDbEntity
  8
0
  6
CONTINUOUS
 62
               7
100
AcDbLine
 10
36.0
 20
28.0
 30
0.0
 11
36.0
 21
-37.599990749359122
 31
0.0
  0
LINE
  5
2A
100
AcDbEntity
  8
0
  6
CONTINUOUS
 62
               7
100
AcDbLine
 10
26.0
 20
-19.450001852863565
 30
0.0
 11
26.0
 21
28.0
 31
0.0
  0
LINE
  5
2B
100
AcDbEntity
  8
0
  6
CONTINUOUS
 62
               7
100
AcDbLine
 10
25.5
 20
28.0
 30
0.0
 11
25.5
 21
6.1499966212575288
 31
0.0
  0
LINE
  5
2C
100
AcDbEntity
  8
0
  6
CONTINUOUS
 62
               7
100
AcDbLine
 10
15.5
 20
-19.450001852863565
 30
0.0
 11
15.5
 21
28.0
 31
0.0
  0
LINE
  5
2D
100
AcDbEntity
  8
0
  6
CONTINUOUS
 62
               7
100
AcDbLine
 10
15.0
 20
28.0
 30
0.0
 11
15.0
 21
6.149998255968697
 31
0.0
  0
LINE
  5
2E
100
AcDbEntity
  8
0
  6
CONTINUOUS
 62
               7
100
AcDbLine
 10
5.0
 20
28.0
 30
0.0
 11
5.0
 21
-19.449992588757866
 31
0.0
  0
LINE
  5
2F
100
AcDbEntity
  8
0
  6
CONTINUOUS
 62
               7
100
AcDbLine
 10
16.500008583068848
 20
-31.0
 30
0.0
 11
16.500008583068848
 21
-29.0
 31
0.0
  0
LINE
  5
30
100
AcDbEntity
  8
0
  6
CONTINUOUS
 62
               7
100
AcDbLine
 10
15.499995231628418
 20
-29.0
 30
0.0
 11
16.899996757507324
 21
-29.0
 31
0.0
  0
LINE
  5
31
100
AcDbEntity
  8
0
  6
CONTINUOUS
 62
               2
100
AcDbLine
 10
17.999995231628418
 20
-27.0
 30
0.0
 11
22.999995231628418
 21
-27.0
 31
0.0
  0
LINE
  5
32
100
AcDbEntity
  8
0
  6
CONTINUOUS
 62
               7
100
AcDbLine
 10
16.899996757507324
 20
-25.0
 30
0.0
 11
15.499995231628418
 21
-25.0
 31
0.0
  0
LINE
  5
33
100
AcDbEntity
  8
0
  6
CONTINUOUS
 62
               7
100
AcDbLine
 10
16.500008583068848
 20
-25.0
 30
0.0
 11
16.500008583068848
 21
-23.0
 31
0.0
  0
LINE
  5
34
100
AcDbEntity
  8
0
  6
CONTINUOUS
 62
               7
100
AcDbLine
 10
24.500004768371582
 20
-31.0
 30
0.0
 11
24.500004768371582
 21
-29.0
 31
0.0
  0
LINE
  5
35
100
AcDbEntity
  8
0
  6
CONTINUOUS
 62
               7
100
AcDbLine
 10
24.099997520446777
 20
-29.0
 30
0.0
 11
25.499995231628418
 21
-29.0
 31
0.0
  0
LINE
  5
36
100
AcDbEntity
  8
0
  6
CONTINUOUS
 62
               7
100
AcDbLine
 10
25.499995231628418
 20
-25.0
 30
0.0
 11
24.099997520446777
 21
-25.0
 31
0.0
  0
LINE
  5
37
100
AcDbEntity
  8
0
  6
CONTINUOUS
 62
               7
100
AcDbLine
 10
24.500004768371582
 20
-25.0
 30
0.0
 11
24.500004768371582
 21
-23.0
 31
0.0
  0
LINE
  5
38
100
AcDbEntity
  8
0
  6
CONTINUOUS
 62
               7
100
AcDbLine
 10
18.573214530944824
 20
-27.29998779296875
 30
0.0
 11
22.426783561706543
 21
-27.29998779296875
 31
0.0
  0
LINE
  5
39
100
AcDbEntity
  8
0
  6
CONTINUOUS
 62
               7
100
AcDbLine
 10
18.573214530944824
 20
-26.699996948242188
 30
0.0
 11
22.426783561706543
 21
-26.699996948242188
 31
0.0
  0
LINE
  5
3A
100
AcDbEntity
  8
0
  6
CONTINUOUS
 62
               7
100
AcDbLine
 10
15.500003814697266
 20
16.5
 30
0.0
 11
25.500003814697266
 21
16.5
 31
0.0
  0
LINE
  5
3B
100
AcDbEntity
  8
0
  6
CONTINUOUS
 62
               7
100
AcDbLine
 10
15.5
 20
18.499984741210938
 30
0.0
 11
25.5
 21
18.499984741210938
 31
0.0
  0
LINE
  5
3C
100
AcDbEntity
  8
0
  6
CONTINUOUS
 62
               2
100
AcDbLine
 10
18.0
 20
24.699996948242188
 30
0.0
 11
23.0
 21
24.699996948242188
 31
0.0
  0
LINE
  5
3D
100
AcDbEntity
  8
0
  6
CONTINUOUS
 62
               4
100
AcDbLine
 10
15.5
 20
52.0
 30
0.0
 11
25.5
 21
52.0
 31
0.0
  0
LINE
  5
3E
100
AcDbEntity
  8
0
  6
CONTINUOUS
 62
               7
100
AcDbLine
 10
15.5
 20
28.0
 30
0.0
 11
25.5
 21
28.0
 31
0.0
  0
LINE
  5
3F
100
AcDbEntity
  8
0
  6
CONTINUOUS
 62
               7
100
AcDbLine
 10
18.573211669921875
 20
24.399993896484375
 30
0.0
 11
22.426788330078125
 21
24.399993896484375
 31
0.0
  0
LINE
  5
40
100
AcDbEntity
  8
0
  6
CONTINUOUS
 62
               7
100
AcDbLine
 10
18.573211669921875
 20
24.999984741210937
 30
0.0
 11
22.426788330078125
 21
24.999984741210937
 31
0.0
  0
LINE
  5
41
100
AcDbEntity
  8
0
  6
CONTINUOUS
 62
               4
100
AcDbLine
 10
15.549999237060547
 20
52.000015258789063
 30
0.0
 11
15.549999237060547
 21
65.500015258789063
 31
0.0
  0
LINE
  5
42
100
AcDbEntity
  8
0
  6
CONTINUOUS
 62
               4
100
AcDbLine
 10
25.000003814697266
 20
61.0
 30
0.0
 11
16.000003814697266
 21
61.0
 31
0.0
  0
LINE
  5
43
100
AcDbEntity
  8
0
  6
CONTINUOUS
 62
               2
100
AcDbLine
 10
25.449996948242187
 20
56.5
 30
0.0
 11
15.549999237060547
 21
56.5
 31
0.0
  0
LINE
  5
44
100
AcDbEntity
  8
0
  6
CONTINUOUS
 62
               4
100
AcDbLine
 10
25.449996948242187
 20
52.0
 30
0.0
 11
25.449996948242187
 21
65.500015258789063
 31
0.0
  0
LINE
  5
45
100
AcDbEntity
  8
0
  6
CONTINUOUS
 62
               4
100
AcDbLine
 10
21.784999847412109
 20
72.0
 30
0.0
 11
21.784999847412109
 21
75.484130859375
 31
0.0
  0
LINE
  5
46
100
AcDbEntity
  8
0
  6
CONTINUOUS
 62
               4
100
AcDbLine
 10
23.215011596679688
 20
72.0
 30
0.0
 11
23.215011596679688
 21
76.30975341796875
 31
0.0
  0
LINE
  5
47
100
AcDbEntity
  8
0
  6
CONTINUOUS
 62
               4
100
AcDbLine
 10
22.100002288818359
 20
80.0
 30
0.0
 11
22.100002288818359
 21
85.0
 31
0.0
  0
LINE
  5
48
100
AcDbEntity
  8
0
  6
CONTINUOUS
 62
               4
100
AcDbLine
 10
22.900009155273438
 20
80.0
 30
0.0
 11
22.900009155273438
 21
85.0
 31
0.0
  0
LINE
  5
49
100
AcDbEntity
  8
0
  6
CONTINUOUS
 62
               4
100
AcDbLine
 10
22.099998474121094
 20
85.0
 30
0.0
 11
22.900001525878906
 21
85.0
 31
0.0
  0
LINE
  5
4A
100
AcDbEntity
  8
0
  6
CONTINUOUS
 62
               4
100
AcDbLine
 10
21.784996032714844
 20
80.0
 30
0.0
 11
23.215003967285156
 21
80.0
 31
0.0
  0
LINE
  5
4B
100
AcDbEntity
  8
0
  6
CONTINUOUS
 62
             200
100
AcDbLine
 10
24.550041845914166
 20
77.080417549070262
 30
0.0
 11
16.450043623306556
 21
72.403880989011668
 31
0.0
  0
LINE
  5
4C
100
AcDbEntity
  8
0
  6
CONTINUOUS
 62
               4
100
AcDbLine
 10
21.784999847412109
 20
76.638824462890625
 30
0.0
 11
21.784999847412109
 21
80.0
 31
0.0
  0
LINE
  5
4D
100
AcDbEntity
  8
0
  6
CONTINUOUS
 62
               4
100
AcDbLine
 10
23.215011596679688
 20
77.464447021484375
 30
0.0
 11
23.215011596679688
 21
80.0
 31
0.0
  0
LINE
  5
4E
100
AcDbEntity
  8
0
  6
CONTINUOUS
 62
               4
100
AcDbLine
 10
15.550003051757813
 20
65.5
 30
0.0
 11
17.000003814697266
 21
65.5
 31
0.0
  0
LINE
  5
4F
100
AcDbEntity
  8
0
  6
CONTINUOUS
 62
               4
100
AcDbLine
 10
16.450000762939453
 20
61.000015258789063
 30
0.0
 11
16.450000762939453
 21
63.500015258789063
 31
0.0
  0
LINE
  5
50
100
AcDbEntity
  8
0
  6
CONTINUOUS
 62
               4
100
AcDbLine
 10
24.550003051757813
 20
61.0
 30
0.0
 11
24.550003051757813
 21
63.500015258789063
 31
0.0
  0
LINE
  5
51
100
AcDbEntity
  8
0
  6
CONTINUOUS
 62
               4
100
AcDbLine
 10
24.000003814697266
 20
61.498458862304687
 30
0.0
 11
24.000003814697266
 21
72.0
 31
0.0
  0
LINE
  5
52
100
AcDbEntity
  8
0
  6
CONTINUOUS
 62
               4
100
AcDbLine
 10
17.000003814697266
 20
61.498458862304687
 30
0.0
 11
17.000003814697266
 21
72.0
 31
0.0
  0
LINE
  5
53
100
AcDbEntity
  8
0
  6
CONTINUOUS
 62
               4
100
AcDbLine
 10
17.000003814697266
 20
61.498458862304687
 30
0.0
 11
24.000003814697266
 21
61.498458862304687
 31
0.0
  0
LINE
  5
54
100
AcDbEntity
  8
0
  6
CONTINUOUS
 62
               4
100
AcDbLine
 10
17.000003814697266
 20
65.05615234375
 30
0.0
 11
24.000003814697266
 21
65.05615234375
 31
0.0
  0
LINE
  5
55
100
AcDbEntity
  8
0
  6
CONTINUOUS
 62
               4
100
AcDbLine
 10
17.000003814697266
 20
70.5
 30
0.0
 11
24.000003814697266
 21
70.5
 31
0.0
  0
LINE
  5
56
100
AcDbEntity
  8
0
  6
CONTINUOUS
 62
               4
100
AcDbLine
 10
15.600006103515625
 20
72.0
 30
0.0
 11
25.400005340576172
 21
72.0
 31
0.0
  0
LINE
  5
57
100
AcDbEntity
  8
0
  6
CONTINUOUS
 62
               4
100
AcDbLine
 10
24.000003814697266
 20
65.5
 30
0.0
 11
25.450000762939453
 21
65.5
 31
0.0
  0
LINE
  5
58
100
AcDbEntity
  8
0
  6
CONTINUOUS
 62
               4
100
AcDbLine
 10
24.000003814697266
 20
64.5
 30
0.0
 11
24.550006866455078
 21
64.5
 31
0.0
  0
LINE
  5
59
100
AcDbEntity
  8
0
  6
CONTINUOUS
 62
               4
100
AcDbLine
 10
24.000003814697266
 20
63.5
 30
0.0
 11
24.550006866455078
 21
63.5
 31
0.0
  0
LINE
  5
5A
100
AcDbEntity
  8
0
  6
CONTINUOUS
 62
               4
100
AcDbLine
 10
16.450004577636719
 20
64.5
 30
0.0
 11
17.000003814697266
 21
64.5
 31
0.0
  0
LINE
  5
5B
100
AcDbEntity
  8
0
  6
CONTINUOUS
 62
               4
100
AcDbLine
 10
16.450004577636719
 20
63.5
 30
0.0
 11
17.000003814697266
 21
63.5
 31
0.0
  0
LINE
  5
5C
100
AcDbEntity
  8
0
  6
CONTINUOUS
 62
               4
100
AcDbLine
 10
16.450000762939453
 20
64.500015258789063
 30
0.0
 11
16.450000762939453
 21
65.500015258789063
 31
0.0
  0
LINE
  5
5D
100
AcDbEntity
  8
0
  6
CONTINUOUS
 62
               4
100
AcDbLine
 10
24.550003051757813
 20
64.500015258789063
 30
0.0
 11
24.550003051757813
 21
65.500015258789063
 31
0.0
  0
LINE
  5
5E
100
AcDbEntity
  8
0
  6
CONTINUOUS
 62
               4
100
AcDbLine
 10
19.215011596679688
 20
75.155044555664063
 30
0.0
 11
19.215011596679688
 21
80.0
 31
0.0
  0
LINE
  5
5F
100
AcDbEntity
  8
0
  6
CONTINUOUS
 62
               4
100
AcDbLine
 10
17.784999847412109
 20
74.329421997070313
 30
0.0
 11
17.784999847412109
 21
80.0
 31
0.0
  0
LINE
  5
60
100
AcDbEntity
  8
0
  6
CONTINUOUS
 62
               4
100
AcDbLine
 10
17.784996032714844
 20
80.0
 30
0.0
 11
19.215003967285156
 21
80.0
 31
0.0
  0
LINE
  5
61
100
AcDbEntity
  8
0
  6
CONTINUOUS
 62
               4
100
AcDbLine
 10
18.900009155273438
 20
80.0
 30
0.0
 11
18.900009155273438
 21
85.0
 31
0.0
  0
LINE
  5
62
100
AcDbEntity
  8
0
  6
CONTINUOUS
 62
               4
100
AcDbLine
 10
18.100002288818359
 20
80.0
 30
0.0
 11
18.100002288818359
 21
85.0
 31
0.0
  0
LINE
  5
63
100
AcDbEntity
  8
0
  6
CONTINUOUS
 62
               4
100
AcDbLine
 10
18.099998474121094
 20
85.0
 30
0.0
 11
18.900001525878906
 21
85.0
 31
0.0
  0
LINE
  5
64
100
AcDbEntity
  8
0
  6
CONTINUOUS
 62
               4
100
AcDbLine
 10
19.215011596679688
 20
72.0
 30
0.0
 11
19.215011596679688
 21
74.000335693359375
 31
0.0
  0
LINE
  5
65
100
AcDbEntity
  8
0
  6
CONTINUOUS
 62
               4
100
AcDbLine
 10
17.784999847412109
 20
72.0
 30
0.0
 11
17.784999847412109
 21
73.174728393554688
 31
0.0
  0
LINE
  5
66
100
AcDbEntity
  8
0
  6
CONTINUOUS
 62
             200
100
AcDbLine
 10
24.549986545459433
 20
78.235224210225169
 30
0.0
 11
16.449988322851823
 21
73.558685977706773
 31
0.0
  0
LINE
  5
67
100
AcDbEntity
  8
0
  6
CONTINUOUS
 62
               7
100
AcDbLine
 10
25.500003814697266
 20
-37.599990844726563
 30
0.0
 11
25.500003814697266
 21
5.4500141143798828
 31
0.0
  0
LINE
  5
68
100
AcDbEntity
  8
0
  6
CONTINUOUS
 62
               7
100
AcDbLine
 10
15.500003814697266
 20
-37.599990844726563
 30
0.0
 11
15.500003814697266
 21
-20.150009155273438
 31
0.0
  0
LINE
  5
69
100
AcDbEntity
  8
0
  6
CONTINUOUS
 62
               4
100
AcDbLine
 10
25.400001525878906
 20
65.500015258789063
 30
0.0
 11
25.400001525878906
 21
72.0
 31
0.0
  0
LINE
  5
6A
100
AcDbEntity
  8
0
  6
CONTINUOUS
 62
               4
100
AcDbLine
 10
15.600002288818359
 20
65.500015258789063
 30
0.0
 11
15.600002288818359
 21
72.0
 31
0.0
  0
LINE
  5
6B
100
AcDbEntity
  8
0
  6
CONTINUOUS
 62
               4
100
AcDbLine
 10
16.500003814697266
 20
65.500015258789063
 30
0.0
 11
16.500003814697266
 21
72.0
 31
0.0
  0
LINE
  5
6C
100
AcDbEntity
  8
0
  6
CONTINUOUS
 62
               4
100
AcDbLine
 10
24.500003814697266
 20
65.500015258789063
 30
0.0
 11
24.500003814697266
 21
72.0
 31
0.0
  0
LINE
  5
6D
100
AcDbEntity
  8
0
  6
CONTINUOUS
 62
               7
100
AcDbLine
 10
15.5
 20
9.0
 30
0.0
 11
25.5
 21
9.0
 31
0.0
  0
LINE
  5
6E
100
AcDbEntity
  8
0
  6
CONTINUOUS
 62
               7
100
AcDbLine
 10
15.499996185302734
 20
-22.999996185302734
 30
0.0
 11
25.499996185302734
 21
-22.999996185302734
 31
0.0
  0
LINE
  5
6F
100
AcDbEntity
  8
0
  6
CONTINUOUS
 62
               7
100
AcDbLine
 10
15.499996185302734
 20
-31.0
 30
0.0
 11
25.499996185302734
 21
-31.0
 31
0.0
  0
LINE
  5
70
100
AcDbEntity
  8
0
  6
CONTINUOUS
 62
               7
100
AcDbLine
 10
15.899997711181641
 20
-38.0
 30
0.0
 11
25.099998474121094
 21
-38.0
 31
0.0
  0
LINE
  5
71
100
AcDbEntity
  8
0
  6
CONTINUOUS
 62
               4
100
AcDbLine
 10
16.098966735098259
 20
-20.401046494325328
 30
0.0
 11
17.301047534650991
 21
-19.198965796100424
 31
0.0
  0
LINE
  5
72
100
AcDbEntity
  8
0
  6
CONTINUOUS
 62
               4
100
AcDbLine
 10
23.698957185795848
 20
5.1989583782547015
 30
0.0
 11
24.901039334047823
 21
6.4010404251787349
 31
0.0
  0
LINE
  5
73
100
AcDbEntity
  8
0
  6
CONTINUOUS
 62
               4
100
AcDbLine
 10
23.698965547730609
 20
6.4010474889909119
 30
0.0
 11
24.901047695982584
 21
5.1989654420668785
 31
0.0
  0
LINE
  5
74
100
AcDbEntity
  8
0
  6
CONTINUOUS
 62
               4
100
AcDbLine
 10
16.098965116659258
 20
-19.198955326822443
 30
0.0
 11
17.301047264911233
 21
-20.401037373746476
 31
0.0
  0
LINE
  5
75
100
AcDbEntity
  8
0
  6
CONTINUOUS
 62
               4
100
AcDbLine
 10
15.500003814697266
 20
28.0
 30
0.0
 11
15.500003814697266
 21
52.0
 31
0.0
  0
LINE
  5
76
100
AcDbEntity
  8
0
  6
CONTINUOUS
 62
               4
100
AcDbLine
 10
25.500003814697266
 20
28.0
 30
0.0
 11
25.500003814697266
 21
52.0
 31
0.0
  0
LINE
  5
77
100
AcDbEntity
  8
0
  6
CONTINUOUS
 62
               2
100
AcDbLine
 10
20.500003814697266
 20
-40.307876586914063
 30
0.0
 11
20.500003814697266
 21
73.392968222942557
 31
0.0
  0
LINE
  5
78
100
AcDbEntity
  8
0
  6
CONTINUOUS
 62
               7
100
AcDbLine
 10
23.000003814697266
 20
24.699996948242188
 30
0.0
 11
24.000003814697266
 21
24.699996948242188
 31
0.0
  0
LINE
  5
79
100
AcDbEntity
  8
0
  6
CONTINUOUS
 62
               7
100
AcDbLine
 10
20.500003814697266
 20
21.199996948242188
 30
0.0
 11
20.500003814697266
 21
22.199996948242188
 31
0.0
  0
LINE
  5
7A
100
AcDbEntity
  8
0
  6
CONTINUOUS
 62
               7
100
AcDbLine
 10
20.499999766173232
 20
21.699988394197817
 30
0.0
 11
21.49999905557786
 21
21.432039451631567
 31
0.0
  0
LINE
  5
7B
100
AcDbEntity
  8
0
  6
CONTINUOUS
 62
               7
100
AcDbLine
 10
20.500000883325811
 20
-23.499984741210938
 30
0.0
 11
20.500000883325811
 21
-24.499984741210938
 31
0.0
  0
LINE
  5
7C
100
AcDbEntity
  8
0
  6
CONTINUOUS
 62
               7
100
AcDbLine
 10
17.999996185302734
 20
-26.999984741210938
 30
0.0
 11
16.999996185302734
 21
-26.999984741210938
 31
0.0
  0
LINE
  5
7D
100
AcDbEntity
  8
0
  6
CONTINUOUS
 62
               7
100
AcDbLine
 10
20.499996742589872
 20
-23.999990293629423
 30
0.0
 11
19.49999751489247
 21
-23.732041165941496
 31
0.0
  0
CIRCLE
  5
7E
100
AcDbEntity
  8
0
  6
CONTINUOUS
 62
               7
100
AcDbCircle
 10
20.5
 20
-26.999984741210938
 30
0.0
 40
2.0
  0
CIRCLE
  5
7F
100
AcDbEntity
  8
0
  6
CONTINUOUS
 62
               7
100
AcDbCircle
 10
20.5
 20
-26.999984741210938
 30
0.0
 40
1.9499998092651367
  0
CIRCLE
  5
80
100
AcDbEntity
  8
0
  6
CONTINUOUS
 62
               7
100
AcDbCircle
 10
20.500003814697266
 20
24.699996948242188
 30
0.0
 40
2.0
  0
CIRCLE
  5
81
100
AcDbEntity
  8
0
  6
CONTINUOUS
 62
               7
100
AcDbCircle
 10
20.500003814697266
 20
24.699996948242188
 30
0.0
 40
1.9499998092651367
  0
ARC
  5
82
100
AcDbEntity
  8
0
  6
CONTINUOUS
 62
               4
100
AcDbCircle
 10
24.950004577636719
 20
60.5
 30
0.0
 40
0.5
100
AcDbArc
 50
359.99995901886416
 51
89.999982013910454
  0
ARC
  5
83
100
AcDbEntity
  8
0
  6
CONTINUOUS
 62
               4
100
AcDbCircle
 10
16.050003051757813
 20
60.500015258789063
 30
0.0
 40
0.5
100
AcDbArc
 50
89.999982013910454
 51
179.99996402782091
  0
ARC
  5
84
100
AcDbEntity
  8
0
  6
CONTINUOUS
 62
               7
100
AcDbCircle
 10
25.099998474121094
 20
-37.599990844726563
 30
0.0
 40
0.4000000357627869
100
AcDbArc
 50
270.00001798608872
 51
0.00001366037834
  0
ARC
  5
85
100
AcDbEntity
  8
0
  6
CONTINUOUS
 62
               7
100
AcDbCircle
 10
15.899997711181641
 20
-37.599990844726563
 30
0.0
 40
0.4000000357627869
100
AcDbArc
 50
179.99996402782091
 51
269.99994604173139
  0
ARC
  5
86
100
AcDbEntity
  8
0
  6
CONTINUOUS
 62
               7
100
AcDbCircle
 10
25.100002288818359
 20
9.399993896484375
 30
0.0
 40
0.4000000357627869
100
AcDbArc
 50
270.00001798608872
 51
0.0
  0
ARC
  5
87
100
AcDbEntity
  8
0
  6
CONTINUOUS
 62
               7
100
AcDbCircle
 10
15.900001525878906
 20
9.399993896484375
 30
0.0
 40
0.4000000357627869
100
AcDbArc
 50
179.99996402782091
 51
270.00000068324471
  0
CIRCLE
  5
88
100
AcDbEntity
  8
0
  6
CONTINUOUS
 62
               4
100
AcDbCircle
 10
24.299999237060547
 20
5.7999992370605469
 30
0.0
 40
1.25
  0
CIRCLE
  5
89
100
AcDbEntity
  8
0
  6
CONTINUOUS
 62
               4
100
AcDbCircle
 10
16.700000762939453
 20
-19.799999237060547
 30
0.0
 40
1.25
  0
ARC
  5
8A
100
AcDbEntity
  8
0
  6
CONTINUOUS
 62
               7
100
AcDbCircle
 10
20.600003778934479
 20
24.699996948242188
 30
0.0
 40
3.0
100
AcDbArc
 50
268.089805320533
 51
0.0
  0
ARC
  5
8B
100
AcDbEntity
  8
0
  6
CONTINUOUS
 62
               7
100
AcDbCircle
 10
20.500003814697266
 20
24.699996948242188
 30
0.0
 40
3.0
100
AcDbArc
 50
266.17746163595609
 51
3.822566595416411
  0
ARC
  5
8C
100
AcDbEntity
  8
0
  6
CONTINUOUS
 62
               7
100
AcDbCircle
 10
20.400003850460052
 20
24.699996948242188
 30
0.0
 40
3.0
100
AcDbArc
 50
271.91023065164455
 51
0.0
  0
ARC
  5
8D
100
AcDbEntity
  8
0
  6
CONTINUOUS
 62
               7
100
AcDbCircle
 10
20.499996096758878
 20
-26.999984741210938
 30
0.0
 40
3.0
100
AcDbArc
 50
86.177425663777811
 51
183.82257501946691
  0
ARC
  5
8E
100
AcDbEntity
  8
0
  6
CONTINUOUS
 62
               7
100
AcDbCircle
 10
20.399996101856232
 20
-26.999984741210938
 30
0.0
 40
3.0
100
AcDbArc
 50
88.08976934835465
 51
179.99996402782091
  0
ARC
  5
8F
100
AcDbEntity
  8
0
  6
CONTINUOUS
 62
               7
100
AcDbCircle
 10
20.599996089935303
 20
-26.999984741210938
 30
0.0
 40
3.0
100
AcDbArc
 50
91.910194679466258
 51
179.99996402782091
  0
ARC
  5
90
100
AcDbEntity
  8
0
  6
CONTINUOUS
 62
               4
100
AcDbCircle
 10
19.35000381469726
 20
-6.7761254723518505
 30
0.0
 40
0.4
100
AcDbArc
 50
0.0
 51
77.703953799353613
  0
LINE
  5
91
100
AcDbEntity
  8
0
  6
CONTINUOUS
 62
               4
100
AcDbLine
 10
19.750003814697266
 20
-7.2238745276481495
 30
0.0
 11
19.750003814697266
 21
-6.7761254723518505
 31
0.0
  0
ARC
  5
92
100
AcDbEntity
  8
0
  6
CONTINUOUS
 62
               4
100
AcDbCircle
 10
19.35000381469726
 20
-7.2238745276481495
 30
0.0
 40
0.4
100
AcDbArc
 50
282.2960462006464
 51
0.0
  0
ARC
  5
93
100
AcDbEntity
  8
0
  6
CONTINUOUS
 62
               4
100
AcDbCircle
 10
21.650003814697271
 20
-7.2238745276481495
 30
0.0
 40
0.4
100
AcDbArc
 50
179.99999999999963
 51
257.7039537993532
  0
LINE
  5
94
100
AcDbEntity
  8
0
  6
CONTINUOUS
 62
               4
100
AcDbLine
 10
21.250003814697266
 20
-7.2238745276481495
 30
0.0
 11
21.250003814697266
 21
-6.7761254723518505
 31
0.0
  0
ARC
  5
95
100
AcDbEntity
  8
0
  6
CONTINUOUS
 62
               4
100
AcDbCircle
 10
21.650003814697271
 20
-6.7761254723518505
 30
0.0
 40
0.4
100
AcDbArc
 50
102.29604620064599
 51
179.99999999999963
  0
LINE
  5
96
100
AcDbEntity
  8
0
  6
CONTINUOUS
 62
               4
100
AcDbLine
 10
25.000003814697266
 20
-11.799999999999997
 30
0.0
 11
25.319517343817239
 21
-11.615528777952861
 31
0.0
  0
LINE
  5
97
100
AcDbEntity
  8
0
  6
CONTINUOUS
 62
               4
100
AcDbLine
 10
25.000003814697266
 20
-13.200000000000003
 30
0.0
 11
25.000003814697266
 21
-11.799999999999997
 31
0.0
  0
LINE
  5
98
100
AcDbEntity
  8
0
  6
CONTINUOUS
 62
               4
100
AcDbLine
 10
25.000003814697266
 20
-13.200000000000003
 30
0.0
 11
25.319517343817239
 21
-13.384471222047139
 31
0.0
  0
ARC
  5
99
100
AcDbEntity
  8
0
  6
CONTINUOUS
 62
               4
100
AcDbCircle
 10
20.500003814697266
 20
-12.5
 30
0.0
 40
4.9000000000000004
100
AcDbArc
 50
190.39913703155722
 51
349.60086296844156
  0
LINE
  5
9A
100
AcDbEntity
  8
0
  6
CONTINUOUS
 62
               4
100
AcDbLine
 10
16.000003814697266
 20
-13.200000000000003
 30
0.0
 11
15.680490285577292
 21
-13.384471222047139
 31
0.0
  0
LINE
  5
9B
100
AcDbEntity
  8
0
  6
CONTINUOUS
 62
               4
100
AcDbLine
 10
16.000003814697266
 20
-13.200000000000003
 30
0.0
 11
16.000003814697266
 21
-11.799999999999997
 31
0.0
  0
LINE
  5
9C
100
AcDbEntity
  8
0
  6
CONTINUOUS
 62
               4
100
AcDbLine
 10
16.000003814697266
 20
-11.799999999999997
 30
0.0
 11
15.680490285577292
 21
-11.615528777952861
 31
0.0
  0
CIRCLE
  5
9D
100
AcDbEntity
  8
0
  6
CONTINUOUS
 62
               4
100
AcDbCircle
 10
20.500003814697266
 20
-12.5
 30
0.0
 40
2.0500000000000003
  0
CIRCLE
  5
9E
100
AcDbEntity
  8
0
  6
CONTINUOUS
 62
               4
100
AcDbCircle
 10
20.500003814697266
 20
-12.5
 30
0.0
 40
3.0500000000000003
  0
ARC
  5
9F
100
AcDbEntity
  8
0
  6
CONTINUOUS
 62
               4
100
AcDbCircle
 10
20.500003814697266
 20
-12.5
 30
0.0
 40
4.9000000000000004
100
AcDbArc
 50
10.399137031557631
 51
169.60086296844196
  0
CIRCLE
  5
A0
100
AcDbEntity
  8
0
  6
CONTINUOUS
 62
               4
100
AcDbCircle
 10
20.500003814697266
 20
-12.5
 30
0.0
 40
5.0
  0
LINE
  5
A1
100
AcDbEntity
  8
0
  6
CONTINUOUS
 62
               4
100
AcDbLine
 10
16.000003814697266
 20
-2.2000000000000028
 30
0.0
 11
15.680490285577292
 21
-2.3844712220471393
 31
0.0
  0
LINE
  5
A2
100
AcDbEntity
  8
0
  6
CONTINUOUS
 62
               4
100
AcDbLine
 10
16.000003814697266
 20
-2.2000000000000028
 30
0.0
 11
16.000003814697266
 21
-0.7999999999999972
 31
0.0
  0
LINE
  5
A3
100
AcDbEntity
  8
0
  6
CONTINUOUS
 62
               4
100
AcDbLine
 10
16.000003814697266
 20
-0.7999999999999972
 30
0.0
 11
15.680490285577292
 21
-0.6155287779528607
 31
0.0
  0
LINE
  5
A4
100
AcDbEntity
  8
0
  6
CONTINUOUS
 62
               4
100
AcDbLine
 10
25.000003814697266
 20
-2.2000000000000028
 30
0.0
 11
25.000003814697266
 21
-0.7999999999999972
 31
0.0
  0
ARC
  5
A5
100
AcDbEntity
  8
0
  6
CONTINUOUS
 62
               4
100
AcDbCircle
 10
20.500003814697266
 20
-1.5
 30
0.0
 40
4.9000000000000004
100
AcDbArc
 50
190.39913703155722
 51
349.60086296844156
  0
LINE
  5
A6
100
AcDbEntity
  8
0
  6
CONTINUOUS
 62
               4
100
AcDbLine
 10
25.000003814697266
 20
-2.2000000000000028
 30
0.0
 11
25.319517343817239
 21
-2.3844712220471393
 31
0.0
  0
LINE
  5
A7
100
AcDbEntity
  8
0
  6
CONTINUOUS
 62
               4
100
AcDbLine
 10
25.000003814697266
 20
-0.7999999999999972
 30
0.0
 11
25.319517343817239
 21
-0.6155287779528607
 31
0.0
  0
CIRCLE
  5
A8
100
AcDbEntity
  8
0
  6
CONTINUOUS
 62
               4
100
AcDbCircle
 10
20.500003814697266
 20
-1.5
 30
0.0
 40
2.0500000000000003
  0
CIRCLE
  5
A9
100
AcDbEntity
  8
0
  6
CONTINUOUS
 62
               4
100
AcDbCircle
 10
20.500003814697266
 20
-1.5
 30
0.0
 40
3.0500000000000003
  0
ARC
  5
AA
100
AcDbEntity
  8
0
  6
CONTINUOUS
 62
               4
100
AcDbCircle
 10
20.500003814697266
 20
-1.5
 30
0.0
 40
4.9000000000000004
100
AcDbArc
 50
10.399137031557631
 51
169.60086296844196
  0
CIRCLE
  5
AB
100
AcDbEntity
  8
0
  6
CONTINUOUS
 62
               4
100
AcDbCircle
 10
20.500003814697266
 20
-1.5
 30
0.0
 40
5.0
  0
CIRCLE
  5
AC
100
AcDbEntity
  8
0
  6
CONTINUOUS
 62
               4
100
AcDbCircle
 10
17.500003814697266
 20
6.0
 30
0.0
 40
1.25
  0
CIRCLE
  5
AD
100
AcDbEntity
  8
0
  6
CONTINUOUS
 62
               4
100
AcDbCircle
 10
23.5
 20
-20.0
 30
0.0
 40
1.25
  0
CIRCLE
  5
AE
100
AcDbEntity
  8
0
  6
CONTINUOUS
 62
               4
100
AcDbCircle
 10
17.500003814697266
 20
6.0
 30
0.0
 40
1.3999996185302734
  0
CIRCLE
  5
AF
100
AcDbEntity
  8
0
  6
CONTINUOUS
 62
               4
100
AcDbCircle
 10
23.5
 20
-20.0
 30
0.0
 40
1.3999996185302734
  0
ARC
  5
B0
100
AcDbEntity
  8
0
  6
CONTINUOUS
 62
               4
100
AcDbCircle
 10
16.700000762939453
 20
-19.79998779296875
 30
0.0
 40
1.5999994277954102
100
AcDbArc
 50
0.0
 51
89.999982013910454
  0
ARC
  5
B1
100
AcDbEntity
  8
0
  6
CONTINUOUS
 62
               4
100
AcDbCircle
 10
24.299999237060547
 20
5.7999992370605469
 30
0.0
 40
1.5999994277954102
100
AcDbArc
 50
179.99996402782091
 51
270.00000068324471
  0
ARC
  5
B2
100
AcDbEntity
  8
0
  6
CONTINUOUS
 62
               4
100
AcDbCircle
 10
18.700000762939453
 20
-22.399993896484375
 30
0.0
 40
0.4000000357627869
100
AcDbArc
 50
179.99996402782091
 51
270.00000068324471
  0
ARC
  5
B3
100
AcDbEntity
  8
0
  6
CONTINUOUS
 62
               4
100
AcDbCircle
 10
25.099998474121094
 20
-22.399993896484375
 30
0.0
 40
0.4000000357627869
100
AcDbArc
 50
270.00001798608872
 51
0.0
  0
ARC
  5
B4
100
AcDbEntity
  8
0
  6
CONTINUOUS
 62
               4
100
AcDbCircle
 10
25.099998474121094
 20
3.8000011444091797
 30
0.0
 40
0.4000000357627869
100
AcDbArc
 50
0.0
 51
89.999982013910454
  0
ARC
  5
B5
100
AcDbEntity
  8
0
  6
CONTINUOUS
 62
               4
100
AcDbCircle
 10
22.299999237060547
 20
8.4000034332275391
 30
0.0
 40
0.4000000357627869
100
AcDbArc
 50
0.0
 51
89.999982013910454
  0
ARC
  5
B6
100
AcDbEntity
  8
0
  6
CONTINUOUS
 62
               4
100
AcDbCircle
 10
15.900001525878906
 20
8.4000034332275391
 30
0.0
 40
0.4000000357627869
100
AcDbArc
 50
89.999982013910454
 51
179.99996402782091
  0
ARC
  5
B7
100
AcDbEntity
  8
0
  6
CONTINUOUS
 62
               4
100
AcDbCircle
 10
15.900001525878906
 20
-17.79998779296875
 30
0.0
 40
0.4000000357627869
100
AcDbArc
 50
179.99996402782091
 51
270.00000068324471
  0
LINE
  5
B8
100
AcDbEntity
  8
0
  6
CONTINUOUS
 62
               4
100
AcDbLine
 10
16.89896003243237
 20
5.3989596616282682
 30
0.0
 11
18.101042180684345
 21
6.6010417085523017
 31
0.0
  0
LINE
  5
B9
100
AcDbEntity
  8
0
  6
CONTINUOUS
 62
               4
100
AcDbLine
 10
16.898970032791397
 20
6.6010483156827604
 30
0.0
 11
18.101052181043372
 21
5.398966268758727
 31
0.0
  0
LINE
  5
BA
100
AcDbEntity
  8
0
  6
CONTINUOUS
 62
               4
100
AcDbLine
 10
15.500003814697266
 20
-17.79998779296875
 30
0.0
 11
15.500003814697266
 21
8.4000034332275391
 31
0.0
  0
LINE
  5
BB
100
AcDbEntity
  8
0
  6
CONTINUOUS
 62
               4
100
AcDbLine
 10
22.898958994864131
 20
-19.398947634177375
 30
0.0
 11
24.10103844571762
 21
-20.60102698370315
 31
0.0
  0
LINE
  5
BC
100
AcDbEntity
  8
0
  6
CONTINUOUS
 62
               4
100
AcDbLine
 10
22.898954780179793
 20
-20.601040302106981
 30
0.0
 11
24.101036928431768
 21
-19.398958255182947
 31
0.0
  0
LINE
  5
BD
100
AcDbEntity
  8
0
  6
CONTINUOUS
 62
               4
100
AcDbLine
 10
24.299995422363281
 20
4.2000064849853516
 30
0.0
 11
25.099998474121094
 21
4.2000064849853516
 31
0.0
  0
LINE
  5
BE
100
AcDbEntity
  8
0
  6
CONTINUOUS
 62
               4
100
AcDbLine
 10
16.700000762939453
 20
-18.199996948242187
 30
0.0
 11
15.900001525878906
 21
-18.199996948242187
 31
0.0
  0
LINE
  5
BF
100
AcDbEntity
  8
0
  6
CONTINUOUS
 62
               4
100
AcDbLine
 10
18.300006866455078
 20
-19.800003051757813
 30
0.0
 11
18.300006866455078
 21
-22.399993896484375
 31
0.0
  0
LINE
  5
C0
100
AcDbEntity
  8
0
  6
CONTINUOUS
 62
               4
100
AcDbLine
 10
22.700004577636719
 20
5.7999992370605469
 30
0.0
 11
22.700004577636719
 21
8.4000034332275391
 31
0.0
  0
LINE
  5
C1
100
AcDbEntity
  8
0
  6
CONTINUOUS
 62
               4
100
AcDbLine
 10
15.900001525878906
 20
8.8000030517578125
 30
0.0
 11
22.299999237060547
 21
8.8000030517578125
 31
0.0
  0
LINE
  5
C2
100
AcDbEntity
  8
0
  6
CONTINUOUS
 62
               4
100
AcDbLine
 10
18.700000762939453
 20
-22.79998779296875
 30
0.0
 11
25.099994659423828
 21
-22.79998779296875
 31
0.0
  0
LINE
  5
C3
100
AcDbEntity
  8
0
  6
CONTINUOUS
 62
               4
100
AcDbLine
 10
25.500003814697266
 20
-22.399993896484375
 30
0.0
 11
25.500003814697266
 21
3.8000011444091797
 31
0.0
  0
LINE
  5
C4
100
AcDbEntity
  8
0
  6
CONTINUOUS
 62
               7
100
AcDbLine
 10
27.000008583068848
 20
-31.0
 30
0.0
 11
27.000008583068848
 21
-29.0
 31
0.0
  0
LINE
  5
C5
100
AcDbEntity
  8
0
  6
CONTINUOUS
 62
               7
100
AcDbLine
 10
25.999995231628418
 20
-29.0
 30
0.0
 11
27.399996757507324
 21
-29.0
 31
0.0
  0
LINE
  5
C6
100
AcDbEntity
  8
0
  6
CONTINUOUS
 62
               2
100
AcDbLine
 10
28.499995231628418
 20
-27.0
 30
0.0
 11
33.499995231628418
 21
-27.0
 31
0.0
  0
LINE
  5
C7
100
AcDbEntity
  8
0
  6
CONTINUOUS
 62
               7
100
AcDbLine
 10
27.399996757507324
 20
-25.0
 30
0.0
 11
25.999995231628418
 21
-25.0
 31
0.0
  0
LINE
  5
C8
100
AcDbEntity
  8
0
  6
CONTINUOUS
 62
               7
100
AcDbLine
 10
27.000008583068848
 20
-25.0
 30
0.0
 11
27.000008583068848
 21
-23.0
 31
0.0
  0
LINE
  5
C9
100
AcDbEntity
  8
0
  6
CONTINUOUS
 62
               7
100
AcDbLine
 10
35.000004768371582
 20
-31.0
 30
0.0
 11
35.000004768371582
 21
-29.0
 31
0.0
  0
LINE
  5
CA
100
AcDbEntity
  8
0
  6
CONTINUOUS
 62
               7
100
AcDbLine
 10
34.599997520446777
 20
-29.0
 30
0.0
 11
35.999995231628418
 21
-29.0
 31
0.0
  0
LINE
  5
CB
100
AcDbEntity
  8
0
  6
CONTINUOUS
 62
               7
100
AcDbLine
 10
35.999995231628418
 20
-25.0
 30
0.0
 11
34.599997520446777
 21
-25.0
 31
0.0
  0
LINE
  5
CC
100
AcDbEntity
  8
0
  6
CONTINUOUS
 62
               7
100
AcDbLine
 10
35.000004768371582
 20
-25.0
 30
0.0
 11
35.000004768371582
 21
-23.0
 31
0.0
  0
LINE
  5
CD
100
AcDbEntity
  8
0
  6
CONTINUOUS
 62
               7
100
AcDbLine
 10
29.073214530944824
 20
-27.29998779296875
 30
0.0
 11
32.926783561706543
 21
-27.29998779296875
 31
0.0
  0
LINE
  5
CE
100
AcDbEntity
  8
0
  6
CONTINUOUS
 62
               7
100
AcDbLine
 10
29.073214530944824
 20
-26.699996948242188
 30
0.0
 11
32.926783561706543
 21
-26.699996948242188
 31
0.0
  0
LINE
  5
CF
100
AcDbEntity
  8
0
  6
CONTINUOUS
 62
               7
100
AcDbLine
 10
26.000003814697266
 20
16.5
 30
0.0
 11
36.000003814697266
 21
16.5
 31
0.0
  0
LINE
  5
D0
100
AcDbEntity
  8
0
  6
CONTINUOUS
 62
               7
100
AcDbLine
 10
26.0
 20
18.499984741210938
 30
0.0
 11
36.0
 21
18.499984741210938
 31
0.0
  0
LINE
  5
D1
100
AcDbEntity
  8
0
  6
CONTINUOUS
 62
               2
100
AcDbLine
 10
28.5
 20
24.699996948242188
 30
0.0
 11
33.5
 21
24.699996948242188
 31
0.0
  0
LINE
  5
D2
100
AcDbEntity
  8
0
  6
CONTINUOUS
 62
               4
100
AcDbLine
 10
26.0
 20
52.0
 30
0.0
 11
36.0
 21
52.0
 31
0.0
  0
LINE
  5
D3
100
AcDbEntity
  8
0
  6
CONTINUOUS
 62
               7
100
AcDbLine
 10
26.0
 20
28.0
 30
0.0
 11
36.0
 21
28.0
 31
0.0
  0
LINE
  5
D4
100
AcDbEntity
  8
0
  6
CONTINUOUS
 62
               7
100
AcDbLine
 10
29.073211669921875
 20
24.399993896484375
 30
0.0
 11
32.926788330078125
 21
24.399993896484375
 31
0.0
  0
LINE
  5
D5
100
AcDbEntity
  8
0
  6
CONTINUOUS
 62
               7
100
AcDbLine
 10
29.073211669921875
 20
24.999984741210937
 30
0.0
 11
32.926788330078125
 21
24.999984741210937
 31
0.0
  0
LINE
  5
D6
100
AcDbEntity
  8
0
  6
CONTINUOUS
 62
               4
100
AcDbLine
 10
26.049999237060547
 20
52.000015258789063
 30
0.0
 11
26.049999237060547
 21
65.500015258789063
 31
0.0
  0
LINE
  5
D7
100
AcDbEntity
  8
0
  6
CONTINUOUS
 62
               4
100
AcDbLine
 10
35.500003814697266
 20
61.0
 30
0.0
 11
26.500003814697266
 21
61.0
 31
0.0
  0
LINE
  5
D8
100
AcDbEntity
  8
0
  6
CONTINUOUS
 62
               2
100
AcDbLine
 10
35.949996948242187
 20
56.5
 30
0.0
 11
26.049999237060547
 21
56.5
 31
0.0
  0
LINE
  5
D9
100
AcDbEntity
  8
0
  6
CONTINUOUS
 62
               4
100
AcDbLine
 10
35.949996948242187
 20
52.0
 30
0.0
 11
35.949996948242187
 21
65.500015258789063
 31
0.0
  0
LINE
  5
DA
100
AcDbEntity
  8
0
  6
CONTINUOUS
 62
               4
100
AcDbLine
 10
32.284999847412109
 20
72.0
 30
0.0
 11
32.284999847412109
 21
75.484130859375
 31
0.0
  0
LINE
  5
DB
100
AcDbEntity
  8
0
  6
CONTINUOUS
 62
               4
100
AcDbLine
 10
33.715011596679687
 20
72.0
 30
0.0
 11
33.715011596679687
 21
76.30975341796875
 31
0.0
  0
LINE
  5
DC
100
AcDbEntity
  8
0
  6
CONTINUOUS
 62
               4
100
AcDbLine
 10
32.600002288818359
 20
80.0
 30
0.0
 11
32.600002288818359
 21
85.0
 31
0.0
  0
LINE
  5
DD
100
AcDbEntity
  8
0
  6
CONTINUOUS
 62
               4
100
AcDbLine
 10
33.400009155273438
 20
80.0
 30
0.0
 11
33.400009155273438
 21
85.0
 31
0.0
  0
LINE
  5
DE
100
AcDbEntity
  8
0
  6
CONTINUOUS
 62
               4
100
AcDbLine
 10
32.599998474121094
 20
85.0
 30
0.0
 11
33.400001525878906
 21
85.0
 31
0.0
  0
LINE
  5
DF
100
AcDbEntity
  8
0
  6
CONTINUOUS
 62
               4
100
AcDbLine
 10
32.284996032714844
 20
80.0
 30
0.0
 11
33.715003967285156
 21
80.0
 31
0.0
  0
LINE
  5
E0
100
AcDbEntity
  8
0
  6
CONTINUOUS
 62
             200
100
AcDbLine
 10
35.050041845914166
 20
77.080417549070262
 30
0.0
 11
26.950043623306556
 21
72.403880989011668
 31
0.0
  0
LINE
  5
E1
100
AcDbEntity
  8
0
  6
CONTINUOUS
 62
               4
100
AcDbLine
 10
32.284999847412109
 20
76.638824462890625
 30
0.0
 11
32.284999847412109
 21
80.0
 31
0.0
  0
LINE
  5
E2
100
AcDbEntity
  8
0
  6
CONTINUOUS
 62
               4
100
AcDbLine
 10
33.715011596679687
 20
77.464447021484375
 30
0.0
 11
33.715011596679687
 21
80.0
 31
0.0
  0
LINE
  5
E3
100
AcDbEntity
  8
0
  6
CONTINUOUS
 62
               4
100
AcDbLine
 10
26.050003051757812
 20
65.5
 30
0.0
 11
27.500003814697266
 21
65.5
 31
0.0
  0
LINE
  5
E4
100
AcDbEntity
  8
0
  6
CONTINUOUS
 62
               4
100
AcDbLine
 10
26.950000762939453
 20
61.000015258789063
 30
0.0
 11
26.950000762939453
 21
63.500015258789063
 31
0.0
  0
LINE
  5
E5
100
AcDbEntity
  8
0
  6
CONTINUOUS
 62
               4
100
AcDbLine
 10
35.050003051757813
 20
61.0
 30
0.0
 11
35.050003051757813
 21
63.500015258789063
 31
0.0
  0
LINE
  5
E6
100
AcDbEntity
  8
0
  6
CONTINUOUS
 62
               4
100
AcDbLine
 10
34.500003814697266
 20
61.498458862304687
 30
0.0
 11
34.500003814697266
 21
72.0
 31
0.0
  0
LINE
  5
E7
100
AcDbEntity
  8
0
  6
CONTINUOUS
 62
               4
100
AcDbLine
 10
27.500003814697266
 20
61.498458862304687
 30
0.0
 11
27.500003814697266
 21
72.0
 31
0.0
  0
LINE
  5
E8
100
AcDbEntity
  8
0
  6
CONTINUOUS
 62
               4
100
AcDbLine
 10
27.500003814697266
 20
61.498458862304687
 30
0.0
 11
34.500003814697266
 21
61.498458862304687
 31
0.0
  0
LINE
  5
E9
100
AcDbEntity
  8
0
  6
CONTINUOUS
 62
               4
100
AcDbLine
 10
27.500003814697266
 20
65.05615234375
 30
0.0
 11
34.500003814697266
 21
65.05615234375
 31
0.0
  0
LINE
  5
EA
100
AcDbEntity
  8
0
  6
CONTINUOUS
 62
               4
100
AcDbLine
 10
27.500003814697266
 20
70.5
 30
0.0
 11
34.500003814697266
 21
70.5
 31
0.0
  0
LINE
  5
EB
100
AcDbEntity
  8
0
  6
CONTINUOUS
 62
               4
100
AcDbLine
 10
26.100006103515625
 20
72.0
 30
0.0
 11
35.900005340576172
 21
72.0
 31
0.0
  0
LINE
  5
EC
100
AcDbEntity
  8
0
  6
CONTINUOUS
 62
               4
100
AcDbLine
 10
34.500003814697266
 20
65.5
 30
0.0
 11
35.950000762939453
 21
65.5
 31
0.0
  0
LINE
  5
ED
100
AcDbEntity
  8
0
  6
CONTINUOUS
 62
               4
100
AcDbLine
 10
34.500003814697266
 20
64.5
 30
0.0
 11
35.050006866455078
 21
64.5
 31
0.0
  0
LINE
  5
EE
100
AcDbEntity
  8
0
  6
CONTINUOUS
 62
               4
100
AcDbLine
 10
34.500003814697266
 20
63.5
 30
0.0
 11
35.050006866455078
 21
63.5
 31
0.0
  0
LINE
  5
EF
100
AcDbEntity
  8
0
  6
CONTINUOUS
 62
               4
100
AcDbLine
 10
26.950004577636719
 20
64.5
 30
0.0
 11
27.500003814697266
 21
64.5
 31
0.0
  0
LINE
  5
F0
100
AcDbEntity
  8
0
  6
CONTINUOUS
 62
               4
100
AcDbLine
 10
26.950004577636719
 20
63.5
 30
0.0
 11
27.500003814697266
 21
63.5
 31
0.0
  0
LINE
  5
F1
100
AcDbEntity
  8
0
  6
CONTINUOUS
 62
               4
100
AcDbLine
 10
26.950000762939453
 20
64.500015258789063
 30
0.0
 11
26.950000762939453
 21
65.500015258789063
 31
0.0
  0
LINE
  5
F2
100
AcDbEntity
  8
0
  6
CONTINUOUS
 62
               4
100
AcDbLine
 10
35.050003051757813
 20
64.500015258789063
 30
0.0
 11
35.050003051757813
 21
65.500015258789063
 31
0.0
  0
LINE
  5
F3
100
AcDbEntity
  8
0
  6
CONTINUOUS
 62
               4
100
AcDbLine
 10
29.715011596679688
 20
75.155044555664063
 30
0.0
 11
29.715011596679688
 21
80.0
 31
0.0
  0
LINE
  5
F4
100
AcDbEntity
  8
0
  6
CONTINUOUS
 62
               4
100
AcDbLine
 10
28.284999847412109
 20
74.329421997070313
 30
0.0
 11
28.284999847412109
 21
80.0
 31
0.0
  0
LINE
  5
F5
100
AcDbEntity
  8
0
  6
CONTINUOUS
 62
               4
100
AcDbLine
 10
28.284996032714844
 20
80.0
 30
0.0
 11
29.715003967285156
 21
80.0
 31
0.0
  0
LINE
  5
F6
100
AcDbEntity
  8
0
  6
CONTINUOUS
 62
               4
100
AcDbLine
 10
29.400009155273438
 20
80.0
 30
0.0
 11
29.400009155273438
 21
85.0
 31
0.0
  0
LINE
  5
F7
100
AcDbEntity
  8
0
  6
CONTINUOUS
 62
               4
100
AcDbLine
 10
28.600002288818359
 20
80.0
 30
0.0
 11
28.600002288818359
 21
85.0
 31
0.0
  0
LINE
  5
F8
100
AcDbEntity
  8
0
  6
CONTINUOUS
 62
               4
100
AcDbLine
 10
28.599998474121094
 20
85.0
 30
0.0
 11
29.400001525878906
 21
85.0
 31
0.0
  0
LINE
  5
F9
100
AcDbEntity
  8
0
  6
CONTINUOUS
 62
               4
100
AcDbLine
 10
29.715011596679688
 20
72.0
 30
0.0
 11
29.715011596679688
 21
74.000335693359375
 31
0.0
  0
LINE
  5
FA
100
AcDbEntity
  8
0
  6
CONTINUOUS
 62
               4
100
AcDbLine
 10
28.284999847412109
 20
72.0
 30
0.0
 11
28.284999847412109
 21
73.174728393554688
 31
0.0
  0
LINE
  5
FB
100
AcDbEntity
  8
0
  6
CONTINUOUS
 62
             200
100
AcDbLine
 10
35.049986545459433
 20
78.235224210225169
 30
0.0
 11
26.949988322851823
 21
73.558685977706773
 31
0.0
  0
LINE
  5
FC
100
AcDbEntity
  8
0
  6
CONTINUOUS
 62
               4
100
AcDbLine
 10
36.000003814697266
 20
-22.399993896484375
 30
0.0
 11
36.000003814697266
 21
5.4500141143798828
 31
0.0
  0
LINE
  5
FD
100
AcDbEntity
  8
0
  6
CONTINUOUS
 62
               7
100
AcDbLine
 10
26.000003814697266
 20
-37.599990844726563
 30
0.0
 11
26.000003814697266
 21
-20.150009155273438
 31
0.0
  0
LINE
  5
FE
100
AcDbEntity
  8
0
  6
CONTINUOUS
 62
               4
100
AcDbLine
 10
35.900001525878906
 20
65.500015258789063
 30
0.0
 11
35.900001525878906
 21
72.0
 31
0.0
  0
LINE
  5
FF
100
AcDbEntity
  8
0
  6
CONTINUOUS
 62
               4
100
AcDbLine
 10
26.100002288818359
 20
65.500015258789063
 30
0.0
 11
26.100002288818359
 21
72.0
 31
0.0
  0
LINE
  5
100
100
AcDbEntity
  8
0
  6
CONTINUOUS
 62
               4
100
AcDbLine
 10
27.000003814697266
 20
65.500015258789063
 30
0.0
 11
27.000003814697266
 21
72.0
 31
0.0
  0
LINE
  5
101
100
AcDbEntity
  8
0
  6
CONTINUOUS
 62
               4
100
AcDbLine
 10
35.000003814697266
 20
65.500015258789063
 30
0.0
 11
35.000003814697266
 21
72.0
 31
0.0
  0
LINE
  5
102
100
AcDbEntity
  8
0
  6
CONTINUOUS
 62
               7
100
AcDbLine
 10
26.0
 20
9.0
 30
0.0
 11
36.0
 21
9.0
 31
0.0
  0
LINE
  5
103
100
AcDbEntity
  8
0
  6
CONTINUOUS
 62
               7
100
AcDbLine
 10
25.999996185302734
 20
-22.999996185302734
 30
0.0
 11
35.999996185302734
 21
-22.999996185302734
 31
0.0
  0
LINE
  5
104
100
AcDbEntity
  8
0
  6
CONTINUOUS
 62
               7
100
AcDbLine
 10
25.999996185302734
 20
-31.0
 30
0.0
 11
35.999996185302734
 21
-31.0
 31
0.0
  0
LINE
  5
105
100
AcDbEntity
  8
0
  6
CONTINUOUS
 62
               7
100
AcDbLine
 10
26.399997711181641
 20
-38.0
 30
0.0
 11
35.599998474121094
 21
-38.0
 31
0.0
  0
LINE
  5
106
100
AcDbEntity
  8
0
  6
CONTINUOUS
 62
               4
100
AcDbLine
 10
26.598966735098259
 20
-20.401046494325328
 30
0.0
 11
27.801047534650991
 21
-19.198965796100424
 31
0.0
  0
LINE
  5
107
100
AcDbEntity
  8
0
  6
CONTINUOUS
 62
               4
100
AcDbLine
 10
34.198957185795848
 20
5.1989583782547015
 30
0.0
 11
35.401039334047823
 21
6.4010404251787349
 31
0.0
  0
LINE
  5
108
100
AcDbEntity
  8
0
  6
CONTINUOUS
 62
               4
100
AcDbLine
 10
34.198965547730609
 20
6.4010474889909119
 30
0.0
 11
35.401047695982584
 21
5.1989654420668785
 31
0.0
  0
LINE
  5
109
100
AcDbEntity
  8
0
  6
CONTINUOUS
 62
               4
100
AcDbLine
 10
26.598965116659258
 20
-19.198955326822443
 30
0.0
 11
27.801047264911233
 21
-20.401037373746476
 31
0.0
  0
LINE
  5
10A
100
AcDbEntity
  8
0
  6
CONTINUOUS
 62
               4
100
AcDbLine
 10
26.000003814697266
 20
28.0
 30
0.0
 11
26.000003814697266
 21
52.0
 31
0.0
  0
LINE
  5
10B
100
AcDbEntity
  8
0
  6
CONTINUOUS
 62
               4
100
AcDbLine
 10
36.000003814697266
 20
28.0
 30
0.0
 11
36.000003814697266
 21
52.0
 31
0.0
  0
LINE
  5
10C
100
AcDbEntity
  8
0
  6
CONTINUOUS
 62
               2
100
AcDbLine
 10
31.000003814697266
 20
-40.307876586914063
 30
0.0
 11
31.000003814697266
 21
73.392968222942557
 31
0.0
  0
LINE
  5
10D
100
AcDbEntity
  8
0
  6
CONTINUOUS
 62
               7
100
AcDbLine
 10
33.500003814697266
 20
24.699996948242188
 30
0.0
 11
34.500003814697266
 21
24.699996948242188
 31
0.0
  0
LINE
  5
10E
100
AcDbEntity
  8
0
  6
CONTINUOUS
 62
               7
100
AcDbLine
 10
31.000003814697266
 20
21.199996948242188
 30
0.0
 11
31.000003814697266
 21
22.199996948242188
 31
0.0
  0
LINE
  5
10F
100
AcDbEntity
  8
0
  6
CONTINUOUS
 62
               7
100
AcDbLine
 10
30.999999766173232
 20
21.699988394197817
 30
0.0
 11
31.99999905557786
 21
21.432039451631567
 31
0.0
  0
LINE
  5
110
100
AcDbEntity
  8
0
  6
CONTINUOUS
 62
               7
100
AcDbLine
 10
31.000000883325811
 20
-23.499984741210938
 30
0.0
 11
31.000000883325811
 21
-24.499984741210938
 31
0.0
  0
LINE
  5
111
100
AcDbEntity
  8
0
  6
CONTINUOUS
 62
               7
100
AcDbLine
 10
28.499996185302734
 20
-26.999984741210938
 30
0.0
 11
27.499996185302734
 21
-26.999984741210938
 31
0.0
  0
LINE
  5
112
100
AcDbEntity
  8
0
  6
CONTINUOUS
 62
               7
100
AcDbLine
 10
30.999996742589872
 20
-23.999990293629423
 30
0.0
 11
29.99999751489247
 21
-23.732041165941496
 31
0.0
  0
CIRCLE
  5
113
100
AcDbEntity
  8
0
  6
CONTINUOUS
 62
               7
100
AcDbCircle
 10
31.0
 20
-26.999984741210938
 30
0.0
 40
2.0
  0
CIRCLE
  5
114
100
AcDbEntity
  8
0
  6
CONTINUOUS
 62
               7
100
AcDbCircle
 10
31.0
 20
-26.999984741210938
 30
0.0
 40
1.9499998092651367
  0
CIRCLE
  5
115
100
AcDbEntity
  8
0
  6
CONTINUOUS
 62
               7
100
AcDbCircle
 10
31.000003814697266
 20
24.699996948242188
 30
0.0
 40
2.0
  0
CIRCLE
  5
116
100
AcDbEntity
  8
0
  6
CONTINUOUS
 62
               7
100
AcDbCircle
 10
31.000003814697266
 20
24.699996948242188
 30
0.0
 40
1.9499998092651367
  0
ARC
  5
117
100
AcDbEntity
  8
0
  6
CONTINUOUS
 62
               4
100
AcDbCircle
 10
35.450004577636719
 20
60.5
 30
0.0
 40
0.5
100
AcDbArc
 50
359.99995901886416
 51
89.999982013910454
  0
ARC
  5
118
100
AcDbEntity
  8
0
  6
CONTINUOUS
 62
               4
100
AcDbCircle
 10
26.550003051757813
 20
60.500015258789063
 30
0.0
 40
0.5
100
AcDbArc
 50
89.999982013910454
 51
179.99996402782091
  0
ARC
  5
119
100
AcDbEntity
  8
0
  6
CONTINUOUS
 62
               7
100
AcDbCircle
 10
35.599998474121094
 20
-37.599990844726563
 30
0.0
 40
0.4000000357627869
100
AcDbArc
 50
270.00001798608872
 51
0.00001366037834
  0
ARC
  5
11A
100
AcDbEntity
  8
0
  6
CONTINUOUS
 62
               7
100
AcDbCircle
 10
26.399997711181641
 20
-37.599990844726563
 30
0.0
 40
0.4000000357627869
100
AcDbArc
 50
179.99996402782091
 51
269.99994604173139
  0
ARC
  5
11B
100
AcDbEntity
  8
0
  6
CONTINUOUS
 62
               7
100
AcDbCircle
 10
35.600002288818359
 20
9.399993896484375
 30
0.0
 40
0.4000000357627869
100
AcDbArc
 50
270.00001798608872
 51
0.0
  0
ARC
  5
11C
100
AcDbEntity
  8
0
  6
CONTINUOUS
 62
               7
100
AcDbCircle
 10
26.400001525878906
 20
9.399993896484375
 30
0.0
 40
0.4000000357627869
100
AcDbArc
 50
179.99996402782091
 51
270.00000068324471
  0
CIRCLE
  5
11D
100
AcDbEntity
  8
0
  6
CONTINUOUS
 62
               4
100
AcDbCircle
 10
34.799999237060547
 20
5.7999992370605469
 30
0.0
 40
1.25
  0
CIRCLE
  5
11E
100
AcDbEntity
  8
0
  6
CONTINUOUS
 62
               4
100
AcDbCircle
 10
27.200000762939453
 20
-19.799999237060547
 30
0.0
 40
1.25
  0
ARC
  5
11F
100
AcDbEntity
  8
0
  6
CONTINUOUS
 62
               7
100
AcDbCircle
 10
31.100003778934479
 20
24.699996948242188
 30
0.0
 40
3.0
100
AcDbArc
 50
268.089805320533
 51
0.0
  0
ARC
  5
120
100
AcDbEntity
  8
0
  6
CONTINUOUS
 62
               7
100
AcDbCircle
 10
31.000003814697266
 20
24.699996948242188
 30
0.0
 40
3.0
100
AcDbArc
 50
266.17746163595609
 51
3.822566595416411
  0
ARC
  5
121
100
AcDbEntity
  8
0
  6
CONTINUOUS
 62
               7
100
AcDbCircle
 10
30.900003850460052
 20
24.699996948242188
 30
0.0
 40
3.0
100
AcDbArc
 50
271.91023065164455
 51
0.0
  0
ARC
  5
122
100
AcDbEntity
  8
0
  6
CONTINUOUS
 62
               7
100
AcDbCircle
 10
30.999996096758878
 20
-26.999984741210938
 30
0.0
 40
3.0
100
AcDbArc
 50
86.177425663777811
 51
183.82257501946691
  0
ARC
  5
123
100
AcDbEntity
  8
0
  6
CONTINUOUS
 62
               7
100
AcDbCircle
 10
30.899996101856232
 20
-26.999984741210938
 30
0.0
 40
3.0
100
AcDbArc
 50
88.08976934835465
 51
179.99996402782091
  0
ARC
  5
124
100
AcDbEntity
  8
0
  6
CONTINUOUS
 62
               7
100
AcDbCircle
 10
31.099996089935303
 20
-26.999984741210938
 30
0.0
 40
3.0
100
AcDbArc
 50
91.910194679466258
 51
179.99996402782091
  0
ARC
  5
125
100
AcDbEntity
  8
0
  6
CONTINUOUS
 62
               4
100
AcDbCircle
 10
29.85000381469726
 20
-6.7761254723518505
 30
0.0
 40
0.4
100
AcDbArc
 50
0.0
 51
77.703953799353613
  0
LINE
  5
126
100
AcDbEntity
  8
0
  6
CONTINUOUS
 62
               4
100
AcDbLine
 10
30.250003814697266
 20
-7.2238745276481495
 30
0.0
 11
30.250003814697266
 21
-6.7761254723518505
 31
0.0
  0
ARC
  5
127
100
AcDbEntity
  8
0
  6
CONTINUOUS
 62
               4
100
AcDbCircle
 10
29.85000381469726
 20
-7.2238745276481495
 30
0.0
 40
0.4
100
AcDbArc
 50
282.2960462006464
 51
0.0
  0
ARC
  5
128
100
AcDbEntity
  8
0
  6
CONTINUOUS
 62
               4
100
AcDbCircle
 10
32.150003814697271
 20
-7.2238745276481495
 30
0.0
 40
0.4
100
AcDbArc
 50
179.99999999999963
 51
257.7039537993532
  0
LINE
  5
129
100
AcDbEntity
  8
0
  6
CONTINUOUS
 62
               4
100
AcDbLine
 10
31.750003814697266
 20
-7.2238745276481495
 30
0.0
 11
31.750003814697266
 21
-6.7761254723518505
 31
0.0
  0
ARC
  5
12A
100
AcDbEntity
  8
0
  6
CONTINUOUS
 62
               4
100
AcDbCircle
 10
32.150003814697271
 20
-6.7761254723518505
 30
0.0
 40
0.4
100
AcDbArc
 50
102.29604620064599
 51
179.99999999999963
  0
LINE
  5
12B
100
AcDbEntity
  8
0
  6
CONTINUOUS
 62
               4
100
AcDbLine
 10
35.500003814697266
 20
-11.799999999999997
 30
0.0
 11
35.819517343817239
 21
-11.615528777952861
 31
0.0
  0
LINE
  5
12C
100
AcDbEntity
  8
0
  6
CONTINUOUS
 62
               4
100
AcDbLine
 10
35.500003814697266
 20
-13.200000000000003
 30
0.0
 11
35.500003814697266
 21
-11.799999999999997
 31
0.0
  0
LINE
  5
12D
100
AcDbEntity
  8
0
  6
CONTINUOUS
 62
               4
100
AcDbLine
 10
35.500003814697266
 20
-13.200000000000003
 30
0.0
 11
35.819517343817239
 21
-13.384471222047139
 31
0.0
  0
ARC
  5
12E
100
AcDbEntity
  8
0
  6
CONTINUOUS
 62
               4
100
AcDbCircle
 10
31.000003814697266
 20
-12.5
 30
0.0
 40
4.9000000000000004
100
AcDbArc
 50
190.39913703155722
 51
349.60086296844156
  0
LINE
  5
12F
100
AcDbEntity
  8
0
  6
CONTINUOUS
 62
               4
100
AcDbLine
 10
26.500003814697266
 20
-13.200000000000003
 30
0.0
 11
26.180490285577292
 21
-13.384471222047139
 31
0.0
  0
LINE
  5
130
100
AcDbEntity
  8
0
  6
CONTINUOUS
 62
               4
100
AcDbLine
 10
26.500003814697266
 20
-13.200000000000003
 30
0.0
 11
26.500003814697266
 21
-11.799999999999997
 31
0.0
  0
LINE
  5
131
100
AcDbEntity
  8
0
  6
CONTINUOUS
 62
               4
100
AcDbLine
 10
26.500003814697266
 20
-11.799999999999997
 30
0.0
 11
26.180490285577292
 21
-11.615528777952861
 31
0.0
  0
CIRCLE
  5
132
100
AcDbEntity
  8
0
  6
CONTINUOUS
 62
               4
100
AcDbCircle
 10
31.000003814697266
 20
-12.5
 30
0.0
 40
2.0500000000000003
  0
CIRCLE
  5
133
100
AcDbEntity
  8
0
  6
CONTINUOUS
 62
               4
100
AcDbCircle
 10
31.000003814697266
 20
-12.5
 30
0.0
 40
3.0500000000000003
  0
ARC
  5
134
100
AcDbEntity
  8
0
  6
CONTINUOUS
 62
               4
100
AcDbCircle
 10
31.000003814697266
 20
-12.5
 30
0.0
 40
4.9000000000000004
100
AcDbArc
 50
10.399137031557631
 51
169.60086296844196
  0
CIRCLE
  5
135
100
AcDbEntity
  8
0
  6
CONTINUOUS
 62
               4
100
AcDbCircle
 10
31.000003814697266
 20
-12.5
 30
0.0
 40
5.0
  0
LINE
  5
136
100
AcDbEntity
  8
0
  6
CONTINUOUS
 62
               4
100
AcDbLine
 10
26.500003814697266
 20
-2.2000000000000028
 30
0.0
 11
26.180490285577292
 21
-2.3844712220471393
 31
0.0
  0
LINE
  5
137
100
AcDbEntity
  8
0
  6
CONTINUOUS
 62
               4
100
AcDbLine
 10
26.500003814697266
 20
-2.2000000000000028
 30
0.0
 11
26.500003814697266
 21
-0.7999999999999972
 31
0.0
  0
LINE
  5
138
100
AcDbEntity
  8
0
  6
CONTINUOUS
 62
               4
100
AcDbLine
 10
26.500003814697266
 20
-0.7999999999999972
 30
0.0
 11
26.180490285577292
 21
-0.6155287779528607
 31
0.0
  0
LINE
  5
139
100
AcDbEntity
  8
0
  6
CONTINUOUS
 62
               4
100
AcDbLine
 10
35.500003814697266
 20
-2.2000000000000028
 30
0.0
 11
35.500003814697266
 21
-0.7999999999999972
 31
0.0
  0
ARC
  5
13A
100
AcDbEntity
  8
0
  6
CONTINUOUS
 62
               4
100
AcDbCircle
 10
31.000003814697266
 20
-1.5
 30
0.0
 40
4.9000000000000004
100
AcDbArc
 50
190.39913703155722
 51
349.60086296844156
  0
LINE
  5
13B
100
AcDbEntity
  8
0
  6
CONTINUOUS
 62
               4
100
AcDbLine
 10
35.500003814697266
 20
-2.2000000000000028
 30
0.0
 11
35.819517343817239
 21
-2.3844712220471393
 31
0.0
  0
LINE
  5
13C
100
AcDbEntity
  8
0
  6
CONTINUOUS
 62
               4
100
AcDbLine
 10
35.500003814697266
 20
-0.7999999999999972
 30
0.0
 11
35.819517343817239
 21
-0.6155287779528607
 31
0.0
  0
CIRCLE
  5
13D
100
AcDbEntity
  8
0
  6
CONTINUOUS
 62
               4
100
AcDbCircle
 10
31.000003814697266
 20
-1.5
 30
0.0
 40
2.0500000000000003
  0
CIRCLE
  5
13E
100
AcDbEntity
  8
0
  6
CONTINUOUS
 62
               4
100
AcDbCircle
 10
31.000003814697266
 20
-1.5
 30
0.0
 40
3.0500000000000003
  0
ARC
  5
13F
100
AcDbEntity
  8
0
  6
CONTINUOUS
 62
               4
100
AcDbCircle
 10
31.000003814697266
 20
-1.5
 30
0.0
 40
4.9000000000000004
100
AcDbArc
 50
10.399137031557631
 51
169.60086296844196
  0
CIRCLE
  5
140
100
AcDbEntity
  8
0
  6
CONTINUOUS
 62
               4
100
AcDbCircle
 10
31.000003814697266
 20
-1.5
 30
0.0
 40
5.0
  0
CIRCLE
  5
141
100
AcDbEntity
  8
0
  6
CONTINUOUS
 62
               4
100
AcDbCircle
 10
28.000003814697266
 20
6.0
 30
0.0
 40
1.25
  0
CIRCLE
  5
142
100
AcDbEntity
  8
0
  6
CONTINUOUS
 62
               4
100
AcDbCircle
 10
34.0
 20
-20.0
 30
0.0
 40
1.25
  0
CIRCLE
  5
143
100
AcDbEntity
  8
0
  6
CONTINUOUS
 62
               4
100
AcDbCircle
 10
28.000003814697266
 20
6.0
 30
0.0
 40
1.3999996185302734
  0
CIRCLE
  5
144
100
AcDbEntity
  8
0
  6
CONTINUOUS
 62
               4
100
AcDbCircle
 10
34.0
 20
-20.0
 30
0.0
 40
1.3999996185302734
  0
ARC
  5
145
100
AcDbEntity
  8
0
  6
CONTINUOUS
 62
               4
100
AcDbCircle
 10
27.200000762939453
 20
-19.79998779296875
 30
0.0
 40
1.5999994277954102
100
AcDbArc
 50
0.0
 51
89.999982013910454
  0
ARC
  5
146
100
AcDbEntity
  8
0
  6
CONTINUOUS
 62
               4
100
AcDbCircle
 10
34.799999237060547
 20
5.7999992370605469
 30
0.0
 40
1.5999994277954102
100
AcDbArc
 50
179.99996402782091
 51
270.00000068324471
  0
ARC
  5
147
100
AcDbEntity
  8
0
  6
CONTINUOUS
 62
               4
100
AcDbCircle
 10
29.200000762939453
 20
-22.399993896484375
 30
0.0
 40
0.4000000357627869
100
AcDbArc
 50
179.99996402782091
 51
270.00000068324471
  0
ARC
  5
148
100
AcDbEntity
  8
0
  6
CONTINUOUS
 62
               4
100
AcDbCircle
 10
35.599998474121094
 20
-22.399993896484375
 30
0.0
 40
0.4000000357627869
100
AcDbArc
 50
270.00001798608872
 51
0.0
  0
ARC
  5
149
100
AcDbEntity
  8
0
  6
CONTINUOUS
 62
               4
100
AcDbCircle
 10
35.599998474121094
 20
3.8000011444091797
 30
0.0
 40
0.4000000357627869
100
AcDbArc
 50
0.0
 51
89.999982013910454
  0
ARC
  5
14A
100
AcDbEntity
  8
0
  6
CONTINUOUS
 62
               4
100
AcDbCircle
 10
32.799999237060547
 20
8.4000034332275391
 30
0.0
 40
0.4000000357627869
100
AcDbArc
 50
0.0
 51
89.999982013910454
  0
ARC
  5
14B
100
AcDbEntity
  8
0
  6
CONTINUOUS
 62
               4
100
AcDbCircle
 10
26.400001525878906
 20
8.4000034332275391
 30
0.0
 40
0.4000000357627869
100
AcDbArc
 50
89.999982013910454
 51
179.99996402782091
  0
ARC
  5
14C
100
AcDbEntity
  8
0
  6
CONTINUOUS
 62
               4
100
AcDbCircle
 10
26.400001525878906
 20
-17.79998779296875
 30
0.0
 40
0.4000000357627869
100
AcDbArc
 50
179.99996402782091
 51
270.00000068324471
  0
LINE
  5
14D
100
AcDbEntity
  8
0
  6
CONTINUOUS
 62
               4
100
AcDbLine
 10
27.39896003243237
 20
5.3989596616282682
 30
0.0
 11
28.601042180684345
 21
6.6010417085523017
 31
0.0
  0
LINE
  5
14E
100
AcDbEntity
  8
0
  6
CONTINUOUS
 62
               4
100
AcDbLine
 10
27.398970032791397
 20
6.6010483156827604
 30
0.0
 11
28.601052181043372
 21
5.398966268758727
 31
0.0
  0
LINE
  5
14F
100
AcDbEntity
  8
0
  6
CONTINUOUS
 62
               4
100
AcDbLine
 10
26.000003814697266
 20
-17.79998779296875
 30
0.0
 11
26.000003814697266
 21
8.4000034332275391
 31
0.0
  0
LINE
  5
150
100
AcDbEntity
  8
0
  6
CONTINUOUS
 62
               4
100
AcDbLine
 10
33.398958994864131
 20
-19.398947634177375
 30
0.0
 11
34.60103844571762
 21
-20.60102698370315
 31
0.0
  0
LINE
  5
151
100
AcDbEntity
  8
0
  6
CONTINUOUS
 62
               4
100
AcDbLine
 10
33.398954780179793
 20
-20.601040302106981
 30
0.0
 11
34.601036928431768
 21
-19.398958255182947
 31
0.0
  0
LINE
  5
152
100
AcDbEntity
  8
0
  6
CONTINUOUS
 62
               4
100
AcDbLine
 10
34.799995422363281
 20
4.2000064849853516
 30
0.0
 11
35.599998474121094
 21
4.2000064849853516
 31
0.0
  0
LINE
  5
153
100
AcDbEntity
  8
0
  6
CONTINUOUS
 62
               4
100
AcDbLine
 10
27.200000762939453
 20
-18.199996948242187
 30
0.0
 11
26.400001525878906
 21
-18.199996948242187
 31
0.0
  0
LINE
  5
154
100
AcDbEntity
  8
0
  6
CONTINUOUS
 62
               4
100
AcDbLine
 10
28.800006866455078
 20
-19.800003051757813
 30
0.0
 11
28.800006866455078
 21
-22.399993896484375
 31
0.0
  0
LINE
  5
155
100
AcDbEntity
  8
0
  6
CONTINUOUS
 62
               4
100
AcDbLine
 10
33.200004577636719
 20
5.7999992370605469
 30
0.0
 11
33.200004577636719
 21
8.4000034332275391
 31
0.0
  0
LINE
  5
156
100
AcDbEntity
  8
0
  6
CONTINUOUS
 62
               4
100
AcDbLine
 10
26.400001525878906
 20
8.8000030517578125
 30
0.0
 11
32.799999237060547
 21
8.8000030517578125
 31
0.0
  0
LINE
  5
157
100
AcDbEntity
  8
0
  6
CONTINUOUS
 62
               4
100
AcDbLine
 10
29.200000762939453
 20
-22.79998779296875
 30
0.0
 11
35.599994659423828
 21
-22.79998779296875
 31
0.0
  0
LINE
  5
158
100
AcDbEntity
  8
0
  6
CONTINUOUS
 62
               4
100
AcDbLine
 10
8.1999969482421875
 20
-22.79998779296875
 30
0.0
 11
14.599990844726563
 21
-22.79998779296875
 31
0.0
  0
LINE
  5
159
100
AcDbEntity
  8
0
  6
CONTINUOUS
 62
               4
100
AcDbLine
 10
5.3999977111816406
 20
8.8000030517578125
 30
0.0
 11
11.799995422363281
 21
8.8000030517578125
 31
0.0
  0
LINE
  5
15A
100
AcDbEntity
  8
0
  6
CONTINUOUS
 62
               4
100
AcDbLine
 10
12.200000762939453
 20
5.7999992370605469
 30
0.0
 11
12.200000762939453
 21
8.4000034332275391
 31
0.0
  0
LINE
  5
15B
100
AcDbEntity
  8
0
  6
CONTINUOUS
 62
               4
100
AcDbLine
 10
13.799991607666016
 20
4.2000064849853516
 30
0.0
 11
14.599994659423828
 21
4.2000064849853516
 31
0.0
  0
LINE
  5
15C
100
AcDbEntity
  8
0
  6
CONTINUOUS
 62
               4
100
AcDbLine
 10
12.398950965482527
 20
-20.601040302106981
 30
0.0
 11
13.601033113734502
 21
-19.398958255182947
 31
0.0
  0
LINE
  5
15D
100
AcDbEntity
  8
0
  6
CONTINUOUS
 62
               4
100
AcDbLine
 10
12.398955180166865
 20
-19.398947634177375
 30
0.0
 11
13.601034631020354
 21
-20.60102698370315
 31
0.0
  0
LINE
  5
15E
100
AcDbEntity
  8
0
  6
CONTINUOUS
 62
               4
100
AcDbLine
 10
5.0
 20
-17.79998779296875
 30
0.0
 11
5.0
 21
8.4000034332275391
 31
0.0
  0
LINE
  5
15F
100
AcDbEntity
  8
0
  6
CONTINUOUS
 62
               4
100
AcDbLine
 10
6.3989662180941309
 20
6.6010483156827604
 30
0.0
 11
7.6010483663461059
 21
5.398966268758727
 31
0.0
  0
LINE
  5
160
100
AcDbEntity
  8
0
  6
CONTINUOUS
 62
               4
100
AcDbLine
 10
6.3989562177351047
 20
5.3989596616282682
 30
0.0
 11
7.6010383659870797
 21
6.6010417085523017
 31
0.0
  0
ARC
  5
161
100
AcDbEntity
  8
0
  6
CONTINUOUS
 62
               4
100
AcDbCircle
 10
5.3999977111816406
 20
-17.79998779296875
 30
0.0
 40
0.4000000357627869
100
AcDbArc
 50
179.99996402782091
 51
270.00000068324471
  0
ARC
  5
162
100
AcDbEntity
  8
0
  6
CONTINUOUS
 62
               4
100
AcDbCircle
 10
5.3999977111816406
 20
8.4000034332275391
 30
0.0
 40
0.4000000357627869
100
AcDbArc
 50
89.999982013910454
 51
179.99996402782091
  0
ARC
  5
163
100
AcDbEntity
  8
0
  6
CONTINUOUS
 62
               4
100
AcDbCircle
 10
11.799995422363281
 20
8.4000034332275391
 30
0.0
 40
0.4000000357627869
100
AcDbArc
 50
0.0
 51
89.999982013910454
  0
ARC
  5
164
100
AcDbEntity
  8
0
  6
CONTINUOUS
 62
               4
100
AcDbCircle
 10
14.599994659423828
 20
3.8000011444091797
 30
0.0
 40
0.4000000357627869
100
AcDbArc
 50
0.0
 51
89.999982013910454
  0
ARC
  5
165
100
AcDbEntity
  8
0
  6
CONTINUOUS
 62
               4
100
AcDbCircle
 10
14.599994659423828
 20
-22.399993896484375
 30
0.0
 40
0.4000000357627869
100
AcDbArc
 50
270.00001798608872
 51
0.0
  0
ARC
  5
166
100
AcDbEntity
  8
0
  6
CONTINUOUS
 62
               4
100
AcDbCircle
 10
8.1999969482421875
 20
-22.399993896484375
 30
0.0
 40
0.4000000357627869
100
AcDbArc
 50
179.99996402782091
 51
270.00000068324471
  0
ARC
  5
167
100
AcDbEntity
  8
0
  6
CONTINUOUS
 62
               4
100
AcDbCircle
 10
13.799995422363281
 20
5.7999992370605469
 30
0.0
 40
1.5999994277954102
100
AcDbArc
 50
179.99996402782091
 51
270.00000068324471
  0
ARC
  5
168
100
AcDbEntity
  8
0
  6
CONTINUOUS
 62
               4
100
AcDbCircle
 10
6.1999969482421875
 20
-19.79998779296875
 30
0.0
 40
1.5999994277954102
100
AcDbArc
 50
0.0
 51
89.999982013910454
  0
CIRCLE
  5
169
100
AcDbEntity
  8
0
  6
CONTINUOUS
 62
               4
100
AcDbCircle
 10
12.999996185302734
 20
-20.0
 30
0.0
 40
1.3999996185302734
  0
CIRCLE
  5
16A
100
AcDbEntity
  8
0
  6
CONTINUOUS
 62
               4
100
AcDbCircle
 10
7.0
 20
6.0
 30
0.0
 40
1.3999996185302734
  0
CIRCLE
  5
16B
100
AcDbEntity
  8
0
  6
CONTINUOUS
 62
               4
100
AcDbCircle
 10
12.999996185302734
 20
-20.0
 30
0.0
 40
1.25
  0
CIRCLE
  5
16C
100
AcDbEntity
  8
0
  6
CONTINUOUS
 62
               4
100
AcDbCircle
 10
7.0
 20
6.0
 30
0.0
 40
1.25
  0
CIRCLE
  5
16D
100
AcDbEntity
  8
0
  6
CONTINUOUS
 62
               4
100
AcDbCircle
 10
10.0
 20
-1.5
 30
0.0
 40
5.0
  0
ARC
  5
16E
100
AcDbEntity
  8
0
  6
CONTINUOUS
 62
               4
100
AcDbCircle
 10
10.0
 20
-1.5
 30
0.0
 40
4.9000000000000004
100
AcDbArc
 50
10.399137031557631
 51
169.60086296844196
  0
CIRCLE
  5
16F
100
AcDbEntity
  8
0
  6
CONTINUOUS
 62
               4
100
AcDbCircle
 10
10.0
 20
-1.5
 30
0.0
 40
3.0500000000000003
  0
CIRCLE
  5
170
100
AcDbEntity
  8
0
  6
CONTINUOUS
 62
               4
100
AcDbCircle
 10
10.0
 20
-1.5
 30
0.0
 40
2.0500000000000003
  0
LINE
  5
171
100
AcDbEntity
  8
0
  6
CONTINUOUS
 62
               4
100
AcDbLine
 10
14.5
 20
-0.7999999999999972
 30
0.0
 11
14.819513529119973
 21
-0.6155287779528607
 31
0.0
  0
LINE
  5
172
100
AcDbEntity
  8
0
  6
CONTINUOUS
 62
               4
100
AcDbLine
 10
14.5
 20
-2.2000000000000028
 30
0.0
 11
14.819513529119973
 21
-2.3844712220471393
 31
0.0
  0
ARC
  5
173
100
AcDbEntity
  8
0
  6
CONTINUOUS
 62
               4
100
AcDbCircle
 10
10.0
 20
-1.5
 30
0.0
 40
4.9000000000000004
100
AcDbArc
 50
190.39913703155722
 51
349.60086296844156
  0
LINE
  5
174
100
AcDbEntity
  8
0
  6
CONTINUOUS
 62
               4
100
AcDbLine
 10
14.5
 20
-2.2000000000000028
 30
0.0
 11
14.5
 21
-0.7999999999999972
 31
0.0
  0
LINE
  5
175
100
AcDbEntity
  8
0
  6
CONTINUOUS
 62
               4
100
AcDbLine
 10
5.5
 20
-0.7999999999999972
 30
0.0
 11
5.1804864708800267
 21
-0.6155287779528607
 31
0.0
  0
LINE
  5
176
100
AcDbEntity
  8
0
  6
CONTINUOUS
 62
               4
100
AcDbLine
 10
5.5
 20
-2.2000000000000028
 30
0.0
 11
5.5
 21
-0.7999999999999972
 31
0.0
  0
LINE
  5
177
100
AcDbEntity
  8
0
  6
CONTINUOUS
 62
               4
100
AcDbLine
 10
5.5
 20
-2.2000000000000028
 30
0.0
 11
5.1804864708800267
 21
-2.3844712220471393
 31
0.0
  0
CIRCLE
  5
178
100
AcDbEntity
  8
0
  6
CONTINUOUS
 62
               4
100
AcDbCircle
 10
10.0
 20
-12.5
 30
0.0
 40
5.0
  0
ARC
  5
179
100
AcDbEntity
  8
0
  6
CONTINUOUS
 62
               4
100
AcDbCircle
 10
10.0
 20
-12.5
 30
0.0
 40
4.9000000000000004
100
AcDbArc
 50
10.399137031557631
 51
169.60086296844196
  0
CIRCLE
  5
17A
100
AcDbEntity
  8
0
  6
CONTINUOUS
 62
               4
100
AcDbCircle
 10
10.0
 20
-12.5
 30
0.0
 40
3.0500000000000003
  0
CIRCLE
  5
17B
100
AcDbEntity
  8
0
  6
CONTINUOUS
 62
               4
100
AcDbCircle
 10
10.0
 20
-12.5
 30
0.0
 40
2.0500000000000003
  0
LINE
  5
17C
100
AcDbEntity
  8
0
  6
CONTINUOUS
 62
               4
100
AcDbLine
 10
5.5
 20
-11.799999999999997
 30
0.0
 11
5.1804864708800267
 21
-11.615528777952861
 31
0.0
  0
LINE
  5
17D
100
AcDbEntity
  8
0
  6
CONTINUOUS
 62
               4
100
AcDbLine
 10
5.5
 20
-13.200000000000003
 30
0.0
 11
5.5
 21
-11.799999999999997
 31
0.0
  0
LINE
  5
17E
100
AcDbEntity
  8
0
  6
CONTINUOUS
 62
               4
100
AcDbLine
 10
5.5
 20
-13.200000000000003
 30
0.0
 11
5.1804864708800267
 21
-13.384471222047139
 31
0.0
  0
ARC
  5
17F
100
AcDbEntity
  8
0
  6
CONTINUOUS
 62
               4
100
AcDbCircle
 10
10.0
 20
-12.5
 30
0.0
 40
4.9000000000000004
100
AcDbArc
 50
190.39913703155722
 51
349.60086296844156
  0
LINE
  5
180
100
AcDbEntity
  8
0
  6
CONTINUOUS
 62
               4
100
AcDbLine
 10
14.5
 20
-13.200000000000003
 30
0.0
 11
14.819513529119973
 21
-13.384471222047139
 31
0.0
  0
LINE
  5
181
100
AcDbEntity
  8
0
  6
CONTINUOUS
 62
               4
100
AcDbLine
 10
14.5
 20
-13.200000000000003
 30
0.0
 11
14.5
 21
-11.799999999999997
 31
0.0
  0
LINE
  5
182
100
AcDbEntity
  8
0
  6
CONTINUOUS
 62
               4
100
AcDbLine
 10
14.5
 20
-11.799999999999997
 30
0.0
 11
14.819513529119973
 21
-11.615528777952861
 31
0.0
  0
ARC
  5
183
100
AcDbEntity
  8
0
  6
CONTINUOUS
 62
               4
100
AcDbCircle
 10
11.150000000000006
 20
-6.7761254723518505
 30
0.0
 40
0.4
100
AcDbArc
 50
102.29604620064599
 51
179.99999999999963
  0
LINE
  5
184
100
AcDbEntity
  8
0
  6
CONTINUOUS
 62
               4
100
AcDbLine
 10
10.75
 20
-7.2238745276481495
 30
0.0
 11
10.75
 21
-6.7761254723518505
 31
0.0
  0
ARC
  5
185
100
AcDbEntity
  8
0
  6
CONTINUOUS
 62
               4
100
AcDbCircle
 10
11.150000000000006
 20
-7.2238745276481495
 30
0.0
 40
0.4
100
AcDbArc
 50
179.99999999999963
 51
257.7039537993532
  0
ARC
  5
186
100
AcDbEntity
  8
0
  6
CONTINUOUS
 62
               4
100
AcDbCircle
 10
8.8499999999999943
 20
-7.2238745276481495
 30
0.0
 40
0.4
100
AcDbArc
 50
282.2960462006464
 51
0.0
  0
LINE
  5
187
100
AcDbEntity
  8
0
  6
CONTINUOUS
 62
               4
100
AcDbLine
 10
9.25
 20
-7.2238745276481495
 30
0.0
 11
9.25
 21
-6.7761254723518505
 31
0.0
  0
ARC
  5
188
100
AcDbEntity
  8
0
  6
CONTINUOUS
 62
               4
100
AcDbCircle
 10
8.8499999999999943
 20
-6.7761254723518505
 30
0.0
 40
0.4
100
AcDbArc
 50
0.0
 51
77.703953799353613
  0
ARC
  5
189
100
AcDbEntity
  8
0
  6
CONTINUOUS
 62
               7
100
AcDbCircle
 10
9.899993896484375
 20
24.699996948242188
 30
0.0
 40
3.0
100
AcDbArc
 50
271.91023065164455
 51
0.0
  0
ARC
  5
18A
100
AcDbEntity
  8
0
  6
CONTINUOUS
 62
               7
100
AcDbCircle
 10
10.0
 20
24.699996948242188
 30
0.0
 40
3.0
100
AcDbArc
 50
266.17746163595609
 51
3.822566595416411
  0
ARC
  5
18B
100
AcDbEntity
  8
0
  6
CONTINUOUS
 62
               7
100
AcDbCircle
 10
10.100006103515625
 20
24.699996948242188
 30
0.0
 40
3.0
100
AcDbArc
 50
268.089805320533
 51
0.0
  0
CIRCLE
  5
18C
100
AcDbEntity
  8
0
  6
CONTINUOUS
 62
               4
100
AcDbCircle
 10
45.300003051757813
 20
5.79998779296875
 30
0.0
 40
1.25
  0
CIRCLE
  5
18D
100
AcDbEntity
  8
0
  6
CONTINUOUS
 62
               4
100
AcDbCircle
 10
37.699996948242187
 20
-19.800003051757813
 30
0.0
 40
1.25
  0
CIRCLE
  5
18E
100
AcDbEntity
  8
0
  6
CONTINUOUS
 62
               4
100
AcDbCircle
 10
13.800003051757812
 20
5.79998779296875
 30
0.0
 40
1.25
  0
CIRCLE
  5
18F
100
AcDbEntity
  8
0
  6
CONTINUOUS
 62
               4
100
AcDbCircle
 10
6.1999969482421875
 20
-19.800003051757813
 30
0.0
 40
1.25
  0
ARC
  5
190
100
AcDbEntity
  8
0
  6
CONTINUOUS
 62
               7
100
AcDbCircle
 10
5.399993896484375
 20
9.399993896484375
 30
0.0
 40
0.4000000357627869
100
AcDbArc
 50
179.99996402782091
 51
270.00000068324471
  0
ARC
  5
191
100
AcDbEntity
  8
0
  6
CONTINUOUS
 62
               7
100
AcDbCircle
 10
14.600006103515625
 20
9.399993896484375
 30
0.0
 40
0.4000000357627869
100
AcDbArc
 50
270.00001798608872
 51
0.0
  0
ARC
  5
192
100
AcDbEntity
  8
0
  6
CONTINUOUS
 62
               7
100
AcDbCircle
 10
5.399993896484375
 20
-37.600006103515625
 30
0.0
 40
0.4000000357627869
100
AcDbArc
 50
179.99996402782091
 51
269.99994604173139
  0
ARC
  5
193
100
AcDbEntity
  8
0
  6
CONTINUOUS
 62
               7
100
AcDbCircle
 10
14.600006103515625
 20
-37.600006103515625
 30
0.0
 40
0.4000000357627869
100
AcDbArc
 50
270.00001798608872
 51
0.00001366037834
  0
ARC
  5
194
100
AcDbEntity
  8
0
  6
CONTINUOUS
 62
               4
100
AcDbCircle
 10
5.5500030517578125
 20
60.500015258789063
 30
0.0
 40
0.5
100
AcDbArc
 50
89.999982013910454
 51
179.99996402782091
  0
ARC
  5
195
100
AcDbEntity
  8
0
  6
CONTINUOUS
 62
               4
100
AcDbCircle
 10
14.45001220703125
 20
60.5
 30
0.0
 40
0.5
100
AcDbArc
 50
359.99995901886416
 51
89.999982013910454
  0
CIRCLE
  5
196
100
AcDbEntity
  8
0
  6
CONTINUOUS
 62
               7
100
AcDbCircle
 10
10.0
 20
24.699996948242188
 30
0.0
 40
1.9499998092651367
  0
CIRCLE
  5
197
100
AcDbEntity
  8
0
  6
CONTINUOUS
 62
               7
100
AcDbCircle
 10
10.0
 20
24.699996948242188
 30
0.0
 40
2.0
  0
CIRCLE
  5
198
100
AcDbEntity
  8
0
  6
CONTINUOUS
 62
               7
100
AcDbCircle
 10
51.5
 20
-14.0
 30
0.0
 40
2.25
  0
CIRCLE
  5
199
100
AcDbEntity
  8
0
  6
CONTINUOUS
 62
               7
100
AcDbCircle
 10
51.5
 20
0.0
 30
0.0
 40
2.25
  0
CIRCLE
  5
19A
100
AcDbEntity
  8
0
  6
CONTINUOUS
 62
               7
100
AcDbCircle
 10
0.0
 20
-14.0
 30
0.0
 40
2.25
  0
CIRCLE
  5
19B
100
AcDbEntity
  8
0
  6
CONTINUOUS
 62
               7
100
AcDbCircle
 10
0.0
 20
0.0
 30
0.0
 40
2.25
  0
LINE
  5
19C
100
AcDbEntity
  8
0
  6
CONTINUOUS
 62
               4
100
AcDbLine
 10
36.5
 20
-19.449996948242188
 30
0.0
 11
36.5
 21
16.5
 31
0.0
  0
LINE
  5
19D
100
AcDbEntity
  8
0
  6
CONTINUOUS
 62
               7
100
AcDbLine
 10
9.9999926308846625
 20
21.699987559135479
 30
0.0
 11
10.999994683825207
 21
21.432037876082177
 31
0.0
  0
LINE
  5
19E
100
AcDbEntity
  8
0
  6
CONTINUOUS
 62
               7
100
AcDbLine
 10
10.0
 20
21.199996948242188
 30
0.0
 11
10.0
 21
22.199996948242188
 31
0.0
  0
LINE
  5
19F
100
AcDbEntity
  8
0
  6
CONTINUOUS
 62
               7
100
AcDbLine
 10
12.5
 20
24.699996948242188
 30
0.0
 11
13.5
 21
24.699996948242188
 31
0.0
  0
LINE
  5
1A0
100
AcDbEntity
  8
0
  6
CONTINUOUS
 62
               4
100
AcDbLine
 10
36.5
 20
16.5
 30
0.0
 11
46.5
 21
16.5
 31
0.0
  0
LINE
  5
1A1
100
AcDbEntity
  8
0
  6
CONTINUOUS
 62
               4
100
AcDbLine
 10
46.5
 20
6.1499786376953125
 30
0.0
 11
46.5
 21
16.5
 31
0.0
  0
LINE
  5
1A2
100
AcDbEntity
  8
0
  6
CONTINUOUS
 62
               2
100
AcDbLine
 10
41.5
 20
-25.137008666992187
 30
0.0
 11
41.5
 21
17.570938110351563
 31
0.0
  0
LINE
  5
1A3
100
AcDbEntity
  8
0
  6
CONTINUOUS
 62
               4
100
AcDbLine
 10
36.5
 20
-23.5
 30
0.0
 11
36.5
 21
-20.150009155273438
 31
0.0
  0
LINE
  5
1A4
100
AcDbEntity
  8
0
  6
CONTINUOUS
 62
               4
100
AcDbLine
 10
46.5
 20
-23.5
 30
0.0
 11
46.5
 21
5.45001220703125
 31
0.0
  0
LINE
  5
1A5
100
AcDbEntity
  8
0
  6
CONTINUOUS
 62
               4
100
AcDbLine
 10
44.698961362513728
 20
5.1989560135516513
 30
0.0
 11
45.901040813367217
 21
6.4010353630774262
 31
0.0
  0
LINE
  5
1A6
100
AcDbEntity
  8
0
  6
CONTINUOUS
 62
               4
100
AcDbLine
 10
44.698966858462882
 20
6.4010509826994166
 30
0.0
 11
45.901046309316371
 21
5.1989716331736417
 31
0.0
  0
LINE
  5
1A7
100
AcDbEntity
  8
0
  6
CONTINUOUS
 62
               4
100
AcDbLine
 10
37.098964842670284
 20
-20.401037395085041
 30
0.0
 11
38.301044293523773
 21
-19.198958045559266
 31
0.0
  0
LINE
  5
1A8
100
AcDbEntity
  8
0
  6
CONTINUOUS
 62
               4
100
AcDbLine
 10
37.098983286131443
 20
-19.198953856162007
 30
0.0
 11
38.301062736984932
 21
-20.401033205687781
 31
0.0
  0
LINE
  5
1A9
100
AcDbEntity
  8
0
  6
CONTINUOUS
 62
               4
100
AcDbLine
 10
5.0
 20
-18.20001220703125
 30
0.0
 11
6.1999969482421875
 21
-18.20001220703125
 31
0.0
  0
LINE
  5
1AA
100
AcDbEntity
  8
0
  6
CONTINUOUS
 62
               4
100
AcDbLine
 10
7.8000030517578125
 20
-19.800003051757813
 30
0.0
 11
7.8000030517578125
 21
-22.800003051757813
 31
0.0
  0
LINE
  5
1AB
100
AcDbEntity
  8
0
  6
CONTINUOUS
 62
               7
100
AcDbLine
 10
7.8000030517578125
 20
-22.800003051757813
 30
0.0
 11
15.0
 21
-22.800003051757813
 31
0.0
  0
LINE
  5
1AC
100
AcDbEntity
  8
0
  6
CONTINUOUS
 62
               4
100
AcDbLine
 10
13.198958963597761
 20
5.1989573411774472
 30
0.0
 11
14.40103841445125
 21
6.4010366907032221
 31
0.0
  0
LINE
  5
1AD
100
AcDbEntity
  8
0
  6
CONTINUOUS
 62
               4
100
AcDbLine
 10
13.198964459546914
 20
6.4010496550736207
 30
0.0
 11
14.401043910400404
 21
5.1989703055478458
 31
0.0
  0
LINE
  5
1AE
100
AcDbEntity
  8
0
  6
CONTINUOUS
 62
               4
100
AcDbLine
 10
15.0
 20
28.0
 30
0.0
 11
15.0
 21
52.0
 31
0.0
  0
LINE
  5
1AF
100
AcDbEntity
  8
0
  6
CONTINUOUS
 62
               4
100
AcDbLine
 10
5.0
 20
28.0
 30
0.0
 11
5.0
 21
52.0
 31
0.0
  0
LINE
  5
1B0
100
AcDbEntity
  8
0
  6
CONTINUOUS
 62
               4
100
AcDbLine
 10
6.8010449290077304
 20
-20.401037702931717
 30
0.0
 11
5.5989656808096697
 21
-19.198958150750514
 31
0.0
  0
LINE
  5
1B1
100
AcDbEntity
  8
0
  6
CONTINUOUS
 62
               4
100
AcDbLine
 10
6.8010374778014011
 20
-19.198949097954937
 30
0.0
 11
5.5989578242924836
 21
-20.401028244825284
 31
0.0
  0
LINE
  5
1B2
100
AcDbEntity
  8
0
  6
CONTINUOUS
 62
               7
100
AcDbLine
 10
5.399993896484375
 20
-38.000015258789062
 30
0.0
 11
14.600006103515625
 21
-38.000015258789062
 31
0.0
  0
LINE
  5
1B3
100
AcDbEntity
  8
0
  6
CONTINUOUS
 62
               7
100
AcDbLine
 10
5.3000030517578125
 20
-25.0
 30
0.0
 11
5.0
 21
-25.0
 31
0.0
  0
LINE
  5
1B4
100
AcDbEntity
  8
0
  6
CONTINUOUS
 62
               7
100
AcDbLine
 10
14.699996948242188
 20
-29.000015258789063
 30
0.0
 11
15.0
 21
-29.000015258789063
 31
0.0
  0
LINE
  5
1B5
100
AcDbEntity
  8
0
  6
CONTINUOUS
 62
               7
100
AcDbLine
 10
15.0
 20
-25.0
 30
0.0
 11
14.699996948242188
 21
-25.0
 31
0.0
  0
LINE
  5
1B6
100
AcDbEntity
  8
0
  6
CONTINUOUS
 62
               7
100
AcDbLine
 10
5.0
 20
-29.000015258789063
 30
0.0
 11
5.3000030517578125
 21
-29.000015258789063
 31
0.0
  0
LINE
  5
1B7
100
AcDbEntity
  8
0
  6
CONTINUOUS
 62
               7
100
AcDbLine
 10
5.0
 20
-31.000015258789063
 30
0.0
 11
15.0
 21
-31.000015258789063
 31
0.0
  0
LINE
  5
1B8
100
AcDbEntity
  8
0
  6
CONTINUOUS
 62
               7
100
AcDbLine
 10
5.0
 20
-23.0
 30
0.0
 11
15.0
 21
-23.0
 31
0.0
  0
LINE
  5
1B9
100
AcDbEntity
  8
0
  6
CONTINUOUS
 62
               7
100
AcDbLine
 10
5.0
 20
9.0
 30
0.0
 11
15.0
 21
9.0
 31
0.0
  0
LINE
  5
1BA
100
AcDbEntity
  8
0
  6
CONTINUOUS
 62
               7
100
AcDbLine
 10
5.3000030517578125
 20
-31.000015258789063
 30
0.0
 11
5.3000030517578125
 21
-23.000015258789063
 31
0.0
  0
LINE
  5
1BB
100
AcDbEntity
  8
0
  6
CONTINUOUS
 62
               7
100
AcDbLine
 10
14.699996948242188
 20
-31.000015258789063
 30
0.0
 11
14.699996948242188
 21
-23.000015258789063
 31
0.0
  0
LINE
  5
1BC
100
AcDbEntity
  8
0
  6
CONTINUOUS
 62
               7
100
AcDbLine
 10
5.6999969482421875
 20
-30.600006103515625
 30
0.0
 11
14.300003051757813
 21
-30.600006103515625
 31
0.0
  0
LINE
  5
1BD
100
AcDbEntity
  8
0
  6
CONTINUOUS
 62
               7
100
AcDbLine
 10
5.6999969482421875
 20
-30.600006103515625
 30
0.0
 11
5.6999969482421875
 21
-23.400009155273438
 31
0.0
  0
LINE
  5
1BE
100
AcDbEntity
  8
0
  6
CONTINUOUS
 62
               7
100
AcDbLine
 10
5.6999969482421875
 20
-23.400009155273438
 30
0.0
 11
14.300003051757813
 21
-23.400009155273438
 31
0.0
  0
LINE
  5
1BF
100
AcDbEntity
  8
0
  6
CONTINUOUS
 62
               7
100
AcDbLine
 10
14.300003051757813
 20
-30.600006103515625
 30
0.0
 11
14.300003051757813
 21
-23.400009155273438
 31
0.0
  0
LINE
  5
1C0
100
AcDbEntity
  8
0
  6
CONTINUOUS
 62
               7
100
AcDbLine
 10
14.299976738691839
 20
-23.400001074212923
 30
0.0
 11
14.699979354963943
 21
-22.999998525376213
 31
0.0
  0
LINE
  5
1C1
100
AcDbEntity
  8
0
  6
CONTINUOUS
 62
               7
100
AcDbLine
 10
14.300008500556942
 20
-30.59999361222981
 30
0.0
 11
14.700000259801527
 21
-30.99998543890797
 31
0.0
  0
LINE
  5
1C2
100
AcDbEntity
  8
0
  6
CONTINUOUS
 62
               7
100
AcDbLine
 10
5.6999799496188643
 20
-30.60000367689463
 30
0.0
 11
5.2999881229407038
 21
-30.999995436139216
 31
0.0
  0
LINE
  5
1C3
100
AcDbEntity
  8
0
  6
CONTINUOUS
 62
               7
100
AcDbLine
 10
5.7000129253156047
 20
-23.399967980511065
 30
0.0
 11
5.3000211660710193
 21
-22.999976153832904
 31
0.0
  0
LINE
  5
1C4
100
AcDbEntity
  8
0
  6
CONTINUOUS
 62
               4
100
AcDbLine
 10
14.0
 20
65.500015258789063
 30
0.0
 11
14.0
 21
72.0
 31
0.0
  0
LINE
  5
1C5
100
AcDbEntity
  8
0
  6
CONTINUOUS
 62
               4
100
AcDbLine
 10
6.0
 20
65.500015258789063
 30
0.0
 11
6.0
 21
72.0
 31
0.0
  0
LINE
  5
1C6
100
AcDbEntity
  8
0
  6
CONTINUOUS
 62
               4
100
AcDbLine
 10
5.100006103515625
 20
65.500015258789063
 30
0.0
 11
5.100006103515625
 21
72.0
 31
0.0
  0
LINE
  5
1C7
100
AcDbEntity
  8
0
  6
CONTINUOUS
 62
               4
100
AcDbLine
 10
14.899993896484375
 20
65.500015258789063
 30
0.0
 11
14.899993896484375
 21
72.0
 31
0.0
  0
LINE
  5
1C8
100
AcDbEntity
  8
0
  6
CONTINUOUS
 62
               7
100
AcDbLine
 10
5.0
 20
-37.600006103515625
 30
0.0
 11
5.0
 21
-20.150009155273438
 31
0.0
  0
LINE
  5
1C9
100
AcDbEntity
  8
0
  6
CONTINUOUS
 62
               7
100
AcDbLine
 10
15.0
 20
-37.600006103515625
 30
0.0
 11
15.0
 21
5.45001220703125
 31
0.0
  0
LINE
  5
1CA
100
AcDbEntity
  8
0
  6
CONTINUOUS
 62
             200
100
AcDbLine
 10
10.000010316408407
 20
77.732089983928745
 30
0.0
 11
6.0000082575779743
 21
75.422686692201751
 31
0.0
  0
LINE
  5
1CB
100
AcDbEntity
  8
0
  6
CONTINUOUS
 62
               4
100
AcDbLine
 10
7.285003662109375
 20
72.0
 30
0.0
 11
7.285003662109375
 21
75.009780883789063
 31
0.0
  0
LINE
  5
1CC
100
AcDbEntity
  8
0
  6
CONTINUOUS
 62
               4
100
AcDbLine
 10
8.7150115966796875
 20
72.0
 30
0.0
 11
8.7150115966796875
 21
75.83538818359375
 31
0.0
  0
LINE
  5
1CD
100
AcDbEntity
  8
0
  6
CONTINUOUS
 62
               4
100
AcDbLine
 10
7.600006103515625
 20
85.0
 30
0.0
 11
8.399993896484375
 21
85.0
 31
0.0
  0
LINE
  5
1CE
100
AcDbEntity
  8
0
  6
CONTINUOUS
 62
               4
100
AcDbLine
 10
7.600006103515625
 20
80.0
 30
0.0
 11
7.600006103515625
 21
85.0
 31
0.0
  0
LINE
  5
1CF
100
AcDbEntity
  8
0
  6
CONTINUOUS
 62
               4
100
AcDbLine
 10
8.4000091552734375
 20
80.0
 30
0.0
 11
8.4000091552734375
 21
85.0
 31
0.0
  0
LINE
  5
1D0
100
AcDbEntity
  8
0
  6
CONTINUOUS
 62
               4
100
AcDbLine
 10
7.285003662109375
 20
80.0
 30
0.0
 11
8.714996337890625
 21
80.0
 31
0.0
  0
LINE
  5
1D1
100
AcDbEntity
  8
0
  6
CONTINUOUS
 62
               4
100
AcDbLine
 10
7.285003662109375
 20
76.164581298828125
 30
0.0
 11
7.285003662109375
 21
80.0
 31
0.0
  0
LINE
  5
1D2
100
AcDbEntity
  8
0
  6
CONTINUOUS
 62
               4
100
AcDbLine
 10
8.7150115966796875
 20
76.990188598632813
 30
0.0
 11
8.7150115966796875
 21
80.0
 31
0.0
  0
LINE
  5
1D3
100
AcDbEntity
  8
0
  6
CONTINUOUS
 62
               4
100
AcDbLine
 10
14.050003051757813
 20
64.500015258789063
 30
0.0
 11
14.050003051757813
 21
65.500015258789063
 31
0.0
  0
LINE
  5
1D4
100
AcDbEntity
  8
0
  6
CONTINUOUS
 62
               4
100
AcDbLine
 10
5.9499969482421875
 20
64.500015258789063
 30
0.0
 11
5.9499969482421875
 21
65.500015258789063
 31
0.0
  0
LINE
  5
1D5
100
AcDbEntity
  8
0
  6
CONTINUOUS
 62
               4
100
AcDbLine
 10
5.95001220703125
 20
63.5
 30
0.0
 11
6.5
 21
63.5
 31
0.0
  0
LINE
  5
1D6
100
AcDbEntity
  8
0
  6
CONTINUOUS
 62
               4
100
AcDbLine
 10
5.95001220703125
 20
64.5
 30
0.0
 11
6.5
 21
64.5
 31
0.0
  0
LINE
  5
1D7
100
AcDbEntity
  8
0
  6
CONTINUOUS
 62
               4
100
AcDbLine
 10
13.5
 20
63.5
 30
0.0
 11
14.050003051757813
 21
63.5
 31
0.0
  0
LINE
  5
1D8
100
AcDbEntity
  8
0
  6
CONTINUOUS
 62
               4
100
AcDbLine
 10
13.5
 20
64.5
 30
0.0
 11
14.050003051757813
 21
64.5
 31
0.0
  0
LINE
  5
1D9
100
AcDbEntity
  8
0
  6
CONTINUOUS
 62
               4
100
AcDbLine
 10
13.5
 20
65.5
 30
0.0
 11
14.949996948242188
 21
65.5
 31
0.0
  0
LINE
  5
1DA
100
AcDbEntity
  8
0
  6
CONTINUOUS
 62
               4
100
AcDbLine
 10
5.100006103515625
 20
72.0
 30
0.0
 11
14.900009155273438
 21
72.0
 31
0.0
  0
LINE
  5
1DB
100
AcDbEntity
  8
0
  6
CONTINUOUS
 62
               4
100
AcDbLine
 10
6.5
 20
70.5
 30
0.0
 11
13.5
 21
70.5
 31
0.0
  0
LINE
  5
1DC
100
AcDbEntity
  8
0
  6
CONTINUOUS
 62
               4
100
AcDbLine
 10
6.5
 20
65.05615234375
 30
0.0
 11
13.5
 21
65.05615234375
 31
0.0
  0
LINE
  5
1DD
100
AcDbEntity
  8
0
  6
CONTINUOUS
 62
               4
100
AcDbLine
 10
6.5
 20
61.498458862304687
 30
0.0
 11
13.5
 21
61.498458862304687
 31
0.0
  0
LINE
  5
1DE
100
AcDbEntity
  8
0
  6
CONTINUOUS
 62
               4
100
AcDbLine
 10
6.5
 20
61.498458862304687
 30
0.0
 11
6.5
 21
72.0
 31
0.0
  0
LINE
  5
1DF
100
AcDbEntity
  8
0
  6
CONTINUOUS
 62
               4
100
AcDbLine
 10
13.5
 20
61.498458862304687
 30
0.0
 11
13.5
 21
72.0
 31
0.0
  0
LINE
  5
1E0
100
AcDbEntity
  8
0
  6
CONTINUOUS
 62
               4
100
AcDbLine
 10
14.050003051757813
 20
61.0
 30
0.0
 11
14.050003051757813
 21
63.500015258789063
 31
0.0
  0
LINE
  5
1E1
100
AcDbEntity
  8
0
  6
CONTINUOUS
 62
               4
100
AcDbLine
 10
5.9499969482421875
 20
61.000015258789063
 30
0.0
 11
5.9499969482421875
 21
63.500015258789063
 31
0.0
  0
LINE
  5
1E2
100
AcDbEntity
  8
0
  6
CONTINUOUS
 62
               4
100
AcDbLine
 10
5.0500030517578125
 20
65.5
 30
0.0
 11
6.5
 21
65.5
 31
0.0
  0
LINE
  5
1E3
100
AcDbEntity
  8
0
  6
CONTINUOUS
 62
             200
100
AcDbLine
 10
10.000007109261787
 20
76.577286792749874
 30
0.0
 11
6.0000047751291277
 21
74.267884051627334
 31
0.0
  0
LINE
  5
1E4
100
AcDbEntity
  8
0
  6
CONTINUOUS
 62
               4
100
AcDbLine
 10
14.949996948242188
 20
52.0
 30
0.0
 11
14.949996948242188
 21
65.500015258789063
 31
0.0
  0
LINE
  5
1E5
100
AcDbEntity
  8
0
  6
CONTINUOUS
 62
               2
100
AcDbLine
 10
14.949996948242188
 20
56.5
 30
0.0
 11
5.0500030517578125
 21
56.5
 31
0.0
  0
LINE
  5
1E6
100
AcDbEntity
  8
0
  6
CONTINUOUS
 62
               4
100
AcDbLine
 10
14.5
 20
61.0
 30
0.0
 11
5.5
 21
61.0
 31
0.0
  0
LINE
  5
1E7
100
AcDbEntity
  8
0
  6
CONTINUOUS
 62
               4
100
AcDbLine
 10
5.0500030517578125
 20
52.000015258789063
 30
0.0
 11
5.0500030517578125
 21
65.500015258789063
 31
0.0
  0
LINE
  5
1E8
100
AcDbEntity
  8
0
  6
CONTINUOUS
 62
               7
100
AcDbLine
 10
8.073211669921875
 20
25.0
 30
0.0
 11
11.926788330078125
 21
25.0
 31
0.0
  0
LINE
  5
1E9
100
AcDbEntity
  8
0
  6
CONTINUOUS
 62
               7
100
AcDbLine
 10
8.073211669921875
 20
24.399993896484375
 30
0.0
 11
11.926788330078125
 21
24.399993896484375
 31
0.0
  0
LINE
  5
1EA
100
AcDbEntity
  8
0
  6
CONTINUOUS
 62
               7
100
AcDbLine
 10
5.0
 20
28.0
 30
0.0
 11
15.0
 21
28.0
 31
0.0
  0
LINE
  5
1EB
100
AcDbEntity
  8
0
  6
CONTINUOUS
 62
               4
100
AcDbLine
 10
5.0
 20
52.0
 30
0.0
 11
15.0
 21
52.0
 31
0.0
  0
LINE
  5
1EC
100
AcDbEntity
  8
0
  6
CONTINUOUS
 62
               2
100
AcDbLine
 10
10.0
 20
-40.606689453125
 30
0.0
 11
10.0
 21
73.392968222942557
 31
0.0
  0
LINE
  5
1ED
100
AcDbEntity
  8
0
  6
CONTINUOUS
 62
               2
100
AcDbLine
 10
7.5
 20
24.699996948242188
 30
0.0
 11
12.5
 21
24.699996948242188
 31
0.0
  0
LINE
  5
1EE
100
AcDbEntity
  8
0
  6
CONTINUOUS
 62
               7
100
AcDbLine
 10
5.0
 20
18.5
 30
0.0
 11
15.0
 21
18.5
 31
0.0
  0
LINE
  5
1EF
100
AcDbEntity
  8
0
  6
CONTINUOUS
 62
               7
100
AcDbLine
 10
5.0
 20
16.5
 30
0.0
 11
15.0
 21
16.5
 31
0.0
  0
LINE
  5
1F0
100
AcDbEntity
  8
0
  6
CONTINUOUS
 62
               2
100
AcDbLine
 10
51.5
 20
-10.75
 30
0.0
 11
51.5
 21
-17.25
 31
0.0
  0
LINE
  5
1F1
100
AcDbEntity
  8
0
  6
CONTINUOUS
 62
               2
100
AcDbLine
 10
48.25
 20
-14.0
 30
0.0
 11
54.75
 21
-14.0
 31
0.0
  0
LINE
  5
1F2
100
AcDbEntity
  8
0
  6
CONTINUOUS
 62
               2
100
AcDbLine
 10
48.25
 20
0.0
 30
0.0
 11
54.75
 21
0.0
 31
0.0
  0
LINE
  5
1F3
100
AcDbEntity
  8
0
  6
CONTINUOUS
 62
               2
100
AcDbLine
 10
51.5
 20
3.25
 30
0.0
 11
51.5
 21
-3.25
 31
0.0
  0
LINE
  5
1F4
100
AcDbEntity
  8
0
  6
CONTINUOUS
 62
               2
100
AcDbLine
 10
-3.25
 20
-14.0
 30
0.0
 11
3.25
 21
-14.0
 31
0.0
  0
LINE
  5
1F5
100
AcDbEntity
  8
0
  6
CONTINUOUS
 62
               2
100
AcDbLine
 10
0.0
 20
-10.75
 30
0.0
 11
0.0
 21
-17.25
 31
0.0
  0
LINE
  5
1F6
100
AcDbEntity
  8
0
  6
CONTINUOUS
 62
               7
100
AcDbLine
 10
36.0
 20
20.0
 30
0.0
 11
60.5
 21
20.0
 31
0.0
  0
LINE
  5
1F7
100
AcDbEntity
  8
0
  6
CONTINUOUS
 62
               7
100
AcDbLine
 10
25.5
 20
-23.5
 30
0.0
 11
26.0
 21
-23.5
 31
0.0
  0
LINE
  5
1F8
100
AcDbEntity
  8
0
  6
CONTINUOUS
 62
               7
100
AcDbLine
 10
15.0
 20
-23.5
 30
0.0
 11
15.5
 21
-23.5
 31
0.0
  0
LINE
  5
1F9
100
AcDbEntity
  8
0
  6
CONTINUOUS
 62
               7
100
AcDbLine
 10
36.0
 20
-29.0
 30
0.0
 11
60.5
 21
-29.0
 31
0.0
  0
LINE
  5
1FA
100
AcDbEntity
  8
0
  6
CONTINUOUS
 62
               7
100
AcDbLine
 10
36.0
 20
-23.5
 30
0.0
 11
60.5
 21
-23.5
 31
0.0
  0
LINE
  5
1FB
100
AcDbEntity
  8
0
  6
CONTINUOUS
 62
               7
100
AcDbLine
 10
-9.0
 20
-23.5
 30
0.0
 11
5.0
 21
-23.5
 31
0.0
  0
LINE
  5
1FC
100
AcDbEntity
  8
0
  6
CONTINUOUS
 62
               7
100
AcDbLine
 10
-9.0
 20
20.0
 30
0.0
 11
5.0
 21
20.0
 31
0.0
  0
LINE
  5
1FD
100
AcDbEntity
  8
0
  6
CONTINUOUS
 62
               7
100
AcDbLine
 10
-8.92401123046875
 20
-29.0
 30
0.0
 11
5.0
 21
-29.0
 31
0.0
  0
LINE
  5
1FE
100
AcDbEntity
  8
0
  6
CONTINUOUS
 62
               7
100
AcDbLine
 10
60.5
 20
20.0
 30
0.0
 11
60.5
 21
-29.0
 31
0.0
  0
LINE
  5
1FF
100
AcDbEntity
  8
0
  6
CONTINUOUS
 62
               7
100
AcDbLine
 10
-9.0
 20
20.0
 30
0.0
 11
-9.0
 21
-29.0
 31
0.0
  0
LINE
  5
200
100
AcDbEntity
  8
0
  6
CONTINUOUS
 62
               7
100
AcDbLine
 10
15.0
 20
20.0
 30
0.0
 11
15.5
 21
20.0
 31
0.0
  0
LINE
  5
201
100
AcDbEntity
  8
0
  6
CONTINUOUS
 62
               7
100
AcDbLine
 10
15.0
 20
-29.0
 30
0.0
 11
15.5
 21
-29.0
 31
0.0
  0
LINE
  5
202
100
AcDbEntity
  8
0
  6
CONTINUOUS
 62
               7
100
AcDbLine
 10
25.5
 20
20.0
 30
0.0
 11
26.0
 21
20.0
 31
0.0
  0
LINE
  5
203
100
AcDbEntity
  8
0
  6
CONTINUOUS
 62
               7
100
AcDbLine
 10
25.5
 20
-29.0
 30
0.0
 11
26.0
 21
-29.0
 31
0.0
  0
LINE
  5
204
100
AcDbEntity
  8
0
  6
CONTINUOUS
 62
               2
100
AcDbLine
 10
-3.25
 20
0.0
 30
0.0
 11
3.25
 21
0.0
 31
0.0
  0
LINE
  5
205
100
AcDbEntity
  8
0
  6
CONTINUOUS
 62
               2
100
AcDbLine
 10
0.0
 20
3.25
 30
0.0
 11
0.0
 21
-3.25
 31
0.0
  0
ENDBLK
  5
206
100
AcDbEntity
  8
0
100
AcDbBlockEnd
  0
BLOCK
  5
207
100
AcDbEntity
  8
0
100
AcDbBlockBegin
  2
F10MF-2
 70
               0
 10
0.0
 20
0.0
 30
0.0
  3
F10MF-2
  1

  0
LINE
  5
208
100
AcDbEntity
  8
0
  6
CONTINUOUS
 62
             200
100
AcDbLine
 10
50.499996185302734
 20
-12.500015264749536
 30
0.0
 11
69.600402045288504
 21
-12.500015264749536
 31
0.0
  0
LINE
  5
209
100
AcDbEntity
  8
0
  6
CONTINUOUS
 62
             200
100
AcDbLine
 10
50.499996185302734
 20
-1.5000152528286037
 30
0.0
 11
69.600402045288504
 21
-1.5000152528286037
 31
0.0
  0
LINE
  5
20A
100
AcDbEntity
  8
0
  6
CONTINUOUS
 62
               7
100
AcDbLine
 10
26.5
 20
28.199966430664062
 30
0.0
 11
53.5
 21
28.199966430664062
 31
0.0
  0
LINE
  5
20B
100
AcDbEntity
  8
0
  6
CONTINUOUS
 62
               2
100
AcDbLine
 10
-2.8206796201607105
 20
-14.0
 30
0.0
 11
9.0
 21
-14.0
 31
0.0
  0
LINE
  5
20C
100
AcDbEntity
  8
0
  6
CONTINUOUS
 62
               2
100
AcDbLine
 10
-2.8206796201607105
 20
0.0
 30
0.0
 11
9.0
 21
0.0
 31
0.0
  0
LINE
  5
20D
100
AcDbEntity
  8
0
  6
CONTINUOUS
 62
               7
100
AcDbLine
 10
26.5
 20
-23.000015258789063
 30
0.0
 11
26.0
 21
-23.000015258789063
 31
0.0
  0
LINE
  5
20E
100
AcDbEntity
  8
0
  6
CONTINUOUS
 62
               7
100
AcDbLine
 10
26.5
 20
15.999984741210938
 30
0.0
 11
26.0
 21
15.999984741210938
 31
0.0
  0
LINE
  5
20F
100
AcDbEntity
  8
0
  6
CONTINUOUS
 62
               4
100
AcDbLine
 10
55.5
 20
-17.500015258789063
 30
0.0
 11
55.400000000000006
 21
-17.400015258789054
 31
0.0
  0
LINE
  5
210
100
AcDbEntity
  8
0
  6
CONTINUOUS
 62
               4
100
AcDbLine
 10
55.400000000000006
 20
-17.400015258789061
 30
0.0
 11
55.299999999999983
 21
-17.500015258789063
 31
0.0
  0
LINE
  5
211
100
AcDbEntity
  8
0
  6
CONTINUOUS
 62
               4
100
AcDbLine
 10
55.299999999999983
 20
-17.500015258789063
 30
0.0
 11
50.5
 21
-17.500015258789063
 31
0.0
  0
LINE
  5
212
100
AcDbEntity
  8
0
  6
CONTINUOUS
 62
               4
100
AcDbLine
 10
55.400000000000006
 20
-7.6000152587890568
 30
0.0
 11
55.300000000000011
 21
-7.5000152587890554
 31
0.0
  0
LINE
  5
213
100
AcDbEntity
  8
0
  6
CONTINUOUS
 62
               4
100
AcDbLine
 10
55.5
 20
-7.5000152587890554
 30
0.0
 11
55.400000000000006
 21
-7.6000152587890568
 31
0.0
  0
LINE
  5
214
100
AcDbEntity
  8
0
  6
CONTINUOUS
 62
               4
100
AcDbLine
 10
55.299999999999997
 20
-7.5000152587890554
 30
0.0
 11
50.5
 21
-7.5000152587890554
 31
0.0
  0
LINE
  5
215
100
AcDbEntity
  8
0
  6
CONTINUOUS
 62
               4
100
AcDbLine
 10
55.5
 20
-17.500015258789063
 30
0.0
 11
55.5
 21
-7.5000152587890554
 31
0.0
  0
LINE
  5
216
100
AcDbEntity
  8
0
  6
CONTINUOUS
 62
               4
100
AcDbLine
 10
55.400000000000006
 20
-17.400015258789061
 30
0.0
 11
55.400000000000006
 21
-7.6000152587890568
 31
0.0
  0
LINE
  5
217
100
AcDbEntity
  8
0
  6
CONTINUOUS
 62
               4
100
AcDbLine
 10
64.200000204906019
 20
-17.43398970365525
 30
0.0
 11
64.200000204906019
 21
-7.5660408139228892
 31
0.0
  0
LINE
  5
218
100
AcDbEntity
  8
0
  6
CONTINUOUS
 62
               4
100
AcDbLine
 10
64.161879999999996
 20
-17.50001525878907
 30
0.0
 11
64.161879999999996
 21
-7.5000152587890696
 31
0.0
  0
LINE
  5
219
100
AcDbEntity
  8
0
  6
CONTINUOUS
 62
               4
100
AcDbLine
 10
65.0
 20
-16.550015258789074
 30
0.0
 11
65.0
 21
-8.4500152587890724
 31
0.0
  0
LINE
  5
21A
100
AcDbEntity
  8
0
  6
CONTINUOUS
 62
               4
100
AcDbLine
 10
64.161879999999996
 20
-17.50001525878907
 30
0.0
 11
64.199999999999989
 21
-17.433990058789078
 31
0.0
  0
LINE
  5
21B
100
AcDbEntity
  8
0
  6
CONTINUOUS
 62
               4
100
AcDbLine
 10
64.199999999999989
 20
-17.433989758789068
 30
0.0
 11
64.699999999999989
 21
-17.300014858789069
 31
0.0
  0
LINE
  5
21C
100
AcDbEntity
  8
0
  6
CONTINUOUS
 62
               4
100
AcDbLine
 10
64.699999999999989
 20
-16.550015258789074
 30
0.0
 11
65.0
 21
-16.550015258789074
 31
0.0
  0
LINE
  5
21D
100
AcDbEntity
  8
0
  6
CONTINUOUS
 62
               4
100
AcDbLine
 10
65.0
 20
-16.550015258789074
 30
0.0
 11
65.099999999999994
 21
-16.45001525878908
 31
0.0
  0
LINE
  5
21E
100
AcDbEntity
  8
0
  6
CONTINUOUS
 62
               4
100
AcDbLine
 10
64.161879999999996
 20
-17.50001525878907
 30
0.0
 11
60.200000000000003
 21
-17.50001525878907
 31
0.0
  0
LINE
  5
21F
100
AcDbEntity
  8
0
  6
CONTINUOUS
 62
               4
100
AcDbLine
 10
66.0
 20
-16.00001525878907
 30
0.0
 11
65.099999999999994
 21
-16.00001525878907
 31
0.0
  0
LINE
  5
220
100
AcDbEntity
  8
0
  6
CONTINUOUS
 62
               4
100
AcDbLine
 10
64.699999999999989
 20
-17.300014858789069
 30
0.0
 11
64.700000000000003
 21
-7.7000156641006541
 31
0.0
  0
LINE
  5
221
100
AcDbEntity
  8
0
  6
CONTINUOUS
 62
               4
100
AcDbLine
 10
65.099999999999994
 20
-16.45001525878908
 30
0.0
 11
65.099999999999994
 21
-8.5500152587890597
 31
0.0
  0
LINE
  5
222
100
AcDbEntity
  8
0
  6
CONTINUOUS
 62
               4
100
AcDbLine
 10
65.0
 20
-8.4500152587890724
 30
0.0
 11
65.099999999999994
 21
-8.5500152587890597
 31
0.0
  0
LINE
  5
223
100
AcDbEntity
  8
0
  6
CONTINUOUS
 62
               4
100
AcDbLine
 10
64.700000000000003
 20
-8.4500152587890724
 30
0.0
 11
65.0
 21
-8.4500152587890724
 31
0.0
  0
LINE
  5
224
100
AcDbEntity
  8
0
  6
CONTINUOUS
 62
               4
100
AcDbLine
 10
64.200000000000003
 20
-7.5660407587890717
 30
0.0
 11
64.700000000000003
 21
-7.70001565878907
 31
0.0
  0
LINE
  5
225
100
AcDbEntity
  8
0
  6
CONTINUOUS
 62
               4
100
AcDbLine
 10
64.161879999999996
 20
-7.5000152587890696
 30
0.0
 11
64.200000000000003
 21
-7.5660404587890611
 31
0.0
  0
LINE
  5
226
100
AcDbEntity
  8
0
  6
CONTINUOUS
 62
               4
100
AcDbLine
 10
60.200000000000003
 20
-17.50001525878907
 30
0.0
 11
60.0
 21
-17.300015258789074
 31
0.0
  0
LINE
  5
227
100
AcDbEntity
  8
0
  6
CONTINUOUS
 62
               4
100
AcDbLine
 10
60.200000000000003
 20
-7.5000152587890696
 30
0.0
 11
60.0
 21
-7.7000152587890724
 31
0.0
  0
LINE
  5
228
100
AcDbEntity
  8
0
  6
CONTINUOUS
 62
               4
100
AcDbLine
 10
59.299999999999997
 20
-16.75001525878907
 30
0.0
 11
60.0
 21
-16.75001525878907
 31
0.0
  0
LINE
  5
229
100
AcDbEntity
  8
0
  6
CONTINUOUS
 62
               4
100
AcDbLine
 10
60.0
 20
-8.2500152587890696
 30
0.0
 11
59.299999999999997
 21
-8.2500152587890696
 31
0.0
  0
LINE
  5
22A
100
AcDbEntity
  8
0
  6
CONTINUOUS
 62
               4
100
AcDbLine
 10
60.200000000000003
 20
-17.50001525878907
 30
0.0
 11
60.200000000000003
 21
-7.5000152587890696
 31
0.0
  0
LINE
  5
22B
100
AcDbEntity
  8
0
  6
CONTINUOUS
 62
               4
100
AcDbLine
 10
60.0
 20
-17.300015258789074
 30
0.0
 11
60.0
 21
-7.7000152587890724
 31
0.0
  0
LINE
  5
22C
100
AcDbEntity
  8
0
  6
CONTINUOUS
 62
               4
100
AcDbLine
 10
59.299999999999997
 20
-17.300015258789074
 30
0.0
 11
59.099999999999994
 21
-17.50001525878907
 31
0.0
  0
LINE
  5
22D
100
AcDbEntity
  8
0
  6
CONTINUOUS
 62
               4
100
AcDbLine
 10
59.299999999999997
 20
-7.7000152587890724
 30
0.0
 11
59.099999999999994
 21
-7.5000152587890696
 31
0.0
  0
LINE
  5
22E
100
AcDbEntity
  8
0
  6
CONTINUOUS
 62
               4
100
AcDbLine
 10
59.299999999999997
 20
-17.300015258789074
 30
0.0
 11
59.299999999999997
 21
-7.7000152587890724
 31
0.0
  0
LINE
  5
22F
100
AcDbEntity
  8
0
  6
CONTINUOUS
 62
               4
100
AcDbLine
 10
59.099999999999994
 20
-17.50001525878907
 30
0.0
 11
59.099999999999994
 21
-7.5000152587890696
 31
0.0
  0
LINE
  5
230
100
AcDbEntity
  8
0
  6
CONTINUOUS
 62
               4
100
AcDbLine
 10
59.099999999999994
 20
-7.5000152587890696
 30
0.0
 11
55.5
 21
-7.5000152587890554
 31
0.0
  0
LINE
  5
231
100
AcDbEntity
  8
0
  6
CONTINUOUS
 62
               4
100
AcDbLine
 10
59.099999999999994
 20
-17.50001525878907
 30
0.0
 11
55.5
 21
-17.500015258789063
 31
0.0
  0
LINE
  5
232
100
AcDbEntity
  8
0
  6
CONTINUOUS
 62
               4
100
AcDbLine
 10
66.799999999999997
 20
-17.400015258789068
 30
0.0
 11
66.0
 21
-17.400015258789068
 31
0.0
  0
ARC
  5
233
100
AcDbEntity
  8
0
  6
CONTINUOUS
 62
               4
100
AcDbCircle
 10
66.799999999999997
 20
-17.200015258789072
 30
0.0
 40
0.2
100
AcDbArc
 50
270.00000000000023
 51
0.0
  0
LINE
  5
234
100
AcDbEntity
  8
0
  6
CONTINUOUS
 62
               4
100
AcDbLine
 10
64.161879999999996
 20
-7.5000152587890696
 30
0.0
 11
60.200000000000003
 21
-7.5000152587890696
 31
0.0
  0
LINE
  5
235
100
AcDbEntity
  8
0
  6
CONTINUOUS
 62
               4
100
AcDbLine
 10
66.0
 20
-17.400015258789068
 30
0.0
 11
66.0
 21
-7.6000152528286051
 31
0.0
  0
LINE
  5
236
100
AcDbEntity
  8
0
  6
CONTINUOUS
 62
               4
100
AcDbLine
 10
66.0
 20
-9.0000152587890696
 30
0.0
 11
65.099999999999994
 21
-9.0000152587890696
 31
0.0
  0
ARC
  5
237
100
AcDbEntity
  8
0
  6
CONTINUOUS
 62
               4
100
AcDbCircle
 10
66.799999999999997
 20
-7.8000152587890739
 30
0.0
 40
0.2
100
AcDbArc
 50
0.0
 51
89.999999999999815
  0
LINE
  5
238
100
AcDbEntity
  8
0
  6
CONTINUOUS
 62
               4
100
AcDbLine
 10
66.799999999999997
 20
-7.600015258789071
 30
0.0
 11
66.0
 21
-7.600015258789071
 31
0.0
  0
LINE
  5
239
100
AcDbEntity
  8
0
  6
CONTINUOUS
 62
               4
100
AcDbLine
 10
67.0
 20
-17.200015258789072
 30
0.0
 11
67.0
 21
-7.8000152707099986
 31
0.0
  0
LINE
  5
23A
100
AcDbEntity
  8
0
  6
CONTINUOUS
 62
               4
100
AcDbLine
 10
67.0
 20
3.1999847412109332
 30
0.0
 11
67.0
 21
-6.2000152468681407
 31
0.0
  0
LINE
  5
23B
100
AcDbEntity
  8
0
  6
CONTINUOUS
 62
               4
100
AcDbLine
 10
66.799999999999997
 20
-6.4000152587890682
 30
0.0
 11
66.0
 21
-6.4000152587890682
 31
0.0
  0
ARC
  5
23C
100
AcDbEntity
  8
0
  6
CONTINUOUS
 62
               4
100
AcDbCircle
 10
66.799999999999997
 20
-6.2000152587890653
 30
0.0
 40
0.2
100
AcDbArc
 50
269.99999999999937
 51
0.0
  0
LINE
  5
23D
100
AcDbEntity
  8
0
  6
CONTINUOUS
 62
               4
100
AcDbLine
 10
66.0
 20
-5.0000152587890696
 30
0.0
 11
65.099999999999994
 21
-5.0000152587890696
 31
0.0
  0
LINE
  5
23E
100
AcDbEntity
  8
0
  6
CONTINUOUS
 62
               4
100
AcDbLine
 10
66.0
 20
3.399984741210929
 30
0.0
 11
66.0
 21
-6.4000152647495341
 31
0.0
  0
LINE
  5
23F
100
AcDbEntity
  8
0
  6
CONTINUOUS
 62
               4
100
AcDbLine
 10
64.161879999999996
 20
-6.5000152587890696
 30
0.0
 11
60.200000000000003
 21
-6.5000152587890696
 31
0.0
  0
ARC
  5
240
100
AcDbEntity
  8
0
  6
CONTINUOUS
 62
               4
100
AcDbCircle
 10
66.799999999999997
 20
3.1999847412109332
 30
0.0
 40
0.2
100
AcDbArc
 50
0.0
 51
89.999999999999815
  0
LINE
  5
241
100
AcDbEntity
  8
0
  6
CONTINUOUS
 62
               4
100
AcDbLine
 10
66.799999999999997
 20
3.399984741210929
 30
0.0
 11
66.0
 21
3.399984741210929
 31
0.0
  0
LINE
  5
242
100
AcDbEntity
  8
0
  6
CONTINUOUS
 62
               4
100
AcDbLine
 10
59.099999999999994
 20
3.4999847412109304
 30
0.0
 11
55.5
 21
3.4999847412109375
 31
0.0
  0
LINE
  5
243
100
AcDbEntity
  8
0
  6
CONTINUOUS
 62
               4
100
AcDbLine
 10
59.099999999999994
 20
-6.5000152587890696
 30
0.0
 11
55.5
 21
-6.5000152587890696
 31
0.0
  0
LINE
  5
244
100
AcDbEntity
  8
0
  6
CONTINUOUS
 62
               4
100
AcDbLine
 10
59.099999999999994
 20
3.4999847412109304
 30
0.0
 11
59.099999999999994
 21
-6.5000152587890696
 31
0.0
  0
LINE
  5
245
100
AcDbEntity
  8
0
  6
CONTINUOUS
 62
               4
100
AcDbLine
 10
59.299999999999997
 20
3.2999847412109347
 30
0.0
 11
59.299999999999997
 21
-6.3000152587890668
 31
0.0
  0
LINE
  5
246
100
AcDbEntity
  8
0
  6
CONTINUOUS
 62
               4
100
AcDbLine
 10
59.299999999999997
 20
-6.3000152587890668
 30
0.0
 11
59.099999999999994
 21
-6.5000152587890696
 31
0.0
  0
LINE
  5
247
100
AcDbEntity
  8
0
  6
CONTINUOUS
 62
               4
100
AcDbLine
 10
59.299999999999997
 20
3.2999847412109347
 30
0.0
 11
59.099999999999994
 21
3.4999847412109304
 31
0.0
  0
LINE
  5
248
100
AcDbEntity
  8
0
  6
CONTINUOUS
 62
               4
100
AcDbLine
 10
60.0
 20
3.2999847412109347
 30
0.0
 11
60.0
 21
-6.3000152587890668
 31
0.0
  0
LINE
  5
249
100
AcDbEntity
  8
0
  6
CONTINUOUS
 62
               4
100
AcDbLine
 10
60.200000000000003
 20
3.4999847412109304
 30
0.0
 11
60.200000000000003
 21
-6.5000152587890696
 31
0.0
  0
LINE
  5
24A
100
AcDbEntity
  8
0
  6
CONTINUOUS
 62
               4
100
AcDbLine
 10
60.0
 20
-5.7500152587890696
 30
0.0
 11
59.299999999999997
 21
-5.7500152587890696
 31
0.0
  0
LINE
  5
24B
100
AcDbEntity
  8
0
  6
CONTINUOUS
 62
               4
100
AcDbLine
 10
59.299999999999997
 20
2.7499847412109304
 30
0.0
 11
60.0
 21
2.7499847412109304
 31
0.0
  0
LINE
  5
24C
100
AcDbEntity
  8
0
  6
CONTINUOUS
 62
               4
100
AcDbLine
 10
60.200000000000003
 20
-6.5000152587890696
 30
0.0
 11
60.0
 21
-6.3000152587890668
 31
0.0
  0
LINE
  5
24D
100
AcDbEntity
  8
0
  6
CONTINUOUS
 62
               4
100
AcDbLine
 10
60.200000000000003
 20
3.4999847412109304
 30
0.0
 11
60.0
 21
3.2999847412109347
 31
0.0
  0
LINE
  5
24E
100
AcDbEntity
  8
0
  6
CONTINUOUS
 62
               4
100
AcDbLine
 10
64.161879999999996
 20
-6.5000152587890696
 30
0.0
 11
64.200000000000003
 21
-6.4339900587890781
 31
0.0
  0
LINE
  5
24F
100
AcDbEntity
  8
0
  6
CONTINUOUS
 62
               4
100
AcDbLine
 10
64.200000000000003
 20
-6.4339897587890675
 30
0.0
 11
64.700000000000003
 21
-6.3000148587890692
 31
0.0
  0
LINE
  5
250
100
AcDbEntity
  8
0
  6
CONTINUOUS
 62
               4
100
AcDbLine
 10
64.700000000000003
 20
-5.5500152587890668
 30
0.0
 11
65.0
 21
-5.5500152587890668
 31
0.0
  0
LINE
  5
251
100
AcDbEntity
  8
0
  6
CONTINUOUS
 62
               4
100
AcDbLine
 10
65.0
 20
-5.5500152587890668
 30
0.0
 11
65.099999999999994
 21
-5.4500152587890796
 31
0.0
  0
LINE
  5
252
100
AcDbEntity
  8
0
  6
CONTINUOUS
 62
               4
100
AcDbLine
 10
65.099999999999994
 20
2.4499847412109403
 30
0.0
 11
65.099999999999994
 21
-5.4500152587890796
 31
0.0
  0
LINE
  5
253
100
AcDbEntity
  8
0
  6
CONTINUOUS
 62
               4
100
AcDbLine
 10
64.700000000000003
 20
3.29998434121093
 30
0.0
 11
64.700000000000003
 21
-6.3000148534774851
 31
0.0
  0
LINE
  5
254
100
AcDbEntity
  8
0
  6
CONTINUOUS
 62
               4
100
AcDbLine
 10
66.0
 20
1.9999847412109304
 30
0.0
 11
65.099999999999994
 21
1.9999847412109304
 31
0.0
  0
LINE
  5
255
100
AcDbEntity
  8
0
  6
CONTINUOUS
 62
               4
100
AcDbLine
 10
64.161879999999996
 20
3.4999847412109304
 30
0.0
 11
60.200000000000003
 21
3.4999847412109304
 31
0.0
  0
LINE
  5
256
100
AcDbEntity
  8
0
  6
CONTINUOUS
 62
               4
100
AcDbLine
 10
65.0
 20
2.5499847412109347
 30
0.0
 11
65.099999999999994
 21
2.4499847412109403
 31
0.0
  0
LINE
  5
257
100
AcDbEntity
  8
0
  6
CONTINUOUS
 62
               4
100
AcDbLine
 10
64.700000000000003
 20
2.5499847412109347
 30
0.0
 11
65.0
 21
2.5499847412109347
 31
0.0
  0
LINE
  5
258
100
AcDbEntity
  8
0
  6
CONTINUOUS
 62
               4
100
AcDbLine
 10
64.200000000000003
 20
3.4339592412109283
 30
0.0
 11
64.700000000000003
 21
3.29998434121093
 31
0.0
  0
LINE
  5
259
100
AcDbEntity
  8
0
  6
CONTINUOUS
 62
               4
100
AcDbLine
 10
64.161879999999996
 20
3.4999847412109304
 30
0.0
 11
64.200000000000003
 21
3.4339595412109389
 31
0.0
  0
LINE
  5
25A
100
AcDbEntity
  8
0
  6
CONTINUOUS
 62
               4
100
AcDbLine
 10
65.0
 20
2.5499847412109347
 30
0.0
 11
65.0
 21
-5.5500152587890668
 31
0.0
  0
LINE
  5
25B
100
AcDbEntity
  8
0
  6
CONTINUOUS
 62
               4
100
AcDbLine
 10
64.161879999999996
 20
3.4999847412109304
 30
0.0
 11
64.161879999999996
 21
-6.5000152587890696
 31
0.0
  0
LINE
  5
25C
100
AcDbEntity
  8
0
  6
CONTINUOUS
 62
               4
100
AcDbLine
 10
64.200000204906019
 20
3.4339591860771108
 30
0.0
 11
64.200000204906019
 21
-6.43398970365525
 31
0.0
  0
LINE
  5
25D
100
AcDbEntity
  8
0
  6
CONTINUOUS
 62
               4
100
AcDbLine
 10
55.400000000000006
 20
3.3999847412109361
 30
0.0
 11
55.400000000000006
 21
-6.4000152587890682
 31
0.0
  0
LINE
  5
25E
100
AcDbEntity
  8
0
  6
CONTINUOUS
 62
               4
100
AcDbLine
 10
55.5
 20
3.4999847412109375
 30
0.0
 11
55.5
 21
-6.5000152587890696
 31
0.0
  0
LINE
  5
25F
100
AcDbEntity
  8
0
  6
CONTINUOUS
 62
               4
100
AcDbLine
 10
55.299999999999997
 20
-17.500015258789063
 30
0.0
 11
55.299999999999997
 21
3.4999847412109375
 31
0.0
  0
LINE
  5
260
100
AcDbEntity
  8
0
  6
CONTINUOUS
 62
               4
100
AcDbLine
 10
55.299999999999997
 20
-6.5000152587890696
 30
0.0
 11
50.5
 21
-6.5000152587890696
 31
0.0
  0
LINE
  5
261
100
AcDbEntity
  8
0
  6
CONTINUOUS
 62
               4
100
AcDbLine
 10
55.5
 20
-6.5000152587890696
 30
0.0
 11
55.400000000000006
 21
-6.4000152587890682
 31
0.0
  0
LINE
  5
262
100
AcDbEntity
  8
0
  6
CONTINUOUS
 62
               4
100
AcDbLine
 10
55.400000000000006
 20
-6.4000152587890682
 30
0.0
 11
55.300000000000011
 21
-6.5000152587890696
 31
0.0
  0
LINE
  5
263
100
AcDbEntity
  8
0
  6
CONTINUOUS
 62
               4
100
AcDbLine
 10
55.300000000000011
 20
3.4999847412109375
 30
0.0
 11
50.5
 21
3.4999847412109375
 31
0.0
  0
LINE
  5
264
100
AcDbEntity
  8
0
  6
CONTINUOUS
 62
               4
100
AcDbLine
 10
55.400000000000006
 20
3.3999847412109361
 30
0.0
 11
55.300000000000011
 21
3.4999847412109375
 31
0.0
  0
LINE
  5
265
100
AcDbEntity
  8
0
  6
CONTINUOUS
 62
               4
100
AcDbLine
 10
55.5
 20
3.4999847412109375
 30
0.0
 11
55.400000000000006
 21
3.399984741210929
 31
0.0
  0
LINE
  5
266
100
AcDbEntity
  8
0
  6
CONTINUOUS
 62
               4
100
AcDbLine
 10
50.5
 20
-22.400015258789061
 30
0.0
 11
50.5
 21
-7.0000152587890554
 31
0.0
  0
LINE
  5
267
100
AcDbEntity
  8
0
  6
CONTINUOUS
 62
               4
100
AcDbLine
 10
50.5
 20
8.3999847412109432
 30
0.0
 11
50.5
 21
-7.0000152587890696
 31
0.0
  0
LINE
  5
268
100
AcDbEntity
  8
0
  6
CONTINUOUS
 62
               4
100
AcDbLine
 10
45.5
 20
-18.200009346008301
 30
0.0
 11
50.5
 21
-18.200009346008301
 31
0.0
  0
ARC
  5
269
100
AcDbEntity
  8
0
  6
CONTINUOUS
 62
               4
100
AcDbCircle
 10
45.5
 20
-19.050010681152344
 30
0.0
 40
0.5
100
AcDbArc
 50
359.99994535848583
 51
89.999982013910454
  0
LINE
  5
26A
100
AcDbEntity
  8
0
  6
CONTINUOUS
 62
               4
100
AcDbLine
 10
46.0
 20
-19.050010681152344
 30
0.0
 11
46.0
 21
-20.550010681152344
 31
0.0
  0
ARC
  5
26B
100
AcDbEntity
  8
0
  6
CONTINUOUS
 62
               4
100
AcDbCircle
 10
45.5
 20
-20.550010681152344
 30
0.0
 40
0.5
100
AcDbArc
 50
269.99996334457541
 51
359.99994535848583
  0
ARC
  5
26C
100
AcDbEntity
  8
0
  6
CONTINUOUS
 62
               4
100
AcDbCircle
 10
50.099999999999994
 20
-22.400015258789061
 30
0.0
 40
0.4
100
AcDbArc
 50
269.99999999999937
 51
0.0
  0
LINE
  5
26D
100
AcDbEntity
  8
0
  6
CONTINUOUS
 62
               4
100
AcDbLine
 10
50.099999999999994
 20
-22.80001525878906
 30
0.0
 11
45.5
 21
-22.80001525878906
 31
0.0
  0
ARC
  5
26E
100
AcDbEntity
  8
0
  6
CONTINUOUS
 62
               4
100
AcDbCircle
 10
50.099999999999994
 20
8.3999847412109432
 30
0.0
 40
0.4
100
AcDbArc
 50
0.0
 51
89.999999999999815
  0
LINE
  5
26F
100
AcDbEntity
  8
0
  6
CONTINUOUS
 62
               4
100
AcDbLine
 10
50.099999999999994
 20
8.7999847412109347
 30
0.0
 11
45.5
 21
8.7999847412109347
 31
0.0
  0
LINE
  5
270
100
AcDbEntity
  8
0
  6
CONTINUOUS
 62
               4
100
AcDbLine
 10
26.499986267089845
 20
45.199966430664063
 30
0.0
 11
28.100000000000001
 21
45.199966430664063
 31
0.0
  0
LINE
  5
271
100
AcDbEntity
  8
0
  6
CONTINUOUS
 62
               4
100
AcDbLine
 10
27.199999999999999
 20
45.199966430664063
 30
0.0
 11
27.199999999999999
 21
52.199966430664062
 31
0.0
  0
LINE
  5
272
100
AcDbEntity
  8
0
  6
CONTINUOUS
 62
               4
100
AcDbLine
 10
28.100000000000001
 20
45.199966430664063
 30
0.0
 11
28.100000000000001
 21
52.199966430664062
 31
0.0
  0
LINE
  5
273
100
AcDbEntity
  8
0
  6
CONTINUOUS
 62
               4
100
AcDbLine
 10
26.499986267089845
 20
52.199966430664062
 30
0.0
 11
53.499992370605469
 21
52.199966430664062
 31
0.0
  0
LINE
  5
274
100
AcDbEntity
  8
0
  6
CONTINUOUS
 62
               4
100
AcDbLine
 10
37.599986267089839
 20
65.699966430664062
 30
0.0
 11
37.599986267089839
 21
61.199966430664062
 31
0.0
  0
LINE
  5
275
100
AcDbEntity
  8
0
  6
CONTINUOUS
 62
               4
100
AcDbLine
 10
28.649974060058589
 20
72.199966430664063
 30
0.0
 11
37.649974060058589
 21
72.199966430664063
 31
0.0
  0
LINE
  5
276
100
AcDbEntity
  8
0
  6
CONTINUOUS
 62
               4
100
AcDbLine
 10
28.999986267089845
 20
65.699966430664062
 30
0.0
 11
37.649989318847652
 21
65.699966430664062
 31
0.0
  0
LINE
  5
277
100
AcDbEntity
  8
0
  6
CONTINUOUS
 62
               4
100
AcDbLine
 10
38.227336120605464
 20
72.199966430664063
 30
0.0
 11
39.649981689453121
 21
72.199966430664063
 31
0.0
  0
LINE
  5
278
100
AcDbEntity
  8
0
  6
CONTINUOUS
 62
               4
100
AcDbLine
 10
37.599986267089839
 20
63.19842529296875
 30
0.0
 11
37.649989318847652
 21
63.19842529296875
 31
0.0
  0
LINE
  5
279
100
AcDbEntity
  8
0
  6
CONTINUOUS
 62
               4
100
AcDbLine
 10
37.649989318847652
 20
61.69842529296875
 30
0.0
 11
38.649981689453121
 21
61.69842529296875
 31
0.0
  0
LINE
  5
27A
100
AcDbEntity
  8
0
  6
CONTINUOUS
 62
               4
100
AcDbLine
 10
37.649989318847652
 20
63.19842529296875
 30
0.0
 11
37.649989318847652
 21
65.699966430664062
 31
0.0
  0
LINE
  5
27B
100
AcDbEntity
  8
0
  6
CONTINUOUS
 62
               4
100
AcDbLine
 10
39.149981689453121
 20
70.699966430664063
 30
0.0
 11
39.649981689453121
 21
70.699966430664063
 31
0.0
  0
LINE
  5
27C
100
AcDbEntity
  8
0
  6
CONTINUOUS
 62
               4
100
AcDbLine
 10
37.649986476497538
 20
61.698440582534204
 30
0.0
 11
37.599965923191299
 21
61.748461135840444
 31
0.0
  0
LINE
  5
27D
100
AcDbEntity
  8
0
  6
CONTINUOUS
 62
               4
100
AcDbLine
 10
29.149989318847652
 20
65.699966430664062
 30
0.0
 11
29.149989318847652
 21
71.199966430664063
 31
0.0
  0
LINE
  5
27E
100
AcDbEntity
  8
0
  6
CONTINUOUS
 62
               4
100
AcDbLine
 10
28.649989318847652
 20
71.199966430664063
 30
0.0
 11
28.649989318847652
 21
72.199966430664063
 31
0.0
  0
LINE
  5
27F
100
AcDbEntity
  8
0
  6
CONTINUOUS
 62
               4
100
AcDbLine
 10
28.649974060058589
 20
71.199966430664063
 30
0.0
 11
29.149974060058589
 21
71.199966430664063
 31
0.0
  0
LINE
  5
280
100
AcDbEntity
  8
0
  6
CONTINUOUS
 62
               4
100
AcDbLine
 10
39.149989318847652
 20
65.256118774414063
 30
0.0
 11
39.149989318847652
 21
70.699966430664063
 31
0.0
  0
LINE
  5
281
100
AcDbEntity
  8
0
  6
CONTINUOUS
 62
               4
100
AcDbLine
 10
38.649987569326363
 20
61.698417172423433
 30
0.0
 11
39.149986678203454
 21
65.256105256112278
 31
0.0
  0
LINE
  5
282
100
AcDbEntity
  8
0
  6
CONTINUOUS
 62
               4
100
AcDbLine
 10
37.649989318847652
 20
65.699966430664062
 30
0.0
 11
37.649989318847652
 21
72.199966430664063
 31
0.0
  0
LINE
  5
283
100
AcDbEntity
  8
0
  6
CONTINUOUS
 62
               4
100
AcDbLine
 10
37.650030778693868
 20
71.199925373565748
 30
0.0
 11
38.227382594457772
 21
72.199934078520528
 31
0.0
  0
LINE
  5
284
100
AcDbEntity
  8
0
  6
CONTINUOUS
 62
               4
100
AcDbLine
 10
39.649989318847652
 20
70.699966430664063
 30
0.0
 11
39.649989318847652
 21
72.199966430664063
 31
0.0
  0
LINE
  5
285
100
AcDbEntity
  8
0
  6
CONTINUOUS
 62
               4
100
AcDbLine
 10
34.499995422363277
 20
85.199966430664063
 30
0.0
 11
33.699992370605464
 21
85.199966430664063
 31
0.0
  0
LINE
  5
286
100
AcDbEntity
  8
0
  6
CONTINUOUS
 62
               4
100
AcDbLine
 10
33.699992370605464
 20
80.199966430664063
 30
0.0
 11
33.699992370605464
 21
85.199966430664063
 31
0.0
  0
LINE
  5
287
100
AcDbEntity
  8
0
  6
CONTINUOUS
 62
               4
100
AcDbLine
 10
34.499995422363277
 20
80.199966430664063
 30
0.0
 11
34.499995422363277
 21
85.199966430664063
 31
0.0
  0
LINE
  5
288
100
AcDbEntity
  8
0
  6
CONTINUOUS
 62
               4
100
AcDbLine
 10
34.814997863769527
 20
72.199966430664063
 30
0.0
 11
34.814997863769527
 21
76.798370361328125
 31
0.0
  0
LINE
  5
289
100
AcDbEntity
  8
0
  6
CONTINUOUS
 62
               4
100
AcDbLine
 10
33.384989929199214
 20
72.199966430664063
 30
0.0
 11
33.384989929199214
 21
75.972763061523438
 31
0.0
  0
LINE
  5
28A
100
AcDbEntity
  8
0
  6
CONTINUOUS
 62
               4
100
AcDbLine
 10
34.814997863769527
 20
80.199966430664063
 30
0.0
 11
33.384989929199214
 21
80.199966430664063
 31
0.0
  0
LINE
  5
28B
100
AcDbEntity
  8
0
  6
CONTINUOUS
 62
               4
100
AcDbLine
 10
33.384989929199214
 20
77.127456665039063
 30
0.0
 11
33.384989929199214
 21
80.199966430664063
 31
0.0
  0
LINE
  5
28C
100
AcDbEntity
  8
0
  6
CONTINUOUS
 62
               4
100
AcDbLine
 10
34.814997863769527
 20
77.953079223632812
 30
0.0
 11
34.814997863769527
 21
80.199966430664063
 31
0.0
  0
LINE
  5
28D
100
AcDbEntity
  8
0
  6
CONTINUOUS
 62
               4
100
AcDbLine
 10
32.314997863769527
 20
76.50970458984375
 30
0.0
 11
32.314997863769527
 21
80.199966430664063
 31
0.0
  0
LINE
  5
28E
100
AcDbEntity
  8
0
  6
CONTINUOUS
 62
               4
100
AcDbLine
 10
30.884989929199214
 20
75.68408203125
 30
0.0
 11
30.884989929199214
 21
80.199966430664063
 31
0.0
  0
LINE
  5
28F
100
AcDbEntity
  8
0
  6
CONTINUOUS
 62
               4
100
AcDbLine
 10
30.884989929199214
 20
80.199966430664063
 30
0.0
 11
32.314997863769527
 21
80.199966430664063
 31
0.0
  0
LINE
  5
290
100
AcDbEntity
  8
0
  6
CONTINUOUS
 62
               4
100
AcDbLine
 10
31.999995422363277
 20
80.199966430664063
 30
0.0
 11
31.999995422363277
 21
85.199966430664063
 31
0.0
  0
LINE
  5
291
100
AcDbEntity
  8
0
  6
CONTINUOUS
 62
               4
100
AcDbLine
 10
31.199992370605464
 20
80.199966430664063
 30
0.0
 11
31.199992370605464
 21
85.199951171875
 31
0.0
  0
LINE
  5
292
100
AcDbEntity
  8
0
  6
CONTINUOUS
 62
               4
100
AcDbLine
 10
31.199992370605464
 20
85.199966430664063
 30
0.0
 11
31.999995422363277
 21
85.199966430664063
 31
0.0
  0
LINE
  5
293
100
AcDbEntity
  8
0
  6
CONTINUOUS
 62
               4
100
AcDbLine
 10
32.314997863769527
 20
72.199966430664063
 30
0.0
 11
32.314997863769527
 21
75.354995727539062
 31
0.0
  0
LINE
  5
294
100
AcDbEntity
  8
0
  6
CONTINUOUS
 62
               4
100
AcDbLine
 10
30.884989929199214
 20
72.199966430664063
 30
0.0
 11
30.884989929199214
 21
74.529388427734375
 31
0.0
  0
LINE
  5
295
100
AcDbEntity
  8
0
  6
CONTINUOUS
 62
             200
100
AcDbLine
 10
36.315005158561867
 20
78.819072240598871
 30
0.0
 11
29.384976066998384
 21
74.818023676817575
 31
0.0
  0
LINE
  5
296
100
AcDbEntity
  8
0
  6
CONTINUOUS
 62
             200
100
AcDbLine
 10
36.314980610187554
 20
77.66443124574289
 30
0.0
 11
29.384970456668448
 21
73.663379341227483
 31
0.0
  0
LINE
  5
297
100
AcDbEntity
  8
0
  6
CONTINUOUS
 62
               4
100
AcDbLine
 10
38.749986267089845
 20
52.699966430664062
 30
0.0
 11
41.249986267089845
 21
52.699966430664062
 31
0.0
  0
LINE
  5
298
100
AcDbEntity
  8
0
  6
CONTINUOUS
 62
               4
100
AcDbLine
 10
38.749986267089845
 20
52.699966430664062
 30
0.0
 11
38.749986267089845
 21
52.199966430664062
 31
0.0
  0
LINE
  5
299
100
AcDbEntity
  8
0
  6
CONTINUOUS
 62
               4
100
AcDbLine
 10
41.249986267089845
 20
52.699966430664062
 30
0.0
 11
41.249986267089845
 21
52.199966430664062
 31
0.0
  0
ARC
  5
29A
100
AcDbEntity
  8
0
  6
CONTINUOUS
 62
               4
100
AcDbCircle
 10
26.999986267089845
 20
60.699966430664062
 30
0.0
 40
0.5
100
AcDbArc
 50
89.999999999999815
 51
179.99999999999963
  0
LINE
  5
29B
100
AcDbEntity
  8
0
  6
CONTINUOUS
 62
               4
100
AcDbLine
 10
28.999986267089845
 20
61.199966430664062
 30
0.0
 11
26.999986267089845
 21
61.199966430664062
 31
0.0
  0
LINE
  5
29C
100
AcDbEntity
  8
0
  6
CONTINUOUS
 62
               4
100
AcDbLine
 10
28.999986267089845
 20
65.699966430664062
 30
0.0
 11
28.999986267089845
 21
61.199966430664062
 31
0.0
  0
LINE
  5
29D
100
AcDbEntity
  8
0
  6
CONTINUOUS
 62
               4
100
AcDbLine
 10
48.599986267089839
 20
53.64996643066408
 30
0.0
 11
46.499986267089845
 21
53.64996643066408
 31
0.0
  0
LINE
  5
29E
100
AcDbEntity
  8
0
  6
CONTINUOUS
 62
               4
100
AcDbLine
 10
33.599986267089839
 20
53.64996643066408
 30
0.0
 11
31.499986267089845
 21
53.64996643066408
 31
0.0
  0
LINE
  5
29F
100
AcDbEntity
  8
0
  6
CONTINUOUS
 62
               4
100
AcDbLine
 10
31.499986267089845
 20
54.599966430664068
 30
0.0
 11
31.499986267089845
 21
53.64996643066408
 31
0.0
  0
LINE
  5
2A0
100
AcDbEntity
  8
0
  6
CONTINUOUS
 62
               4
100
AcDbLine
 10
48.599986267089839
 20
54.599966430664068
 30
0.0
 11
48.599986267089839
 21
53.64996643066408
 31
0.0
  0
ARC
  5
2A1
100
AcDbEntity
  8
0
  6
CONTINUOUS
 62
               4
100
AcDbCircle
 10
52.002006662450412
 20
56.379577334593364
 30
0.0
 40
1.4979796551727449
100
AcDbArc
 50
0.0148824203654679
 51
24.046309772710686
  0
ARC
  5
2A2
100
AcDbEntity
  8
0
  6
CONTINUOUS
 62
               4
100
AcDbCircle
 10
51.174007105653885
 20
60.700066368110328
 30
0.0
 40
0.4999010215015999
100
AcDbArc
 50
24.197376208904771
 51
89.887774076864815
  0
LINE
  5
2A3
100
AcDbEntity
  8
0
  6
CONTINUOUS
 62
               4
100
AcDbLine
 10
51.629986267089834
 20
60.904966430664075
 30
0.0
 11
53.369986267089843
 21
56.989966430664055
 31
0.0
  0
LINE
  5
2A4
100
AcDbEntity
  8
0
  6
CONTINUOUS
 62
               4
100
AcDbLine
 10
51.174007105653885
 20
61.199966430664062
 30
0.0
 11
37.599986267089839
 21
61.199966430664062
 31
0.0
  0
LINE
  5
2A5
100
AcDbEntity
  8
0
  6
CONTINUOUS
 62
               4
100
AcDbLine
 10
53.499986267089838
 20
56.379966430664069
 30
0.0
 11
53.499986267089838
 21
52.199966430664062
 31
0.0
  0
LINE
  5
2A6
100
AcDbEntity
  8
0
  6
CONTINUOUS
 62
               4
100
AcDbLine
 10
33.599986267089839
 20
54.599966430664068
 30
0.0
 11
31.499986267089845
 21
54.599966430664068
 31
0.0
  0
LINE
  5
2A7
100
AcDbEntity
  8
0
  6
CONTINUOUS
 62
               4
100
AcDbLine
 10
48.599986267089839
 20
54.599966430664068
 30
0.0
 11
46.499986267089845
 21
54.599966430664068
 31
0.0
  0
LINE
  5
2A8
100
AcDbEntity
  8
0
  6
CONTINUOUS
 62
               4
100
AcDbLine
 10
33.599986267089839
 20
54.599966430664068
 30
0.0
 11
33.599986267089839
 21
53.64996643066408
 31
0.0
  0
LINE
  5
2A9
100
AcDbEntity
  8
0
  6
CONTINUOUS
 62
               4
100
AcDbLine
 10
46.499986267089845
 20
54.599966430664068
 30
0.0
 11
46.499986267089845
 21
53.64996643066408
 31
0.0
  0
LINE
  5
2AA
100
AcDbEntity
  8
0
  6
CONTINUOUS
 62
               4
100
AcDbLine
 10
26.499986267089845
 20
60.699966430664062
 30
0.0
 11
26.499986267089845
 21
52.199966430664062
 31
0.0
  0
LINE
  5
2AB
100
AcDbEntity
  8
0
  6
CONTINUOUS
 62
               4
100
AcDbLine
 10
26.5
 20
28.199966430664062
 30
0.0
 11
26.5
 21
52.199966430664062
 31
0.0
  0
LINE
  5
2AC
100
AcDbEntity
  8
0
  6
CONTINUOUS
 62
               4
100
AcDbLine
 10
53.5
 20
28.199966430664062
 30
0.0
 11
53.5
 21
52.199966430664062
 31
0.0
  0
ARC
  5
2AD
100
AcDbEntity
  8
0
  6
CONTINUOUS
 62
               7
100
AcDbCircle
 10
44.450004577636719
 20
-37.000015258789063
 30
0.0
 40
0.5
100
AcDbArc
 50
270.00001798608872
 51
0.0000546415133601
  0
ARC
  5
2AE
100
AcDbEntity
  8
0
  6
CONTINUOUS
 62
               7
100
AcDbCircle
 10
42.950004577636719
 20
-37.000015258789063
 30
0.0
 40
0.5
100
AcDbArc
 50
180.0000359721783
 51
270.00001798608872
  0
ARC
  5
2AF
100
AcDbEntity
  8
0
  6
CONTINUOUS
 62
               7
100
AcDbCircle
 10
53.100006103515625
 20
9.399993896484375
 30
0.0
 40
0.4000000357627869
100
AcDbArc
 50
270.00007262760209
 51
0.0000409811350201
  0
ARC
  5
2B0
100
AcDbEntity
  8
0
  6
CONTINUOUS
 62
               7
100
AcDbCircle
 10
50.100006103515625
 20
-37.600006103515625
 30
0.0
 40
0.4000000357627869
100
AcDbArc
 50
270.00007262760209
 51
0.0000409811350201
  0
ARC
  5
2B1
100
AcDbEntity
  8
0
  6
CONTINUOUS
 62
               7
100
AcDbCircle
 10
26.900009155273437
 20
-37.600006103515625
 30
0.0
 40
0.4000000357627869
100
AcDbArc
 50
180.0000359721783
 51
270.00007262760209
  0
CIRCLE
  5
2B2
100
AcDbEntity
  8
0
  6
CONTINUOUS
 62
               7
100
AcDbCircle
 10
21.0
 20
14.5
 30
0.0
 40
2.0
  0
CIRCLE
  5
2B3
100
AcDbEntity
  8
0
  6
CONTINUOUS
 62
               2
100
AcDbCircle
 10
21.0
 20
14.5
 30
0.0
 40
2.5
  0
CIRCLE
  5
2B4
100
AcDbEntity
  8
0
  6
CONTINUOUS
 62
               7
100
AcDbCircle
 10
9.0
 20
7.0
 30
0.0
 40
4.2829999923706055
  0
CIRCLE
  5
2B5
100
AcDbEntity
  8
0
  6
CONTINUOUS
 62
               7
100
AcDbCircle
 10
18.0
 20
-7.0
 30
0.0
 40
4.2829999923706055
  0
CIRCLE
  5
2B6
100
AcDbEntity
  8
0
  6
CONTINUOUS
 62
               7
100
AcDbCircle
 10
9.0
 20
-21.0
 30
0.0
 40
4.2829999923706055
  0
CIRCLE
  5
2B7
100
AcDbEntity
  8
0
  6
CONTINUOUS
 62
               2
100
AcDbCircle
 10
9.0
 20
-21.0
 30
0.0
 40
4.8639993667602539
  0
CIRCLE
  5
2B8
100
AcDbEntity
  8
0
  6
CONTINUOUS
 62
               2
100
AcDbCircle
 10
18.0
 20
-7.0
 30
0.0
 40
4.8639993667602539
  0
CIRCLE
  5
2B9
100
AcDbEntity
  8
0
  6
CONTINUOUS
 62
               2
100
AcDbCircle
 10
9.0
 20
7.0
 30
0.0
 40
4.8639993667602539
  0
LINE
  5
2BA
100
AcDbEntity
  8
0
  6
CONTINUOUS
 62
               2
100
AcDbLine
 10
9.0
 20
-7.0
 30
0.0
 11
29.070062637329102
 21
-7.0
 31
0.0
  0
LINE
  5
2BB
100
AcDbEntity
  8
0
  6
CONTINUOUS
 62
               7
100
AcDbLine
 10
0.0
 20
-18.5
 30
0.0
 11
0.0
 21
-29.0
 31
0.0
  0
LINE
  5
2BC
100
AcDbEntity
  8
0
  6
CONTINUOUS
 62
               7
100
AcDbLine
 10
0.0000031919297498
 20
4.4999965040987036
 30
0.0
 11
9.0000019566422225
 21
-4.5000022606137691
 31
0.0
  0
LINE
  5
2BD
100
AcDbEntity
  8
0
  6
CONTINUOUS
 62
               7
100
AcDbLine
 10
0.0000052149784437
 20
-18.500004310225052
 30
0.0
 11
9.000004654040481
 21
-9.5000048711630143
 31
0.0
  0
LINE
  5
2BE
100
AcDbEntity
  8
0
  6
CONTINUOUS
 62
               7
100
AcDbLine
 10
9.0
 20
-4.5
 30
0.0
 11
9.0
 21
-9.5
 31
0.0
  0
LINE
  5
2BF
100
AcDbEntity
  8
0
  6
CONTINUOUS
 62
               7
100
AcDbLine
 10
49.199996948242188
 20
18.499984741210938
 30
0.0
 11
30.0
 21
18.499984741210938
 31
0.0
  0
LINE
  5
2C0
100
AcDbEntity
  8
0
  6
CONTINUOUS
 62
               7
100
AcDbLine
 10
27.5
 20
18.499984741210938
 30
0.0
 11
26.5
 21
18.499984741210938
 31
0.0
  0
LINE
  5
2C1
100
AcDbEntity
  8
0
  6
CONTINUOUS
 62
               7
100
AcDbLine
 10
52.199996948242188
 20
16.5
 30
0.0
 11
52.199996948242188
 21
18.499984741210938
 31
0.0
  0
LINE
  5
2C2
100
AcDbEntity
  8
0
  6
CONTINUOUS
 62
               7
100
AcDbLine
 10
49.199996948242188
 20
16.5
 30
0.0
 11
49.199996948242188
 21
18.499984741210938
 31
0.0
  0
LINE
  5
2C3
100
AcDbEntity
  8
0
  6
CONTINUOUS
 62
               7
100
AcDbLine
 10
30.0
 20
16.5
 30
0.0
 11
30.0
 21
18.499984741210938
 31
0.0
  0
LINE
  5
2C4
100
AcDbEntity
  8
0
  6
CONTINUOUS
 62
               7
100
AcDbLine
 10
27.5
 20
16.5
 30
0.0
 11
27.5
 21
18.499984741210938
 31
0.0
  0
LINE
  5
2C5
100
AcDbEntity
  8
0
  6
CONTINUOUS
 62
               7
100
AcDbLine
 10
42.100006103515625
 20
-38.000015258789062
 30
0.0
 11
42.100006103515625
 21
-37.000015258789063
 31
0.0
  0
LINE
  5
2C6
100
AcDbEntity
  8
0
  6
CONTINUOUS
 62
               7
100
AcDbLine
 10
50.5
 20
-29.100006103515625
 30
0.0
 11
50.5
 21
-24.900009155273438
 31
0.0
  0
LINE
  5
2C7
100
AcDbEntity
  8
0
  6
CONTINUOUS
 62
               7
100
AcDbLine
 10
48.599998474121094
 20
-24.900009155273438
 30
0.0
 11
48.599998474121094
 21
-23.000015258789063
 31
0.0
  0
LINE
  5
2C8
100
AcDbEntity
  8
0
  6
CONTINUOUS
 62
               7
100
AcDbLine
 10
51.099998474121094
 20
-24.900009155273438
 30
0.0
 11
48.599998474121094
 21
-24.900009155273438
 31
0.0
  0
LINE
  5
2C9
100
AcDbEntity
  8
0
  6
CONTINUOUS
 62
               7
100
AcDbLine
 10
51.099998474121094
 20
-29.100006103515625
 30
0.0
 11
48.599998474121094
 21
-29.100006103515625
 31
0.0
  0
LINE
  5
2CA
100
AcDbEntity
  8
0
  6
CONTINUOUS
 62
               7
100
AcDbLine
 10
51.099998474121094
 20
-31.000045776367187
 30
0.0
 11
51.099998474121094
 21
-23.0
 31
0.0
  0
LINE
  5
2CB
100
AcDbEntity
  8
0
  6
CONTINUOUS
 62
               7
100
AcDbLine
 10
48.599998474121094
 20
-31.000015258789063
 30
0.0
 11
48.599998474121094
 21
-29.100006103515625
 31
0.0
  0
LINE
  5
2CC
100
AcDbEntity
  8
0
  6
CONTINUOUS
 62
               7
100
AcDbLine
 10
48.5
 20
-25.000015258789063
 30
0.0
 11
48.5
 21
-23.0
 31
0.0
  0
LINE
  5
2CD
100
AcDbEntity
  8
0
  6
CONTINUOUS
 62
               7
100
AcDbLine
 10
49.5
 20
-25.000015258789063
 30
0.0
 11
49.5
 21
-24.900009155273438
 31
0.0
  0
LINE
  5
2CE
100
AcDbEntity
  8
0
  6
CONTINUOUS
 62
               7
100
AcDbLine
 10
48.5
 20
-31.000015258789063
 30
0.0
 11
48.5
 21
-29.000015258789063
 31
0.0
  0
LINE
  5
2CF
100
AcDbEntity
  8
0
  6
CONTINUOUS
 62
               7
100
AcDbLine
 10
49.5
 20
-29.100006103515625
 30
0.0
 11
49.5
 21
-29.000015258789063
 31
0.0
  0
LINE
  5
2D0
100
AcDbEntity
  8
0
  6
CONTINUOUS
 62
               7
100
AcDbLine
 10
50.5
 20
-25.000015258789063
 30
0.0
 11
48.5
 21
-25.000015258789063
 31
0.0
  0
LINE
  5
2D1
100
AcDbEntity
  8
0
  6
CONTINUOUS
 62
               7
100
AcDbLine
 10
50.5
 20
-29.000015258789063
 30
0.0
 11
48.5
 21
-29.000015258789063
 31
0.0
  0
LINE
  5
2D2
100
AcDbEntity
  8
0
  6
CONTINUOUS
 62
               7
100
AcDbLine
 10
44.450004577636719
 20
-37.500015258789063
 30
0.0
 11
42.950004577636719
 21
-37.500015258789063
 31
0.0
  0
LINE
  5
2D3
100
AcDbEntity
  8
0
  6
CONTINUOUS
 62
               7
100
AcDbLine
 10
45.300003051757813
 20
-37.000015258789063
 30
0.0
 11
42.100006103515625
 21
-37.000015258789063
 31
0.0
  0
LINE
  5
2D4
100
AcDbEntity
  8
0
  6
CONTINUOUS
 62
               7
100
AcDbLine
 10
45.300003051757813
 20
-38.000015258789062
 30
0.0
 11
45.300003051757813
 21
-37.000015258789063
 31
0.0
  0
LINE
  5
2D5
100
AcDbEntity
  8
0
  6
CONTINUOUS
 62
               7
100
AcDbLine
 10
53.5
 20
16.5
 30
0.0
 11
26.5
 21
16.5
 31
0.0
  0
LINE
  5
2D6
100
AcDbEntity
  8
0
  6
CONTINUOUS
 62
               7
100
AcDbLine
 10
50.100006103515625
 20
-38.000015258789062
 30
0.0
 11
26.900009155273437
 21
-38.000015258789062
 31
0.0
  0
LINE
  5
2D7
100
AcDbEntity
  8
0
  6
CONTINUOUS
 62
               7
100
AcDbLine
 10
50.5
 20
-37.600006103515625
 30
0.0
 11
50.5
 21
-31.000015258789063
 31
0.0
  0
LINE
  5
2D8
100
AcDbEntity
  8
0
  6
CONTINUOUS
 62
               7
100
AcDbLine
 10
51.100006103515625
 20
-31.000015258789063
 30
0.0
 11
26.5
 21
-31.000015258789063
 31
0.0
  0
LINE
  5
2D9
100
AcDbEntity
  8
0
  6
CONTINUOUS
 62
               7
100
AcDbLine
 10
53.100006103515625
 20
9.0
 30
0.0
 11
26.5
 21
9.0
 31
0.0
  0
LINE
  5
2DA
100
AcDbEntity
  8
0
  6
CONTINUOUS
 62
               7
100
AcDbLine
 10
51.100006103515625
 20
-23.000015258789063
 30
0.0
 11
26.5
 21
-23.000015258789063
 31
0.0
  0
LINE
  5
2DB
100
AcDbEntity
  8
0
  6
CONTINUOUS
 62
               7
100
AcDbLine
 10
45.5
 20
9.0
 30
0.0
 11
45.5
 21
-23.000015258789063
 31
0.0
  0
LINE
  5
2DC
100
AcDbEntity
  8
0
  6
CONTINUOUS
 62
               7
100
AcDbLine
 10
51.5
 20
-30.600006103515625
 30
0.0
 11
51.5
 21
-23.400009155273438
 31
0.0
  0
LINE
  5
2DD
100
AcDbEntity
  8
0
  6
CONTINUOUS
 62
               7
100
AcDbLine
 10
51.500006895683327
 20
-30.600012725656825
 30
0.0
 11
51.100005257224439
 21
-31.000016286024447
 31
0.0
  0
LINE
  5
2DE
100
AcDbEntity
  8
0
  6
CONTINUOUS
 62
               7
100
AcDbLine
 10
51.499999714600563
 20
-23.400011999823619
 30
0.0
 11
51.099993288228688
 21
-23.000013227368981
 31
0.0
  0
LINE
  5
2DF
100
AcDbEntity
  8
0
  6
CONTINUOUS
 62
               7
100
AcDbLine
 10
26.5
 20
-37.600006103515625
 30
0.0
 11
26.5
 21
28.199966430664062
 31
0.0
  0
LINE
  5
2E0
100
AcDbEntity
  8
0
  6
CONTINUOUS
 62
               7
100
AcDbLine
 10
53.5
 20
9.399993896484375
 30
0.0
 11
53.5
 21
28.199966430664062
 31
0.0
  0
LINE
  5
2E1
100
AcDbEntity
  8
0
  6
CONTINUOUS
 62
               7
100
AcDbLine
 10
54.5
 20
24.999984741210937
 30
0.0
 11
54.5
 21
26.649993896484375
 31
0.0
  0
LINE
  5
2E2
100
AcDbEntity
  8
0
  6
CONTINUOUS
 62
               7
100
AcDbLine
 10
54.5
 20
25.0
 30
0.0
 11
53.899993896484375
 21
25.0
 31
0.0
  0
LINE
  5
2E3
100
AcDbEntity
  8
0
  6
CONTINUOUS
 62
               7
100
AcDbLine
 10
54.5
 20
24.399993896484375
 30
0.0
 11
53.899993896484375
 21
24.399993896484375
 31
0.0
  0
LINE
  5
2E4
100
AcDbEntity
  8
0
  6
CONTINUOUS
 62
               7
100
AcDbLine
 10
53.899993896484375
 20
24.399993896484375
 30
0.0
 11
53.899993896484375
 21
24.999984741210937
 31
0.0
  0
LINE
  5
2E5
100
AcDbEntity
  8
0
  6
CONTINUOUS
 62
               7
100
AcDbLine
 10
54.499992370605469
 20
26.649993896484375
 30
0.0
 11
53.5
 21
26.649993896484375
 31
0.0
  0
LINE
  5
2E6
100
AcDbEntity
  8
0
  6
CONTINUOUS
 62
               7
100
AcDbLine
 10
54.5
 20
22.75
 30
0.0
 11
53.5
 21
22.75
 31
0.0
  0
LINE
  5
2E7
100
AcDbEntity
  8
0
  6
CONTINUOUS
 62
               7
100
AcDbLine
 10
54.5
 20
22.749984741210938
 30
0.0
 11
54.5
 21
24.399993896484375
 31
0.0
  0
LINE
  5
2E8
100
AcDbEntity
  8
0
  6
CONTINUOUS
 62
               2
100
AcDbLine
 10
55.5
 20
24.699996948242188
 30
0.0
 11
52.799995422363281
 21
24.699996948242188
 31
0.0
  0
LINE
  5
2E9
100
AcDbEntity
  8
0
  6
CONTINUOUS
 62
               7
100
AcDbLine
 10
53.5
 20
18.499984741210938
 30
0.0
 11
52.199996948242188
 21
18.499984741210938
 31
0.0
  0
LINE
  5
2EA
100
AcDbEntity
  8
0
  6
CONTINUOUS
 62
               7
100
AcDbLine
 10
0.0
 20
4.5
 30
0.0
 11
0.0
 21
20.0
 31
0.0
  0
LINE
  5
2EB
100
AcDbEntity
  8
0
  6
CONTINUOUS
 62
               2
100
AcDbLine
 10
9.0
 20
-15.136001586914063
 30
0.0
 11
9.0
 21
-26.864013671875
 31
0.0
  0
LINE
  5
2EC
100
AcDbEntity
  8
0
  6
CONTINUOUS
 62
               2
100
AcDbLine
 10
9.0
 20
12.863998413085937
 30
0.0
 11
9.0
 21
1.1360015869140625
 31
0.0
  0
LINE
  5
2ED
100
AcDbEntity
  8
0
  6
CONTINUOUS
 62
               7
100
AcDbLine
 10
26.000004340245312
 20
-23.500004201049592
 30
0.0
 11
21.000003882952853
 21
-29.000004393940912
 31
0.0
  0
LINE
  5
2EE
100
AcDbEntity
  8
0
  6
CONTINUOUS
 62
               7
100
AcDbLine
 10
0.0
 20
-29.0
 30
0.0
 11
21.0
 21
-29.0
 31
0.0
  0
LINE
  5
2EF
100
AcDbEntity
  8
0
  6
CONTINUOUS
 62
               7
100
AcDbLine
 10
0.0
 20
20.0
 30
0.0
 11
26.0
 21
20.0
 31
0.0
  0
LINE
  5
2F0
100
AcDbEntity
  8
0
  6
CONTINUOUS
 62
               2
100
AcDbLine
 10
21.0
 20
17.5
 30
0.0
 11
21.0
 21
11.5
 31
0.0
  0
LINE
  5
2F1
100
AcDbEntity
  8
0
  6
CONTINUOUS
 62
               2
100
AcDbLine
 10
14.864013671875
 20
14.5
 30
0.0
 11
24.0
 21
14.5
 31
0.0
  0
LINE
  5
2F2
100
AcDbEntity
  8
0
  6
CONTINUOUS
 62
               2
100
AcDbLine
 10
3.1360015869140625
 20
7.0
 30
0.0
 11
14.864013671875
 21
7.0
 31
0.0
  0
LINE
  5
2F3
100
AcDbEntity
  8
0
  6
CONTINUOUS
 62
               2
100
AcDbLine
 10
3.1360015869140625
 20
-21.0
 30
0.0
 11
14.864013671875
 21
-21.0
 31
0.0
  0
LINE
  5
2F4
100
AcDbEntity
  8
0
  6
CONTINUOUS
 62
               2
100
AcDbLine
 10
18.0
 20
0.0
 30
0.0
 11
18.0
 21
-14.0
 31
0.0
  0
LINE
  5
2F5
100
AcDbEntity
  8
0
  6
CONTINUOUS
 62
               7
100
AcDbLine
 10
26.0
 20
20.0
 30
0.0
 11
26.0
 21
-23.5
 31
0.0
  0
ENDBLK
  5
2F6
100
AcDbEntity
  8
0
100
AcDbBlockEnd
  0
BLOCK
  5
2F7
100
AcDbEntity
  8
0
100
AcDbBlockBegin
  2
F10MF-3
 70
               0
 10
0.0
 20
0.0
 30
0.0
  3
F10MF-3
  1

  0
LINE
  5
2F8
100
AcDbEntity
  8
0
  6
CONTINUOUS
 62
               2
100
AcDbLine
 10
51.5
 20
3.0
 30
0.0
 11
51.5
 21
-3.3059456732899406
 31
0.0
  0
LINE
  5
2F9
100
AcDbEntity
  8
0
  6
CONTINUOUS
 62
               2
100
AcDbLine
 10
0.0
 20
3.0
 30
0.0
 11
0.0
 21
-3.3059456732899406
 31
0.0
  0
LINE
  5
2FA
100
AcDbEntity
  8
0
  6
CONTINUOUS
 62
               2
100
AcDbLine
 10
31.0
 20
24.52545166015625
 30
0.0
 11
31.0
 21
49.429659917020103
 31
0.0
  0
LINE
  5
2FB
100
AcDbEntity
  8
0
  6
CONTINUOUS
 62
               2
100
AcDbLine
 10
20.5
 20
24.52545166015625
 30
0.0
 11
20.5
 21
49.429659917020103
 31
0.0
  0
LINE
  5
2FC
100
AcDbEntity
  8
0
  6
CONTINUOUS
 62
               7
100
AcDbLine
 10
26.0
 20
26.5
 30
0.0
 11
36.0
 21
26.5
 31
0.0
  0
LINE
  5
2FD
100
AcDbEntity
  8
0
  6
CONTINUOUS
 62
               7
100
AcDbLine
 10
26.0
 20
26.5
 30
0.0
 11
26.0
 21
26.0
 31
0.0
  0
LINE
  5
2FE
100
AcDbEntity
  8
0
  6
CONTINUOUS
 62
               7
100
AcDbLine
 10
36.0
 20
26.5
 30
0.0
 11
36.0
 21
26.0
 31
0.0
  0
LINE
  5
2FF
100
AcDbEntity
  8
0
  6
CONTINUOUS
 62
               7
100
AcDbLine
 10
15.5
 20
26.5
 30
0.0
 11
25.5
 21
26.5
 31
0.0
  0
LINE
  5
300
100
AcDbEntity
  8
0
  6
CONTINUOUS
 62
               7
100
AcDbLine
 10
15.5
 20
26.5
 30
0.0
 11
15.5
 21
26.0
 31
0.0
  0
LINE
  5
301
100
AcDbEntity
  8
0
  6
CONTINUOUS
 62
               7
100
AcDbLine
 10
25.5
 20
26.5
 30
0.0
 11
25.5
 21
26.0
 31
0.0
  0
LINE
  5
302
100
AcDbEntity
  8
0
  6
CONTINUOUS
 62
             200
100
AcDbLine
 10
20.5
 20
49.429659917020103
 30
0.0
 11
20.5
 21
67.753570556640625
 31
0.0
  0
LINE
  5
303
100
AcDbEntity
  8
0
  6
CONTINUOUS
 62
               7
100
AcDbLine
 10
15.5
 20
50.099990844726563
 30
0.0
 11
15.5
 21
26.5
 31
0.0
  0
LINE
  5
304
100
AcDbEntity
  8
0
  6
CONTINUOUS
 62
               7
100
AcDbLine
 10
25.5
 20
50.099990844726563
 30
0.0
 11
25.5
 21
26.5
 31
0.0
  0
LINE
  5
305
100
AcDbEntity
  8
0
  6
CONTINUOUS
 62
               7
100
AcDbLine
 10
15.5
 20
45.300003051757813
 30
0.0
 11
17.300002098083496
 21
45.300003051757813
 31
0.0
  0
LINE
  5
306
100
AcDbEntity
  8
0
  6
CONTINUOUS
 62
               7
100
AcDbLine
 10
15.5
 20
42.100006103515625
 30
0.0
 11
17.300002098083496
 21
42.100006103515625
 31
0.0
  0
LINE
  5
307
100
AcDbEntity
  8
0
  6
CONTINUOUS
 62
               7
100
AcDbLine
 10
22.09999942779541
 20
28.300003051757812
 30
0.0
 11
22.09999942779541
 21
26.5
 31
0.0
  0
LINE
  5
308
100
AcDbEntity
  8
0
  6
CONTINUOUS
 62
               7
100
AcDbLine
 10
23.699999809265137
 20
29.900001525878906
 30
0.0
 11
25.5
 21
29.900001525878906
 31
0.0
  0
LINE
  5
309
100
AcDbEntity
  8
0
  6
CONTINUOUS
 62
               7
100
AcDbLine
 10
23.098965319601604
 20
27.698959964127368
 30
0.0
 11
24.301044770455093
 21
28.901039313653143
 31
0.0
  0
LINE
  5
30A
100
AcDbEntity
  8
0
  6
CONTINUOUS
 62
               7
100
AcDbLine
 10
16.698965850550962
 20
43.098960844712565
 30
0.0
 11
17.901050696201423
 21
44.301045589034857
 31
0.0
  0
LINE
  5
30B
100
AcDbEntity
  8
0
  6
CONTINUOUS
 62
               7
100
AcDbLine
 10
16.698958963755899
 20
44.301037227100323
 30
0.0
 11
17.901038414609388
 21
43.098957877574549
 31
0.0
  0
LINE
  5
30C
100
AcDbEntity
  8
0
  6
CONTINUOUS
 62
               7
100
AcDbLine
 10
23.098960320985412
 20
28.901036295938923
 30
0.0
 11
24.301039518957793
 21
27.698957199294227
 31
0.0
  0
LINE
  5
30D
100
AcDbEntity
  8
0
  6
CONTINUOUS
 62
               7
100
AcDbLine
 10
18.549996376037598
 20
51.5
 30
0.0
 11
22.449995994567871
 21
51.5
 31
0.0
  0
LINE
  5
30E
100
AcDbEntity
  8
0
  6
CONTINUOUS
 62
               7
100
AcDbLine
 10
18.549996376037598
 20
51.5
 30
0.0
 11
18.549996376037598
 21
50.5
 31
0.0
  0
LINE
  5
30F
100
AcDbEntity
  8
0
  6
CONTINUOUS
 62
               7
100
AcDbLine
 10
22.449995994567871
 20
51.5
 30
0.0
 11
22.449995994567871
 21
50.5
 31
0.0
  0
LINE
  5
310
100
AcDbEntity
  8
0
  6
CONTINUOUS
 62
               7
100
AcDbLine
 10
25.500000953674316
 20
50.5
 30
0.0
 11
15.500000953674316
 21
50.5
 31
0.0
  0
LINE
  5
311
100
AcDbEntity
  8
0
  6
CONTINUOUS
 62
               4
100
AcDbLine
 10
25.500000953674316
 20
51.099990844726562
 30
0.0
 11
22.449995994567871
 21
51.099990844726562
 31
0.0
  0
LINE
  5
312
100
AcDbEntity
  8
0
  6
CONTINUOUS
 62
               7
100
AcDbLine
 10
16.5
 20
50.5
 30
0.0
 11
16.5
 21
51.099990844726562
 31
0.0
  0
LINE
  5
313
100
AcDbEntity
  8
0
  6
CONTINUOUS
 62
               7
100
AcDbLine
 10
24.5
 20
50.5
 30
0.0
 11
24.5
 21
51.099990844726562
 31
0.0
  0
LINE
  5
314
100
AcDbEntity
  8
0
  6
CONTINUOUS
 62
               4
100
AcDbLine
 10
18.549996376037598
 20
51.099990844726562
 30
0.0
 11
15.500000953674316
 21
51.099990844726562
 31
0.0
  0
ARC
  5
315
100
AcDbEntity
  8
0
  6
CONTINUOUS
 62
               7
100
AcDbCircle
 10
15.90000057220459
 20
26.900001525878906
 30
0.0
 40
0.3999999761581421
100
AcDbArc
 50
179.99998133066492
 51
270.00001798608872
  0
ARC
  5
316
100
AcDbEntity
  8
0
  6
CONTINUOUS
 62
               7
100
AcDbCircle
 10
15.90000057220459
 20
50.099990844726563
 30
0.0
 40
0.3999999761581421
100
AcDbArc
 50
89.999982013910454
 51
179.99996402782091
  0
ARC
  5
317
100
AcDbEntity
  8
0
  6
CONTINUOUS
 62
               7
100
AcDbCircle
 10
25.09999942779541
 20
50.099990844726563
 30
0.0
 40
0.3999999761581421
100
AcDbArc
 50
0.0
 51
89.999982013910454
  0
ARC
  5
318
100
AcDbEntity
  8
0
  6
CONTINUOUS
 62
               7
100
AcDbCircle
 10
25.09999942779541
 20
26.900001525878906
 30
0.0
 40
0.3999999761581421
100
AcDbArc
 50
270.00001798608872
 51
0.0
  0
CIRCLE
  5
319
100
AcDbEntity
  8
0
  6
CONTINUOUS
 62
               7
100
AcDbCircle
 10
23.699999809265137
 20
28.300003051757812
 30
0.0
 40
1.25
  0
CIRCLE
  5
31A
100
AcDbEntity
  8
0
  6
CONTINUOUS
 62
               7
100
AcDbCircle
 10
17.300000190734863
 20
43.699996948242187
 30
0.0
 40
1.25
  0
ARC
  5
31B
100
AcDbEntity
  8
0
  6
CONTINUOUS
 62
               7
100
AcDbCircle
 10
23.699999809265137
 20
28.300003051757812
 30
0.0
 40
1.5999994277954102
100
AcDbArc
 50
89.999982013910454
 51
179.99996402782091
  0
ARC
  5
31C
100
AcDbEntity
  8
0
  6
CONTINUOUS
 62
               7
100
AcDbCircle
 10
17.300002098083496
 20
43.699996948242187
 30
0.0
 40
1.5999984741210938
100
AcDbArc
 50
270.00001798608872
 51
89.999982013910454
  0
LINE
  5
31D
100
AcDbEntity
  8
0
  6
CONTINUOUS
 62
               4
100
AcDbLine
 10
25.499999999999972
 20
55.299999999999997
 30
0.0
 11
15.499999999999972
 21
55.299999999999997
 31
0.0
  0
LINE
  5
31E
100
AcDbEntity
  8
0
  6
CONTINUOUS
 62
               4
100
AcDbLine
 10
25.199999999999989
 20
67.0
 30
0.0
 11
15.800000011920901
 21
67.0
 31
0.0
  0
LINE
  5
31F
100
AcDbEntity
  8
0
  6
CONTINUOUS
 62
               4
100
AcDbLine
 10
15.599999999999994
 20
66.799999999999997
 30
0.0
 11
15.599999999999994
 21
66.0
 31
0.0
  0
ARC
  5
320
100
AcDbEntity
  8
0
  6
CONTINUOUS
 62
               4
100
AcDbCircle
 10
15.799999999999983
 20
66.799999999999997
 30
0.0
 40
0.2
100
AcDbArc
 50
89.999999999999815
 51
179.99999999999963
  0
LINE
  5
321
100
AcDbEntity
  8
0
  6
CONTINUOUS
 62
               4
100
AcDbLine
 10
16.999999999999972
 20
66.0
 30
0.0
 11
16.999999999999972
 21
65.099999999999994
 31
0.0
  0
LINE
  5
322
100
AcDbEntity
  8
0
  6
CONTINUOUS
 62
               4
100
AcDbLine
 10
25.399999999999977
 20
66.0
 30
0.0
 11
15.599999994039507
 21
66.0
 31
0.0
  0
LINE
  5
323
100
AcDbEntity
  8
0
  6
CONTINUOUS
 62
               4
100
AcDbLine
 10
15.499999999999972
 20
64.161879999999996
 30
0.0
 11
15.499999999999972
 21
60.200000000000003
 31
0.0
  0
ARC
  5
324
100
AcDbEntity
  8
0
  6
CONTINUOUS
 62
               4
100
AcDbCircle
 10
25.199999999999989
 20
66.799999999999997
 30
0.0
 40
0.2
100
AcDbArc
 50
0.0
 51
89.999999999999815
  0
LINE
  5
325
100
AcDbEntity
  8
0
  6
CONTINUOUS
 62
               4
100
AcDbLine
 10
25.399999999999977
 20
66.799999999999997
 30
0.0
 11
25.399999999999977
 21
66.0
 31
0.0
  0
LINE
  5
326
100
AcDbEntity
  8
0
  6
CONTINUOUS
 62
               4
100
AcDbLine
 10
25.499999999999972
 20
59.099999999999994
 30
0.0
 11
25.499999999999972
 21
55.5
 31
0.0
  0
LINE
  5
327
100
AcDbEntity
  8
0
  6
CONTINUOUS
 62
               4
100
AcDbLine
 10
15.499999999999972
 20
59.099999999999994
 30
0.0
 11
15.499999999999972
 21
55.5
 31
0.0
  0
LINE
  5
328
100
AcDbEntity
  8
0
  6
CONTINUOUS
 62
               4
100
AcDbLine
 10
25.499999999999972
 20
59.099999999999994
 30
0.0
 11
15.499999999999972
 21
59.099999999999994
 31
0.0
  0
LINE
  5
329
100
AcDbEntity
  8
0
  6
CONTINUOUS
 62
               4
100
AcDbLine
 10
25.299999999999983
 20
59.299999999999997
 30
0.0
 11
15.699999999999989
 21
59.299999999999997
 31
0.0
  0
LINE
  5
32A
100
AcDbEntity
  8
0
  6
CONTINUOUS
 62
               4
100
AcDbLine
 10
15.699999999999989
 20
59.299999999999997
 30
0.0
 11
15.499999999999972
 21
59.099999999999994
 31
0.0
  0
LINE
  5
32B
100
AcDbEntity
  8
0
  6
CONTINUOUS
 62
               4
100
AcDbLine
 10
25.299999999999983
 20
59.299999999999997
 30
0.0
 11
25.499999999999972
 21
59.099999999999994
 31
0.0
  0
LINE
  5
32C
100
AcDbEntity
  8
0
  6
CONTINUOUS
 62
               4
100
AcDbLine
 10
25.299999999999983
 20
60.0
 30
0.0
 11
15.699999999999989
 21
60.0
 31
0.0
  0
LINE
  5
32D
100
AcDbEntity
  8
0
  6
CONTINUOUS
 62
               4
100
AcDbLine
 10
25.499999999999972
 20
60.200000000000003
 30
0.0
 11
15.499999999999972
 21
60.200000000000003
 31
0.0
  0
LINE
  5
32E
100
AcDbEntity
  8
0
  6
CONTINUOUS
 62
               4
100
AcDbLine
 10
16.249999999999972
 20
60.0
 30
0.0
 11
16.249999999999972
 21
59.299999999999997
 31
0.0
  0
LINE
  5
32F
100
AcDbEntity
  8
0
  6
CONTINUOUS
 62
               4
100
AcDbLine
 10
24.749999999999972
 20
59.299999999999997
 30
0.0
 11
24.749999999999972
 21
60.0
 31
0.0
  0
LINE
  5
330
100
AcDbEntity
  8
0
  6
CONTINUOUS
 62
               4
100
AcDbLine
 10
15.499999999999972
 20
60.200000000000003
 30
0.0
 11
15.699999999999989
 21
60.0
 31
0.0
  0
LINE
  5
331
100
AcDbEntity
  8
0
  6
CONTINUOUS
 62
               4
100
AcDbLine
 10
25.499999999999972
 20
60.200000000000003
 30
0.0
 11
25.299999999999983
 21
60.0
 31
0.0
  0
LINE
  5
332
100
AcDbEntity
  8
0
  6
CONTINUOUS
 62
               4
100
AcDbLine
 10
15.499999999999972
 20
64.161879999999996
 30
0.0
 11
15.566025199999984
 21
64.200000000000003
 31
0.0
  0
LINE
  5
333
100
AcDbEntity
  8
0
  6
CONTINUOUS
 62
               4
100
AcDbLine
 10
15.566025499999995
 20
64.200000000000003
 30
0.0
 11
15.700000399999993
 21
64.700000000000003
 31
0.0
  0
LINE
  5
334
100
AcDbEntity
  8
0
  6
CONTINUOUS
 62
               4
100
AcDbLine
 10
16.449999999999989
 20
64.700000000000003
 30
0.0
 11
16.449999999999989
 21
65.0
 31
0.0
  0
LINE
  5
335
100
AcDbEntity
  8
0
  6
CONTINUOUS
 62
               4
100
AcDbLine
 10
16.449999999999989
 20
65.0
 30
0.0
 11
16.549999999999983
 21
65.099999999999994
 31
0.0
  0
LINE
  5
336
100
AcDbEntity
  8
0
  6
CONTINUOUS
 62
               4
100
AcDbLine
 10
24.449999999999989
 20
65.099999999999994
 30
0.0
 11
16.549999999999983
 21
65.099999999999994
 31
0.0
  0
LINE
  5
337
100
AcDbEntity
  8
0
  6
CONTINUOUS
 62
               4
100
AcDbLine
 10
25.299999599999978
 20
64.699999999999989
 30
0.0
 11
15.700000405311556
 21
64.700000000000003
 31
0.0
  0
LINE
  5
338
100
AcDbEntity
  8
0
  6
CONTINUOUS
 62
               4
100
AcDbLine
 10
23.999999999999972
 20
66.0
 30
0.0
 11
23.999999999999972
 21
65.099999999999994
 31
0.0
  0
LINE
  5
339
100
AcDbEntity
  8
0
  6
CONTINUOUS
 62
               4
100
AcDbLine
 10
25.499999999999972
 20
64.161879999999996
 30
0.0
 11
25.499999999999972
 21
60.200000000000003
 31
0.0
  0
LINE
  5
33A
100
AcDbEntity
  8
0
  6
CONTINUOUS
 62
               4
100
AcDbLine
 10
24.549999999999983
 20
65.0
 30
0.0
 11
24.449999999999989
 21
65.099999999999994
 31
0.0
  0
LINE
  5
33B
100
AcDbEntity
  8
0
  6
CONTINUOUS
 62
               4
100
AcDbLine
 10
24.549999999999983
 20
64.699999999999989
 30
0.0
 11
24.549999999999983
 21
65.0
 31
0.0
  0
LINE
  5
33C
100
AcDbEntity
  8
0
  6
CONTINUOUS
 62
               4
100
AcDbLine
 10
25.433974499999977
 20
64.199999999999989
 30
0.0
 11
25.299999599999978
 21
64.699999999999989
 31
0.0
  0
LINE
  5
33D
100
AcDbEntity
  8
0
  6
CONTINUOUS
 62
               4
100
AcDbLine
 10
25.499999999999972
 20
64.161879999999996
 30
0.0
 11
25.433974799999987
 21
64.199999999999989
 31
0.0
  0
LINE
  5
33E
100
AcDbEntity
  8
0
  6
CONTINUOUS
 62
               4
100
AcDbLine
 10
24.549999999999983
 20
65.0
 30
0.0
 11
16.449999999999989
 21
65.0
 31
0.0
  0
LINE
  5
33F
100
AcDbEntity
  8
0
  6
CONTINUOUS
 62
               4
100
AcDbLine
 10
25.499999999999972
 20
64.161879999999996
 30
0.0
 11
15.499999999999972
 21
64.161879999999996
 31
0.0
  0
LINE
  5
340
100
AcDbEntity
  8
0
  6
CONTINUOUS
 62
               4
100
AcDbLine
 10
25.433974444866152
 20
64.200000204906019
 30
0.0
 11
15.566025555133791
 21
64.200000204906019
 31
0.0
  0
LINE
  5
341
100
AcDbEntity
  8
0
  6
CONTINUOUS
 62
               4
100
AcDbLine
 10
25.399999999999977
 20
55.400000000000006
 30
0.0
 11
15.599999999999966
 21
55.400000000000006
 31
0.0
  0
LINE
  5
342
100
AcDbEntity
  8
0
  6
CONTINUOUS
 62
               4
100
AcDbLine
 10
25.499999999999972
 20
55.5
 30
0.0
 11
15.499999999999972
 21
55.5
 31
0.0
  0
LINE
  5
343
100
AcDbEntity
  8
0
  6
CONTINUOUS
 62
               4
100
AcDbLine
 10
15.499999999999972
 20
55.5
 30
0.0
 11
15.599999999999966
 21
55.400000000000006
 31
0.0
  0
LINE
  5
344
100
AcDbEntity
  8
0
  6
CONTINUOUS
 62
               4
100
AcDbLine
 10
15.599999999999966
 20
55.400000000000006
 30
0.0
 11
15.499999999999972
 21
55.300000000000011
 31
0.0
  0
LINE
  5
345
100
AcDbEntity
  8
0
  6
CONTINUOUS
 62
               4
100
AcDbLine
 10
25.399999999999977
 20
55.400000000000006
 30
0.0
 11
25.499999999999972
 21
55.299999999999983
 31
0.0
  0
LINE
  5
346
100
AcDbEntity
  8
0
  6
CONTINUOUS
 62
               4
100
AcDbLine
 10
25.499999999999972
 20
55.5
 30
0.0
 11
25.399999999999949
 21
55.400000000000006
 31
0.0
  0
LINE
  5
347
100
AcDbEntity
  8
0
  6
CONTINUOUS
 62
               4
100
AcDbLine
 10
15.499999999999972
 20
55.299999999999997
 30
0.0
 11
15.499999999999972
 21
50.099991095859735
 31
0.0
  0
LINE
  5
348
100
AcDbEntity
  8
0
  6
CONTINUOUS
 62
               4
100
AcDbLine
 10
25.499999999999972
 20
55.299999999999983
 30
0.0
 11
25.499999999999972
 21
50.099990844726563
 31
0.0
  0
LINE
  5
349
100
AcDbEntity
  8
0
  6
CONTINUOUS
 62
             200
100
AcDbLine
 10
31.0
 20
49.429659917020103
 30
0.0
 11
31.0
 21
67.753570556640625
 31
0.0
  0
LINE
  5
34A
100
AcDbEntity
  8
0
  6
CONTINUOUS
 62
               7
100
AcDbLine
 10
26.0
 20
50.099990844726563
 30
0.0
 11
26.0
 21
26.5
 31
0.0
  0
LINE
  5
34B
100
AcDbEntity
  8
0
  6
CONTINUOUS
 62
               7
100
AcDbLine
 10
36.0
 20
50.099990844726563
 30
0.0
 11
36.0
 21
26.5
 31
0.0
  0
LINE
  5
34C
100
AcDbEntity
  8
0
  6
CONTINUOUS
 62
               7
100
AcDbLine
 10
26.0
 20
45.300003051757813
 30
0.0
 11
27.800002098083496
 21
45.300003051757813
 31
0.0
  0
LINE
  5
34D
100
AcDbEntity
  8
0
  6
CONTINUOUS
 62
               7
100
AcDbLine
 10
26.0
 20
42.100006103515625
 30
0.0
 11
27.800002098083496
 21
42.100006103515625
 31
0.0
  0
LINE
  5
34E
100
AcDbEntity
  8
0
  6
CONTINUOUS
 62
               7
100
AcDbLine
 10
32.59999942779541
 20
28.300003051757812
 30
0.0
 11
32.59999942779541
 21
26.5
 31
0.0
  0
LINE
  5
34F
100
AcDbEntity
  8
0
  6
CONTINUOUS
 62
               7
100
AcDbLine
 10
34.199999809265137
 20
29.900001525878906
 30
0.0
 11
36.0
 21
29.900001525878906
 31
0.0
  0
LINE
  5
350
100
AcDbEntity
  8
0
  6
CONTINUOUS
 62
               7
100
AcDbLine
 10
33.598965319601604
 20
27.698959964127368
 30
0.0
 11
34.801044770455093
 21
28.901039313653143
 31
0.0
  0
LINE
  5
351
100
AcDbEntity
  8
0
  6
CONTINUOUS
 62
               7
100
AcDbLine
 10
27.198965850550962
 20
43.098960844712565
 30
0.0
 11
28.401050696201423
 21
44.301045589034857
 31
0.0
  0
LINE
  5
352
100
AcDbEntity
  8
0
  6
CONTINUOUS
 62
               7
100
AcDbLine
 10
27.198958963755899
 20
44.301037227100323
 30
0.0
 11
28.401038414609388
 21
43.098957877574549
 31
0.0
  0
LINE
  5
353
100
AcDbEntity
  8
0
  6
CONTINUOUS
 62
               7
100
AcDbLine
 10
33.598960320985412
 20
28.901036295938923
 30
0.0
 11
34.801039518957793
 21
27.698957199294227
 31
0.0
  0
LINE
  5
354
100
AcDbEntity
  8
0
  6
CONTINUOUS
 62
               7
100
AcDbLine
 10
29.049996376037598
 20
51.5
 30
0.0
 11
32.949995994567871
 21
51.5
 31
0.0
  0
LINE
  5
355
100
AcDbEntity
  8
0
  6
CONTINUOUS
 62
               7
100
AcDbLine
 10
29.049996376037598
 20
51.5
 30
0.0
 11
29.049996376037598
 21
50.5
 31
0.0
  0
LINE
  5
356
100
AcDbEntity
  8
0
  6
CONTINUOUS
 62
               7
100
AcDbLine
 10
32.949995994567871
 20
51.5
 30
0.0
 11
32.949995994567871
 21
50.5
 31
0.0
  0
LINE
  5
357
100
AcDbEntity
  8
0
  6
CONTINUOUS
 62
               7
100
AcDbLine
 10
36.000000953674316
 20
50.5
 30
0.0
 11
26.000000953674316
 21
50.5
 31
0.0
  0
LINE
  5
358
100
AcDbEntity
  8
0
  6
CONTINUOUS
 62
               4
100
AcDbLine
 10
36.000000953674316
 20
51.099990844726562
 30
0.0
 11
32.949995994567871
 21
51.099990844726562
 31
0.0
  0
LINE
  5
359
100
AcDbEntity
  8
0
  6
CONTINUOUS
 62
               7
100
AcDbLine
 10
27.0
 20
50.5
 30
0.0
 11
27.0
 21
51.099990844726562
 31
0.0
  0
LINE
  5
35A
100
AcDbEntity
  8
0
  6
CONTINUOUS
 62
               7
100
AcDbLine
 10
35.0
 20
50.5
 30
0.0
 11
35.0
 21
51.099990844726562
 31
0.0
  0
LINE
  5
35B
100
AcDbEntity
  8
0
  6
CONTINUOUS
 62
               4
100
AcDbLine
 10
29.049996376037598
 20
51.099990844726562
 30
0.0
 11
26.000000953674316
 21
51.099990844726562
 31
0.0
  0
ARC
  5
35C
100
AcDbEntity
  8
0
  6
CONTINUOUS
 62
               7
100
AcDbCircle
 10
26.40000057220459
 20
26.900001525878906
 30
0.0
 40
0.3999999761581421
100
AcDbArc
 50
179.99998133066492
 51
270.00001798608872
  0
ARC
  5
35D
100
AcDbEntity
  8
0
  6
CONTINUOUS
 62
               7
100
AcDbCircle
 10
26.40000057220459
 20
50.099990844726563
 30
0.0
 40
0.3999999761581421
100
AcDbArc
 50
89.999982013910454
 51
179.99996402782091
  0
ARC
  5
35E
100
AcDbEntity
  8
0
  6
CONTINUOUS
 62
               7
100
AcDbCircle
 10
35.59999942779541
 20
50.099990844726563
 30
0.0
 40
0.3999999761581421
100
AcDbArc
 50
0.0
 51
89.999982013910454
  0
ARC
  5
35F
100
AcDbEntity
  8
0
  6
CONTINUOUS
 62
               7
100
AcDbCircle
 10
35.59999942779541
 20
26.900001525878906
 30
0.0
 40
0.3999999761581421
100
AcDbArc
 50
270.00001798608872
 51
0.0
  0
CIRCLE
  5
360
100
AcDbEntity
  8
0
  6
CONTINUOUS
 62
               7
100
AcDbCircle
 10
34.199999809265137
 20
28.300003051757812
 30
0.0
 40
1.25
  0
CIRCLE
  5
361
100
AcDbEntity
  8
0
  6
CONTINUOUS
 62
               7
100
AcDbCircle
 10
27.800000190734863
 20
43.699996948242187
 30
0.0
 40
1.25
  0
ARC
  5
362
100
AcDbEntity
  8
0
  6
CONTINUOUS
 62
               7
100
AcDbCircle
 10
34.199999809265137
 20
28.300003051757812
 30
0.0
 40
1.5999994277954102
100
AcDbArc
 50
89.999982013910454
 51
179.99996402782091
  0
ARC
  5
363
100
AcDbEntity
  8
0
  6
CONTINUOUS
 62
               7
100
AcDbCircle
 10
27.800002098083496
 20
43.699996948242187
 30
0.0
 40
1.5999984741210938
100
AcDbArc
 50
270.00001798608872
 51
89.999982013910454
  0
LINE
  5
364
100
AcDbEntity
  8
0
  6
CONTINUOUS
 62
               4
100
AcDbLine
 10
35.999999999999972
 20
55.299999999999997
 30
0.0
 11
25.999999999999972
 21
55.299999999999997
 31
0.0
  0
LINE
  5
365
100
AcDbEntity
  8
0
  6
CONTINUOUS
 62
               4
100
AcDbLine
 10
35.699999999999989
 20
67.0
 30
0.0
 11
26.300000011920901
 21
67.0
 31
0.0
  0
LINE
  5
366
100
AcDbEntity
  8
0
  6
CONTINUOUS
 62
               4
100
AcDbLine
 10
26.099999999999994
 20
66.799999999999997
 30
0.0
 11
26.099999999999994
 21
66.0
 31
0.0
  0
ARC
  5
367
100
AcDbEntity
  8
0
  6
CONTINUOUS
 62
               4
100
AcDbCircle
 10
26.299999999999983
 20
66.799999999999997
 30
0.0
 40
0.2
100
AcDbArc
 50
89.999999999999815
 51
179.99999999999963
  0
LINE
  5
368
100
AcDbEntity
  8
0
  6
CONTINUOUS
 62
               4
100
AcDbLine
 10
27.499999999999972
 20
66.0
 30
0.0
 11
27.499999999999972
 21
65.099999999999994
 31
0.0
  0
LINE
  5
369
100
AcDbEntity
  8
0
  6
CONTINUOUS
 62
               4
100
AcDbLine
 10
35.899999999999977
 20
66.0
 30
0.0
 11
26.099999994039507
 21
66.0
 31
0.0
  0
LINE
  5
36A
100
AcDbEntity
  8
0
  6
CONTINUOUS
 62
               4
100
AcDbLine
 10
25.999999999999972
 20
64.161879999999996
 30
0.0
 11
25.999999999999972
 21
60.200000000000003
 31
0.0
  0
ARC
  5
36B
100
AcDbEntity
  8
0
  6
CONTINUOUS
 62
               4
100
AcDbCircle
 10
35.699999999999989
 20
66.799999999999997
 30
0.0
 40
0.2
100
AcDbArc
 50
0.0
 51
89.999999999999815
  0
LINE
  5
36C
100
AcDbEntity
  8
0
  6
CONTINUOUS
 62
               4
100
AcDbLine
 10
35.899999999999977
 20
66.799999999999997
 30
0.0
 11
35.899999999999977
 21
66.0
 31
0.0
  0
LINE
  5
36D
100
AcDbEntity
  8
0
  6
CONTINUOUS
 62
               4
100
AcDbLine
 10
35.999999999999972
 20
59.099999999999994
 30
0.0
 11
35.999999999999972
 21
55.5
 31
0.0
  0
LINE
  5
36E
100
AcDbEntity
  8
0
  6
CONTINUOUS
 62
               4
100
AcDbLine
 10
25.999999999999972
 20
59.099999999999994
 30
0.0
 11
25.999999999999972
 21
55.5
 31
0.0
  0
LINE
  5
36F
100
AcDbEntity
  8
0
  6
CONTINUOUS
 62
               4
100
AcDbLine
 10
35.999999999999972
 20
59.099999999999994
 30
0.0
 11
25.999999999999972
 21
59.099999999999994
 31
0.0
  0
LINE
  5
370
100
AcDbEntity
  8
0
  6
CONTINUOUS
 62
               4
100
AcDbLine
 10
35.799999999999983
 20
59.299999999999997
 30
0.0
 11
26.199999999999989
 21
59.299999999999997
 31
0.0
  0
LINE
  5
371
100
AcDbEntity
  8
0
  6
CONTINUOUS
 62
               4
100
AcDbLine
 10
26.199999999999989
 20
59.299999999999997
 30
0.0
 11
25.999999999999972
 21
59.099999999999994
 31
0.0
  0
LINE
  5
372
100
AcDbEntity
  8
0
  6
CONTINUOUS
 62
               4
100
AcDbLine
 10
35.799999999999983
 20
59.299999999999997
 30
0.0
 11
35.999999999999972
 21
59.099999999999994
 31
0.0
  0
LINE
  5
373
100
AcDbEntity
  8
0
  6
CONTINUOUS
 62
               4
100
AcDbLine
 10
35.799999999999983
 20
60.0
 30
0.0
 11
26.199999999999989
 21
60.0
 31
0.0
  0
LINE
  5
374
100
AcDbEntity
  8
0
  6
CONTINUOUS
 62
               4
100
AcDbLine
 10
35.999999999999972
 20
60.200000000000003
 30
0.0
 11
25.999999999999972
 21
60.200000000000003
 31
0.0
  0
LINE
  5
375
100
AcDbEntity
  8
0
  6
CONTINUOUS
 62
               4
100
AcDbLine
 10
26.749999999999972
 20
60.0
 30
0.0
 11
26.749999999999972
 21
59.299999999999997
 31
0.0
  0
LINE
  5
376
100
AcDbEntity
  8
0
  6
CONTINUOUS
 62
               4
100
AcDbLine
 10
35.249999999999972
 20
59.299999999999997
 30
0.0
 11
35.249999999999972
 21
60.0
 31
0.0
  0
LINE
  5
377
100
AcDbEntity
  8
0
  6
CONTINUOUS
 62
               4
100
AcDbLine
 10
25.999999999999972
 20
60.200000000000003
 30
0.0
 11
26.199999999999989
 21
60.0
 31
0.0
  0
LINE
  5
378
100
AcDbEntity
  8
0
  6
CONTINUOUS
 62
               4
100
AcDbLine
 10
35.999999999999972
 20
60.200000000000003
 30
0.0
 11
35.799999999999983
 21
60.0
 31
0.0
  0
LINE
  5
379
100
AcDbEntity
  8
0
  6
CONTINUOUS
 62
               4
100
AcDbLine
 10
25.999999999999972
 20
64.161879999999996
 30
0.0
 11
26.066025199999984
 21
64.200000000000003
 31
0.0
  0
LINE
  5
37A
100
AcDbEntity
  8
0
  6
CONTINUOUS
 62
               4
100
AcDbLine
 10
26.066025499999995
 20
64.200000000000003
 30
0.0
 11
26.200000399999993
 21
64.700000000000003
 31
0.0
  0
LINE
  5
37B
100
AcDbEntity
  8
0
  6
CONTINUOUS
 62
               4
100
AcDbLine
 10
26.949999999999989
 20
64.700000000000003
 30
0.0
 11
26.949999999999989
 21
65.0
 31
0.0
  0
LINE
  5
37C
100
AcDbEntity
  8
0
  6
CONTINUOUS
 62
               4
100
AcDbLine
 10
26.949999999999989
 20
65.0
 30
0.0
 11
27.049999999999983
 21
65.099999999999994
 31
0.0
  0
LINE
  5
37D
100
AcDbEntity
  8
0
  6
CONTINUOUS
 62
               4
100
AcDbLine
 10
34.949999999999989
 20
65.099999999999994
 30
0.0
 11
27.049999999999983
 21
65.099999999999994
 31
0.0
  0
LINE
  5
37E
100
AcDbEntity
  8
0
  6
CONTINUOUS
 62
               4
100
AcDbLine
 10
35.799999599999978
 20
64.699999999999989
 30
0.0
 11
26.200000405311556
 21
64.700000000000003
 31
0.0
  0
LINE
  5
37F
100
AcDbEntity
  8
0
  6
CONTINUOUS
 62
               4
100
AcDbLine
 10
34.499999999999972
 20
66.0
 30
0.0
 11
34.499999999999972
 21
65.099999999999994
 31
0.0
  0
LINE
  5
380
100
AcDbEntity
  8
0
  6
CONTINUOUS
 62
               4
100
AcDbLine
 10
35.999999999999972
 20
64.161879999999996
 30
0.0
 11
35.999999999999972
 21
60.200000000000003
 31
0.0
  0
LINE
  5
381
100
AcDbEntity
  8
0
  6
CONTINUOUS
 62
               4
100
AcDbLine
 10
35.049999999999983
 20
65.0
 30
0.0
 11
34.949999999999989
 21
65.099999999999994
 31
0.0
  0
LINE
  5
382
100
AcDbEntity
  8
0
  6
CONTINUOUS
 62
               4
100
AcDbLine
 10
35.049999999999983
 20
64.699999999999989
 30
0.0
 11
35.049999999999983
 21
65.0
 31
0.0
  0
LINE
  5
383
100
AcDbEntity
  8
0
  6
CONTINUOUS
 62
               4
100
AcDbLine
 10
35.933974499999977
 20
64.199999999999989
 30
0.0
 11
35.799999599999978
 21
64.699999999999989
 31
0.0
  0
LINE
  5
384
100
AcDbEntity
  8
0
  6
CONTINUOUS
 62
               4
100
AcDbLine
 10
35.999999999999972
 20
64.161879999999996
 30
0.0
 11
35.933974799999987
 21
64.199999999999989
 31
0.0
  0
LINE
  5
385
100
AcDbEntity
  8
0
  6
CONTINUOUS
 62
               4
100
AcDbLine
 10
35.049999999999983
 20
65.0
 30
0.0
 11
26.949999999999989
 21
65.0
 31
0.0
  0
LINE
  5
386
100
AcDbEntity
  8
0
  6
CONTINUOUS
 62
               4
100
AcDbLine
 10
35.999999999999972
 20
64.161879999999996
 30
0.0
 11
25.999999999999972
 21
64.161879999999996
 31
0.0
  0
LINE
  5
387
100
AcDbEntity
  8
0
  6
CONTINUOUS
 62
               4
100
AcDbLine
 10
35.933974444866152
 20
64.200000204906019
 30
0.0
 11
26.066025555133791
 21
64.200000204906019
 31
0.0
  0
LINE
  5
388
100
AcDbEntity
  8
0
  6
CONTINUOUS
 62
               4
100
AcDbLine
 10
35.899999999999977
 20
55.400000000000006
 30
0.0
 11
26.099999999999966
 21
55.400000000000006
 31
0.0
  0
LINE
  5
389
100
AcDbEntity
  8
0
  6
CONTINUOUS
 62
               4
100
AcDbLine
 10
35.999999999999972
 20
55.5
 30
0.0
 11
25.999999999999972
 21
55.5
 31
0.0
  0
LINE
  5
38A
100
AcDbEntity
  8
0
  6
CONTINUOUS
 62
               4
100
AcDbLine
 10
25.999999999999972
 20
55.5
 30
0.0
 11
26.099999999999966
 21
55.400000000000006
 31
0.0
  0
LINE
  5
38B
100
AcDbEntity
  8
0
  6
CONTINUOUS
 62
               4
100
AcDbLine
 10
26.099999999999966
 20
55.400000000000006
 30
0.0
 11
25.999999999999972
 21
55.300000000000011
 31
0.0
  0
LINE
  5
38C
100
AcDbEntity
  8
0
  6
CONTINUOUS
 62
               4
100
AcDbLine
 10
35.899999999999977
 20
55.400000000000006
 30
0.0
 11
35.999999999999972
 21
55.299999999999983
 31
0.0
  0
LINE
  5
38D
100
AcDbEntity
  8
0
  6
CONTINUOUS
 62
               4
100
AcDbLine
 10
35.999999999999972
 20
55.5
 30
0.0
 11
35.899999999999949
 21
55.400000000000006
 31
0.0
  0
LINE
  5
38E
100
AcDbEntity
  8
0
  6
CONTINUOUS
 62
               4
100
AcDbLine
 10
25.999999999999972
 20
55.299999999999997
 30
0.0
 11
25.999999999999972
 21
50.099991095859735
 31
0.0
  0
LINE
  5
38F
100
AcDbEntity
  8
0
  6
CONTINUOUS
 62
               4
100
AcDbLine
 10
35.999999999999972
 20
55.299999999999983
 30
0.0
 11
35.999999999999972
 21
50.099990844726563
 31
0.0
  0
LINE
  5
390
100
AcDbEntity
  8
0
  6
CONTINUOUS
 62
               7
100
AcDbLine
 10
36.5
 20
26.5
 30
0.0
 11
46.5
 21
26.5
 31
0.0
  0
LINE
  5
391
100
AcDbEntity
  8
0
  6
CONTINUOUS
 62
               7
100
AcDbLine
 10
36.5
 20
26.5
 30
0.0
 11
36.5
 21
26.0
 31
0.0
  0
LINE
  5
392
100
AcDbEntity
  8
0
  6
CONTINUOUS
 62
               7
100
AcDbLine
 10
46.5
 20
26.5
 30
0.0
 11
46.5
 21
26.0
 31
0.0
  0
LINE
  5
393
100
AcDbEntity
  8
0
  6
CONTINUOUS
 62
               7
100
AcDbLine
 10
5.0
 20
26.5
 30
0.0
 11
15.0
 21
26.5
 31
0.0
  0
LINE
  5
394
100
AcDbEntity
  8
0
  6
CONTINUOUS
 62
               7
100
AcDbLine
 10
5.0
 20
26.5
 30
0.0
 11
5.0
 21
26.0
 31
0.0
  0
LINE
  5
395
100
AcDbEntity
  8
0
  6
CONTINUOUS
 62
               7
100
AcDbLine
 10
15.0
 20
26.5
 30
0.0
 11
15.0
 21
26.0
 31
0.0
  0
LINE
  5
396
100
AcDbEntity
  8
0
  6
CONTINUOUS
 62
               4
100
AcDbLine
 10
15.000007629394503
 20
55.299999999999997
 30
0.0
 11
5.0000076293945028
 21
55.299999999999997
 31
0.0
  0
LINE
  5
397
100
AcDbEntity
  8
0
  6
CONTINUOUS
 62
               4
100
AcDbLine
 10
14.70000762939452
 20
67.0
 30
0.0
 11
5.3000076413154318
 21
67.0
 31
0.0
  0
LINE
  5
398
100
AcDbEntity
  8
0
  6
CONTINUOUS
 62
               4
100
AcDbLine
 10
5.1000076293945256
 20
66.799999999999997
 30
0.0
 11
5.1000076293945256
 21
66.0
 31
0.0
  0
ARC
  5
399
100
AcDbEntity
  8
0
  6
CONTINUOUS
 62
               4
100
AcDbCircle
 10
5.3000076293945142
 20
66.799999999999997
 30
0.0
 40
0.2
100
AcDbArc
 50
89.999999999999815
 51
179.99999999999963
  0
LINE
  5
39A
100
AcDbEntity
  8
0
  6
CONTINUOUS
 62
               4
100
AcDbLine
 10
6.5000076293945028
 20
66.0
 30
0.0
 11
6.5000076293945028
 21
65.099999999999994
 31
0.0
  0
LINE
  5
39B
100
AcDbEntity
  8
0
  6
CONTINUOUS
 62
               4
100
AcDbLine
 10
14.900007629394509
 20
66.0
 30
0.0
 11
5.1000076234340384
 21
66.0
 31
0.0
  0
LINE
  5
39C
100
AcDbEntity
  8
0
  6
CONTINUOUS
 62
               4
100
AcDbLine
 10
5.0000076293945028
 20
64.161879999999996
 30
0.0
 11
5.0000076293945028
 21
60.200000000000003
 31
0.0
  0
ARC
  5
39D
100
AcDbEntity
  8
0
  6
CONTINUOUS
 62
               4
100
AcDbCircle
 10
14.70000762939452
 20
66.799999999999997
 30
0.0
 40
0.2
100
AcDbArc
 50
0.0
 51
89.999999999999815
  0
LINE
  5
39E
100
AcDbEntity
  8
0
  6
CONTINUOUS
 62
               4
100
AcDbLine
 10
14.900007629394509
 20
66.799999999999997
 30
0.0
 11
14.900007629394509
 21
66.0
 31
0.0
  0
LINE
  5
39F
100
AcDbEntity
  8
0
  6
CONTINUOUS
 62
               4
100
AcDbLine
 10
15.000007629394503
 20
59.099999999999994
 30
0.0
 11
15.000007629394503
 21
55.5
 31
0.0
  0
LINE
  5
3A0
100
AcDbEntity
  8
0
  6
CONTINUOUS
 62
               4
100
AcDbLine
 10
5.0000076293945028
 20
59.099999999999994
 30
0.0
 11
5.0000076293945028
 21
55.5
 31
0.0
  0
LINE
  5
3A1
100
AcDbEntity
  8
0
  6
CONTINUOUS
 62
               4
100
AcDbLine
 10
15.000007629394503
 20
59.099999999999994
 30
0.0
 11
5.0000076293945028
 21
59.099999999999994
 31
0.0
  0
LINE
  5
3A2
100
AcDbEntity
  8
0
  6
CONTINUOUS
 62
               4
100
AcDbLine
 10
14.800007629394514
 20
59.299999999999997
 30
0.0
 11
5.2000076293945199
 21
59.299999999999997
 31
0.0
  0
LINE
  5
3A3
100
AcDbEntity
  8
0
  6
CONTINUOUS
 62
               4
100
AcDbLine
 10
5.2000076293945199
 20
59.299999999999997
 30
0.0
 11
5.0000076293945028
 21
59.099999999999994
 31
0.0
  0
LINE
  5
3A4
100
AcDbEntity
  8
0
  6
CONTINUOUS
 62
               4
100
AcDbLine
 10
14.800007629394514
 20
59.299999999999997
 30
0.0
 11
15.000007629394503
 21
59.099999999999994
 31
0.0
  0
LINE
  5
3A5
100
AcDbEntity
  8
0
  6
CONTINUOUS
 62
               4
100
AcDbLine
 10
14.800007629394514
 20
60.0
 30
0.0
 11
5.2000076293945199
 21
60.0
 31
0.0
  0
LINE
  5
3A6
100
AcDbEntity
  8
0
  6
CONTINUOUS
 62
               4
100
AcDbLine
 10
15.000007629394503
 20
60.200000000000003
 30
0.0
 11
5.0000076293945028
 21
60.200000000000003
 31
0.0
  0
LINE
  5
3A7
100
AcDbEntity
  8
0
  6
CONTINUOUS
 62
               4
100
AcDbLine
 10
5.7500076293945028
 20
60.0
 30
0.0
 11
5.7500076293945028
 21
59.299999999999997
 31
0.0
  0
LINE
  5
3A8
100
AcDbEntity
  8
0
  6
CONTINUOUS
 62
               4
100
AcDbLine
 10
14.250007629394503
 20
59.299999999999997
 30
0.0
 11
14.250007629394503
 21
60.0
 31
0.0
  0
LINE
  5
3A9
100
AcDbEntity
  8
0
  6
CONTINUOUS
 62
               4
100
AcDbLine
 10
5.0000076293945028
 20
60.200000000000003
 30
0.0
 11
5.2000076293945199
 21
60.0
 31
0.0
  0
LINE
  5
3AA
100
AcDbEntity
  8
0
  6
CONTINUOUS
 62
               4
100
AcDbLine
 10
15.000007629394503
 20
60.200000000000003
 30
0.0
 11
14.800007629394514
 21
60.0
 31
0.0
  0
LINE
  5
3AB
100
AcDbEntity
  8
0
  6
CONTINUOUS
 62
               4
100
AcDbLine
 10
5.0000076293945028
 20
64.161879999999996
 30
0.0
 11
5.0660328293945156
 21
64.200000000000003
 31
0.0
  0
LINE
  5
3AC
100
AcDbEntity
  8
0
  6
CONTINUOUS
 62
               4
100
AcDbLine
 10
5.0660331293945262
 20
64.200000000000003
 30
0.0
 11
5.2000080293945246
 21
64.700000000000003
 31
0.0
  0
LINE
  5
3AD
100
AcDbEntity
  8
0
  6
CONTINUOUS
 62
               4
100
AcDbLine
 10
5.9500076293945199
 20
64.700000000000003
 30
0.0
 11
5.9500076293945199
 21
65.0
 31
0.0
  0
LINE
  5
3AE
100
AcDbEntity
  8
0
  6
CONTINUOUS
 62
               4
100
AcDbLine
 10
5.9500076293945199
 20
65.0
 30
0.0
 11
6.0500076293945142
 21
65.099999999999994
 31
0.0
  0
LINE
  5
3AF
100
AcDbEntity
  8
0
  6
CONTINUOUS
 62
               4
100
AcDbLine
 10
13.95000762939452
 20
65.099999999999994
 30
0.0
 11
6.0500076293945142
 21
65.099999999999994
 31
0.0
  0
LINE
  5
3B0
100
AcDbEntity
  8
0
  6
CONTINUOUS
 62
               4
100
AcDbLine
 10
14.80000722939451
 20
64.699999999999989
 30
0.0
 11
5.2000080347060873
 21
64.700000000000003
 31
0.0
  0
LINE
  5
3B1
100
AcDbEntity
  8
0
  6
CONTINUOUS
 62
               4
100
AcDbLine
 10
13.500007629394503
 20
66.0
 30
0.0
 11
13.500007629394503
 21
65.099999999999994
 31
0.0
  0
LINE
  5
3B2
100
AcDbEntity
  8
0
  6
CONTINUOUS
 62
               4
100
AcDbLine
 10
15.000007629394503
 20
64.161879999999996
 30
0.0
 11
15.000007629394503
 21
60.200000000000003
 31
0.0
  0
LINE
  5
3B3
100
AcDbEntity
  8
0
  6
CONTINUOUS
 62
               4
100
AcDbLine
 10
14.050007629394514
 20
65.0
 30
0.0
 11
13.95000762939452
 21
65.099999999999994
 31
0.0
  0
LINE
  5
3B4
100
AcDbEntity
  8
0
  6
CONTINUOUS
 62
               4
100
AcDbLine
 10
14.050007629394514
 20
64.699999999999989
 30
0.0
 11
14.050007629394514
 21
65.0
 31
0.0
  0
LINE
  5
3B5
100
AcDbEntity
  8
0
  6
CONTINUOUS
 62
               4
100
AcDbLine
 10
14.933982129394508
 20
64.199999999999989
 30
0.0
 11
14.80000722939451
 21
64.699999999999989
 31
0.0
  0
LINE
  5
3B6
100
AcDbEntity
  8
0
  6
CONTINUOUS
 62
               4
100
AcDbLine
 10
15.000007629394503
 20
64.161879999999996
 30
0.0
 11
14.933982429394518
 21
64.199999999999989
 31
0.0
  0
LINE
  5
3B7
100
AcDbEntity
  8
0
  6
CONTINUOUS
 62
               4
100
AcDbLine
 10
14.050007629394514
 20
65.0
 30
0.0
 11
5.9500076293945199
 21
65.0
 31
0.0
  0
LINE
  5
3B8
100
AcDbEntity
  8
0
  6
CONTINUOUS
 62
               4
100
AcDbLine
 10
15.000007629394503
 20
64.161879999999996
 30
0.0
 11
5.0000076293945028
 21
64.161879999999996
 31
0.0
  0
LINE
  5
3B9
100
AcDbEntity
  8
0
  6
CONTINUOUS
 62
               4
100
AcDbLine
 10
14.933982074260683
 20
64.200000204906019
 30
0.0
 11
5.0660331845283224
 21
64.200000204906019
 31
0.0
  0
LINE
  5
3BA
100
AcDbEntity
  8
0
  6
CONTINUOUS
 62
               4
100
AcDbLine
 10
14.900007629394509
 20
55.400000000000006
 30
0.0
 11
5.1000076293944971
 21
55.400000000000006
 31
0.0
  0
LINE
  5
3BB
100
AcDbEntity
  8
0
  6
CONTINUOUS
 62
               4
100
AcDbLine
 10
15.000007629394503
 20
55.5
 30
0.0
 11
5.0000076293945028
 21
55.5
 31
0.0
  0
LINE
  5
3BC
100
AcDbEntity
  8
0
  6
CONTINUOUS
 62
               4
100
AcDbLine
 10
5.0000076293945028
 20
55.5
 30
0.0
 11
5.1000076293944971
 21
55.400000000000006
 31
0.0
  0
LINE
  5
3BD
100
AcDbEntity
  8
0
  6
CONTINUOUS
 62
               4
100
AcDbLine
 10
5.1000076293944971
 20
55.400000000000006
 30
0.0
 11
5.0000076293945028
 21
55.300000000000011
 31
0.0
  0
LINE
  5
3BE
100
AcDbEntity
  8
0
  6
CONTINUOUS
 62
               4
100
AcDbLine
 10
14.900007629394509
 20
55.400000000000006
 30
0.0
 11
15.000007629394503
 21
55.299999999999983
 31
0.0
  0
LINE
  5
3BF
100
AcDbEntity
  8
0
  6
CONTINUOUS
 62
               4
100
AcDbLine
 10
15.000007629394503
 20
55.5
 30
0.0
 11
14.90000762939448
 21
55.400000000000006
 31
0.0
  0
LINE
  5
3C0
100
AcDbEntity
  8
0
  6
CONTINUOUS
 62
               4
100
AcDbLine
 10
5.0000076293945028
 20
55.299999999999997
 30
0.0
 11
5.0000076293945028
 21
50.100006354648798
 31
0.0
  0
LINE
  5
3C1
100
AcDbEntity
  8
0
  6
CONTINUOUS
 62
               4
100
AcDbLine
 10
15.000007629394503
 20
55.299999999999983
 30
0.0
 11
15.000007629394503
 21
50.100006103515625
 31
0.0
  0
ARC
  5
3C2
100
AcDbEntity
  8
0
  6
CONTINUOUS
 62
               7
100
AcDbCircle
 10
6.8000030517578125
 20
43.70001220703125
 30
0.0
 40
1.5999984741210938
100
AcDbArc
 50
270.00001798608872
 51
89.999982013910454
  0
ARC
  5
3C3
100
AcDbEntity
  8
0
  6
CONTINUOUS
 62
               7
100
AcDbCircle
 10
13.199996948242188
 20
28.300003051757812
 30
0.0
 40
1.5999994277954102
100
AcDbArc
 50
89.999982013910454
 51
179.99996402782091
  0
CIRCLE
  5
3C4
100
AcDbEntity
  8
0
  6
CONTINUOUS
 62
               7
100
AcDbCircle
 10
6.8000030517578125
 20
43.70001220703125
 30
0.0
 40
1.25
  0
CIRCLE
  5
3C5
100
AcDbEntity
  8
0
  6
CONTINUOUS
 62
               7
100
AcDbCircle
 10
13.199996948242188
 20
28.300003051757812
 30
0.0
 40
1.25
  0
ARC
  5
3C6
100
AcDbEntity
  8
0
  6
CONTINUOUS
 62
               7
100
AcDbCircle
 10
14.600006103515625
 20
26.900009155273437
 30
0.0
 40
0.3999999761581421
100
AcDbArc
 50
270.00001798608872
 51
0.0
  0
ARC
  5
3C7
100
AcDbEntity
  8
0
  6
CONTINUOUS
 62
               7
100
AcDbCircle
 10
14.600006103515625
 20
50.100006103515625
 30
0.0
 40
0.3999999761581421
100
AcDbArc
 50
0.0
 51
89.999982013910454
  0
ARC
  5
3C8
100
AcDbEntity
  8
0
  6
CONTINUOUS
 62
               7
100
AcDbCircle
 10
5.399993896484375
 20
50.100006103515625
 30
0.0
 40
0.3999999761581421
100
AcDbArc
 50
89.999982013910454
 51
179.99996402782091
  0
ARC
  5
3C9
100
AcDbEntity
  8
0
  6
CONTINUOUS
 62
               7
100
AcDbCircle
 10
5.399993896484375
 20
26.900009155273437
 30
0.0
 40
0.3999999761581421
100
AcDbArc
 50
179.99998133066492
 51
270.00001798608872
  0
ARC
  5
3CA
100
AcDbEntity
  8
0
  6
CONTINUOUS
 62
               4
100
AcDbCircle
 10
46.050003051757813
 20
28.100006103515625
 30
0.0
 40
0.5
100
AcDbArc
 50
0.0
 51
89.999982013910454
  0
ARC
  5
3CB
100
AcDbEntity
  8
0
  6
CONTINUOUS
 62
               4
100
AcDbCircle
 10
44.550003051757813
 20
28.100006103515625
 30
0.0
 40
0.5
100
AcDbArc
 50
89.999982013910454
 51
179.99996402782091
  0
ARC
  5
3CC
100
AcDbEntity
  8
0
  6
CONTINUOUS
 62
               4
100
AcDbCircle
 10
38.449996948242188
 20
28.100006103515625
 30
0.0
 40
0.5
100
AcDbArc
 50
0.0
 51
89.999982013910454
  0
ARC
  5
3CD
100
AcDbEntity
  8
0
  6
CONTINUOUS
 62
               4
100
AcDbCircle
 10
36.949996948242188
 20
28.100006103515625
 30
0.0
 40
0.5
100
AcDbArc
 50
89.999982013910454
 51
179.99996402782091
  0
LINE
  5
3CE
100
AcDbEntity
  8
0
  6
CONTINUOUS
 62
               7
100
AcDbLine
 10
5.0
 20
26.900009155273437
 30
0.0
 11
5.0
 21
50.100006354648798
 31
0.0
  0
LINE
  5
3CF
100
AcDbEntity
  8
0
  6
CONTINUOUS
 62
               7
100
AcDbLine
 10
15.0
 20
26.900009155273437
 30
0.0
 11
15.0
 21
50.100006103515625
 31
0.0
  0
LINE
  5
3D0
100
AcDbEntity
  8
0
  6
CONTINUOUS
 62
               7
100
AcDbLine
 10
15.0
 20
51.100006103515625
 30
0.0
 11
5.0
 21
51.100006103515625
 31
0.0
  0
LINE
  5
3D1
100
AcDbEntity
  8
0
  6
CONTINUOUS
 62
               7
100
AcDbLine
 10
15.0
 20
50.5
 30
0.0
 11
5.0
 21
50.5
 31
0.0
  0
LINE
  5
3D2
100
AcDbEntity
  8
0
  6
CONTINUOUS
 62
             200
100
AcDbLine
 10
10.0
 20
49.429659917020103
 30
0.0
 11
10.0
 21
67.601150512695312
 31
0.0
  0
LINE
  5
3D3
100
AcDbEntity
  8
0
  6
CONTINUOUS
 62
               7
100
AcDbLine
 10
5.3999917614291917
 20
51.500019634595446
 30
0.0
 11
4.9999898869464232
 21
51.100016343969401
 31
0.0
  0
LINE
  5
3D4
100
AcDbEntity
  8
0
  6
CONTINUOUS
 62
               7
100
AcDbLine
 10
14.999990446396623
 20
51.099996535080209
 30
0.0
 11
14.599987391794457
 21
51.499998645586857
 31
0.0
  0
LINE
  5
3D5
100
AcDbEntity
  8
0
  6
CONTINUOUS
 62
               7
100
AcDbLine
 10
5.399993896484375
 20
51.5
 30
0.0
 11
14.600006103515625
 21
51.5
 31
0.0
  0
LINE
  5
3D6
100
AcDbEntity
  8
0
  6
CONTINUOUS
 62
               7
100
AcDbLine
 10
12.598961803759266
 20
28.901037635205284
 30
0.0
 11
13.801052044206699
 21
27.698947496086475
 31
0.0
  0
LINE
  5
3D7
100
AcDbEntity
  8
0
  6
CONTINUOUS
 62
               7
100
AcDbLine
 10
6.1989627224602373
 20
44.301024152144237
 30
0.0
 11
7.4010421733137264
 21
43.098944802618462
 31
0.0
  0
LINE
  5
3D8
100
AcDbEntity
  8
0
  6
CONTINUOUS
 62
               7
100
AcDbLine
 10
6.1989776171558333
 20
43.098943217896704
 30
0.0
 11
7.4010570680093224
 21
44.301022567422478
 31
0.0
  0
LINE
  5
3D9
100
AcDbEntity
  8
0
  6
CONTINUOUS
 62
               7
100
AcDbLine
 10
12.598964610739131
 20
27.698945371885202
 30
0.0
 11
13.80104406159262
 21
28.901024721410977
 31
0.0
  0
LINE
  5
3DA
100
AcDbEntity
  8
0
  6
CONTINUOUS
 62
               7
100
AcDbLine
 10
13.199996948242188
 20
29.900009155273438
 30
0.0
 11
15.0
 21
29.900009155273438
 31
0.0
  0
LINE
  5
3DB
100
AcDbEntity
  8
0
  6
CONTINUOUS
 62
               7
100
AcDbLine
 10
11.600006103515625
 20
28.300003051757812
 30
0.0
 11
11.600006103515625
 21
26.5
 31
0.0
  0
LINE
  5
3DC
100
AcDbEntity
  8
0
  6
CONTINUOUS
 62
               7
100
AcDbLine
 10
5.0
 20
42.100006103515625
 30
0.0
 11
6.8000030517578125
 21
42.100006103515625
 31
0.0
  0
LINE
  5
3DD
100
AcDbEntity
  8
0
  6
CONTINUOUS
 62
               7
100
AcDbLine
 10
5.0
 20
45.300003051757813
 30
0.0
 11
6.8000030517578125
 21
45.300003051757813
 31
0.0
  0
LINE
  5
3DE
100
AcDbEntity
  8
0
  6
CONTINUOUS
 62
               2
100
AcDbLine
 10
10.0
 20
24.52545166015625
 30
0.0
 11
10.0
 21
49.429659917020103
 31
0.0
  0
LINE
  5
3DF
100
AcDbEntity
  8
0
  6
CONTINUOUS
 62
               7
100
AcDbLine
 10
60.5
 20
26.0
 30
0.0
 11
60.5
 21
0.0
 31
0.0
  0
LINE
  5
3E0
100
AcDbEntity
  8
0
  6
CONTINUOUS
 62
               7
100
AcDbLine
 10
-9.0
 20
26.0
 30
0.0
 11
-9.0
 21
0.0
 31
0.0
  0
LINE
  5
3E1
100
AcDbEntity
  8
0
  6
CONTINUOUS
 62
               7
100
AcDbLine
 10
-9.0
 20
21.0
 30
0.0
 11
60.5
 21
21.0
 31
0.0
  0
LINE
  5
3E2
100
AcDbEntity
  8
0
  6
CONTINUOUS
 62
               7
100
AcDbLine
 10
-9.0
 20
0.0
 30
0.0
 11
60.5
 21
0.0
 31
0.0
  0
LINE
  5
3E3
100
AcDbEntity
  8
0
  6
CONTINUOUS
 62
               4
100
AcDbLine
 10
46.050003051757813
 20
28.600006103515625
 30
0.0
 11
44.550003051757813
 21
28.600006103515625
 31
0.0
  0
LINE
  5
3E4
100
AcDbEntity
  8
0
  6
CONTINUOUS
 62
               4
100
AcDbLine
 10
36.949996948242188
 20
28.600006103515625
 30
0.0
 11
38.449996948242188
 21
28.600006103515625
 31
0.0
  0
LINE
  5
3E5
100
AcDbEntity
  8
0
  6
CONTINUOUS
 62
               4
100
AcDbLine
 10
46.5
 20
28.100006103515625
 30
0.0
 11
46.5
 21
26.0
 31
0.0
  0
LINE
  5
3E6
100
AcDbEntity
  8
0
  6
CONTINUOUS
 62
               4
100
AcDbLine
 10
36.5
 20
28.100006103515625
 30
0.0
 11
36.5
 21
26.0
 31
0.0
  0
LINE
  5
3E7
100
AcDbEntity
  8
0
  6
CONTINUOUS
 62
             200
100
AcDbLine
 10
41.5
 20
29.533172607421875
 30
0.0
 11
41.5
 21
26.0
 31
0.0
  0
LINE
  5
3E8
100
AcDbEntity
  8
0
  6
CONTINUOUS
 62
               4
100
AcDbLine
 10
36.449996948242188
 20
28.100006103515625
 30
0.0
 11
46.550003051757813
 21
28.100006103515625
 31
0.0
  0
LINE
  5
3E9
100
AcDbEntity
  8
0
  6
CONTINUOUS
 62
               7
100
AcDbLine
 10
-9.0
 20
26.0
 30
0.0
 11
60.5
 21
26.0
 31
0.0
  0
ENDBLK
  5
3EA
100
AcDbEntity
  8
0
100
AcDbBlockEnd
  0
BLOCK
  5
3EB
100
AcDbEntity
  8
0
100
AcDbBlockBegin
  2
F10MF-4
 70
               0
 10
0.0
 20
0.0
 30
0.0
  3
F10MF-4
  1

  0
LINE
  5
3EC
100
AcDbEntity
  8
0
  6
CONTINUOUS
 62
             200
100
AcDbLine
 10
3.0
 20
-30.75
 30
0.0
 11
3.0
 21
4.3399999999999999
 31
0.0
  0
LINE
  5
3ED
100
AcDbEntity
  8
0
  6
CONTINUOUS
 62
               4
100
AcDbLine
 10
8.0
 20
-28.800000000000001
 30
0.0
 11
8.0
 21
-1.8
 31
0.0
  0
LINE
  5
3EE
100
AcDbEntity
  8
0
  6
CONTINUOUS
 62
               4
100
AcDbLine
 10
-2.0
 20
-24.199999999999999
 30
0.0
 11
-2.0
 21
2.7999999999999998
 31
0.0
  0
LINE
  5
3EF
100
AcDbEntity
  8
0
  6
CONTINUOUS
 62
               4
100
AcDbLine
 10
0.8
 20
-28.800000000000001
 30
0.0
 11
8.0
 21
-28.800000000000001
 31
0.0
  0
LINE
  5
3F0
100
AcDbEntity
  8
0
  6
CONTINUOUS
 62
               4
100
AcDbLine
 10
-2.0
 20
2.7999999999999998
 30
0.0
 11
5.2000000000000002
 21
2.7999999999999998
 31
0.0
  0
LINE
  5
3F1
100
AcDbEntity
  8
0
  6
CONTINUOUS
 62
               4
100
AcDbLine
 10
5.2000000000000002
 20
-0.2
 30
0.0
 11
5.2000000000000002
 21
2.7999999999999998
 31
0.0
  0
LINE
  5
3F2
100
AcDbEntity
  8
0
  6
CONTINUOUS
 62
               4
100
AcDbLine
 10
0.8
 20
-25.800000000000001
 30
0.0
 11
0.8
 21
-28.800000000000001
 31
0.0
  0
LINE
  5
3F3
100
AcDbEntity
  8
0
  6
CONTINUOUS
 62
               4
100
AcDbLine
 10
-0.8
 20
-24.199999999999999
 30
0.0
 11
-2.0
 21
-24.199999999999999
 31
0.0
  0
LINE
  5
3F4
100
AcDbEntity
  8
0
  6
CONTINUOUS
 62
               4
100
AcDbLine
 10
6.7999999999999998
 20
-1.8
 30
0.0
 11
8.0
 21
-1.8
 31
0.0
  0
LINE
  5
3F5
100
AcDbEntity
  8
0
  6
CONTINUOUS
 62
               4
100
AcDbLine
 10
5.3899999999999997
 20
-26.600000000000001
 30
0.0
 11
6.5999999999999996
 21
-25.390000000000001
 31
0.0
  0
LINE
  5
3F6
100
AcDbEntity
  8
0
  6
CONTINUOUS
 62
               4
100
AcDbLine
 10
5.3899999999999997
 20
-25.390000000000001
 30
0.0
 11
6.5999999999999996
 21
-26.600000000000001
 31
0.0
  0
LINE
  5
3F7
100
AcDbEntity
  8
0
  6
CONTINUOUS
 62
             200
100
AcDbLine
 10
0.0
 20
-18.899999999999999
 30
0.0
 11
6.0
 21
-18.899999999999999
 31
0.0
  0
LINE
  5
3F8
100
AcDbEntity
  8
0
  6
CONTINUOUS
 62
             200
100
AcDbLine
 10
0.0
 20
-7.0999999999999996
 30
0.0
 11
6.0
 21
-7.0999999999999996
 31
0.0
  0
LINE
  5
3F9
100
AcDbEntity
  8
0
  6
CONTINUOUS
 62
               4
100
AcDbLine
 10
-0.6
 20
0.6
 30
0.0
 11
0.6
 21
-0.6
 31
0.0
  0
LINE
  5
3FA
100
AcDbEntity
  8
0
  6
CONTINUOUS
 62
               4
100
AcDbLine
 10
-0.6
 20
-0.6
 30
0.0
 11
0.6
 21
0.6
 31
0.0
  0
LINE
  5
3FB
100
AcDbEntity
  8
0
  6
CONTINUOUS
 62
               4
100
AcDbLine
 10
6.1900000000000004
 20
-0.8
 30
0.0
 11
7.4000000000000004
 21
0.4
 31
0.0
  0
LINE
  5
3FC
100
AcDbEntity
  8
0
  6
CONTINUOUS
 62
               4
100
AcDbLine
 10
6.1900000000000004
 20
0.4
 30
0.0
 11
7.4000000000000004
 21
-0.8
 31
0.0
  0
LINE
  5
3FD
100
AcDbEntity
  8
0
  6
CONTINUOUS
 62
               4
100
AcDbLine
 10
-0.19
 20
-25.190000000000001
 30
0.0
 11
-1.3999999999999999
 21
-26.399999999999999
 31
0.0
  0
LINE
  5
3FE
100
AcDbEntity
  8
0
  6
CONTINUOUS
 62
               4
100
AcDbLine
 10
-0.19
 20
-26.399999999999999
 30
0.0
 11
-1.3999999999999999
 21
-25.190000000000001
 31
0.0
  0
ARC
  5
3FF
100
AcDbEntity
  8
0
  6
CONTINUOUS
 62
               4
100
AcDbCircle
 10
6.79998779296875
 20
-0.2000122070312504
 30
0.0
 40
1.5999877930153164
100
AcDbArc
 50
179.99956286455765
 51
270.0004371354413
  0
ARC
  5
400
100
AcDbEntity
  8
0
  6
CONTINUOUS
 62
               4
100
AcDbCircle
 10
-0.7999954223814716
 20
-25.799995422381471
 30
0.0
 40
1.5999954223880197
100
AcDbArc
 50
359.9998360756415
 51
90.000163924357494
  0
CIRCLE
  5
401
100
AcDbEntity
  8
0
  6
CONTINUOUS
 62
               4
100
AcDbCircle
 10
6.0
 20
-26.0
 30
0.0
 40
1.25
  0
CIRCLE
  5
402
100
AcDbEntity
  8
0
  6
CONTINUOUS
 62
               4
100
AcDbCircle
 10
0.0
 20
0.0
 30
0.0
 40
1.25
  0
CIRCLE
  5
403
100
AcDbEntity
  8
0
  6
CONTINUOUS
 62
             200
100
AcDbCircle
 10
3.0
 20
-7.0999908447265625
 30
0.0
 40
2.5
  0
CIRCLE
  5
404
100
AcDbEntity
  8
0
  6
CONTINUOUS
 62
             200
100
AcDbCircle
 10
3.0
 20
-18.899993896484375
 30
0.0
 40
2.5
  0
CIRCLE
  5
405
100
AcDbEntity
  8
0
  6
CONTINUOUS
 62
               4
100
AcDbCircle
 10
3.0
 20
-18.899993896484375
 30
0.0
 40
2.0999994277954102
  0
CIRCLE
  5
406
100
AcDbEntity
  8
0
  6
CONTINUOUS
 62
               4
100
AcDbCircle
 10
3.0
 20
-7.0999908447265625
 30
0.0
 40
2.0999994277954102
  0
CIRCLE
  5
407
100
AcDbEntity
  8
0
  6
CONTINUOUS
 62
               4
100
AcDbCircle
 10
6.79998779296875
 20
-0.1999969482421875
 30
0.0
 40
1.25
  0
CIRCLE
  5
408
100
AcDbEntity
  8
0
  6
CONTINUOUS
 62
               4
100
AcDbCircle
 10
-0.79998779296875
 20
-25.79998779296875
 30
0.0
 40
1.25
  0
ENDBLK
  5
409
100
AcDbEntity
  8
0
100
AcDbBlockEnd
  0
BLOCK
  5
40A
100
AcDbEntity
  8
0
100
AcDbBlockBegin
  2
F10MF-5
 70
               0
 10
0.0
 20
0.0
 30
0.0
  3
F10MF-5
  1

  0
LINE
  5
40B
100
AcDbEntity
  8
0
  6
CONTINUOUS
 62
               4
100
AcDbLine
 10
5.0
 20
2.3999999999999999
 30
0.0
 11
5.0
 21
-28.399999999999999
 31
0.0
  0
LINE
  5
40C
100
AcDbEntity
  8
0
  6
CONTINUOUS
 62
               4
100
AcDbLine
 10
4.5999999999999996
 20
2.7999999999999998
 30
0.0
 11
0.0
 21
2.7999999999999998
 31
0.0
  0
LINE
  5
40D
100
AcDbEntity
  8
0
  6
CONTINUOUS
 62
               4
100
AcDbLine
 10
4.5999999999999996
 20
-28.800000000000001
 30
0.0
 11
0.0
 21
-28.800000000000001
 31
0.0
  0
LINE
  5
40E
100
AcDbEntity
  8
0
  6
CONTINUOUS
 62
               4
100
AcDbLine
 10
5.0
 20
-24.199999999999999
 30
0.0
 11
0.0
 21
-24.199999999999999
 31
0.0
  0
LINE
  5
40F
100
AcDbEntity
  8
0
  6
CONTINUOUS
 62
             200
100
AcDbLine
 10
-1.8700000000000001
 20
-7.0999999999999996
 30
0.0
 11
7.5
 21
-7.0999999999999996
 31
0.0
  0
LINE
  5
410
100
AcDbEntity
  8
0
  6
CONTINUOUS
 62
             200
100
AcDbLine
 10
-1.8700000000000001
 20
-18.899999999999999
 30
0.0
 11
7.5
 21
-18.899999999999999
 31
0.0
  0
LINE
  5
411
100
AcDbEntity
  8
0
  6
CONTINUOUS
 62
               4
100
AcDbLine
 10
0.5
 20
-25.050000000000001
 30
0.0
 11
0.5
 21
-26.550000000000001
 31
0.0
  0
ARC
  5
412
100
AcDbEntity
  8
0
  6
CONTINUOUS
 62
               4
100
AcDbCircle
 10
4.5999999999534333
 20
-28.399999999953437
 30
0.0
 40
0.4000000000465664
100
AcDbArc
 50
270.0000000066695
 51
359.99999999332977
  0
ARC
  5
413
100
AcDbEntity
  8
0
  6
CONTINUOUS
 62
               4
100
AcDbCircle
 10
4.5999985694175738
 20
2.3999985694175732
 30
0.0
 40
0.4000014305849847
100
AcDbArc
 50
0.0002049151053741
 51
89.999795084894558
  0
ARC
  5
414
100
AcDbEntity
  8
0
  6
CONTINUOUS
 62
               4
100
AcDbCircle
 10
-0.0000061035528781
 20
-26.549993896447123
 30
0.0
 40
0.5000061035901311
100
AcDbArc
 50
270.00069940710154
 51
359.99930059289716
  0
ARC
  5
415
100
AcDbEntity
  8
0
  6
CONTINUOUS
 62
               4
100
AcDbCircle
 10
0.0000061034783725
 20
-25.049993896521627
 30
0.0
 40
0.4999938965588804
100
AcDbArc
 50
359.99930058435922
 51
90.000699415639716
  0
ENDBLK
  5
416
100
AcDbEntity
  8
0
100
AcDbBlockEnd
  0
BLOCK
  5
417
100
AcDbEntity
  8
0
100
AcDbBlockBegin
  2
F10MF-6
 70
               0
 10
0.0
 20
0.0
 30
0.0
  3
F10MF-6
  1

  0
LINE
  5
418
100
AcDbEntity
  8
0
  6
CONTINUOUS
 62
               4
100
AcDbLine
 10
-1.55
 20
0.5
 30
0.0
 11
-0.05
 21
0.5
 31
0.0
  0
LINE
  5
419
100
AcDbEntity
  8
0
  6
CONTINUOUS
 62
               4
100
AcDbLine
 10
-2.0
 20
4.5999999999999996
 30
0.0
 11
-2.0
 21
0.0
 31
0.0
  0
LINE
  5
41A
100
AcDbEntity
  8
0
  6
CONTINUOUS
 62
               4
100
AcDbLine
 10
0.8
 20
5.0
 30
0.0
 11
0.8
 21
0.0
 31
0.0
  0
LINE
  5
41B
100
AcDbEntity
  8
0
  6
CONTINUOUS
 62
               4
100
AcDbLine
 10
8.0
 20
4.5999999999999996
 30
0.0
 11
8.0
 21
0.0
 31
0.0
  0
LINE
  5
41C
100
AcDbEntity
  8
0
  6
CONTINUOUS
 62
             200
100
AcDbLine
 10
3.0
 20
7.9400000000000004
 30
0.0
 11
3.0
 21
-2.9700000000000002
 31
0.0
  0
LINE
  5
41D
100
AcDbEntity
  8
0
  6
CONTINUOUS
 62
               4
100
AcDbLine
 10
-1.6000000000000001
 20
5.0
 30
0.0
 11
7.5999999999999996
 21
5.0
 31
0.0
  0
ARC
  5
41E
100
AcDbEntity
  8
0
  6
CONTINUOUS
 62
               4
100
AcDbCircle
 10
-1.5500015258765778
 20
0.000001525876578
 30
0.0
 40
0.4999984741257503
100
AcDbArc
 50
89.999825146890259
 51
180.00017485310914
  0
ARC
  5
41F
100
AcDbEntity
  8
0
  6
CONTINUOUS
 62
               4
100
AcDbCircle
 10
-0.0500015258812345
 20
-0.0000015258812345
 30
0.0
 40
0.5000015258835628
100
AcDbArc
 50
0.0001748525759384
 51
89.999825147423863
  0
ARC
  5
420
100
AcDbEntity
  8
0
  6
CONTINUOUS
 62
               4
100
AcDbCircle
 10
-1.6000022888001695
 20
4.6000022888001695
 30
0.0
 40
0.3999977112063788
100
AcDbArc
 50
89.999672151649236
 51
180.00032784835025
  0
ARC
  5
421
100
AcDbEntity
  8
0
  6
CONTINUOUS
 62
               4
100
AcDbCircle
 10
7.6000022888001695
 20
4.6000022888001695
 30
0.0
 40
0.3999977112063788
100
AcDbArc
 50
359.99967215164855
 51
90.000327848350466
  0
ENDBLK
  5
422
100
AcDbEntity
  8
0
100
AcDbBlockEnd
  0
BLOCK
  5
423
100
AcDbEntity
  8
0
100
AcDbBlockBegin
  2
F10MF-7
 70
               0
 10
0.0
 20
0.0
 30
0.0
  3
F10MF-7
  1

  0
LINE
  5
424
100
AcDbEntity
  8
0
  6
CONTINUOUS
 62
               4
100
AcDbLine
 10
26.999999999999993
 20
23.99999491373697
 30
0.0
 11
26.999999999999993
 21
-0.0000050862630303
 31
0.0
  0
LINE
  5
425
100
AcDbEntity
  8
0
  6
CONTINUOUS
 62
               4
100
AcDbLine
 10
-0.0000000000000107
 20
16.99999491373697
 30
0.0
 11
0.0
 21
0.0
 31
0.0
  0
LINE
  5
426
100
AcDbEntity
  8
0
  6
CONTINUOUS
 62
               4
100
AcDbLine
 10
1.3999999999999844
 20
16.99999491373697
 30
0.0
 11
1.3999999999999844
 21
25.499994909445434
 31
0.0
  0
LINE
  5
427
100
AcDbEntity
  8
0
  6
CONTINUOUS
 62
               4
100
AcDbLine
 10
-10.000000000000021
 20
25.49999491373697
 30
0.0
 11
-10.000000000000021
 21
16.99999491373697
 31
0.0
  0
LINE
  5
428
100
AcDbEntity
  8
0
  6
CONTINUOUS
 62
               4
100
AcDbLine
 10
-10.000000000000021
 20
25.49999491373697
 30
0.0
 11
1.3999999999999844
 21
25.49999491373697
 31
0.0
  0
LINE
  5
429
100
AcDbEntity
  8
0
  6
CONTINUOUS
 62
               4
100
AcDbLine
 10
-10.000000000000021
 20
16.99999491373697
 30
0.0
 11
1.3999999999999844
 21
16.99999491373697
 31
0.0
  0
LINE
  5
42A
100
AcDbEntity
  8
0
  6
CONTINUOUS
 62
               4
100
AcDbLine
 10
26.999999999999993
 20
23.99999491373697
 30
0.0
 11
1.3999999999999844
 21
23.99999491373697
 31
0.0
  0
LINE
  5
42B
100
AcDbEntity
  8
0
  6
CONTINUOUS
 62
               4
100
AcDbLine
 10
14.295000000000002
 20
23.99999491373697
 30
0.0
 11
12.795000000000002
 21
23.99999491373697
 31
0.0
  0
LINE
  5
42C
100
AcDbEntity
  8
0
  6
CONTINUOUS
 62
               4
100
AcDbLine
 10
1.4999999999999893
 20
25.599994913736964
 30
0.0
 11
-3.0000000000000213
 21
25.599994913736964
 31
0.0
  0
ARC
  5
42D
100
AcDbEntity
  8
0
  6
CONTINUOUS
 62
               4
100
AcDbCircle
 10
-2.5015404500182896
 20
32.501535363755238
 30
0.0
 40
0.4984619302958243
100
AcDbArc
 50
89.822932465397898
 51
180.17706753460195
  0
LINE
  5
42E
100
AcDbEntity
  8
0
  6
CONTINUOUS
 62
               4
100
AcDbLine
 10
-3.0000000000000213
 20
32.49999491373697
 30
0.0
 11
-3.0000000000000213
 21
25.599994913736964
 31
0.0
  0
LINE
  5
42F
100
AcDbEntity
  8
0
  6
CONTINUOUS
 62
               4
100
AcDbLine
 10
1.4999999999999893
 20
25.599994913736964
 30
0.0
 11
1.4999999999999893
 21
23.99999491373697
 31
0.0
  0
ARC
  5
430
100
AcDbEntity
  8
0
  6
CONTINUOUS
 62
               4
100
AcDbCircle
 10
25.501123948313886
 20
28.179389315853996
 30
0.0
 40
1.4988865337462252
100
AcDbArc
 50
0.2142776266259142
 51
24.039904443234629
  0
ARC
  5
431
100
AcDbEntity
  8
0
  6
CONTINUOUS
 62
               4
100
AcDbCircle
 10
24.675687863874497
 20
32.502666025814563
 30
0.0
 40
0.4973293636201366
100
AcDbArc
 50
24.005903588636794
 51
90.079246697133684
  0
LINE
  5
432
100
AcDbEntity
  8
0
  6
CONTINUOUS
 62
               4
100
AcDbLine
 10
25.129999999999992
 20
32.704994913736954
 30
0.0
 11
26.870000000000001
 21
28.789994913736962
 31
0.0
  0
LINE
  5
433
100
AcDbEntity
  8
0
  6
CONTINUOUS
 62
               4
100
AcDbLine
 10
24.674999999999986
 20
32.99999491373697
 30
0.0
 11
-2.5030809000333001
 21
32.99999491373697
 31
0.0
  0
LINE
  5
434
100
AcDbEntity
  8
0
  6
CONTINUOUS
 62
               4
100
AcDbLine
 10
26.999999999999996
 20
28.184994913736944
 30
0.0
 11
26.999999999999996
 21
23.99999491373697
 31
0.0
  0
LINE
  5
435
100
AcDbEntity
  8
0
  6
CONTINUOUS
 62
             200
100
AcDbLine
 10
-20.08921456599456
 20
24.164991126888395
 30
0.0
 11
-21.946103769656482
 21
17.234986332879686
 31
0.0
  0
LINE
  5
436
100
AcDbEntity
  8
0
  6
CONTINUOUS
 62
             200
100
AcDbLine
 10
-19.053935707233002
 20
24.165001172564786
 30
0.0
 11
-20.910828860160116
 21
17.23498163969785
 31
0.0
  0
LINE
  5
437
100
AcDbEntity
  8
0
  6
CONTINUOUS
 62
               4
100
AcDbLine
 10
-20.491119384765632
 20
22.665018717447907
 30
0.0
 11
-24.50001525878907
 21
22.665018717447907
 31
0.0
  0
LINE
  5
438
100
AcDbEntity
  8
0
  6
CONTINUOUS
 62
               4
100
AcDbLine
 10
-20.874298095703132
 20
21.235010782877595
 30
0.0
 11
-24.50001525878907
 21
21.235010782877595
 31
0.0
  0
LINE
  5
439
100
AcDbEntity
  8
0
  6
CONTINUOUS
 62
               4
100
AcDbLine
 10
-21.160995483398445
 20
20.165018717447907
 30
0.0
 11
-24.50001525878907
 21
20.165018717447907
 31
0.0
  0
LINE
  5
43A
100
AcDbEntity
  8
0
  6
CONTINUOUS
 62
               4
100
AcDbLine
 10
-21.544174194335945
 20
18.735010782877595
 30
0.0
 11
-24.50001525878907
 21
18.735010782877595
 31
0.0
  0
LINE
  5
43B
100
AcDbEntity
  8
0
  6
CONTINUOUS
 62
               4
100
AcDbLine
 10
-24.500000000000007
 20
22.665003458658845
 30
0.0
 11
-24.500000000000007
 21
21.234995524088532
 31
0.0
  0
LINE
  5
43C
100
AcDbEntity
  8
0
  6
CONTINUOUS
 62
               4
100
AcDbLine
 10
-24.500000000000007
 20
18.734995524088532
 30
0.0
 11
-24.500000000000007
 21
20.165003458658845
 31
0.0
  0
LINE
  5
43D
100
AcDbEntity
  8
0
  6
CONTINUOUS
 62
               4
100
AcDbLine
 10
-29.500000000000007
 20
22.350001017252595
 30
0.0
 11
-29.500000000000007
 21
21.549997965494782
 31
0.0
  0
LINE
  5
43E
100
AcDbEntity
  8
0
  6
CONTINUOUS
 62
               4
100
AcDbLine
 10
-24.50001525878907
 20
21.549997965494782
 30
0.0
 11
-29.500000000000007
 21
21.549997965494782
 31
0.0
  0
LINE
  5
43F
100
AcDbEntity
  8
0
  6
CONTINUOUS
 62
               4
100
AcDbLine
 10
-24.50001525878907
 20
22.350001017252595
 30
0.0
 11
-29.500000000000007
 21
22.350001017252595
 31
0.0
  0
LINE
  5
440
100
AcDbEntity
  8
0
  6
CONTINUOUS
 62
               4
100
AcDbLine
 10
-16.500000000000007
 20
20.165018717447907
 30
0.0
 11
-20.125717163085945
 21
20.165018717447907
 31
0.0
  0
LINE
  5
441
100
AcDbEntity
  8
0
  6
CONTINUOUS
 62
               4
100
AcDbLine
 10
-16.500000000000007
 20
18.735010782877595
 30
0.0
 11
-20.508895874023445
 21
18.735010782877595
 31
0.0
  0
LINE
  5
442
100
AcDbEntity
  8
0
  6
CONTINUOUS
 62
               4
100
AcDbLine
 10
-16.500000000000007
 20
21.235010782877595
 30
0.0
 11
-19.839019775390632
 21
21.235010782877595
 31
0.0
  0
LINE
  5
443
100
AcDbEntity
  8
0
  6
CONTINUOUS
 62
               4
100
AcDbLine
 10
-16.500000000000007
 20
22.665018717447907
 30
0.0
 11
-19.455841064453132
 21
22.665018717447907
 31
0.0
  0
LINE
  5
444
100
AcDbEntity
  8
0
  6
CONTINUOUS
 62
               4
100
AcDbLine
 10
-24.50001525878907
 20
19.049997965494782
 30
0.0
 11
-29.500000000000007
 21
19.049997965494782
 31
0.0
  0
LINE
  5
445
100
AcDbEntity
  8
0
  6
CONTINUOUS
 62
               4
100
AcDbLine
 10
-24.50001525878907
 20
19.850001017252595
 30
0.0
 11
-29.500000000000007
 21
19.850001017252595
 31
0.0
  0
LINE
  5
446
100
AcDbEntity
  8
0
  6
CONTINUOUS
 62
               4
100
AcDbLine
 10
-29.500000000000007
 20
19.049997965494782
 30
0.0
 11
-29.500000000000007
 21
19.850001017252595
 31
0.0
  0
LINE
  5
447
100
AcDbEntity
  8
0
  6
CONTINUOUS
 62
               4
100
AcDbLine
 10
-15.000000000000007
 20
27.49999491373697
 30
0.0
 11
-16.500000000000007
 21
27.49999491373697
 31
0.0
  0
LINE
  5
448
100
AcDbEntity
  8
0
  6
CONTINUOUS
 62
               4
100
AcDbLine
 10
-15.499999958178712
 20
25.499973352823559
 30
0.0
 11
-16.499994209762924
 21
26.077319672805658
 31
0.0
  0
LINE
  5
449
100
AcDbEntity
  8
0
  6
CONTINUOUS
 62
               4
100
AcDbLine
 10
-10.000000000000007
 20
25.49999491373697
 30
0.0
 11
-16.500000000000007
 21
25.49999491373697
 31
0.0
  0
LINE
  5
44A
100
AcDbEntity
  8
0
  6
CONTINUOUS
 62
               4
100
AcDbLine
 10
-5.9984545794686781
 20
26.500066061293779
 30
0.0
 11
-9.556142663157523
 21
27.000065384309579
 31
0.0
  0
LINE
  5
44B
100
AcDbEntity
  8
0
  6
CONTINUOUS
 62
               4
100
AcDbLine
 10
-9.5561523437500071
 20
26.99999491373697
 30
0.0
 11
-15.000000000000007
 21
26.99999491373697
 31
0.0
  0
LINE
  5
44C
100
AcDbEntity
  8
0
  6
CONTINUOUS
 62
               4
100
AcDbLine
 10
-15.500000000000007
 20
16.49999491373697
 30
0.0
 11
-15.500000000000007
 21
16.99999491373697
 31
0.0
  0
LINE
  5
44D
100
AcDbEntity
  8
0
  6
CONTINUOUS
 62
               4
100
AcDbLine
 10
-15.500000000000007
 20
16.49999491373697
 30
0.0
 11
-16.500000000000007
 21
16.49999491373697
 31
0.0
  0
LINE
  5
44E
100
AcDbEntity
  8
0
  6
CONTINUOUS
 62
               4
100
AcDbLine
 10
-10.000000000000007
 20
16.99999491373697
 30
0.0
 11
-15.500000000000007
 21
16.99999491373697
 31
0.0
  0
LINE
  5
44F
100
AcDbEntity
  8
0
  6
CONTINUOUS
 62
               4
100
AcDbLine
 10
-15.000000000000007
 20
26.99999491373697
 30
0.0
 11
-15.000000000000007
 21
27.49999491373697
 31
0.0
  0
LINE
  5
450
100
AcDbEntity
  8
0
  6
CONTINUOUS
 62
               4
100
AcDbLine
 10
-5.9984588623046946
 20
25.49999491373697
 30
0.0
 11
-5.9984588623046946
 21
26.49999491373697
 31
0.0
  0
LINE
  5
451
100
AcDbEntity
  8
0
  6
CONTINUOUS
 62
               4
100
AcDbLine
 10
-16.500000000000007
 20
26.077341715494782
 30
0.0
 11
-16.500000000000007
 21
27.49999491373697
 31
0.0
  0
LINE
  5
452
100
AcDbEntity
  8
0
  6
CONTINUOUS
 62
               4
100
AcDbLine
 10
-10.000000000000007
 20
25.449991861979157
 30
0.0
 11
-10.000000000000007
 21
25.49999491373697
 31
0.0
  0
LINE
  5
453
100
AcDbEntity
  8
0
  6
CONTINUOUS
 62
               4
100
AcDbLine
 10
-16.500000000000007
 20
16.49999491373697
 30
0.0
 11
-16.500000000000007
 21
25.49999491373697
 31
0.0
  0
ENDBLK
  5
454
100
AcDbEntity
  8
0
100
AcDbBlockEnd
  0
BLOCK
  5
455
100
AcDbEntity
  8
0
100
AcDbBlockBegin
  2
F10MF-8
 70
               0
 10
0.0
 20
0.0
 30
0.0
  3
F10MF-8
  1

  0
LINE
  5
456
100
AcDbEntity
  8
0
  6
CONTINUOUS
 62
               4
100
AcDbLine
 10
0.0
 20
24.0
 30
0.0
 11
10.0
 21
24.0
 31
0.0
  0
LINE
  5
457
100
AcDbEntity
  8
0
  6
CONTINUOUS
 62
               4
100
AcDbLine
 10
0.05
 20
24.0
 30
0.0
 11
0.05
 21
32.5
 31
0.0
  0
LINE
  5
458
100
AcDbEntity
  8
0
  6
CONTINUOUS
 62
               4
100
AcDbLine
 10
9.5
 20
33.0
 30
0.0
 11
0.5
 21
33.0
 31
0.0
  0
LINE
  5
459
100
AcDbEntity
  8
0
  6
CONTINUOUS
 62
               4
100
AcDbLine
 10
9.9499999999999993
 20
28.5
 30
0.0
 11
0.05
 21
28.5
 31
0.0
  0
LINE
  5
45A
100
AcDbEntity
  8
0
  6
CONTINUOUS
 62
               4
100
AcDbLine
 10
9.9499999999999993
 20
24.0
 30
0.0
 11
9.9499999999999993
 21
32.5
 31
0.0
  0
LINE
  5
45B
100
AcDbEntity
  8
0
  6
CONTINUOUS
 62
               4
100
AcDbLine
 10
0.0
 20
0.0
 30
0.0
 11
0.0
 21
24.0
 31
0.0
  0
LINE
  5
45C
100
AcDbEntity
  8
0
  6
CONTINUOUS
 62
               4
100
AcDbLine
 10
10.0
 20
0.0
 30
0.0
 11
10.0
 21
24.0
 31
0.0
  0
ARC
  5
45D
100
AcDbEntity
  8
0
  6
CONTINUOUS
 62
               4
100
AcDbCircle
 10
9.4500137329078271
 20
32.500013732907831
 30
0.0
 40
0.4999862672807696
100
AcDbArc
 50
359.99842628145819
 51
90.001573718540826
  0
ARC
  5
45E
100
AcDbEntity
  8
0
  6
CONTINUOUS
 62
               4
100
AcDbCircle
 10
0.5499786377791315
 20
32.500021362220863
 30
0.0
 40
0.4999786382354955
100
AcDbArc
 50
89.997551965216786
 51
180.00244803478242
  0
ENDBLK
  5
45F
100
AcDbEntity
  8
0
100
AcDbBlockEnd
  0
BLOCK
  5
4D5
100
AcDbEntity
  8
0
  6
ByBlock
 62
               0
100
AcDbBlockBegin
  2
*D8
 70
               1
 10
0.0
 20
0.0
 30
0.0
  3
*D8
  1

  0
LINE
  5
4D6
100
AcDbEntity
  8
0
  6
CONTINUOUS
 62
               2
100
AcDbLine
 10
-46.0771484375
 20
147.82525634765625
 30
0.0
 11
-37.0771484375
 21
147.82525634765625
 31
0.0
  0
LINE
  5
4D7
100
AcDbEntity
  8
0
  6
CONTINUOUS
 62
               2
100
AcDbLine
 10
-37.0771484375
 20
61.2025146484375
 30
0.0
 11
-37.0771484375
 21
149.32525634765625
 31
0.0
  0
LINE
  5
4D8
100
AcDbEntity
  8
0
  6
CONTINUOUS
 62
               2
100
AcDbLine
 10
-46.0771484375
 20
147.82525634765625
 30
0.0
 11
-49.633148431777954
 21
147.82525634765625
 31
0.0
  0
LINE
  5
4D9
100
AcDbEntity
  8
0
  6
CONTINUOUS
 62
               2
100
AcDbLine
 10
-37.0771484375
 20
147.82525634765625
 30
0.0
 11
-33.521148443222046
 21
147.82525634765625
 31
0.0
  0
INSERT
  5
4E0
100
AcDbEntity
  8
0
  6
CONTINUOUS
 62
               2
100
AcDbBlockReference
  2
_OPEN30
 10
-46.0771484375
 20
147.82525634765625
 30
0.0
 41
2.77
 42
2.77
 43
2.77
  0
INSERT
  5
4E1
100
AcDbEntity
  8
0
  6
CONTINUOUS
 62
               2
100
AcDbBlockReference
  2
_OPEN30
 10
-37.0771484375
 20
147.82525634765625
 30
0.0
 41
2.77
 42
2.77
 43
2.77
 50
180.0
  0
MTEXT
  5
4E2
100
AcDbEntity
  8
0
  6
CONTINUOUS
 62
               2
100
AcDbMText
 10
-41.5771484375
 20
151.07525634765625
 30
0.0
 40
4.5
 41
0.0
 71
               5
 72
               1
  1
\A1;9
  0
POINT
  5
4E3
100
AcDbEntity
  8
DEFPOINTS
  6
CONTINUOUS
 62
               0
100
AcDbPoint
 10
-46.0771484375
 20
77.9525146484375
 30
0.0
  0
POINT
  5
4E4
100
AcDbEntity
  8
DEFPOINTS
  6
CONTINUOUS
 62
               0
100
AcDbPoint
 10
-37.0771484375
 20
61.2025146484375
 30
0.0
  0
POINT
  5
4E5
100
AcDbEntity
  8
DEFPOINTS
  6
CONTINUOUS
 62
               0
100
AcDbPoint
 10
-37.0771484375
 20
147.82525634765625
 30
0.0
  0
ENDBLK
  5
4E6
100
AcDbEntity
  8
0
  6
ByBlock
 62
               0
100
AcDbBlockEnd
  0
BLOCK
  5
4DB
100
AcDbEntity
  8
0
  6
ByBlock
 62
               0
100
AcDbBlockBegin
  2
_OPEN30
 70
               2
 10
0.0
 20
0.0
 30
0.0
  3
_OPEN30
  1

  0
LINE
  5
4DC
100
AcDbEntity
  8
0
  6
ByBlock
 62
               0
100
AcDbLine
 10
-1.0
 20
0.267949
 30
0.0
 11
0.0
 21
0.0
 31
0.0
  0
LINE
  5
4DD
100
AcDbEntity
  8
0
  6
ByBlock
 62
               0
100
AcDbLine
 10
0.0
 20
0.0
 30
0.0
 11
-1.0
 21
-0.267949
 31
0.0
  0
LINE
  5
4DE
100
AcDbEntity
  8
0
  6
ByBlock
 62
               0
100
AcDbLine
 10
0.0
 20
0.0
 30
0.0
 11
-1.0
 21
0.0
 31
0.0
  0
ENDBLK
  5
4DF
100
AcDbEntity
  8
0
  6
ByBlock
 62
               0
100
AcDbBlockEnd
  0
BLOCK
  5
4E9
100
AcDbEntity
  8
0
  6
ByBlock
 62
               0
100
AcDbBlockBegin
  2
*D10
 70
               1
 10
0.0
 20
0.0
 30
0.0
  3
*D10
  1

  0
LINE
  5
4EA
100
AcDbEntity
  8
0
  6
CONTINUOUS
 62
               2
100
AcDbLine
 10
-37.0771484375
 20
147.82525634765625
 30
0.0
 11
14.4228515625
 21
147.82525634765625
 31
0.0
  0
LINE
  5
4EB
100
AcDbEntity
  8
0
  6
CONTINUOUS
 62
               2
100
AcDbLine
 10
14.4228515625
 20
61.2025146484375
 30
0.0
 11
14.4228515625
 21
149.32525634765625
 31
0.0
  0
INSERT
  5
4EC
100
AcDbEntity
  8
0
  6
CONTINUOUS
 62
               2
100
AcDbBlockReference
  2
_OPEN30
 10
-37.0771484375
 20
147.82525634765625
 30
0.0
 41
2.77
 42
2.77
 43
2.77
 50
180.0
  0
INSERT
  5
4ED
100
AcDbEntity
  8
0
  6
CONTINUOUS
 62
               2
100
AcDbBlockReference
  2
_OPEN30
 10
14.4228515625
 20
147.82525634765625
 30
0.0
 41
2.77
 42
2.77
 43
2.77
  0
MTEXT
  5
4EE
100
AcDbEntity
  8
0
  6
CONTINUOUS
 62
               2
100
AcDbMText
 10
-11.3271484375
 20
151.07525634765625
 30
0.0
 40
4.5
 41
0.0
 71
               5
 72
               1
  1
\A1;P
  0
POINT
  5
4EF
100
AcDbEntity
  8
DEFPOINTS
  6
CONTINUOUS
 62
               0
100
AcDbPoint
 10
-37.0771484375
 20
61.2025146484375
 30
0.0
  0
POINT
  5
4F0
100
AcDbEntity
  8
DEFPOINTS
  6
CONTINUOUS
 62
               0
100
AcDbPoint
 10
14.4228515625
 20
61.2025146484375
 30
0.0
  0
POINT
  5
4F1
100
AcDbEntity
  8
DEFPOINTS
  6
CONTINUOUS
 62
               0
100
AcDbPoint
 10
14.4228515625
 20
147.82525634765625
 30
0.0
  0
ENDBLK
  5
4F2
100
AcDbEntity
  8
0
  6
ByBlock
 62
               0
100
AcDbBlockEnd
  0
BLOCK
  5
4F5
100
AcDbEntity
  8
0
  6
ByBlock
 62
               0
100
AcDbBlockBegin
  2
*D11
 70
               1
 10
0.0
 20
0.0
 30
0.0
  3
*D11
  1

  0
LINE
  5
4F6
100
AcDbEntity
  8
0
  6
CONTINUOUS
 62
               2
100
AcDbLine
 10
14.4228515625
 20
147.82525634765625
 30
0.0
 11
23.4228515625
 21
147.82525634765625
 31
0.0
  0
LINE
  5
4F7
100
AcDbEntity
  8
0
  6
CONTINUOUS
 62
               2
100
AcDbLine
 10
14.4228515625
 20
147.82525634765625
 30
0.0
 11
10.866851568222046
 21
147.82525634765625
 31
0.0
  0
LINE
  5
4F8
100
AcDbEntity
  8
0
  6
CONTINUOUS
 62
               2
100
AcDbLine
 10
23.4228515625
 20
147.82525634765625
 30
0.0
 11
26.978851556777954
 21
147.82525634765625
 31
0.0
  0
INSERT
  5
4F9
100
AcDbEntity
  8
0
  6
CONTINUOUS
 62
               2
100
AcDbBlockReference
  2
_OPEN30
 10
14.4228515625
 20
147.82525634765625
 30
0.0
 41
2.77
 42
2.77
 43
2.77
  0
INSERT
  5
4FA
100
AcDbEntity
  8
0
  6
CONTINUOUS
 62
               2
100
AcDbBlockReference
  2
_OPEN30
 10
23.4228515625
 20
147.82525634765625
 30
0.0
 41
2.77
 42
2.77
 43
2.77
 50
180.0
  0
MTEXT
  5
4FB
100
AcDbEntity
  8
0
  6
CONTINUOUS
 62
               2
100
AcDbMText
 10
18.9228515625
 20
151.07525634765625
 30
0.0
 40
4.5
 41
0.0
 71
               5
 72
               1
  1
\A1;9
  0
POINT
  5
4FC
100
AcDbEntity
  8
DEFPOINTS
  6
CONTINUOUS
 62
               0
100
AcDbPoint
 10
14.4228515625
 20
61.2025146484375
 30
0.0
  0
POINT
  5
4FD
100
AcDbEntity
  8
DEFPOINTS
  6
CONTINUOUS
 62
               0
100
AcDbPoint
 10
23.4228515625
 20
77.9525146484375
 30
0.0
  0
POINT
  5
4FE
100
AcDbEntity
  8
DEFPOINTS
  6
CONTINUOUS
 62
               0
100
AcDbPoint
 10
23.4228515625
 20
147.82525634765625
 30
0.0
  0
ENDBLK
  5
4FF
100
AcDbEntity
  8
0
  6
ByBlock
 62
               0
100
AcDbBlockEnd
  0
BLOCK
  5
502
100
AcDbEntity
  8
0
  6
ByBlock
 62
               0
100
AcDbBlockBegin
  2
*D12
 70
               1
 10
0.0
 20
0.0
 30
0.0
  3
*D12
  1

  0
LINE
  5
503
100
AcDbEntity
  8
0
  6
CONTINUOUS
 62
               2
100
AcDbLine
 10
-46.0771484375
 20
157.82525634765625
 30
0.0
 11
23.4228515625
 21
157.82525634765625
 31
0.0
  0
LINE
  5
504
100
AcDbEntity
  8
0
  6
CONTINUOUS
 62
               2
100
AcDbLine
 10
-46.0771484375
 20
79.4525146484375
 30
0.0
 11
-46.0771484375
 21
159.32525634765625
 31
0.0
  0
LINE
  5
505
100
AcDbEntity
  8
0
  6
CONTINUOUS
 62
               2
100
AcDbLine
 10
23.4228515625
 20
79.4525146484375
 30
0.0
 11
23.4228515625
 21
159.32525634765625
 31
0.0
  0
INSERT
  5
506
100
AcDbEntity
  8
0
  6
CONTINUOUS
 62
               2
100
AcDbBlockReference
  2
_OPEN30
 10
-46.0771484375
 20
157.82525634765625
 30
0.0
 41
2.77
 42
2.77
 43
2.77
 50
180.0
  0
INSERT
  5
507
100
AcDbEntity
  8
0
  6
CONTINUOUS
 62
               2
100
AcDbBlockReference
  2
_OPEN30
 10
23.4228515625
 20
157.82525634765625
 30
0.0
 41
2.77
 42
2.77
 43
2.77
  0
MTEXT
  5
508
100
AcDbEntity
  8
0
  6
CONTINUOUS
 62
               2
100
AcDbMText
 10
-11.3271484375
 20
161.07525634765625
 30
0.0
 40
4.5
 41
0.0
 71
               5
 72
               1
  1
\A1;L
  0
POINT
  5
509
100
AcDbEntity
  8
DEFPOINTS
  6
CONTINUOUS
 62
               0
100
AcDbPoint
 10
-46.0771484375
 20
77.9525146484375
 30
0.0
  0
POINT
  5
50A
100
AcDbEntity
  8
DEFPOINTS
  6
CONTINUOUS
 62
               0
100
AcDbPoint
 10
23.4228515625
 20
77.9525146484375
 30
0.0
  0
POINT
  5
50B
100
AcDbEntity
  8
DEFPOINTS
  6
CONTINUOUS
 62
               0
100
AcDbPoint
 10
23.4228515625
 20
157.82525634765625
 30
0.0
  0
ENDBLK
  5
50C
100
AcDbEntity
  8
0
  6
ByBlock
 62
               0
100
AcDbBlockEnd
  0
ENDSEC
  0
SECTION
  2
ENTITIES
  0
INSERT
  5
460
100
AcDbEntity
  8
0
  6
ByBlock
100
AcDbBlockReference
  2
F10MF-1
 10
-37.0771484375
 20
57.9525146484375
 30
0.0
  0
INSERT
  5
461
100
AcDbEntity
  8
0
  6
ByBlock
100
AcDbBlockReference
  2
F10MF-2
 10
-191.0771484375
 20
57.9525146484375
 30
0.0
  0
INSERT
  5
462
100
AcDbEntity
  8
0
  6
ByBlock
100
AcDbBlockReference
  2
F10MF-3
 10
-37.0771484375
 20
-142.0474853515625
 30
0.0
  0
INSERT
  5
463
100
AcDbEntity
  8
0
  6
ByBlock
100
AcDbBlockReference
  2
F10MF-4
 10
219.25
 20
122.93000000000001
 30
0.0
  0
INSERT
  5
464
100
AcDbEntity
  8
0
  6
ByBlock
100
AcDbBlockReference
  2
F10MF-5
 10
151.25
 20
122.93000000000001
 30
0.0
  0
INSERT
  5
465
100
AcDbEntity
  8
0
  6
ByBlock
100
AcDbBlockReference
  2
F10MF-6
 10
219.25
 20
51.850000000000001
 30
0.0
  0
INSERT
  5
466
100
AcDbEntity
  8
0
  6
ByBlock
100
AcDbBlockReference
  2
F10MF-7
 10
141.09939575195312
 20
-102.20263671875
 30
0.0
  0
INSERT
  5
467
100
AcDbEntity
  8
0
  6
ByBlock
100
AcDbBlockReference
  2
F10MF-8
 10
226.59939575195312
 20
-102.20263671875
 30
0.0
  0
LINE
  5
468
100
AcDbEntity
  8
0
  6
CONTINUOUS
 62
               7
100
AcDbLine
 10
-281.25
 20
195.5
 30
0.0
 11
282.10000000000002
 21
195.5
 31
0.0
  0
LINE
  5
469
100
AcDbEntity
  8
0
  6
CONTINUOUS
 62
               7
100
AcDbLine
 10
282.10000000000002
 20
195.5
 30
0.0
 11
282.10000000000002
 21
-195.0
 31
0.0
  0
LINE
  5
46A
100
AcDbEntity
  8
0
  6
CONTINUOUS
 62
               7
100
AcDbLine
 10
-281.25
 20
-195.0
 30
0.0
 11
282.10000000000002
 21
-195.0
 31
0.0
  0
LINE
  5
46B
100
AcDbEntity
  8
0
  6
CONTINUOUS
 62
               7
100
AcDbLine
 10
162.09999999999999
 20
-175.0
 30
0.0
 11
162.09999999999999
 21
-195.0
 31
0.0
  0
LINE
  5
46C
100
AcDbEntity
  8
0
  6
CONTINUOUS
 62
               7
100
AcDbLine
 10
162.09999999999999
 20
-175.0
 30
0.0
 11
282.10000000000002
 21
-175.0
 31
0.0
  0
LINE
  5
46D
100
AcDbEntity
  8
0
  6
CONTINUOUS
 62
               7
100
AcDbLine
 10
162.09999999999999
 20
175.5
 30
0.0
 11
282.10000000000002
 21
175.5
 31
0.0
  0
LINE
  5
46E
100
AcDbEntity
  8
0
  6
CONTINUOUS
 62
               7
100
AcDbLine
 10
-281.25
 20
175.5
 30
0.0
 11
-161.25
 21
175.5
 31
0.0
  0
LINE
  5
46F
100
AcDbEntity
  8
0
  6
CONTINUOUS
 62
               7
100
AcDbLine
 10
162.09999999999999
 20
195.5
 30
0.0
 11
162.09999999999999
 21
175.5
 31
0.0
  0
LINE
  5
470
100
AcDbEntity
  8
0
  6
CONTINUOUS
 62
               7
100
AcDbLine
 10
-161.25
 20
195.5
 30
0.0
 11
-161.25
 21
175.5
 31
0.0
  0
LINE
  5
471
100
AcDbEntity
  8
0
  6
CONTINUOUS
 62
               7
100
AcDbLine
 10
-271.25
 20
-185.0
 30
0.0
 11
-171.25
 21
-185.0
 31
0.0
  0
LINE
  5
472
100
AcDbEntity
  8
0
  6
CONTINUOUS
 62
               7
100
AcDbLine
 10
-271.25
 20
-177.0
 30
0.0
 11
-171.25
 21
-177.0
 31
0.0
  0
LINE
  5
473
100
AcDbEntity
  8
0
  6
CONTINUOUS
 62
               7
100
AcDbLine
 10
-271.25
 20
-169.0
 30
0.0
 11
-171.25
 21
-169.0
 31
0.0
  0
LINE
  5
474
100
AcDbEntity
  8
0
  6
CONTINUOUS
 62
               7
100
AcDbLine
 10
-271.25
 20
-161.0
 30
0.0
 11
-171.25
 21
-161.0
 31
0.0
  0
LINE
  5
475
100
AcDbEntity
  8
0
  6
CONTINUOUS
 62
               7
100
AcDbLine
 10
-271.25
 20
-153.0
 30
0.0
 11
-171.25
 21
-153.0
 31
0.0
  0
LINE
  5
476
100
AcDbEntity
  8
0
  6
CONTINUOUS
 62
               7
100
AcDbLine
 10
-271.25
 20
-145.0
 30
0.0
 11
-171.25
 21
-145.0
 31
0.0
  0
LINE
  5
477
100
AcDbEntity
  8
0
  6
CONTINUOUS
 62
               7
100
AcDbLine
 10
-271.25
 20
-137.0
 30
0.0
 11
-171.25
 21
-137.0
 31
0.0
  0
LINE
  5
478
100
AcDbEntity
  8
0
  6
CONTINUOUS
 62
               7
100
AcDbLine
 10
-271.25
 20
-129.0
 30
0.0
 11
-171.25
 21
-129.0
 31
0.0
  0
LINE
  5
479
100
AcDbEntity
  8
0
  6
CONTINUOUS
 62
               7
100
AcDbLine
 10
-271.25
 20
-121.0
 30
0.0
 11
-171.25
 21
-121.0
 31
0.0
  0
LINE
  5
47A
100
AcDbEntity
  8
0
  6
CONTINUOUS
 62
               7
100
AcDbLine
 10
-271.25
 20
-113.0
 30
0.0
 11
-171.25
 21
-113.0
 31
0.0
  0
LINE
  5
47B
100
AcDbEntity
  8
0
  6
CONTINUOUS
 62
               7
100
AcDbLine
 10
-271.25
 20
-105.0
 30
0.0
 11
-171.25
 21
-105.0
 31
0.0
  0
LINE
  5
47C
100
AcDbEntity
  8
0
  6
CONTINUOUS
 62
               7
100
AcDbLine
 10
-271.25
 20
-97.0
 30
0.0
 11
-171.25
 21
-97.0
 31
0.0
  0
LINE
  5
47D
100
AcDbEntity
  8
0
  6
CONTINUOUS
 62
               7
100
AcDbLine
 10
-271.25
 20
-89.0
 30
0.0
 11
-171.25
 21
-89.0
 31
0.0
  0
LINE
  5
47E
100
AcDbEntity
  8
0
  6
CONTINUOUS
 62
               7
100
AcDbLine
 10
-271.25
 20
-81.0
 30
0.0
 11
-171.25
 21
-81.0
 31
0.0
  0
LINE
  5
47F
100
AcDbEntity
  8
0
  6
CONTINUOUS
 62
               7
100
AcDbLine
 10
-271.25
 20
-73.0
 30
0.0
 11
-171.25
 21
-73.0
 31
0.0
  0
LINE
  5
480
100
AcDbEntity
  8
0
  6
CONTINUOUS
 62
               7
100
AcDbLine
 10
-271.25
 20
-65.0
 30
0.0
 11
-171.25
 21
-65.0
 31
0.0
  0
LINE
  5
481
100
AcDbEntity
  8
0
  6
CONTINUOUS
 62
               7
100
AcDbLine
 10
-271.25
 20
-57.0
 30
0.0
 11
-171.25
 21
-57.0
 31
0.0
  0
LINE
  5
482
100
AcDbEntity
  8
0
  6
CONTINUOUS
 62
               7
100
AcDbLine
 10
-271.25
 20
-49.0
 30
0.0
 11
-171.25
 21
-49.0
 31
0.0
  0
LINE
  5
483
100
AcDbEntity
  8
0
  6
CONTINUOUS
 62
               7
100
AcDbLine
 10
-271.25
 20
-41.0
 30
0.0
 11
-171.25
 21
-41.0
 31
0.0
  0
LINE
  5
484
100
AcDbEntity
  8
0
  6
CONTINUOUS
 62
               7
100
AcDbLine
 10
-271.25
 20
-33.0
 30
0.0
 11
-171.25
 21
-33.0
 31
0.0
  0
LINE
  5
485
100
AcDbEntity
  8
0
  6
CONTINUOUS
 62
               7
100
AcDbLine
 10
-271.25
 20
-25.0
 30
0.0
 11
-171.25
 21
-25.0
 31
0.0
  0
LINE
  5
486
100
AcDbEntity
  8
0
  6
CONTINUOUS
 62
               7
100
AcDbLine
 10
-231.25
 20
-25.0
 30
0.0
 11
-231.25
 21
-185.0
 31
0.0
  0
LINE
  5
487
100
AcDbEntity
  8
0
  6
CONTINUOUS
 62
               7
100
AcDbLine
 10
-271.25
 20
-25.0
 30
0.0
 11
-271.25
 21
-185.0
 31
0.0
  0
LINE
  5
488
100
AcDbEntity
  8
0
  6
CONTINUOUS
 62
               7
100
AcDbLine
 10
-281.25
 20
-195.0
 30
0.0
 11
-281.25
 21
195.5
 31
0.0
  0
LINE
  5
489
100
AcDbEntity
  8
0
  6
CONTINUOUS
 62
               7
100
AcDbLine
 10
-201.25
 20
-25.0
 30
0.0
 11
-201.25
 21
-185.0
 31
0.0
  0
LINE
  5
48A
100
AcDbEntity
  8
0
  6
CONTINUOUS
 62
               7
100
AcDbLine
 10
-171.25
 20
-25.0
 30
0.0
 11
-171.25
 21
-185.0
 31
0.0
  0
LINE
  5
48B
100
AcDbEntity
  8
0
  6
CONTINUOUS
 62
               7
100
AcDbLine
 10
94.310000000000002
 20
195.5
 30
0.0
 11
94.310000000000002
 21
-195.0
 31
0.0
  0
LINE
  5
48C
100
AcDbEntity
  8
0
  6
CONTINUOUS
 62
               7
100
AcDbLine
 10
94.310000000000002
 20
0.25
 30
0.0
 11
282.10000000000002
 21
0.25
 31
0.0
  0
LINE
  5
48D
100
AcDbEntity
  8
0
  6
CONTINUOUS
 62
               7
100
AcDbLine
 10
141.09939575195312
 20
-102.20263671875
 30
0.0
 11
168.09939575195312
 21
-102.20263671875
 31
0.0
  0
LINE
  5
48E
100
AcDbEntity
  8
0
  6
CONTINUOUS
 62
               7
100
AcDbLine
 10
226.59939575195312
 20
-102.20263671875
 30
0.0
 11
236.59939575195312
 21
-102.20263671875
 31
0.0
  0
LINE
  5
48F
100
AcDbEntity
  8
0
  6
CONTINUOUS
 62
               7
100
AcDbLine
 10
151.25
 20
125.73
 30
0.0
 11
151.25
 21
94.129999999999995
 31
0.0
  0
LINE
  5
490
100
AcDbEntity
  8
0
  6
CONTINUOUS
 62
               7
100
AcDbLine
 10
217.25
 20
51.850000000000001
 30
0.0
 11
227.25
 21
51.850000000000001
 31
0.0
  0
MTEXT
  5
491
100
AcDbEntity
  8
0
  6
CONTINUOUS
 62
               7
100
AcDbMText
 10
201.30997488927844
 20
185.5
 30
0.0
 40
6.3000001907348633
 41
0.0
 71
               4
 72
               1
  1
\W1.200;\A1;Ver.3.0
  0
MTEXT
  5
492
100
AcDbEntity
  8
0
  6
CONTINUOUS
 62
               7
100
AcDbMText
 10
170.28099805280428
 20
-185.0
 30
0.0
 40
9.0
 41
0.0
 71
               4
 72
               1
  1
\W1.121;\A1;KOGANEI CORP.
  0
MTEXT
  5
493
100
AcDbEntity
  8
0
  6
CONTINUOUS
 62
               7
100
AcDbMText
 10
-251.55228199356
 20
185.5
 30
0.0
 40
6.3000001907348633
 41
0.0
 71
               4
 72
               1
  1
\W1.141;\A1;F10 SERIES
  0
MTEXT
  5
494
100
AcDbEntity
  8
0
  6
CONTINUOUS
 62
               7
100
AcDbMText
 10
-268.23692415103284
 20
160.5
 30
0.0
 40
6.3000001907348633
 41
0.0
 71
               4
 72
               1
  1
\W1.108;\A1;MODEL:F10M4F
  0
MTEXT
  5
495
100
AcDbEntity
  8
0
  6
CONTINUOUS
 62
               7
100
AcDbMText
 10
-259.5
 20
-29.0
 30
0.0
 40
4.5
 41
0.0
 71
               4
 72
               1
  1
\A1;TYPE
  0
MTEXT
  5
496
100
AcDbEntity
  8
0
  6
CONTINUOUS
 62
               7
100
AcDbMText
 10
-251.91666665578606
 20
-21.0
 30
0.0
 40
4.5
 41
0.0
 71
               4
 72
               1
  1
\W1.111;\A1;DIMENSION LIST
  0
MTEXT
  5
497
100
AcDbEntity
  8
0
  6
CONTINUOUS
 62
               7
100
AcDbMText
 10
-217.75
 20
-29.0
 30
0.0
 40
4.5
 41
0.0
 71
               4
 72
               1
  1
\A1;L
  0
MTEXT
  5
498
100
AcDbEntity
  8
0
  6
CONTINUOUS
 62
               7
100
AcDbMText
 10
-187.75
 20
-29.0
 30
0.0
 40
4.5
 41
0.0
 71
               4
 72
               1
  1
\A1;P
  0
MTEXT
  5
499
100
AcDbEntity
  8
0
  6
CONTINUOUS
 62
               7
100
AcDbMText
 10
-222.1000000411272
 20
-37.0
 30
0.0
 40
4.5
 41
0.0
 71
               4
 72
               1
  1
\W1.200;\A1;48.5
  0
MTEXT
  5
49A
100
AcDbEntity
  8
0
  6
CONTINUOUS
 62
               7
100
AcDbMText
 10
-222.25
 20
-45.0
 30
0.0
 40
4.5
 41
0.0
 71
               4
 72
               1
  1
\A1;59
  0
MTEXT
  5
49B
100
AcDbEntity
  8
0
  6
CONTINUOUS
 62
               7
100
AcDbMText
 10
-222.1000000411272
 20
-53.0
 30
0.0
 40
4.5
 41
0.0
 71
               4
 72
               1
  1
\W1.200;\A1;69.5
  0
MTEXT
  5
49C
100
AcDbEntity
  8
0
  6
CONTINUOUS
 62
               7
100
AcDbMText
 10
-222.18181817221173
 20
-61.0
 30
0.0
 40
4.5
 41
0.0
 71
               4
 72
               1
  1
\W1.091;\A1;80
  0
MTEXT
  5
49D
100
AcDbEntity
  8
0
  6
CONTINUOUS
 62
               7
100
AcDbMText
 10
-222.05263161692301
 20
-69.0
 30
0.0
 40
4.5
 41
0.0
 71
               4
 72
               1
  1
\W1.263;\A1;90.5
  0
MTEXT
  5
49E
100
AcDbEntity
  8
0
  6
CONTINUOUS
 62
               7
100
AcDbMText
 10
-226.46153852185111
 20
-77.0
 30
0.0
 40
4.5
 41
0.0
 71
               4
 72
               1
  1
\W1.385;\A1;101
  0
MTEXT
  5
49F
100
AcDbEntity
  8
0
  6
CONTINUOUS
 62
               7
100
AcDbMText
 10
-226.37500004693868
 20
-85.0
 30
0.0
 40
4.5
 41
0.0
 71
               4
 72
               1
  1
\W1.500;\A1;111.5
  0
MTEXT
  5
4A0
100
AcDbEntity
  8
0
  6
CONTINUOUS
 62
               7
100
AcDbMText
 10
-226.65625001257285
 20
-93.0
 30
0.0
 40
4.5
 41
0.0
 71
               4
 72
               1
  1
\W1.125;\A1;122
  0
MTEXT
  5
4A1
100
AcDbEntity
  8
0
  6
CONTINUOUS
 62
               7
100
AcDbMText
 10
-226.56250001396984
 20
-101.0
 30
0.0
 40
4.5
 41
0.0
 71
               4
 72
               1
  1
\W1.250;\A1;132.5
  0
MTEXT
  5
4A2
100
AcDbEntity
  8
0
  6
CONTINUOUS
 62
               7
100
AcDbMText
 10
-226.65625001257285
 20
-109.0
 30
0.0
 40
4.5
 41
0.0
 71
               4
 72
               1
  1
\W1.125;\A1;143
  0
MTEXT
  5
4A3
100
AcDbEntity
  8
0
  6
CONTINUOUS
 62
               7
100
AcDbMText
 10
-226.56250001396984
 20
-117.0
 30
0.0
 40
4.5
 41
0.0
 71
               4
 72
               1
  1
\W1.250;\A1;153.5
  0
MTEXT
  5
4A4
100
AcDbEntity
  8
0
  6
CONTINUOUS
 62
               7
100
AcDbMText
 10
-226.65625001257285
 20
-125.0
 30
0.0
 40
4.5
 41
0.0
 71
               4
 72
               1
  1
\W1.125;\A1;164
  0
MTEXT
  5
4A5
100
AcDbEntity
  8
0
  6
CONTINUOUS
 62
               7
100
AcDbMText
 10
-226.56250001396984
 20
-133.0
 30
0.0
 40
4.5
 41
0.0
 71
               4
 72
               1
  1
\W1.250;\A1;174.5
  0
MTEXT
  5
4A6
100
AcDbEntity
  8
0
  6
CONTINUOUS
 62
               7
100
AcDbMText
 10
-226.65625001257285
 20
-141.0
 30
0.0
 40
4.5
 41
0.0
 71
               4
 72
               1
  1
\W1.125;\A1;185
  0
MTEXT
  5
4A7
100
AcDbEntity
  8
0
  6
CONTINUOUS
 62
               7
100
AcDbMText
 10
-226.56250001396984
 20
-149.0
 30
0.0
 40
4.5
 41
0.0
 71
               4
 72
               1
  1
\W1.250;\A1;195.5
  0
MTEXT
  5
4A8
100
AcDbEntity
  8
0
  6
CONTINUOUS
 62
               7
100
AcDbMText
 10
-226.70588234180306
 20
-157.0
 30
0.0
 40
4.5
 41
0.0
 71
               4
 72
               1
  1
\W1.059;\A1;206
  0
MTEXT
  5
4A9
100
AcDbEntity
  8
0
  6
CONTINUOUS
 62
               7
100
AcDbMText
 10
-226.56250001396984
 20
-165.0
 30
0.0
 40
4.5
 41
0.0
 71
               4
 72
               1
  1
\W1.250;\A1;216.5
  0
MTEXT
  5
4AA
100
AcDbEntity
  8
0
  6
CONTINUOUS
 62
               7
100
AcDbMText
 10
-226.75
 20
-173.0
 30
0.0
 40
4.5
 41
0.0
 71
               4
 72
               1
  1
\A1;227
  0
MTEXT
  5
4AB
100
AcDbEntity
  8
0
  6
CONTINUOUS
 62
               7
100
AcDbMText
 10
-226.63461535648861
 20
-181.0
 30
0.0
 40
4.5
 41
0.0
 71
               4
 72
               1
  1
\W1.154;\A1;237.5
  0
MTEXT
  5
4AC
100
AcDbEntity
  8
0
  6
CONTINUOUS
 62
               7
100
AcDbMText
 10
-192.05263161692301
 20
-37.0
 30
0.0
 40
4.5
 41
0.0
 71
               4
 72
               1
  1
\W1.263;\A1;30.5
  0
MTEXT
  5
4AD
100
AcDbEntity
  8
0
  6
CONTINUOUS
 62
               7
100
AcDbMText
 10
-192.10000005722048
 20
-45.0
 30
0.0
 40
4.5
 41
0.0
 71
               4
 72
               1
  1
\W1.200;\A1;41
  0
MTEXT
  5
4AE
100
AcDbEntity
  8
0
  6
CONTINUOUS
 62
               7
100
AcDbMText
 10
-192.0000000529794
 20
-53.0
 30
0.0
 40
4.5
 41
0.0
 71
               4
 72
               1
  1
\W1.333;\A1;51.5
  0
MTEXT
  5
4AF
100
AcDbEntity
  8
0
  6
CONTINUOUS
 62
               7
100
AcDbMText
 10
-192.25
 20
-61.0
 30
0.0
 40
4.5
 41
0.0
 71
               4
 72
               1
  1
\A1;62
  0
MTEXT
  5
4B0
100
AcDbEntity
  8
0
  6
CONTINUOUS
 62
               7
100
AcDbMText
 10
-192.1000000411272
 20
-69.0
 30
0.0
 40
4.5
 41
0.0
 71
               4
 72
               1
  1
\W1.200;\A1;72.5
  0
MTEXT
  5
4B1
100
AcDbEntity
  8
0
  6
CONTINUOUS
 62
               7
100
AcDbMText
 10
-192.25
 20
-77.0
 30
0.0
 40
4.5
 41
0.0
 71
               4
 72
               1
  1
\A1;83
  0
MTEXT
  5
4B2
100
AcDbEntity
  8
0
  6
CONTINUOUS
 62
               7
100
AcDbMText
 10
-192.1000000411272
 20
-85.0
 30
0.0
 40
4.5
 41
0.0
 71
               4
 72
               1
  1
\W1.200;\A1;93.5
  0
MTEXT
  5
4B3
100
AcDbEntity
  8
0
  6
CONTINUOUS
 62
               7
100
AcDbMText
 10
-196.60000003576278
 20
-93.0
 30
0.0
 40
4.5
 41
0.0
 71
               4
 72
               1
  1
\W1.200;\A1;104
  0
MTEXT
  5
4B4
100
AcDbEntity
  8
0
  6
CONTINUOUS
 62
               7
100
AcDbMText
 10
-196.47727279020611
 20
-101.0
 30
0.0
 40
4.5
 41
0.0
 71
               4
 72
               1
  1
\W1.364;\A1;114.5
  0
MTEXT
  5
4B5
100
AcDbEntity
  8
0
  6
CONTINUOUS
 62
               7
100
AcDbMText
 10
-196.65625001257285
 20
-109.0
 30
0.0
 40
4.5
 41
0.0
 71
               4
 72
               1
  1
\W1.125;\A1;125
  0
MTEXT
  5
4B6
100
AcDbEntity
  8
0
  6
CONTINUOUS
 62
               7
100
AcDbMText
 10
-196.56250001396984
 20
-117.0
 30
0.0
 40
4.5
 41
0.0
 71
               4
 72
               1
  1
\W1.250;\A1;135.5
  0
MTEXT
  5
4B7
100
AcDbEntity
  8
0
  6
CONTINUOUS
 62
               7
100
AcDbMText
 10
-196.65625001257285
 20
-125.0
 30
0.0
 40
4.5
 41
0.0
 71
               4
 72
               1
  1
\W1.125;\A1;146
  0
MTEXT
  5
4B8
100
AcDbEntity
  8
0
  6
CONTINUOUS
 62
               7
100
AcDbMText
 10
-196.56250001396984
 20
-133.0
 30
0.0
 40
4.5
 41
0.0
 71
               4
 72
               1
  1
\W1.250;\A1;156.5
  0
MTEXT
  5
4B9
100
AcDbEntity
  8
0
  6
CONTINUOUS
 62
               7
100
AcDbMText
 10
-196.65625001257285
 20
-141.0
 30
0.0
 40
4.5
 41
0.0
 71
               4
 72
               1
  1
\W1.125;\A1;167
  0
MTEXT
  5
4BA
100
AcDbEntity
  8
0
  6
CONTINUOUS
 62
               7
100
AcDbMText
 10
-196.56250001396984
 20
-149.0
 30
0.0
 40
4.5
 41
0.0
 71
               4
 72
               1
  1
\W1.250;\A1;177.5
  0
MTEXT
  5
4BB
100
AcDbEntity
  8
0
  6
CONTINUOUS
 62
               7
100
AcDbMText
 10
-196.65625001257285
 20
-157.0
 30
0.0
 40
4.5
 41
0.0
 71
               4
 72
               1
  1
\W1.125;\A1;188
  0
MTEXT
  5
4BC
100
AcDbEntity
  8
0
  6
CONTINUOUS
 62
               7
100
AcDbMText
 10
-196.56250001396984
 20
-165.0
 30
0.0
 40
4.5
 41
0.0
 71
               4
 72
               1
  1
\W1.250;\A1;198.5
  0
MTEXT
  5
4BD
100
AcDbEntity
  8
0
  6
CONTINUOUS
 62
               7
100
AcDbMText
 10
-196.70588234180306
 20
-173.0
 30
0.0
 40
4.5
 41
0.0
 71
               4
 72
               1
  1
\W1.059;\A1;209
  0
MTEXT
  5
4BE
100
AcDbEntity
  8
0
  6
CONTINUOUS
 62
               7
100
AcDbMText
 10
-196.56250001396984
 20
-181.0
 30
0.0
 40
4.5
 41
0.0
 71
               4
 72
               1
  1
\W1.250;\A1;219.5
  0
MTEXT
  5
4BF
100
AcDbEntity
  8
0
  6
CONTINUOUS
 62
               7
100
AcDbMText
 10
-266.17105264520114
 20
-181.0
 30
0.0
 40
4.5
 41
0.0
 71
               4
 72
               1
  1
\W1.105;\A1;F10M20F
  0
MTEXT
  5
4C0
100
AcDbEntity
  8
0
  6
CONTINUOUS
 62
               7
100
AcDbMText
 10
-261.68181818994611
 20
-37.0
 30
0.0
 40
4.5
 41
0.0
 71
               4
 72
               1
  1
\W1.091;\A1;F10M2F
  0
MTEXT
  5
4C1
100
AcDbEntity
  8
0
  6
CONTINUOUS
 62
               7
100
AcDbMText
 10
-261.68181818994611
 20
-45.0
 30
0.0
 40
4.5
 41
0.0
 71
               4
 72
               1
  1
\W1.091;\A1;F10M3F
  0
MTEXT
  5
4C2
100
AcDbEntity
  8
0
  6
CONTINUOUS
 62
               7
100
AcDbMText
 10
-261.68181818994611
 20
-53.0
 30
0.0
 40
4.5
 41
0.0
 71
               4
 72
               1
  1
\W1.091;\A1;F10M4F
  0
MTEXT
  5
4C3
100
AcDbEntity
  8
0
  6
CONTINUOUS
 62
               7
100
AcDbMText
 10
-261.68181818994611
 20
-61.0
 30
0.0
 40
4.5
 41
0.0
 71
               4
 72
               1
  1
\W1.091;\A1;F10M5F
  0
MTEXT
  5
4C4
100
AcDbEntity
  8
0
  6
CONTINUOUS
 62
               7
100
AcDbMText
 10
-261.68181818994611
 20
-69.0
 30
0.0
 40
4.5
 41
0.0
 71
               4
 72
               1
  1
\W1.091;\A1;F10M6F
  0
MTEXT
  5
4C5
100
AcDbEntity
  8
0
  6
CONTINUOUS
 62
               7
100
AcDbMText
 10
-261.68181818994611
 20
-77.0
 30
0.0
 40
4.5
 41
0.0
 71
               4
 72
               1
  1
\W1.091;\A1;F10M7F
  0
MTEXT
  5
4C6
100
AcDbEntity
  8
0
  6
CONTINUOUS
 62
               7
100
AcDbMText
 10
-261.68181818994611
 20
-85.0
 30
0.0
 40
4.5
 41
0.0
 71
               4
 72
               1
  1
\W1.091;\A1;F10M8F
  0
MTEXT
  5
4C7
100
AcDbEntity
  8
0
  6
CONTINUOUS
 62
               7
100
AcDbMText
 10
-261.68181818994611
 20
-93.0
 30
0.0
 40
4.5
 41
0.0
 71
               4
 72
               1
  1
\W1.091;\A1;F10M9F
  0
MTEXT
  5
4C8
100
AcDbEntity
  8
0
  6
CONTINUOUS
 62
               7
100
AcDbMText
 10
-266.1249999801318
 20
-101.0
 30
0.0
 40
4.5
 41
0.0
 71
               4
 72
               1
  1
\W1.167;\A1;F10M10F
  0
MTEXT
  5
4C9
100
AcDbEntity
  8
0
  6
CONTINUOUS
 62
               7
100
AcDbMText
 10
-266.1000000480243
 20
-109.0
 30
0.0
 40
4.5
 41
0.0
 71
               4
 72
               1
  1
\W1.200;\A1;F10M11F
  0
MTEXT
  5
4CA
100
AcDbEntity
  8
0
  6
CONTINUOUS
 62
               7
100
AcDbMText
 10
-266.1486486944076
 20
-117.0
 30
0.0
 40
4.5
 41
0.0
 71
               4
 72
               1
  1
\W1.135;\A1;F10M12F
  0
MTEXT
  5
4CB
100
AcDbEntity
  8
0
  6
CONTINUOUS
 62
               7
100
AcDbMText
 10
-266.1486486944076
 20
-125.0
 30
0.0
 40
4.5
 41
0.0
 71
               4
 72
               1
  1
\W1.135;\A1;F10M13F
  0
MTEXT
  5
4CC
100
AcDbEntity
  8
0
  6
CONTINUOUS
 62
               7
100
AcDbMText
 10
-266.1486486944076
 20
-133.0
 30
0.0
 40
4.5
 41
0.0
 71
               4
 72
               1
  1
\W1.135;\A1;F10M14F
  0
MTEXT
  5
4CD
100
AcDbEntity
  8
0
  6
CONTINUOUS
 62
               7
100
AcDbMText
 10
-266.1486486944076
 20
-141.0
 30
0.0
 40
4.5
 41
0.0
 71
               4
 72
               1
  1
\W1.135;\A1;F10M15F
  0
MTEXT
  5
4CE
100
AcDbEntity
  8
0
  6
CONTINUOUS
 62
               7
100
AcDbMText
 10
-266.1486486944076
 20
-149.0
 30
0.0
 40
4.5
 41
0.0
 71
               4
 72
               1
  1
\W1.135;\A1;F10M16F
  0
MTEXT
  5
4CF
100
AcDbEntity
  8
0
  6
CONTINUOUS
 62
               7
100
AcDbMText
 10
-266.1486486944076
 20
-157.0
 30
0.0
 40
4.5
 41
0.0
 71
               4
 72
               1
  1
\W1.135;\A1;F10M17F
  0
MTEXT
  5
4D0
100
AcDbEntity
  8
0
  6
CONTINUOUS
 62
               7
100
AcDbMText
 10
-266.1486486944076
 20
-165.0
 30
0.0
 40
4.5
 41
0.0
 71
               4
 72
               1
  1
\W1.135;\A1;F10M18F
  0
MTEXT
  5
4D1
100
AcDbEntity
  8
0
  6
CONTINUOUS
 62
               7
100
AcDbMText
 10
-266.1486486944076
 20
-173.0
 30
0.0
 40
4.5
 41
0.0
 71
               4
 72
               1
  1
\W1.135;\A1;F10M19F
  0
MTEXT
  5
4D2
100
AcDbEntity
  8
0
  6
CONTINUOUS
 62
               7
100
AcDbMText
 10
107.30065028182506
 20
160.5
 30
0.0
 40
6.3000001907348633
 41
0.0
 71
               4
 72
               1
  1
\W1.080;\A1;MODEL:-FM
  0
MTEXT
  5
4D3
100
AcDbEntity
  8
0
  6
CONTINUOUS
 62
               7
100
AcDbMText
 10
107.30065028182506
 20
-14.75
 30
0.0
 40
6.3000001907348633
 41
0.0
 71
               4
 72
               1
  1
\W1.080;\A1;MODEL:-PL
  0
DIMENSION
  5
4E7
100
AcDbEntity
  8
0
  6
CONTINUOUS
 62
               2
100
AcDbDimension
  2
*D8
 10
-37.0771484375
 20
147.82525634765625
 30
0.0
 11
-41.5771484375
 21
147.82525634765625
 31
0.0
 70
             128
  1
<>
  3
MXDIMSTYLE
100
AcDbAlignedDimension
 13
-46.0771484375
 23
77.9525146484375
 33
0.0
 14
-37.0771484375
 24
61.2025146484375
 34
0.0
100
AcDbRotatedDimension
1001
ACAD
1000
DSTYLE
1002
{
1070
               6
1000
_OPEN30
1070
               7
1000
_OPEN30
1070
              41
1040
2.77
1070
              42
1040
0.0
1070
              75
1070
               1
1070
             140
1040
4.5
1070
             173
1070
               1
1070
             271
1070
               0
1070
             284
1070
               8
1070
             341
1005
4DA
1002
}
  0
DIMENSION
  5
4F3
100
AcDbEntity
  8
0
  6
CONTINUOUS
 62
               2
100
AcDbDimension
  2
*D10
 10
14.4228515625
 20
147.82525634765625
 30
0.0
 11
-11.3271484375
 21
147.82525634765625
 31
0.0
 70
             128
  1
P
  3
MXDIMSTYLE
100
AcDbAlignedDimension
 13
-37.0771484375
 23
61.2025146484375
 33
0.0
 14
14.4228515625
 24
61.2025146484375
 34
0.0
100
AcDbRotatedDimension
1001
ACAD
1000
DSTYLE
1002
{
1070
               6
1000
_OPEN30
1070
               7
1000
_OPEN30
1070
              41
1040
2.77
1070
              42
1040
0.0
1070
              75
1070
               1
1070
              78
1070
               0
1070
             140
1040
4.5
1070
             173
1070
               1
1070
             271
1070
               0
1070
             341
1005
4DA
1002
}
  0
DIMENSION
  5
500
100
AcDbEntity
  8
0
  6
CONTINUOUS
 62
               2
100
AcDbDimension
  2
*D11
 10
23.4228515625
 20
147.82525634765625
 30
0.0
 11
18.9228515625
 21
147.82525634765625
 31
0.0
 70
             128
  1
<>
  3
MXDIMSTYLE
100
AcDbAlignedDimension
 13
14.4228515625
 23
61.2025146484375
 33
0.0
 14
23.4228515625
 24
77.9525146484375
 34
0.0
100
AcDbRotatedDimension
1001
ACAD
1000
DSTYLE
1002
{
1070
               6
1000
_OPEN30
1070
               7
1000
_OPEN30
1070
              41
1040
2.77
1070
              75
1070
               1
1070
              76
1070
               1
1070
             140
1040
4.5
1070
             173
1070
               1
1070
             271
1070
               0
1070
             284
1070
               8
1070
             341
1005
4DA
1002
}
  0
DIMENSION
  5
50D
100
AcDbEntity
  8
0
  6
CONTINUOUS
 62
               2
100
AcDbDimension
  2
*D12
 10
23.4228515625
 20
157.82525634765625
 30
0.0
 11
-11.3271484375
 21
157.82525634765625
 31
0.0
 70
             128
  1
L
  3
MXDIMSTYLE
100
AcDbAlignedDimension
 13
-46.0771484375
 23
77.9525146484375
 33
0.0
 14
23.4228515625
 24
77.9525146484375
 34
0.0
100
AcDbRotatedDimension
1001
ACAD
1000
DSTYLE
1002
{
1070
               6
1000
_OPEN30
1070
               7
1000
_OPEN30
1070
              41
1040
2.77
1070
              78
1070
               0
1070
             140
1040
4.5
1070
             173
1070
               1
1070
             271
1070
               0
1070
             341
1005
4DA
1002
}
  0
MTEXT
  5
50E
100
AcDbEntity
  8
0
  6
CONTINUOUS
 62
               2
100
AcDbMText
 10
-86.916826606037134
 20
-56.60197439789772
 30
0.0
 40
4.5
 41
0.0
 71
               7
 72
               1
  1
\W1.082;\A1;F10T1-FJ-PS
  0
MTEXT
  5
50F
100
AcDbEntity
  8
0
  6
CONTINUOUS
 62
               2
100
AcDbMText
 10
-5.2816780223732902
 20
-56.60197439789772
 30
0.0
 40
4.5
 41
0.0
 71
               7
 72
               1
  1
\W1.048;\A1;F10T2-FJ-PS
  0
MTEXT
  5
510
100
AcDbEntity
  8
0
  6
CONTINUOUS
 62
               2
100
AcDbMText
 10
0.5251552448386236
 20
-65.262222200632095
 30
0.0
 40
4.5
 41
0.0
 71
               7
 72
               1
  1
\W1.048;\A1;F10T3-FJ-PS
  0
MTEXT
  5
511
100
AcDbEntity
  8
0
  6
CONTINUOUS
 62
               2
100
AcDbMText
 10
10.623059609421977
 20
-104.16221609711647
 30
0.0
 40
4.5
 41
0.0
 71
               7
 72
               1
  1
\W1.111;\A1;F10BP
  0
ENDSEC
  0
SECTION
  2
OBJECTS
  0
DICTIONARY
  5
19
100
AcDbDictionary
  3
ACAD_GROUP
350
1A
  3
ACAD_MLINESTYLE
350
1B
  0
DICTIONARY
  5
1A
102
{ACAD_REACTORS
330
19
102
}
100
AcDbDictionary
  0
DICTIONARY
  5
1B
102
{ACAD_REACTORS
330
19
102
}
100
AcDbDictionary
  3
STANDARD
350
1C
  0
MLINESTYLE
  5
1C
102
{ACAD_REACTORS
330
1B
102
}
100
AcDbMlineStyle
  2
Standard
 70
               0
  3

 62
               0
 51
90.0
 52
90.0
 71
               2
 49
0.5
 62
             256
  6
ByLayer
 49
-0.5
 62
             256
  6
ByLayer
  0
ENDSEC
  0
EOF
