  0
SECTION
  2
HEADER
  9
$ACADVER
  1
AC1012
  9
$DWGCODEPAGE
  3
dos932
  9
$INSBASE
 10
0.0
 20
0.0
 30
0.0
  9
$EXTMIN
 10
-820.5
 20
-574.5
 30
0.0
  9
$EXTMAX
 10
820.5
 20
575.5
 30
0.0
  9
$LIMMIN
 10
-840.50000000000011
 20
-594.5
  9
$LIMMAX
 10
840.50000000000011
 20
594.5
  9
$ORTHOMODE
 70
               0
  9
$REGENMODE
 70
               1
  9
$FILLMODE
 70
               1
  9
$QTEXTMODE
 70
               0
  9
$MIRRTEXT
 70
               1
  9
$DRAGMODE
 70
               2
  9
$LTSCALE
 40
1.0
  9
$OSMODE
 70
               0
  9
$ATTMODE
 70
               1
  9
$TEXTSIZE
 40
3.2000000476837158
  9
$TRACEWID
 40
0.05
  9
$TEXTSTYLE
  7
MX_NOTE_STANDARD
  9
$CLAYER
  8
0
  9
$CELTYPE
  6
CONTINUOUS
  9
$CECOLOR
 62
             256
  9
$CELTSCALE
 40
1.0
  9
$DELOBJ
 70
               1
  9
$DISPSILH
 70
               0
  9
$DIMSCALE
 40
1.0
  9
$DIMASZ
 40
2.5
  9
$DIMEXO
 40
1.5
  9
$DIMDLI
 40
3.75
  9
$DIMRND
 40
0.0
  9
$DIMDLE
 40
0.0
  9
$DIMEXE
 40
1.5
  9
$DIMTP
 40
0.0
  9
$DIMTM
 40
0.0
  9
$DIMTXT
 40
3.2000000476837158
  9
$DIMCEN
 40
2.5
  9
$DIMTSZ
 40
0.0
  9
$DIMTOL
 70
               0
  9
$DIMLIM
 70
               0
  9
$DIMTIH
 70
               0
  9
$DIMTOH
 70
               0
  9
$DIMSE1
 70
               0
  9
$DIMSE2
 70
               0
  9
$DIMTAD
 70
               1
  9
$DIMZIN
 70
               8
  9
$DIMBLK
  1

  9
$DIMASO
 70
               1
  9
$DIMSHO
 70
               1
  9
$DIMPOST
  1

  9
$DIMAPOST
  1

  9
$DIMALT
 70
               0
  9
$DIMALTD
 70
               4
  9
$DIMALTF
 40
0.03937007874016
  9
$DIMLFAC
 40
1.0
  9
$DIMTOFL
 70
               1
  9
$DIMTVP
 40
0.0
  9
$DIMTIX
 70
               0
  9
$DIMSOXD
 70
               0
  9
$DIMSAH
 70
               1
  9
$DIMBLK1
  1
_OPEN30
  9
$DIMBLK2
  1
_OPEN30
  9
$DIMSTYLE
  2
MXDIMSTYLE
  9
$DIMCLRD
 70
               0
  9
$DIMCLRE
 70
               0
  9
$DIMCLRT
 70
               0
  9
$DIMTFAC
 40
1.0
  9
$DIMGAP
 40
1.0
  9
$DIMJUST
 70
               0
  9
$DIMSD1
 70
               0
  9
$DIMSD2
 70
               0
  9
$DIMTOLJ
 70
               0
  9
$DIMTZIN
 70
               0
  9
$DIMALTZ
 70
               0
  9
$DIMALTTZ
 70
               0
  9
$DIMFIT
 70
               3
  9
$DIMUPT
 70
               1
  9
$DIMUNIT
 70
               2
  9
$DIMDEC
 70
               2
  9
$DIMTDEC
 70
               2
  9
$DIMALTU
 70
               2
  9
$DIMALTTD
 70
               4
  9
$DIMTXSTY
  7
MX_NOTE_STANDARD
  9
$DIMAUNIT
 70
               0
  9
$LUNITS
 70
               2
  9
$LUPREC
 70
               4
  9
$SKETCHINC
 40
0.1
  9
$FILLETRAD
 40
0.0
  9
$AUNITS
 70
               0
  9
$AUPREC
 70
               0
  9
$MENU
  1
acad
  9
$ELEVATION
 40
0.0
  9
$PELEVATION
 40
0.0
  9
$THICKNESS
 40
0.0
  9
$LIMCHECK
 70
               0
  9
$BLIPMODE
 70
               1
  9
$CHAMFERA
 40
0.0
  9
$CHAMFERB
 40
0.0
  9
$CHAMFERC
 40
0.0
  9
$CHAMFERD
 40
0.0
  9
$SKPOLY
 70
               0
  9
$TDCREATE
 40
2453916.737175926
  9
$TDUPDATE
 40
2453916.737175926
  9
$TDINDWG
 40
0.0000000000
  9
$TDUSRTIMER
 40
0.0000000000
  9
$USRTIMER
 70
               1
  9
$ANGBASE
 50
0.0
  9
$ANGDIR
 70
               0
  9
$PDMODE
 70
               0
  9
$PDSIZE
 40
0.0
  9
$PLINEWID
 40
0.0
  9
$COORDS
 70
               1
  9
$SPLFRAME
 70
               0
  9
$SPLINETYPE
 70
               6
  9
$SPLINESEGS
 70
               8
  9
$ATTDIA
 70
               0
  9
$ATTREQ
 70
               1
  9
$HANDLING
 70
               1
  9
$HANDSEED
  5
4D4
  9
$SURFTAB1
 70
               6
  9
$SURFTAB2
 70
               6
  9
$SURFTYPE
 70
               6
  9
$SURFU
 70
               6
  9
$SURFV
 70
               6
  9
$UCSNAME
  2

  9
$UCSORG
 10
0.0
 20
0.0
 30
0.0
  9
$UCSXDIR
 10
1.0
 20
0.0
 30
0.0
  9
$UCSYDIR
 10
0.0
 20
1.0
 30
0.0
  9
$PUCSNAME
  2

  9
$PUCSORG
 10
0.0
 20
0.0
 30
0.0
  9
$PUCSXDIR
 10
1.0
 20
0.0
 30
0.0
  9
$PUCSYDIR
 10
0.0
 20
1.0
 30
0.0
  9
$USERI1
 70
               0
  9
$USERI2
 70
               0
  9
$USERI3
 70
               0
  9
$USERI4
 70
               0
  9
$USERI5
 70
               0
  9
$USERR1
 40
0.0
  9
$USERR2
 40
0.0
  9
$USERR3
 40
0.0
  9
$USERR4
 40
0.0
  9
$USERR5
 40
0.0
  9
$WORLDVIEW
 70
               1
  9
$SHADEDGE
 70
               3
  9
$SHADEDIF
 70
              70
  9
$TILEMODE
 70
               1
  9
$MAXACTVP
 70
              16
  9
$PINSBASE
 10
0.0
 20
0.0
 30
0.0
  9
$PLIMCHECK
 70
               0
  9
$PEXTMIN
 10
1.0000000000000000E+20
 20
1.0000000000000000E+20
 30
1.0000000000000000E+20
  9
$PEXTMAX
 10
-1.0000000000000000E+20
 20
-1.0000000000000000E+20
 30
-1.0000000000000000E+20
  9
$PLIMMIN
 10
0.0
 20
0.0
  9
$PLIMMAX
 10
12.0
 20
9.0
  9
$UNITMODE
 70
               0
  9
$VISRETAIN
 70
               0
  9
$PLINEGEN
 70
               1
  9
$PSLTSCALE
 70
               0
  9
$TREEDEPTH
 70
            3020
  9
$PICKSTYLE
 70
               1
  9
$CMLSTYLE
  2
Standard
  9
$CMLJUST
 70
               0
  9
$CMLSCALE
 40
1.0
  9
$SAVEIMAGES
 70
               0
  0
ENDSEC
  0
SECTION
  2
CLASSES
  0
CLASS
  1
LWPOLYLINE
  2
AcDbPolyline
  3
"AutoCAD"
 90
    32768
280
               0
281
               1
  0
CLASS
  1
IMAGE
  2
AcDbRasterImage
  3
ISM
 90
    32895
280
               0
281
               1
  0
CLASS
  1
OLE2FRAME
  2
AcDbOle2Frame
  3
""
 90
    32768
280
               0
281
               1
  0
CLASS
  1
HATCH
  2
AcDbHatch
  3
"ACAD_SEDONA"
 90
    32768
280
               0
281
               1
  0
CLASS
  1
DICTIONARYVAR
  2
AcDbDictionaryVar
  3
"AutoCAD"
 90
    32768
280
               0
281
               0
  0
CLASS
  1
RASTERVARIABLES
  2
AcDbRasterVariables
  3
ISM
 90
    32768
280
               0
281
               0
  0
CLASS
  1
IMAGEDEF
  2
AcDbRasterImageDef
  3
ISM
 90
    32768
280
               0
281
               0
  0
CLASS
  1
IMAGEDEF_REACTOR
  2
AcDbRasterImageDefReactor
  3
ISM
 90
    32769
280
               0
281
               0
  0
CLASS
  1
IDBUFFER
  2
AcDbIdBuffer
  3
"Acad"
 90
    32768
280
               0
281
               0
  0
CLASS
  1
SPATIAL_FILTER
  2
AcDbSpatialFilter
  3
"Acad"
 90
    32768
280
               0
281
               0
  0
CLASS
  1
XRECORD
  2
AcDbXrecord
  3
"<Built In>"
 90
    32768
280
               0
281
               0
  0
CLASS
  1
SORTENTSTABLE
  2
AcDbSortentsTable
  3
"AutoCAD"
 90
    32768
280
               0
281
               0
  0
CLASS
  1
LAYER_INDEX
  2
AcDbLayerIndex
  3
"Acad"
 90
    32768
280
               0
281
               0
  0
CLASS
  1
SPATIAL_INDEX
  2
AcDbSpatialIndex
  3
"Acad"
 90
    32768
280
               0
281
               0
  0
CLASS
  1
OBJECT_PTR
  2
CAseDLPNTableRecord
  3
"ASE-LPNTableRecord"
 90
    32769
280
               0
281
               0
  0
CLASS
  1
LAYOUT
  2
AcDbLayout
  3
"AutoCAD 2000"
 90
    32768
280
               0
281
               0
  0
CLASS
  1
PLOTSETTINGS
  2
AcDbPlotSettings
  3
"AutoCAD 2000"
 90
    32768
280
               0
281
               0
  0
CLASS
  1
ACDBDICTIONARYWDFLT
  2
AcDbDictionaryWithDefault
  3
"AutoCAD 2000"
 90
    32768
280
               0
281
               0
  0
CLASS
  1
ACDBPLACEHOLDER
  2
AcDbPlaceHolder
  3
"AutoCAD 2000"
 90
    32768
280
               0
281
               0
  0
ENDSEC
  0
SECTION
  2
TABLES
  0
TABLE
  2
VPORT
  5
7
100
AcDbSymbolTable
 70
               1
  0
VPORT
  5
15
100
AcDbSymbolTableRecord
100
AcDbViewportTableRecord
  2
*ACTIVE
 70
               0
 10
0.0
 20
0.0
 11
1.0
 21
1.0
 12
0.0
 22
0.0
 13
0.0
 23
0.0
 14
1.0
 24
1.0
 15
0.0
 25
0.0
 16
0.0
 26
0.0
 36
1.0
 17
0.0
 27
0.0
 37
0.0
 40
1200.8900000000001
 41
1.7320508075688772
 42
50.0
 43
0.0
 44
0.0
 50
0.0
 51
0.0
 71
               0
 72
             100
 73
               1
 74
               1
 75
               0
 76
               0
 77
               0
 78
               0
  0
ENDTAB
  0
TABLE
  2
LTYPE
  5
4
100
AcDbSymbolTable
 70
               4
  0
LTYPE
  5
11
100
AcDbSymbolTableRecord
100
AcDbLinetypeTableRecord
  2
BYBLOCK
 70
              64
  3

 72
              65
 73
               0
 40
0.0
  0
LTYPE
  5
12
100
AcDbSymbolTableRecord
100
AcDbLinetypeTableRecord
  2
BYLAYER
 70
              64
  3

 72
              65
 73
               0
 40
0.0
  0
LTYPE
  5
13
100
AcDbSymbolTableRecord
100
AcDbLinetypeTableRecord
  2
CONTINUOUS
 70
              64
  3
Solid line
 72
              65
 73
               0
 40
0.0
  0
LTYPE
  5
3B9
100
AcDbSymbolTableRecord
100
AcDbLinetypeTableRecord
  2
PHANTOM
 70
              64
  3
Phantom ______  __  __  ______  __  __  ______
 72
              65
 73
               6
 40
63.500000000000007
 49
31.75
 74
               0
 49
-6.3499999999999996
 74
               0
 49
6.3499999999999996
 74
               0
 49
-6.3499999999999996
 74
               0
 49
6.3499999999999996
 74
               0
 49
-6.3499999999999996
 74
               0
  0
ENDTAB
  0
TABLE
  2
LAYER
  5
2
100
AcDbSymbolTable
 70
               2
  0
LAYER
  5
14
100
AcDbSymbolTableRecord
100
AcDbLayerTableRecord
  2
0
 70
               0
 62
               7
  6
CONTINUOUS
  0
LAYER
  5
1D
100
AcDbSymbolTableRecord
100
AcDbLayerTableRecord
  2
DEFPOINTS
 70
               0
 62
               7
  6
CONTINUOUS
  0
ENDTAB
  0
TABLE
  2
STYLE
  5
3
100
AcDbSymbolTable
 70
               2
  0
STYLE
  5
17
100
AcDbSymbolTableRecord
100
AcDbTextStyleTableRecord
  2
MX_NOTE_STANDARD
 70
               0
 40
0.0
 41
1.0
 50
0.0
 71
               0
 42
3.2000000476837158
  3
txt.shx
  4
extfont.shx
  0
STYLE
  5
4A0
100
AcDbSymbolTableRecord
100
AcDbTextStyleTableRecord
  2
MX_DIMTXSTY_2
 70
               0
 40
0.0
 41
1.05
 50
0.0
 71
               0
 42
3.2000000476837158
  3
txt.shx
  4
extfont.shx
  0
ENDTAB
  0
TABLE
  2
VIEW
  5
5
100
AcDbSymbolTable
 70
               0
  0
ENDTAB
  0
TABLE
  2
UCS
  5
6
100
AcDbSymbolTable
 70
               0
  0
ENDTAB
  0
TABLE
  2
APPID
  5
8
100
AcDbSymbolTable
 70
               1
  0
APPID
  5
16
100
AcDbSymbolTableRecord
100
AcDbRegAppTableRecord
  2
ACAD
 70
               0
  0
ENDTAB
  0
TABLE
  2
DIMSTYLE
  5
9
100
AcDbSymbolTable
 70
               1
  0
DIMSTYLE
105
18
100
AcDbSymbolTableRecord
100
AcDbDimStyleTableRecord
  2
MXDIMSTYLE
 70
               0
  3

  4

  5

  6
_OPEN30
  7
_OPEN30
 40
1.0
 41
2.5
 42
1.5
 43
3.75
 44
1.5
 45
0.0
 46
0.0
 47
0.0
 48
0.0
 71
               0
 72
               0
 73
               0
 74
               0
 75
               0
 76
               0
 77
               1
 78
               8
140
3.2000000476837158
141
2.5
142
0.0
143
0.03937007874016
144
1.0
145
0.0
146
1.0
147
1.0
170
               0
171
               4
172
               1
173
               1
174
               0
175
               0
176
               0
177
               0
178
               0
270
               2
271
               2
272
               2
273
               2
274
               4
275
               0
280
               0
281
               0
282
               0
283
               0
284
               0
285
               0
286
               0
287
               3
288
               1
340
17
  0
ENDTAB
  0
TABLE
  2
BLOCK_RECORD
  5
1
100
AcDbSymbolTable
 70
               7
  0
BLOCK_RECORD
  5
A
100
AcDbSymbolTableRecord
100
AcDbBlockTableRecord
  2
*MODEL_SPACE
  0
BLOCK_RECORD
  5
B
100
AcDbSymbolTableRecord
100
AcDbBlockTableRecord
  2
*PAPER_SPACE
  0
BLOCK_RECORD
  5
1E
100
AcDbSymbolTableRecord
100
AcDbBlockTableRecord
  2
DTRB-CS3-1
  0
BLOCK_RECORD
  5
1F
100
AcDbSymbolTableRecord
100
AcDbBlockTableRecord
  2
DTRB-CS3-2
  0
BLOCK_RECORD
  5
20
100
AcDbSymbolTableRecord
100
AcDbBlockTableRecord
  2
DTRB-CS3-3
  0
BLOCK_RECORD
  5
21
100
AcDbSymbolTableRecord
100
AcDbBlockTableRecord
  2
_OPEN30
  0
BLOCK_RECORD
  5
498
100
AcDbSymbolTableRecord
100
AcDbBlockTableRecord
  2
*D4
  0
BLOCK_RECORD
  5
4A7
100
AcDbSymbolTableRecord
100
AcDbBlockTableRecord
  2
*D5
  0
BLOCK_RECORD
  5
4B5
100
AcDbSymbolTableRecord
100
AcDbBlockTableRecord
  2
*D6
  0
ENDTAB
  0
ENDSEC
  0
SECTION
  2
BLOCKS
  0
BLOCK
  5
D
100
AcDbEntity
  8
0
100
AcDbBlockBegin
  2
*MODEL_SPACE
 70
               0
 10
0.0
 20
0.0
 30
0.0
  3
*MODEL_SPACE
  1

  0
ENDBLK
  5
E
100
AcDbEntity
  8
0
100
AcDbBlockEnd
  0
BLOCK
  5
F
100
AcDbEntity
 67
               1
  8
0
100
AcDbBlockBegin
  2
*PAPER_SPACE
 70
               0
 10
0.0
 20
0.0
 30
0.0
  3
*PAPER_SPACE
  1

  0
ENDBLK
  5
10
100
AcDbEntity
 67
               1
  8
0
100
AcDbBlockEnd
  0
BLOCK
  5
27
100
AcDbEntity
  8
0
100
AcDbBlockBegin
  2
DTRB-CS3-1
 70
               0
 10
0.0
 20
0.0
 30
0.0
  3
DTRB-CS3-1
  1

  0
LINE
  5
28
100
AcDbEntity
  8
0
  6
CONTINUOUS
 62
               2
100
AcDbLine
 10
51.999998656123196
 20
239.50250511438298
 30
0.0
 11
3.9999999790001084
 21
239.50250511438298
 31
0.0
  0
LINE
  5
29
100
AcDbEntity
  8
0
  6
CONTINUOUS
 62
               2
100
AcDbLine
 10
51.999998656123196
 20
289.50250511438298
 30
0.0
 11
3.9999999790001084
 21
289.50250511438298
 31
0.0
  0
LINE
  5
2A
100
AcDbEntity
  8
0
  6
CONTINUOUS
 62
               7
100
AcDbLine
 10
36.999999999999545
 20
19.949999999999989
 30
0.0
 11
36.999999999999545
 21
19.349999999999966
 31
0.0
  0
LINE
  5
2B
100
AcDbEntity
  8
0
  6
CONTINUOUS
 62
               7
100
AcDbLine
 10
32.508187912901235
 20
19.349999999999966
 30
0.0
 11
36.999999999999545
 21
19.349999999999966
 31
0.0
  0
LINE
  5
2C
100
AcDbEntity
  8
0
  6
CONTINUOUS
 62
               7
100
AcDbLine
 10
32.508187912901235
 20
19.949999999999989
 30
0.0
 11
36.999999999999545
 21
19.949999999999989
 31
0.0
  0
CIRCLE
  5
2D
100
AcDbEntity
  8
0
  6
CONTINUOUS
 62
               7
100
AcDbCircle
 10
143.00003051757807
 20
227.49996948242148
 30
0.0
 40
1.7500000000000002
  0
CIRCLE
  5
2E
100
AcDbEntity
  8
0
  6
CONTINUOUS
 62
               7
100
AcDbCircle
 10
37.999999999999545
 20
19.649999999999977
 30
0.0
 40
6.5000000000000009
  0
CIRCLE
  5
2F
100
AcDbEntity
  8
0
  6
CONTINUOUS
 62
               7
100
AcDbCircle
 10
37.999999999999545
 20
19.649999999999977
 30
0.0
 40
5.5
  0
CIRCLE
  5
30
100
AcDbEntity
  8
0
  6
CONTINUOUS
 62
               7
100
AcDbCircle
 10
37.999999999999545
 20
19.649999999999977
 30
0.0
 40
6.3499999999999996
  0
CIRCLE
  5
31
100
AcDbEntity
  8
0
  6
CONTINUOUS
 62
               7
100
AcDbCircle
 10
37.999999999999773
 20
19.649999999999864
 30
0.0
 40
10.0
  0
ARC
  5
32
100
AcDbEntity
  8
0
  6
CONTINUOUS
 62
               7
100
AcDbCircle
 10
6.3999809265136491
 20
404.5
 30
0.0
 40
3.5000000000000004
100
AcDbArc
 50
90.0
 51
180.0
  0
ARC
  5
33
100
AcDbEntity
  8
0
  6
CONTINUOUS
 62
               7
100
AcDbCircle
 10
2.8999809265135355
 20
389.99999999999994
 30
0.0
 40
1.0
100
AcDbArc
 50
180.0
 51
270.0
  0
ARC
  5
34
100
AcDbEntity
  8
0
  6
CONTINUOUS
 62
               7
100
AcDbCircle
 10
6.3999809265136491
 20
388.5
 30
0.0
 40
3.5000000000000004
100
AcDbArc
 50
180.0
 51
270.0
  0
ARC
  5
35
100
AcDbEntity
  8
0
  6
CONTINUOUS
 62
               7
100
AcDbCircle
 10
2.8999809265135355
 20
403.0
 30
0.0
 40
1.0
100
AcDbArc
 50
90.0
 51
180.0
  0
LINE
  5
36
100
AcDbEntity
  8
0
  6
CONTINUOUS
 62
               7
100
AcDbLine
 10
2.8999809265135355
 20
388.5
 30
0.0
 11
2.8999809265135355
 21
404.5
 31
0.0
  0
LINE
  5
37
100
AcDbEntity
  8
0
  6
CONTINUOUS
 62
               7
100
AcDbLine
 10
1.8999809265136491
 20
403.0
 30
0.0
 11
1.8999809265136491
 21
389.99999999999994
 31
0.0
  0
LINE
  5
38
100
AcDbEntity
  8
0
  6
CONTINUOUS
 62
               2
100
AcDbLine
 10
8.1497885424565766
 20
396.5
 30
0.0
 11
-0.7369292410094204
 21
396.5
 31
0.0
  0
LINE
  5
39
100
AcDbEntity
  8
0
  6
CONTINUOUS
 62
               7
100
AcDbLine
 10
6.3999999999999773
 20
409.5
 30
0.0
 11
6.3999999999999773
 21
331.5
 31
0.0
  0
LINE
  5
3A
100
AcDbEntity
  8
0
  6
CONTINUOUS
 62
               7
100
AcDbLine
 10
63.400000000000091
 20
172.99997168945276
 30
0.0
 11
65.000000120000095
 21
172.99997168945276
 31
0.0
  0
LINE
  5
3B
100
AcDbEntity
  8
0
  6
CONTINUOUS
 62
               7
100
AcDbLine
 10
66.004187880728637
 20
199.61489039775211
 30
0.0
 11
64.779844113495301
 21
198.39188968379005
 31
0.0
  0
LINE
  5
3C
100
AcDbEntity
  8
0
  6
CONTINUOUS
 62
               7
100
AcDbLine
 10
58.900000000000091
 20
191.49997168945276
 30
0.0
 11
58.900000000000091
 21
178.49997168945276
 31
0.0
  0
ARC
  5
3D
100
AcDbEntity
  8
0
  6
CONTINUOUS
 62
               7
100
AcDbCircle
 10
59.900000000000091
 20
178.49997168945276
 30
0.0
 40
1.0
100
AcDbArc
 50
180.0
 51
270.0
  0
LINE
  5
3E
100
AcDbEntity
  8
0
  6
CONTINUOUS
 62
               7
100
AcDbLine
 10
63.400000000000091
 20
177.29996337890589
 30
0.0
 11
63.400000000000091
 21
172.99997168945276
 31
0.0
  0
LINE
  5
3F
100
AcDbEntity
  8
0
  6
CONTINUOUS
 62
               7
100
AcDbLine
 10
63.900000000000091
 20
172.99997168945276
 30
0.0
 11
63.900000000000091
 21
177.29996337890589
 31
0.0
  0
ARC
  5
40
100
AcDbEntity
  8
0
  6
CONTINUOUS
 62
               7
100
AcDbCircle
 10
63.400000000000091
 20
176.99997168945276
 30
0.0
 40
3.5000000000000004
100
AcDbArc
 50
180.0
 51
270.0
  0
ARC
  5
41
100
AcDbEntity
  8
0
  6
CONTINUOUS
 62
               7
100
AcDbCircle
 10
66.900000000000205
 20
196.26940552203064
 30
0.0
 40
3.5000000000000004
100
AcDbArc
 50
134.9685572354158
 51
179.99999999999997
  0
ARC
  5
42
100
AcDbEntity
  8
0
  6
CONTINUOUS
 62
               7
100
AcDbCircle
 10
63.400000000000091
 20
192.99997168945276
 30
0.0
 40
3.5000000000000004
100
AcDbArc
 50
107.58284247057495
 51
180.0
  0
ARC
  5
43
100
AcDbEntity
  8
0
  6
CONTINUOUS
 62
               7
100
AcDbCircle
 10
68.529655838012786
 20
194.99997558593691
 30
0.0
 40
6.3296561241149902
100
AcDbArc
 50
160.85729086486964
 51
199.14270731389303
  0
LINE
  5
44
100
AcDbEntity
  8
0
  6
CONTINUOUS
 62
               7
100
AcDbLine
 10
62.549999976158347
 20
192.92434086799585
 30
0.0
 11
62.549999976158347
 21
197.07561030387842
 31
0.0
  0
LINE
  5
45
100
AcDbEntity
  8
0
  6
CONTINUOUS
 62
               7
100
AcDbLine
 10
62.549999998487351
 20
192.92434102768334
 30
0.0
 11
63.400000004229241
 21
192.84997566340104
 31
0.0
  0
LINE
  5
46
100
AcDbEntity
  8
0
  6
CONTINUOUS
 62
               7
100
AcDbLine
 10
62.549999998487579
 20
197.07561014419093
 30
0.0
 11
63.400000004229469
 21
197.14997550847318
 31
0.0
  0
LINE
  5
47
100
AcDbEntity
  8
0
  6
CONTINUOUS
 62
               7
100
AcDbLine
 10
66.004187880728637
 20
200.32160945225701
 30
0.0
 11
64.426484799078025
 21
198.74563704408337
 31
0.0
  0
LINE
  5
48
100
AcDbEntity
  8
0
  6
CONTINUOUS
 62
               7
100
AcDbLine
 10
63.900000000000091
 20
190.69998779296839
 30
0.0
 11
63.900000000000091
 21
196.26940552203064
 31
0.0
  0
ARC
  5
49
100
AcDbEntity
  8
0
  6
CONTINUOUS
 62
               7
100
AcDbCircle
 10
66.900000000000205
 20
196.26940552203064
 30
0.0
 40
3.0
100
AcDbArc
 50
134.96855723541546
 51
180.0
  0
ARC
  5
4A
100
AcDbEntity
  8
0
  6
CONTINUOUS
 62
               7
100
AcDbCircle
 10
59.900000000000091
 20
191.49997168945276
 30
0.0
 40
1.0
100
AcDbArc
 50
90.0
 51
180.0
  0
LINE
  5
4B
100
AcDbEntity
  8
0
  6
CONTINUOUS
 62
               7
100
AcDbLine
 10
59.900000000000091
 20
176.99997168945276
 30
0.0
 11
59.900000000000091
 21
192.99997168945276
 31
0.0
  0
LINE
  5
4C
100
AcDbEntity
  8
0
  6
CONTINUOUS
 62
               7
100
AcDbLine
 10
63.400000000000091
 20
197.14997550847318
 30
0.0
 11
63.400000000000091
 21
190.69998779296839
 31
0.0
  0
LINE
  5
4D
100
AcDbEntity
  8
0
  6
CONTINUOUS
 62
               2
100
AcDbLine
 10
95.0
 20
50.769572942307775
 30
0.0
 11
95.0
 21
63.379799487197317
 31
0.0
  0
LINE
  5
4E
100
AcDbEntity
  8
0
  6
CONTINUOUS
 62
               7
100
AcDbLine
 10
25.000038479957652
 20
55.999987725133906
 30
0.0
 11
36.196146832146724
 21
52.999999508649125
 31
0.0
  0
LINE
  5
4F
100
AcDbEntity
  8
0
  6
CONTINUOUS
 62
               7
100
AcDbLine
 10
44.618453126647523
 20
203.49996948242148
 30
0.0
 11
47.903589248657227
 21
203.49996948242148
 31
0.0
  0
LINE
  5
50
100
AcDbEntity
  8
0
  6
CONTINUOUS
 62
               7
100
AcDbLine
 10
45.139777764400378
 20
203.69996929168661
 30
0.0
 11
48.250000000000114
 21
203.69996929168661
 31
0.0
  0
LINE
  5
51
100
AcDbEntity
  8
0
  6
CONTINUOUS
 62
               7
100
AcDbLine
 10
47.000000019000254
 20
206.49996948242148
 30
0.0
 11
105.5
 21
206.49996948242148
 31
0.0
  0
LINE
  5
52
100
AcDbEntity
  8
0
  6
CONTINUOUS
 62
               7
100
AcDbLine
 10
8.9999999810000872
 20
211.49996948242148
 30
0.0
 11
-104.02777099609375
 21
211.49996948242148
 31
0.0
  0
LINE
  5
53
100
AcDbEntity
  8
0
  6
CONTINUOUS
 62
               7
100
AcDbLine
 10
8.9999999810000872
 20
221.29998779296838
 30
0.0
 11
-99.0
 21
221.29998779296838
 31
0.0
  0
LINE
  5
54
100
AcDbEntity
  8
0
  6
CONTINUOUS
 62
               7
100
AcDbLine
 10
8.9999999810000872
 20
224.69998168945281
 30
0.0
 11
-99.0
 21
224.69998168945281
 31
0.0
  0
LINE
  5
55
100
AcDbEntity
  8
0
  6
CONTINUOUS
 62
               7
100
AcDbLine
 10
8.9999999810000872
 20
232.49996948242156
 30
0.0
 11
-99.0
 21
232.49996948242156
 31
0.0
  0
LINE
  5
56
100
AcDbEntity
  8
0
  6
CONTINUOUS
 62
               7
100
AcDbLine
 10
47.000000019000254
 20
233.39996337890594
 30
0.0
 11
49.000007629394645
 21
233.39996337890594
 31
0.0
  0
LINE
  5
57
100
AcDbEntity
  8
0
  6
CONTINUOUS
 62
               7
100
AcDbLine
 10
47.000000019000254
 20
244.99996948242153
 30
0.0
 11
49.000007629394645
 21
244.99996948242153
 31
0.0
  0
LINE
  5
58
100
AcDbEntity
  8
0
  6
CONTINUOUS
 62
               2
100
AcDbLine
 10
28.0
 20
414.66668701688559
 30
0.0
 11
28.0
 21
192.53583763853254
 31
0.0
  0
LINE
  5
59
100
AcDbEntity
  8
0
  6
CONTINUOUS
 62
               7
100
AcDbLine
 10
8.9999999810000872
 20
233.37249895476737
 30
0.0
 11
6.9999999790001084
 21
233.37249895476737
 31
0.0
  0
LINE
  5
5A
100
AcDbEntity
  8
0
  6
CONTINUOUS
 62
               7
100
AcDbLine
 10
47.000000019000254
 20
212.50250503738312
 30
0.0
 11
8.9999999810000872
 21
212.50250503738312
 31
0.0
  0
ARC
  5
5B
100
AcDbEntity
  8
0
  6
CONTINUOUS
 62
               7
100
AcDbCircle
 10
28.0
 20
315.05786402665717
 30
0.0
 40
108.86813365378998
100
AcDbArc
 50
260.84681317746356
 51
279.15318181358009
  0
ARC
  5
5C
100
AcDbEntity
  8
0
  6
CONTINUOUS
 62
               7
100
AcDbCircle
 10
28.0
 20
247.62750507250806
 30
0.0
 40
47.125000047124999
100
AcDbArc
 50
247.86864096192809
 51
292.13136085930472
  0
ARC
  5
5D
100
AcDbEntity
  8
0
  6
CONTINUOUS
 62
               7
100
AcDbCircle
 10
45.000000017000048
 20
209.55050918482169
 30
0.0
 40
2.0000000020000006
100
AcDbArc
 50
279.15318181358009
 51
0.0
  0
ARC
  5
5E
100
AcDbEntity
  8
0
  6
CONTINUOUS
 62
               7
100
AcDbCircle
 10
10.999999982999952
 20
209.55050918482169
 30
0.0
 40
2.0000000020000006
100
AcDbArc
 50
180.00000500895632
 51
260.84680953499787
  0
ARC
  5
5F
100
AcDbEntity
  8
0
  6
CONTINUOUS
 62
               7
100
AcDbCircle
 10
10.999999982999952
 20
205.82721206195782
 30
0.0
 40
2.0000000020000006
100
AcDbArc
 50
180.00000500895632
 51
247.86863048927324
  0
ARC
  5
60
100
AcDbEntity
  8
0
  6
CONTINUOUS
 62
               7
100
AcDbCircle
 10
45.000000017000048
 20
205.82721206195782
 30
0.0
 40
2.0000000020000006
100
AcDbArc
 50
292.13136085930472
 51
0.0
  0
LINE
  5
61
100
AcDbEntity
  8
0
  6
CONTINUOUS
 62
               7
100
AcDbLine
 10
6.9999999790001084
 20
295.0025051198831
 30
0.0
 11
8.9999999810000872
 21
295.0025051198831
 31
0.0
  0
LINE
  5
62
100
AcDbEntity
  8
0
  6
CONTINUOUS
 62
               7
100
AcDbLine
 10
42.000000014000079
 20
310.50250513538299
 30
0.0
 11
42.000000014000079
 21
268.50250509338304
 31
0.0
  0
LINE
  5
63
100
AcDbEntity
  8
0
  6
CONTINUOUS
 62
               7
100
AcDbLine
 10
14.169982896326246
 20
408.17443847523703
 30
0.0
 11
14.169982896326246
 21
332.5490139464921
 31
0.0
  0
LINE
  5
64
100
AcDbEntity
  8
0
  6
CONTINUOUS
 62
               7
100
AcDbLine
 10
47.000000019000254
 20
331.50250515638305
 30
0.0
 11
6.3999999999999773
 21
331.50250515638305
 31
0.0
  0
LINE
  5
65
100
AcDbEntity
  8
0
  6
CONTINUOUS
 62
               7
100
AcDbLine
 10
47.000000019000254
 20
310.50250513538299
 30
0.0
 11
41.40002442746254
 21
310.50250513538299
 31
0.0
  0
LINE
  5
66
100
AcDbEntity
  8
0
  6
CONTINUOUS
 62
               7
100
AcDbLine
 10
47.000000019000254
 20
268.50250509338304
 30
0.0
 11
41.40002442746254
 21
268.50250509338304
 31
0.0
  0
LINE
  5
67
100
AcDbEntity
  8
0
  6
CONTINUOUS
 62
               2
100
AcDbLine
 10
44.500000016500053
 20
274.00250509888292
 30
0.0
 11
44.500000016500053
 21
279.00250510388304
 31
0.0
  0
LINE
  5
68
100
AcDbEntity
  8
0
  6
CONTINUOUS
 62
               2
100
AcDbLine
 10
47.000000019000254
 20
276.50250510138289
 30
0.0
 11
42.000000014000079
 21
276.50250510138289
 31
0.0
  0
LINE
  5
69
100
AcDbEntity
  8
0
  6
CONTINUOUS
 62
               2
100
AcDbLine
 10
44.500000016500053
 20
300.00250512488304
 30
0.0
 11
44.500000016500053
 21
305.0025051298831
 31
0.0
  0
LINE
  5
6A
100
AcDbEntity
  8
0
  6
CONTINUOUS
 62
               2
100
AcDbLine
 10
47.000000019000254
 20
302.50250512738302
 30
0.0
 11
42.000000014000079
 21
302.50250512738302
 31
0.0
  0
LINE
  5
6B
100
AcDbEntity
  8
0
  6
CONTINUOUS
 62
               2
100
AcDbLine
 10
11.499999983500061
 20
300.00250512488304
 30
0.0
 11
11.499999983500061
 21
305.0025051298831
 31
0.0
  0
LINE
  5
6C
100
AcDbEntity
  8
0
  6
CONTINUOUS
 62
               2
100
AcDbLine
 10
13.999999986000034
 20
302.50250512738302
 30
0.0
 11
8.9999999810000872
 21
302.50250512738302
 31
0.0
  0
LINE
  5
6D
100
AcDbEntity
  8
0
  6
CONTINUOUS
 62
               2
100
AcDbLine
 10
11.499999983500061
 20
274.00250509888292
 30
0.0
 11
11.499999983500061
 21
279.00250510388304
 31
0.0
  0
LINE
  5
6E
100
AcDbEntity
  8
0
  6
CONTINUOUS
 62
               2
100
AcDbLine
 10
13.999999986000034
 20
276.50250510138289
 30
0.0
 11
8.9999999810000872
 21
276.50250510138289
 31
0.0
  0
LINE
  5
6F
100
AcDbEntity
  8
0
  6
CONTINUOUS
 62
               7
100
AcDbLine
 10
47.000000019000254
 20
409.5
 30
0.0
 11
6.3999999999999773
 21
409.5
 31
0.0
  0
LINE
  5
70
100
AcDbEntity
  8
0
  6
CONTINUOUS
 62
               7
100
AcDbLine
 10
14.59997557253746
 20
268.50250509338304
 30
0.0
 11
8.9999999810000872
 21
268.50250509338304
 31
0.0
  0
LINE
  5
71
100
AcDbEntity
  8
0
  6
CONTINUOUS
 62
               7
100
AcDbLine
 10
41.830017103673867
 20
408.35473632697983
 30
0.0
 11
41.830017103673867
 21
332.36865505959298
 31
0.0
  0
LINE
  5
72
100
AcDbEntity
  8
0
  6
CONTINUOUS
 62
               7
100
AcDbLine
 10
13.999999986000034
 20
310.50250513538299
 30
0.0
 11
13.999999986000034
 21
268.50250509338304
 31
0.0
  0
LINE
  5
73
100
AcDbEntity
  8
0
  6
CONTINUOUS
 62
               7
100
AcDbLine
 10
14.59997557253746
 20
310.50250513538299
 30
0.0
 11
8.9999999810000872
 21
310.50250513538299
 31
0.0
  0
LINE
  5
74
100
AcDbEntity
  8
0
  6
CONTINUOUS
 62
               7
100
AcDbLine
 10
8.9999999810000872
 20
245.00247455230493
 30
0.0
 11
6.9999999790001084
 21
245.00247455230493
 31
0.0
  0
LINE
  5
75
100
AcDbEntity
  8
0
  6
CONTINUOUS
 62
               7
100
AcDbLine
 10
47.000000019000254
 20
295.0025051198831
 30
0.0
 11
49.000000021000119
 21
295.0025051198831
 31
0.0
  0
ARC
  5
76
100
AcDbEntity
  8
0
  6
CONTINUOUS
 62
               7
100
AcDbCircle
 10
38.500000010500003
 20
299.00250512388294
 30
0.0
 40
3.2500000032500003
100
AcDbArc
 50
333.16467852464012
 51
26.835321475359859
  0
ARC
  5
77
100
AcDbEntity
  8
0
  6
CONTINUOUS
 62
               7
100
AcDbCircle
 10
38.500000010500003
 20
280.00250510488297
 30
0.0
 40
3.2500000032500003
100
AcDbArc
 50
333.16467852464012
 51
26.835321475359859
  0
ARC
  5
78
100
AcDbEntity
  8
0
  6
CONTINUOUS
 62
               7
100
AcDbCircle
 10
17.499999989500111
 20
299.00250512388294
 30
0.0
 40
3.2500000032500003
100
AcDbArc
 50
153.16468353359647
 51
206.8353264843162
  0
ARC
  5
79
100
AcDbEntity
  8
0
  6
CONTINUOUS
 62
               7
100
AcDbCircle
 10
17.499999989500111
 20
280.00250510488297
 30
0.0
 40
3.2500000032500003
100
AcDbArc
 50
153.16468353359647
 51
206.8353264843162
  0
CIRCLE
  5
7A
100
AcDbEntity
  8
0
  6
CONTINUOUS
 62
               2
100
AcDbCircle
 10
44.500000016500053
 20
276.50250510138289
 30
0.0
 40
1.5000000014999999
  0
CIRCLE
  5
7B
100
AcDbEntity
  8
0
  6
CONTINUOUS
 62
               7
100
AcDbCircle
 10
44.500000016500053
 20
276.50250510138289
 30
0.0
 40
1.2500000012500003
  0
CIRCLE
  5
7C
100
AcDbEntity
  8
0
  6
CONTINUOUS
 62
               2
100
AcDbCircle
 10
44.500000016500053
 20
302.50250512738302
 30
0.0
 40
1.5000000014999999
  0
CIRCLE
  5
7D
100
AcDbEntity
  8
0
  6
CONTINUOUS
 62
               7
100
AcDbCircle
 10
44.500000016500053
 20
302.50250512738302
 30
0.0
 40
1.2500000012500003
  0
CIRCLE
  5
7E
100
AcDbEntity
  8
0
  6
CONTINUOUS
 62
               2
100
AcDbCircle
 10
11.499999983500061
 20
302.50250512738302
 30
0.0
 40
1.5000000014999999
  0
CIRCLE
  5
7F
100
AcDbEntity
  8
0
  6
CONTINUOUS
 62
               7
100
AcDbCircle
 10
11.499999983500061
 20
302.50250512738302
 30
0.0
 40
1.2500000012500003
  0
CIRCLE
  5
80
100
AcDbEntity
  8
0
  6
CONTINUOUS
 62
               2
100
AcDbCircle
 10
11.499999983500061
 20
276.50250510138289
 30
0.0
 40
1.5000000014999999
  0
CIRCLE
  5
81
100
AcDbEntity
  8
0
  6
CONTINUOUS
 62
               7
100
AcDbCircle
 10
11.499999983500061
 20
276.50250510138289
 30
0.0
 40
1.2500000012500003
  0
ARC
  5
82
100
AcDbEntity
  8
0
  6
CONTINUOUS
 62
               7
100
AcDbCircle
 10
11.529655824142424
 20
335.00250515988267
 30
0.0
 40
6.329656130444647
100
AcDbArc
 50
160.85729086486964
 51
199.14270731389303
  0
LINE
  5
83
100
AcDbEntity
  8
0
  6
CONTINUOUS
 62
               7
100
AcDbLine
 10
5.5499999563081701
 20
332.92687043986615
 30
0.0
 11
5.5499999563083975
 21
337.07813987989994
 31
0.0
  0
LINE
  5
84
100
AcDbEntity
  8
0
  6
CONTINUOUS
 62
               7
100
AcDbLine
 10
5.549999959734123
 20
332.92687055339354
 30
0.0
 11
6.3999999852292149
 21
332.85250518738309
 31
0.0
  0
LINE
  5
85
100
AcDbEntity
  8
0
  6
CONTINUOUS
 62
               7
100
AcDbLine
 10
5.5499999597343503
 20
337.07813976637266
 30
0.0
 11
6.3999999852295559
 21
337.152505132383
 31
0.0
  0
ARC
  5
86
100
AcDbEntity
  8
0
  6
CONTINUOUS
 62
               7
100
AcDbCircle
 10
41.870344175857895
 20
335.00250515988324
 30
0.0
 40
6.329656130444647
100
AcDbArc
 50
340.85729086486964
 51
19.142707313893034
  0
LINE
  5
87
100
AcDbEntity
  8
0
  6
CONTINUOUS
 62
               7
100
AcDbLine
 10
47.850000043692035
 20
337.07813987989994
 30
0.0
 11
47.850000043691921
 21
332.92687043986615
 31
0.0
  0
LINE
  5
88
100
AcDbEntity
  8
0
  6
CONTINUOUS
 62
               7
100
AcDbLine
 10
47.850000040266082
 20
337.07813976637237
 30
0.0
 11
47.000000014771103
 21
337.152505132383
 31
0.0
  0
LINE
  5
89
100
AcDbEntity
  8
0
  6
CONTINUOUS
 62
               7
100
AcDbLine
 10
47.850000040265741
 20
332.92687055339337
 30
0.0
 11
47.000000014770762
 21
332.85250518738309
 31
0.0
  0
LINE
  5
8A
100
AcDbEntity
  8
0
  6
CONTINUOUS
 62
               7
100
AcDbLine
 10
39.20001221823145
 20
331.50250515638305
 30
0.0
 11
39.20001221823145
 21
212.50250503738312
 31
0.0
  0
LINE
  5
8B
100
AcDbEntity
  8
0
  6
CONTINUOUS
 62
               7
100
AcDbLine
 10
47.000000019000254
 20
409.5
 30
0.0
 11
47.000000019000254
 21
205.82721206195782
 31
0.0
  0
LINE
  5
8C
100
AcDbEntity
  8
0
  6
CONTINUOUS
 62
               7
100
AcDbLine
 10
16.799987781768891
 20
331.50250515638305
 30
0.0
 11
16.799987781768891
 21
212.50250503738312
 31
0.0
  0
LINE
  5
8D
100
AcDbEntity
  8
0
  6
CONTINUOUS
 62
               7
100
AcDbLine
 10
14.59997557253746
 20
331.50250515638305
 30
0.0
 11
14.59997557253746
 21
212.50250503738312
 31
0.0
  0
LINE
  5
8E
100
AcDbEntity
  8
0
  6
CONTINUOUS
 62
               7
100
AcDbLine
 10
41.40002442746254
 20
331.50250515638305
 30
0.0
 11
41.40002442746254
 21
212.50250503738312
 31
0.0
  0
LINE
  5
8F
100
AcDbEntity
  8
0
  6
CONTINUOUS
 62
               7
100
AcDbLine
 10
49.000000021000119
 20
295.0025051198831
 30
0.0
 11
48.999984733747851
 21
233.39996337890594
 31
0.0
  0
LINE
  5
90
100
AcDbEntity
  8
0
  6
CONTINUOUS
 62
               7
100
AcDbLine
 10
6.9999999790001084
 20
295.0025051198831
 30
0.0
 11
6.9999999790001084
 21
233.37249895476737
 31
0.0
  0
LINE
  5
91
100
AcDbEntity
  8
0
  6
CONTINUOUS
 62
               7
100
AcDbLine
 10
8.9999999810000872
 20
331.50250515638305
 30
0.0
 11
8.9999999810000872
 21
205.82721206195782
 31
0.0
  0
LINE
  5
92
100
AcDbEntity
  8
0
  6
CONTINUOUS
 62
               7
100
AcDbLine
 10
5.6500243917126909
 20
332.91811954954534
 30
0.0
 11
5.6500243917126909
 21
332.00262716162848
 31
0.0
  0
LINE
  5
93
100
AcDbEntity
  8
0
  6
CONTINUOUS
 62
               7
100
AcDbLine
 10
4.1499999557344154
 20
327.92699255313892
 30
0.0
 11
4.9999999812293936
 21
327.85262718712858
 31
0.0
  0
LINE
  5
94
100
AcDbEntity
  8
0
  6
CONTINUOUS
 62
               7
100
AcDbLine
 10
4.149999955734188
 20
332.07826176611803
 30
0.0
 11
4.9999999812292799
 21
332.15262713212849
 31
0.0
  0
LINE
  5
95
100
AcDbEntity
  8
0
  6
CONTINUOUS
 62
               7
100
AcDbLine
 10
4.1499999523082352
 20
332.07826187964537
 30
0.0
 11
4.1499999523082352
 21
327.92699243961164
 31
0.0
  0
ARC
  5
96
100
AcDbEntity
  8
0
  6
CONTINUOUS
 62
               7
100
AcDbCircle
 10
10.129655820142489
 20
330.00262715962873
 30
0.0
 40
6.329656130444647
100
AcDbArc
 50
160.85729268610697
 51
199.14270913513036
  0
LINE
  5
97
100
AcDbEntity
  8
0
  6
CONTINUOUS
 62
               7
100
AcDbLine
 10
4.9999999770001295
 20
332.15262713212849
 30
0.0
 11
4.9999999770001295
 21
321.50262715112842
 31
0.0
  0
LINE
  5
98
100
AcDbEntity
  8
0
  6
CONTINUOUS
 62
               7
100
AcDbLine
 10
8.9999999810000872
 20
321.50262715112842
 30
0.0
 11
4.9999999770001295
 21
321.50262715112842
 31
0.0
  0
LINE
  5
99
100
AcDbEntity
  8
0
  6
CONTINUOUS
 62
               7
100
AcDbLine
 10
6.3999999999999773
 20
332.00262716162848
 30
0.0
 11
4.9999999770001295
 21
332.00262716162848
 31
0.0
  0
ARC
  5
9A
100
AcDbEntity
  8
0
  6
CONTINUOUS
 62
               7
100
AcDbCircle
 10
8.6500243917125772
 20
336.50250515638299
 30
0.0
 40
3.0
100
AcDbArc
 50
138.59108219070134
 51
168.6675837799784
  0
LINE
  5
9B
100
AcDbEntity
  8
0
  6
CONTINUOUS
 62
               7
100
AcDbLine
 10
148.00003051757807
 20
243.99996948242153
 30
0.0
 11
148.00003051757807
 21
211.49996948242148
 31
0.0
  0
LINE
  5
9C
100
AcDbEntity
  8
0
  6
CONTINUOUS
 62
               7
100
AcDbLine
 10
104.9999998799999
 20
175.99999999999955
 30
0.0
 11
104.9999998799999
 21
172.99999999999955
 31
0.0
  0
LINE
  5
9D
100
AcDbEntity
  8
0
  6
CONTINUOUS
 62
               7
100
AcDbLine
 10
104.9999998799999
 20
175.99999999999955
 30
0.0
 11
65.000000120000095
 21
175.99999999999955
 31
0.0
  0
LINE
  5
9E
100
AcDbEntity
  8
0
  6
CONTINUOUS
 62
               7
100
AcDbLine
 10
104.9999998799999
 20
172.99999999999955
 30
0.0
 11
65.000000120000095
 21
172.99999999999955
 31
0.0
  0
LINE
  5
9F
100
AcDbEntity
  8
0
  6
CONTINUOUS
 62
               7
100
AcDbLine
 10
65.000000120000095
 20
172.99999999999955
 30
0.0
 11
65.000000120000095
 21
175.99999999999955
 31
0.0
  0
LINE
  5
A0
100
AcDbEntity
  8
0
  6
CONTINUOUS
 62
               7
100
AcDbLine
 10
103.40002434412349
 20
5.1999877691268921
 30
0.0
 11
-103.40002448400065
 21
5.1999877691268921
 31
0.0
  0
LINE
  5
A1
100
AcDbEntity
  8
0
  6
CONTINUOUS
 62
               7
100
AcDbLine
 10
103.40002441406227
 20
3.199981689453125
 30
0.0
 11
80.000024437904358
 21
3.199981689453125
 31
0.0
  0
LINE
  5
A2
100
AcDbEntity
  8
0
  6
CONTINUOUS
 62
               7
100
AcDbLine
 10
-47.999999999999261
 20
34.199981689453125
 30
0.0
 11
-47.999999999999261
 21
46.199981689453011
 31
0.0
  0
LINE
  5
A3
100
AcDbEntity
  8
0
  6
CONTINUOUS
 62
               7
100
AcDbLine
 10
-97.999999999999488
 20
34.199981689453125
 30
0.0
 11
-97.999999999999488
 21
46.199981689453011
 31
0.0
  0
LINE
  5
A4
100
AcDbEntity
  8
0
  6
CONTINUOUS
 62
               7
100
AcDbLine
 10
-48.999999999999432
 20
33.199981689453125
 30
0.0
 11
-96.999999999999545
 21
33.199981689453125
 31
0.0
  0
LINE
  5
A5
100
AcDbEntity
  8
0
  6
CONTINUOUS
 62
               7
100
AcDbLine
 10
-48.999999999999432
 20
47.199981689453011
 30
0.0
 11
-96.999999999999545
 21
47.199981689453011
 31
0.0
  0
LINE
  5
A6
100
AcDbEntity
  8
0
  6
CONTINUOUS
 62
               7
100
AcDbLine
 10
48.999999999999773
 20
35.699981689453125
 30
0.0
 11
48.999999999999773
 21
44.699981689453011
 31
0.0
  0
LINE
  5
A7
100
AcDbEntity
  8
0
  6
CONTINUOUS
 62
               7
100
AcDbLine
 10
80.999999999999432
 20
35.699981689453125
 30
0.0
 11
80.999999999999432
 21
44.699981689453011
 31
0.0
  0
LINE
  5
A8
100
AcDbEntity
  8
0
  6
CONTINUOUS
 62
               7
100
AcDbLine
 10
79.999999999999432
 20
45.699981689453125
 30
0.0
 11
49.999999999999773
 21
45.699981689453125
 31
0.0
  0
LINE
  5
A9
100
AcDbEntity
  8
0
  6
CONTINUOUS
 62
               7
100
AcDbLine
 10
79.999999999999432
 20
34.699981689453125
 30
0.0
 11
49.999999999999773
 21
34.699981689453125
 31
0.0
  0
LINE
  5
AA
100
AcDbEntity
  8
0
  6
CONTINUOUS
 62
               7
100
AcDbLine
 10
-98.299987792968238
 20
34.199981689453125
 30
0.0
 11
-98.299987792968238
 21
46.199981689453011
 31
0.0
  0
LINE
  5
AB
100
AcDbEntity
  8
0
  6
CONTINUOUS
 62
               7
100
AcDbLine
 10
-48.999999999999432
 20
47.499969482421761
 30
0.0
 11
-96.999999999999545
 21
47.499969482421761
 31
0.0
  0
LINE
  5
AC
100
AcDbEntity
  8
0
  6
CONTINUOUS
 62
               7
100
AcDbLine
 10
-47.700012207030511
 20
34.199981689453125
 30
0.0
 11
-47.700012207030511
 21
46.199981689453011
 31
0.0
  0
LINE
  5
AD
100
AcDbEntity
  8
0
  6
CONTINUOUS
 62
               7
100
AcDbLine
 10
-48.999999999999432
 20
32.899993896484375
 30
0.0
 11
-96.999999999999545
 21
32.899993896484375
 31
0.0
  0
LINE
  5
AE
100
AcDbEntity
  8
0
  6
CONTINUOUS
 62
               7
100
AcDbLine
 10
79.999999999999432
 20
45.999969482421875
 30
0.0
 11
49.999999999999773
 21
45.999969482421875
 31
0.0
  0
LINE
  5
AF
100
AcDbEntity
  8
0
  6
CONTINUOUS
 62
               7
100
AcDbLine
 10
81.299987792968182
 20
35.699981689453125
 30
0.0
 11
81.299987792968182
 21
44.699981689453011
 31
0.0
  0
LINE
  5
B0
100
AcDbEntity
  8
0
  6
CONTINUOUS
 62
               7
100
AcDbLine
 10
79.999999999999432
 20
34.399993896484375
 30
0.0
 11
49.999999999999773
 21
34.399993896484375
 31
0.0
  0
LINE
  5
B1
100
AcDbEntity
  8
0
  6
CONTINUOUS
 62
               7
100
AcDbLine
 10
48.700012207031023
 20
35.699981689453125
 30
0.0
 11
48.700012207031023
 21
44.699981689453011
 31
0.0
  0
ARC
  5
B2
100
AcDbEntity
  8
0
  6
CONTINUOUS
 62
               7
100
AcDbCircle
 10
-103.40002441406239
 20
4.7999877929686363
 30
0.0
 40
1.6000000238418579
100
AcDbArc
 50
179.68332763273006
 51
270.0
  0
ARC
  5
B3
100
AcDbEntity
  8
0
  6
CONTINUOUS
 62
               7
100
AcDbCircle
 10
103.40002441406227
 20
4.7999877929686363
 30
0.0
 40
1.6000000238418579
100
AcDbArc
 50
270.0
 51
0.3166723656923418
  0
CIRCLE
  5
B4
100
AcDbEntity
  8
0
  6
CONTINUOUS
 62
               7
100
AcDbCircle
 10
-45.999999999999375
 20
19.29998779296875
 30
0.0
 40
2.7000000476837158
  0
CIRCLE
  5
B5
100
AcDbEntity
  8
0
  6
CONTINUOUS
 62
               7
100
AcDbCircle
 10
-45.999999999999375
 20
19.29998779296875
 30
0.0
 40
3.2000000476837158
  0
CIRCLE
  5
B6
100
AcDbEntity
  8
0
  6
CONTINUOUS
 62
               7
100
AcDbCircle
 10
-35.999999999999432
 20
19.331939697265625
 30
0.0
 40
3.2000000476837158
  0
CIRCLE
  5
B7
100
AcDbEntity
  8
0
  6
CONTINUOUS
 62
               7
100
AcDbCircle
 10
-35.999999999999432
 20
19.331939697265625
 30
0.0
 40
2.7000000476837158
  0
ARC
  5
B8
100
AcDbEntity
  8
0
  6
CONTINUOUS
 62
               7
100
AcDbCircle
 10
49.999999999999773
 20
44.699981689453011
 30
0.0
 40
1.0
100
AcDbArc
 50
90.000002504478161
 51
180.00000500895632
  0
ARC
  5
B9
100
AcDbEntity
  8
0
  6
CONTINUOUS
 62
               7
100
AcDbCircle
 10
79.999999999999432
 20
44.699981689453011
 30
0.0
 40
1.0
100
AcDbArc
 50
0.0
 51
90.000002504478161
  0
ARC
  5
BA
100
AcDbEntity
  8
0
  6
CONTINUOUS
 62
               7
100
AcDbCircle
 10
-48.999999999999432
 20
34.199981689453125
 30
0.0
 40
1.0
100
AcDbArc
 50
269.99999749552182
 51
0.0
  0
ARC
  5
BB
100
AcDbEntity
  8
0
  6
CONTINUOUS
 62
               7
100
AcDbCircle
 10
-96.999999999999545
 20
46.199981689453011
 30
0.0
 40
1.0
100
AcDbArc
 50
90.000002504478161
 51
180.00000500895632
  0
ARC
  5
BC
100
AcDbEntity
  8
0
  6
CONTINUOUS
 62
               7
100
AcDbCircle
 10
-96.999999999999545
 20
34.199981689453125
 30
0.0
 40
1.0
100
AcDbArc
 50
179.99999499104368
 51
269.99999749552182
  0
ARC
  5
BD
100
AcDbEntity
  8
0
  6
CONTINUOUS
 62
               7
100
AcDbCircle
 10
-48.999999999999432
 20
46.199981689453011
 30
0.0
 40
1.0
100
AcDbArc
 50
0.0
 51
90.000002504478161
  0
ARC
  5
BE
100
AcDbEntity
  8
0
  6
CONTINUOUS
 62
               7
100
AcDbCircle
 10
79.999999999999432
 20
35.699981689453125
 30
0.0
 40
1.0
100
AcDbArc
 50
269.99999749552182
 51
0.0
  0
ARC
  5
BF
100
AcDbEntity
  8
0
  6
CONTINUOUS
 62
               7
100
AcDbCircle
 10
49.999999999999773
 20
35.699981689453125
 30
0.0
 40
1.0
100
AcDbArc
 50
179.99999499104368
 51
269.99999749552182
  0
ARC
  5
C0
100
AcDbEntity
  8
0
  6
CONTINUOUS
 62
               7
100
AcDbCircle
 10
-96.999999999999545
 20
46.199981689453011
 30
0.0
 40
1.299999952316284
100
AcDbArc
 50
90.000002504478161
 51
180.00000500895632
  0
ARC
  5
C1
100
AcDbEntity
  8
0
  6
CONTINUOUS
 62
               7
100
AcDbCircle
 10
-48.999999999999432
 20
46.199981689453011
 30
0.0
 40
1.299999952316284
100
AcDbArc
 50
0.0
 51
90.000002504478161
  0
ARC
  5
C2
100
AcDbEntity
  8
0
  6
CONTINUOUS
 62
               7
100
AcDbCircle
 10
-48.999999999999432
 20
34.199981689453125
 30
0.0
 40
1.299999952316284
100
AcDbArc
 50
269.99999749552182
 51
0.0
  0
ARC
  5
C3
100
AcDbEntity
  8
0
  6
CONTINUOUS
 62
               7
100
AcDbCircle
 10
-96.999999999999545
 20
34.199981689453125
 30
0.0
 40
1.299999952316284
100
AcDbArc
 50
179.99999499104368
 51
269.99999749552182
  0
ARC
  5
C4
100
AcDbEntity
  8
0
  6
CONTINUOUS
 62
               7
100
AcDbCircle
 10
79.999999999999432
 20
44.699981689453011
 30
0.0
 40
1.299999952316284
100
AcDbArc
 50
0.0
 51
90.000002504478161
  0
ARC
  5
C5
100
AcDbEntity
  8
0
  6
CONTINUOUS
 62
               7
100
AcDbCircle
 10
79.999999999999432
 20
35.699981689453125
 30
0.0
 40
1.299999952316284
100
AcDbArc
 50
269.99999749552182
 51
0.0
  0
ARC
  5
C6
100
AcDbEntity
  8
0
  6
CONTINUOUS
 62
               7
100
AcDbCircle
 10
49.999999999999773
 20
35.699981689453125
 30
0.0
 40
1.299999952316284
100
AcDbArc
 50
179.99999499104368
 51
269.99999749552182
  0
ARC
  5
C7
100
AcDbEntity
  8
0
  6
CONTINUOUS
 62
               7
100
AcDbCircle
 10
49.999999999999773
 20
44.699981689453011
 30
0.0
 40
1.299999952316284
100
AcDbArc
 50
90.000002504478161
 51
180.00000500895632
  0
ARC
  5
C8
100
AcDbEntity
  8
0
  6
CONTINUOUS
 62
               7
100
AcDbCircle
 10
103.4000244140617
 20
6.79998779296875
 30
0.0
 40
1.6000000238418579
100
AcDbArc
 50
269.99999749552182
 51
0.0000000000001018
  0
ARC
  5
C9
100
AcDbEntity
  8
0
  6
CONTINUOUS
 62
               7
100
AcDbCircle
 10
-103.40002441406239
 20
6.79998779296875
 30
0.0
 40
1.6000000238418579
100
AcDbArc
 50
179.99999499104368
 51
269.99999749552182
  0
LINE
  5
CA
100
AcDbEntity
  8
0
  6
CONTINUOUS
 62
               7
100
AcDbLine
 10
103.40000305175693
 20
4.7999816894530341
 30
0.0
 11
-103.39999685287478
 21
4.7999816894530341
 31
0.0
  0
LINE
  5
CB
100
AcDbEntity
  8
0
  6
CONTINUOUS
 62
               7
100
AcDbLine
 10
89.499999999999886
 20
5.1999816894530113
 30
0.0
 11
89.499999999999886
 21
4.7999816894530341
 31
0.0
  0
LINE
  5
CC
100
AcDbEntity
  8
0
  6
CONTINUOUS
 62
               7
100
AcDbLine
 10
100.49999999999977
 20
5.1999816894530113
 30
0.0
 11
100.49999999999977
 21
4.7999816894530341
 31
0.0
  0
LINE
  5
CD
100
AcDbEntity
  8
0
  6
CONTINUOUS
 62
               7
100
AcDbLine
 10
103.30000305175781
 20
5.1999816894530113
 30
0.0
 11
103.30000305175781
 21
4.7999816894530341
 31
0.0
  0
LINE
  5
CE
100
AcDbEntity
  8
0
  6
CONTINUOUS
 62
               7
100
AcDbLine
 10
103.40000305175772
 20
5.1999816894530113
 30
0.0
 11
103.40000305175772
 21
4.7999816894530341
 31
0.0
  0
LINE
  5
CF
100
AcDbEntity
  8
0
  6
CONTINUOUS
 62
               7
100
AcDbLine
 10
-89.499997138976937
 20
5.1999816894530113
 30
0.0
 11
-89.499997138976937
 21
4.7999816894530341
 31
0.0
  0
LINE
  5
D0
100
AcDbEntity
  8
0
  6
CONTINUOUS
 62
               7
100
AcDbLine
 10
-100.49999690055836
 20
5.1999816894530113
 30
0.0
 11
-100.49999690055836
 21
4.7999816894530341
 31
0.0
  0
LINE
  5
D1
100
AcDbEntity
  8
0
  6
CONTINUOUS
 62
               7
100
AcDbLine
 10
-103.2999968528747
 20
5.1999816894530113
 30
0.0
 11
-103.2999968528747
 21
4.7999816894530341
 31
0.0
  0
LINE
  5
D2
100
AcDbEntity
  8
0
  6
CONTINUOUS
 62
               7
100
AcDbLine
 10
-103.39999685287478
 20
5.1999816894530113
 30
0.0
 11
-103.39999685287478
 21
4.7999816894530341
 31
0.0
  0
LINE
  5
D3
100
AcDbEntity
  8
0
  6
CONTINUOUS
 62
               7
100
AcDbLine
 10
-80.000024437904074
 20
4.7999816894530341
 30
0.0
 11
-80.000024437904074
 21
3.199981689453125
 31
0.0
  0
LINE
  5
D4
100
AcDbEntity
  8
0
  6
CONTINUOUS
 62
               7
100
AcDbLine
 10
80.000024437904358
 20
4.7999816894530341
 30
0.0
 11
80.000024437904358
 21
3.199981689453125
 31
0.0
  0
LINE
  5
D5
100
AcDbEntity
  8
0
  6
CONTINUOUS
 62
               7
100
AcDbLine
 10
-80.000024437904074
 20
3.199981689453125
 30
0.0
 11
-103.40002441406239
 21
3.199981689453125
 31
0.0
  0
LINE
  5
D6
100
AcDbEntity
  8
0
  6
CONTINUOUS
 62
               7
100
AcDbLine
 10
81.999999999999545
 20
24.149999999999977
 30
0.0
 11
47.999999999999773
 21
24.149999999999977
 31
0.0
  0
LINE
  5
D7
100
AcDbEntity
  8
0
  6
CONTINUOUS
 62
               7
100
AcDbLine
 10
81.999999999999545
 20
24.149999999999977
 30
0.0
 11
81.999999999999545
 21
11.649999999999977
 31
0.0
  0
LINE
  5
D8
100
AcDbEntity
  8
0
  6
CONTINUOUS
 62
               7
100
AcDbLine
 10
81.999999999999545
 20
11.649999999999977
 30
0.0
 11
47.999999999999773
 21
11.649999999999977
 31
0.0
  0
LINE
  5
D9
100
AcDbEntity
  8
0
  6
CONTINUOUS
 62
               7
100
AcDbLine
 10
47.999999999999773
 20
24.149999999999977
 30
0.0
 11
47.999999999999773
 21
11.649999999999977
 31
0.0
  0
LINE
  5
DA
100
AcDbEntity
  8
0
  6
CONTINUOUS
 62
               7
100
AcDbLine
 10
-56.499999999999432
 20
27.299999999999955
 30
0.0
 11
-56.499999999999432
 21
11.299999999999955
 31
0.0
  0
LINE
  5
DB
100
AcDbEntity
  8
0
  6
CONTINUOUS
 62
               7
100
AcDbLine
 10
-56.499999999999432
 20
27.299999999999955
 30
0.0
 11
-89.499999999999545
 21
27.299999999999955
 31
0.0
  0
LINE
  5
DC
100
AcDbEntity
  8
0
  6
CONTINUOUS
 62
               7
100
AcDbLine
 10
-89.499999999999545
 20
27.299999999999955
 30
0.0
 11
-89.499999999999545
 21
11.299999999999955
 31
0.0
  0
LINE
  5
DD
100
AcDbEntity
  8
0
  6
CONTINUOUS
 62
               7
100
AcDbLine
 10
-56.499999999999432
 20
11.299999999999955
 30
0.0
 11
-89.499999999999545
 21
11.299999999999955
 31
0.0
  0
CIRCLE
  5
DE
100
AcDbEntity
  8
0
  6
CONTINUOUS
 62
               7
100
AcDbCircle
 10
-45.999999999999318
 20
19.299999999999955
 30
0.0
 40
2.1000000000000001
  0
CIRCLE
  5
DF
100
AcDbEntity
  8
0
  6
CONTINUOUS
 62
               7
100
AcDbCircle
 10
-35.999999999999432
 20
19.299999999999955
 30
0.0
 40
2.1000000000000001
  0
LINE
  5
E0
100
AcDbEntity
  8
0
  6
CONTINUOUS
 62
               7
100
AcDbLine
 10
106.30000683699598
 20
8.7637257394476364
 30
0.0
 11
105.00004082629437
 21
8.6499934508742626
 31
0.0
  0
LINE
  5
E1
100
AcDbEntity
  8
0
  6
CONTINUOUS
 62
               7
100
AcDbLine
 10
106.29997228135414
 20
14.836267295419589
 30
0.0
 11
105.00000627065253
 21
14.949999583992962
 31
0.0
  0
LINE
  5
E2
100
AcDbEntity
  8
0
  6
CONTINUOUS
 62
               7
100
AcDbLine
 10
106.29998779296818
 20
8.7637328863143011
 30
0.0
 11
106.29998779296818
 21
14.836273169517426
 31
0.0
  0
ARC
  5
E3
100
AcDbEntity
  8
0
  6
CONTINUOUS
 62
               7
100
AcDbCircle
 10
98.917541503905682
 20
11.799987769126744
 30
0.0
 40
7.982419490814209
100
AcDbArc
 50
337.64346066720742
 51
22.356539332792593
  0
LINE
  5
E4
100
AcDbEntity
  8
0
  6
CONTINUOUS
 62
               7
100
AcDbLine
 10
-106.29997995334588
 20
14.836253679934543
 30
0.0
 11
-105.00001394264427
 21
14.949985968507917
 31
0.0
  0
LINE
  5
E5
100
AcDbEntity
  8
0
  6
CONTINUOUS
 62
               7
100
AcDbLine
 10
-106.30001450898772
 20
8.7637271955850338
 30
0.0
 11
-104.99998769538564
 21
8.6499895874471235
 31
0.0
  0
LINE
  5
E6
100
AcDbEntity
  8
0
  6
CONTINUOUS
 62
               7
100
AcDbLine
 10
-106.29998779296835
 20
8.7637268066406477
 30
0.0
 11
-106.29998779296835
 21
14.836267089843773
 31
0.0
  0
ARC
  5
E7
100
AcDbEntity
  8
0
  6
CONTINUOUS
 62
               7
100
AcDbCircle
 10
-98.917602539061988
 20
11.799981689453034
 30
0.0
 40
7.982419490814209
100
AcDbArc
 50
157.64345713842727
 51
202.35653921910705
  0
LINE
  5
E8
100
AcDbEntity
  8
0
  6
CONTINUOUS
 62
               2
100
AcDbLine
 10
-87.999999999999943
 20
-4.4787256858550109
 30
0.0
 11
-87.999999999999943
 21
8.0345641942368502
 31
0.0
  0
LINE
  5
E9
100
AcDbEntity
  8
0
  6
CONTINUOUS
 62
               2
100
AcDbLine
 10
87.999999999999886
 20
-4.4787256858550109
 30
0.0
 11
87.999999999999886
 21
8.0345641942368502
 31
0.0
  0
LINE
  5
EA
100
AcDbEntity
  8
0
  6
CONTINUOUS
 62
               2
100
AcDbLine
 10
-71.999999999999829
 20
247.97998262115064
 30
0.0
 11
-71.999999999999829
 21
199.24506528658412
 31
0.0
  0
LINE
  5
EB
100
AcDbEntity
  8
0
  6
CONTINUOUS
 62
               7
100
AcDbLine
 10
72.849975585937386
 20
60.999999999999943
 30
0.0
 11
77.1500244140625
 21
60.999999999999943
 31
0.0
  0
CIRCLE
  5
EC
100
AcDbEntity
  8
0
  6
CONTINUOUS
 62
               7
100
AcDbCircle
 10
74.999999999999886
 20
57.0
 30
0.0
 40
1.4999999999999998
  0
CIRCLE
  5
ED
100
AcDbEntity
  8
0
  6
CONTINUOUS
 62
               2
100
AcDbCircle
 10
74.999999999999886
 20
57.0
 30
0.0
 40
2.0
  0
LINE
  5
EE
100
AcDbEntity
  8
0
  6
CONTINUOUS
 62
               2
100
AcDbLine
 10
80.018999267385539
 20
57.0
 30
0.0
 11
69.76047205976613
 21
57.0
 31
0.0
  0
LINE
  5
EF
100
AcDbEntity
  8
0
  6
CONTINUOUS
 62
               2
100
AcDbLine
 10
75.0
 20
50.769572942307775
 30
0.0
 11
75.0
 21
63.379799487197317
 31
0.0
  0
CIRCLE
  5
F0
100
AcDbEntity
  8
0
  6
CONTINUOUS
 62
               2
100
AcDbCircle
 10
94.999999999999886
 20
57.0
 30
0.0
 40
2.0
  0
CIRCLE
  5
F1
100
AcDbEntity
  8
0
  6
CONTINUOUS
 62
               7
100
AcDbCircle
 10
94.999999999999886
 20
57.0
 30
0.0
 40
1.4999999999999998
  0
LINE
  5
F2
100
AcDbEntity
  8
0
  6
CONTINUOUS
 62
               7
100
AcDbLine
 10
92.849975585937386
 20
60.999999999999943
 30
0.0
 11
97.1500244140625
 21
60.999999999999943
 31
0.0
  0
LINE
  5
F3
100
AcDbEntity
  8
0
  6
CONTINUOUS
 62
               2
100
AcDbLine
 10
100.01899926738554
 20
57.0
 30
0.0
 11
89.76047205976613
 21
57.0
 31
0.0
  0
LINE
  5
F4
100
AcDbEntity
  8
0
  6
CONTINUOUS
 62
               7
100
AcDbLine
 10
48.250000000000114
 20
203.69996929168661
 30
0.0
 11
48.250000000000114
 21
206.49996948242148
 31
0.0
  0
LINE
  5
F5
100
AcDbEntity
  8
0
  6
CONTINUOUS
 62
               7
100
AcDbLine
 10
48.249999661049628
 20
203.69996971708986
 30
0.0
 11
47.903589375478873
 21
203.49996971708987
 31
0.0
  0
LINE
  5
F6
100
AcDbEntity
  8
0
  6
CONTINUOUS
 62
               7
100
AcDbLine
 10
26.599975585937386
 20
53.0
 30
0.0
 11
105.0
 21
53.0
 31
0.0
  0
LINE
  5
F7
100
AcDbEntity
  8
0
  6
CONTINUOUS
 62
               7
100
AcDbLine
 10
65.999999999999886
 20
205.99996948242145
 30
0.0
 11
65.999999999999886
 21
175.99999999999955
 31
0.0
  0
LINE
  5
F8
100
AcDbEntity
  8
0
  6
CONTINUOUS
 62
               7
100
AcDbLine
 10
104.0
 20
205.99996948242145
 30
0.0
 11
104.0
 21
175.99999999999955
 31
0.0
  0
CIRCLE
  5
F9
100
AcDbEntity
  8
0
  6
CONTINUOUS
 62
               7
100
AcDbCircle
 10
73.499999999999886
 20
219.49996948242151
 30
0.0
 40
2.1500000953674316
  0
CIRCLE
  5
FA
100
AcDbEntity
  8
0
  6
CONTINUOUS
 62
               7
100
AcDbCircle
 10
73.499999999999886
 20
219.49996948242151
 30
0.0
 40
2.0750000476837158
  0
CIRCLE
  5
FB
100
AcDbEntity
  8
0
  6
CONTINUOUS
 62
               7
100
AcDbCircle
 10
73.499999999999886
 20
233.49996948242148
 30
0.0
 40
2.1500000953674316
  0
CIRCLE
  5
FC
100
AcDbEntity
  8
0
  6
CONTINUOUS
 62
               7
100
AcDbCircle
 10
73.499999999999886
 20
233.49996948242148
 30
0.0
 40
2.0750000476837158
  0
LINE
  5
FD
100
AcDbEntity
  8
0
  6
CONTINUOUS
 62
               7
100
AcDbLine
 10
65.149999979584209
 20
197.07563460441349
 30
0.0
 11
66.000000004229378
 21
197.14999997034965
 31
0.0
  0
LINE
  5
FE
100
AcDbEntity
  8
0
  6
CONTINUOUS
 62
               7
100
AcDbLine
 10
65.149999979583981
 20
192.92436539558571
 30
0.0
 11
66.000000004229037
 21
192.85000002964955
 31
0.0
  0
LINE
  5
FF
100
AcDbEntity
  8
0
  6
CONTINUOUS
 62
               7
100
AcDbLine
 10
65.149999976157801
 20
192.92436528205837
 30
0.0
 11
65.149999976158256
 21
197.07563471794089
 31
0.0
  0
ARC
  5
100
100
AcDbEntity
  8
0
  6
CONTINUOUS
 62
               7
100
AcDbCircle
 10
71.129655838012695
 20
194.99999999999943
 30
0.0
 40
6.3296561241149902
100
AcDbArc
 50
160.85729086486964
 51
199.14270731389303
  0
LINE
  5
101
100
AcDbEntity
  8
0
  6
CONTINUOUS
 62
               7
100
AcDbLine
 10
104.85000002041568
 20
192.92436539558565
 30
0.0
 11
103.99999999577062
 21
192.85000002964955
 31
0.0
  0
LINE
  5
102
100
AcDbEntity
  8
0
  6
CONTINUOUS
 62
               7
100
AcDbLine
 10
104.85000002041579
 20
197.07563460441349
 30
0.0
 11
103.99999999577085
 21
197.14999997034965
 31
0.0
  0
LINE
  5
103
100
AcDbEntity
  8
0
  6
CONTINUOUS
 62
               7
100
AcDbLine
 10
104.85000002384186
 20
197.07563471794083
 30
0.0
 11
104.85000002384163
 21
192.92436528205826
 31
0.0
  0
ARC
  5
104
100
AcDbEntity
  8
0
  6
CONTINUOUS
 62
               7
100
AcDbCircle
 10
98.870344161987305
 20
194.99999999999977
 30
0.0
 40
6.3296561241149902
100
AcDbArc
 50
340.85729086486964
 51
19.142707313893034
  0
LINE
  5
105
100
AcDbEntity
  8
0
  6
CONTINUOUS
 62
               7
100
AcDbLine
 10
104.85000002041568
 20
178.9243653955856
 30
0.0
 11
103.99999999577062
 21
178.85000002964955
 31
0.0
  0
LINE
  5
106
100
AcDbEntity
  8
0
  6
CONTINUOUS
 62
               7
100
AcDbLine
 10
104.85000002041579
 20
183.07563460441349
 30
0.0
 11
103.99999999577085
 21
183.1499999703496
 31
0.0
  0
LINE
  5
107
100
AcDbEntity
  8
0
  6
CONTINUOUS
 62
               7
100
AcDbLine
 10
104.85000002384186
 20
183.07563471794083
 30
0.0
 11
104.85000002384163
 21
178.92436528205826
 31
0.0
  0
ARC
  5
108
100
AcDbEntity
  8
0
  6
CONTINUOUS
 62
               7
100
AcDbCircle
 10
98.870344161987305
 20
180.99999999999989
 30
0.0
 40
6.3296561241149902
100
AcDbArc
 50
340.85729086486964
 51
19.142707313893034
  0
LINE
  5
109
100
AcDbEntity
  8
0
  6
CONTINUOUS
 62
               7
100
AcDbLine
 10
61.149999979584436
 20
190.07563460441361
 30
0.0
 11
62.000000004229378
 21
190.14999997034954
 31
0.0
  0
LINE
  5
10A
100
AcDbEntity
  8
0
  6
CONTINUOUS
 62
               7
100
AcDbLine
 10
61.149999979583981
 20
185.92436539558571
 30
0.0
 11
62.000000004229037
 21
185.85000002964961
 31
0.0
  0
LINE
  5
10B
100
AcDbEntity
  8
0
  6
CONTINUOUS
 62
               7
100
AcDbLine
 10
61.149999976157915
 20
185.92436528205837
 30
0.0
 11
61.149999976158142
 21
190.07563471794094
 31
0.0
  0
ARC
  5
10C
100
AcDbEntity
  8
0
  6
CONTINUOUS
 62
               7
100
AcDbCircle
 10
67.129655838012582
 20
187.99999999999932
 30
0.0
 40
6.3296561241149902
100
AcDbArc
 50
160.85729086486964
 51
199.14270731389303
  0
LINE
  5
10D
100
AcDbEntity
  8
0
  6
CONTINUOUS
 62
               7
100
AcDbLine
 10
61.149999979584436
 20
182.07563460441349
 30
0.0
 11
62.000000004229378
 21
182.14999997034965
 31
0.0
  0
LINE
  5
10E
100
AcDbEntity
  8
0
  6
CONTINUOUS
 62
               7
100
AcDbLine
 10
61.149999979583981
 20
177.92436539558571
 30
0.0
 11
62.000000004229037
 21
177.85000002964955
 31
0.0
  0
LINE
  5
10F
100
AcDbEntity
  8
0
  6
CONTINUOUS
 62
               7
100
AcDbLine
 10
61.149999976157915
 20
177.92436528205837
 30
0.0
 11
61.149999976158142
 21
182.07563471794094
 31
0.0
  0
ARC
  5
110
100
AcDbEntity
  8
0
  6
CONTINUOUS
 62
               7
100
AcDbCircle
 10
67.129655838012582
 20
179.99999999999937
 30
0.0
 40
6.3296561241149902
100
AcDbArc
 50
160.85729086486964
 51
199.14270731389303
  0
ARC
  5
111
100
AcDbEntity
  8
0
  6
CONTINUOUS
 62
               7
100
AcDbCircle
 10
96.5
 20
201.9999999999996
 30
0.0
 40
2.4000000953674316
100
AcDbArc
 50
331.17621921195268
 51
163.04248945089057
  0
ARC
  5
112
100
AcDbEntity
  8
0
  6
CONTINUOUS
 62
               7
100
AcDbCircle
 10
73.499999999999886
 20
201.9999999999996
 30
0.0
 40
2.4000000953674316
100
AcDbArc
 50
16.957513850518463
 51
208.82378579700367
  0
ARC
  5
113
100
AcDbEntity
  8
0
  6
CONTINUOUS
 62
               7
100
AcDbCircle
 10
98.0
 20
203.49999999999966
 30
0.0
 40
2.0
100
AcDbArc
 50
60.000001669652114
 51
90.000002504478161
  0
ARC
  5
114
100
AcDbEntity
  8
0
  6
CONTINUOUS
 62
               7
100
AcDbCircle
 10
71.999999999999886
 20
203.49999999999966
 30
0.0
 40
2.0
100
AcDbArc
 50
90.000002504478161
 51
120.00000000000217
  0
ARC
  5
115
100
AcDbEntity
  8
0
  6
CONTINUOUS
 62
               7
100
AcDbCircle
 10
95.79290771484375
 20
200.39999389648392
 30
0.0
 40
2.2999999523162842
100
AcDbArc
 50
45.00000125223908
 51
90.000002504478161
  0
ARC
  5
116
100
AcDbEntity
  8
0
  6
CONTINUOUS
 62
               7
100
AcDbCircle
 10
69.499999999999886
 20
193.99581909179653
 30
0.0
 40
3.4999999999999996
100
AcDbArc
 50
135.00000034162267
 51
180.00000500895632
  0
ARC
  5
117
100
AcDbEntity
  8
0
  6
CONTINUOUS
 62
               7
100
AcDbCircle
 10
100.5
 20
193.99581909179653
 30
0.0
 40
3.4999999999999996
100
AcDbArc
 50
0.0000000000000509
 51
45.00000125223908
  0
ARC
  5
118
100
AcDbEntity
  8
0
  6
CONTINUOUS
 62
               7
100
AcDbCircle
 10
74.207092285156136
 20
200.39999389648392
 30
0.0
 40
2.2999999523162842
100
AcDbArc
 50
90.000002504478161
 51
135.00000034162267
  0
ARC
  5
119
100
AcDbEntity
  8
0
  6
CONTINUOUS
 62
               7
100
AcDbCircle
 10
98.0
 20
203.49999999999966
 30
0.0
 40
1.4999999999999998
100
AcDbArc
 50
48.189685934256701
 51
90.000002504478161
  0
ARC
  5
11A
100
AcDbEntity
  8
0
  6
CONTINUOUS
 62
               7
100
AcDbCircle
 10
103.49999999999989
 20
205.99996948242145
 30
0.0
 40
0.5
100
AcDbArc
 50
7.4208451464152363
 51
90.000002504478161
  0
ARC
  5
11B
100
AcDbEntity
  8
0
  6
CONTINUOUS
 62
               7
100
AcDbCircle
 10
71.999999999999886
 20
203.49999999999966
 30
0.0
 40
1.4999999999999998
100
AcDbArc
 50
90.000002504478161
 51
131.81031565960504
  0
ARC
  5
11C
100
AcDbEntity
  8
0
  6
CONTINUOUS
 62
               7
100
AcDbCircle
 10
99.499999999999886
 20
205.99996948242145
 30
0.0
 40
0.5
100
AcDbArc
 50
90.000002504478161
 51
180.00000500895632
  0
ARC
  5
11D
100
AcDbEntity
  8
0
  6
CONTINUOUS
 62
               7
100
AcDbCircle
 10
70.5
 20
205.99996948242145
 30
0.0
 40
0.5
100
AcDbArc
 50
0.0
 51
90.000002504478161
  0
ARC
  5
11E
100
AcDbEntity
  8
0
  6
CONTINUOUS
 62
               7
100
AcDbCircle
 10
66.5
 20
205.99996948242145
 30
0.0
 40
0.5
100
AcDbArc
 50
89.999995674288996
 51
172.57915473989922
  0
ARC
  5
11F
100
AcDbEntity
  8
0
  6
CONTINUOUS
 62
               7
100
AcDbCircle
 10
-101.45025634765625
 20
236.19998168945278
 30
0.0
 40
5.0
100
AcDbArc
 50
90.000002504478161
 51
140.58004632746963
  0
ARC
  5
120
100
AcDbEntity
  8
0
  6
CONTINUOUS
 62
               7
100
AcDbCircle
 10
-56.999999999999829
 20
223.49996948242148
 30
0.0
 40
50.0
100
AcDbArc
 50
161.77401403899248
 51
191.03970806633964
  0
ARC
  5
121
100
AcDbEntity
  8
0
  6
CONTINUOUS
 62
               7
100
AcDbCircle
 10
-104.02777099609375
 20
217.49996948242142
 30
0.0
 40
5.9999999999999991
100
AcDbArc
 50
198.4084749552519
 51
269.99999749552182
  0
ARC
  5
122
100
AcDbEntity
  8
0
  6
CONTINUOUS
 62
               7
100
AcDbCircle
 10
-103.1302490234375
 20
214.49996948242151
 30
0.0
 40
2.9999999999999996
100
AcDbArc
 50
191.03971170880533
 51
269.99999749552182
  0
ARC
  5
123
100
AcDbEntity
  8
0
  6
CONTINUOUS
 62
               7
100
AcDbCircle
 10
-85.999999999999943
 20
223.49996948242148
 30
0.0
 40
25.0
100
AcDbArc
 50
140.58004632746963
 51
198.40848497316458
  0
ARC
  5
124
100
AcDbEntity
  8
0
  6
CONTINUOUS
 62
               7
100
AcDbCircle
 10
-101.64202880859364
 20
238.19998168945273
 30
0.0
 40
2.9999999999999996
100
AcDbArc
 50
90.000002504478161
 51
161.77401403899248
  0
ARC
  5
125
100
AcDbEntity
  8
0
  6
CONTINUOUS
 62
               7
100
AcDbCircle
 10
0.0
 20
372.41571044921818
 30
0.0
 40
321.4600830078125
100
AcDbArc
 50
263.53482729513291
 51
274.76043510945618
  0
ARC
  5
126
100
AcDbEntity
  8
0
  6
CONTINUOUS
 62
               7
100
AcDbCircle
 10
-102.99999999999994
 20
51.000000000000057
 30
0.0
 40
2.0
100
AcDbArc
 50
90.000002504478161
 51
180.00000500895632
  0
ARC
  5
127
100
AcDbEntity
  8
0
  6
CONTINUOUS
 62
               7
100
AcDbCircle
 10
103.0
 20
51.000000000000057
 30
0.0
 40
2.0
100
AcDbArc
 50
0.0
 51
90.000002504478161
  0
LINE
  5
128
100
AcDbEntity
  8
0
  6
CONTINUOUS
 62
               7
100
AcDbLine
 10
61.999999999999886
 20
190.70001220703091
 30
0.0
 11
61.999999999999886
 21
177.2999877929683
 31
0.0
  0
LINE
  5
129
100
AcDbEntity
  8
0
  6
CONTINUOUS
 62
               7
100
AcDbLine
 10
65.999999999999886
 20
177.2999877929683
 30
0.0
 11
61.999999999999886
 21
177.2999877929683
 31
0.0
  0
LINE
  5
12A
100
AcDbEntity
  8
0
  6
CONTINUOUS
 62
               7
100
AcDbLine
 10
65.999999999999886
 20
190.70001220703091
 30
0.0
 11
61.999999999999886
 21
190.70001220703091
 31
0.0
  0
LINE
  5
12B
100
AcDbEntity
  8
0
  6
CONTINUOUS
 62
               7
100
AcDbLine
 10
98.0
 20
205.49999999999957
 30
0.0
 11
71.999999999999886
 21
205.49999999999957
 31
0.0
  0
LINE
  5
12C
100
AcDbEntity
  8
0
  6
CONTINUOUS
 62
               7
100
AcDbLine
 10
67.025126335542154
 20
196.47070565215438
 30
0.0
 11
72.580730947189181
 21
202.02631026380146
 31
0.0
  0
LINE
  5
12D
100
AcDbEntity
  8
0
  6
CONTINUOUS
 62
               7
100
AcDbLine
 10
102.97486347003905
 20
196.4706840729682
 30
0.0
 11
97.419226489612811
 21
202.02632105339455
 31
0.0
  0
LINE
  5
12E
100
AcDbEntity
  8
0
  6
CONTINUOUS
 62
               7
100
AcDbLine
 10
70.999999999999886
 20
205.99996948242145
 30
0.0
 11
70.999999999999886
 21
200.44555664062466
 31
0.0
  0
LINE
  5
12F
100
AcDbEntity
  8
0
  6
CONTINUOUS
 62
               7
100
AcDbLine
 10
95.79290771484375
 20
202.69998168945278
 30
0.0
 11
74.207092285156136
 21
202.69998168945278
 31
0.0
  0
LINE
  5
130
100
AcDbEntity
  8
0
  6
CONTINUOUS
 62
               7
100
AcDbLine
 10
98.0
 20
204.99999999999963
 30
0.0
 11
71.999999999999886
 21
204.99999999999963
 31
0.0
  0
LINE
  5
131
100
AcDbEntity
  8
0
  6
CONTINUOUS
 62
               7
100
AcDbLine
 10
99.0
 20
205.99996948242145
 30
0.0
 11
99.0
 21
200.44555664062466
 31
0.0
  0
LINE
  5
132
100
AcDbEntity
  8
0
  6
CONTINUOUS
 62
               7
100
AcDbLine
 10
70.0
 20
224.69998168945281
 30
0.0
 11
47.000000019000254
 21
224.69998168945281
 31
0.0
  0
LINE
  5
133
100
AcDbEntity
  8
0
  6
CONTINUOUS
 62
               7
100
AcDbLine
 10
70.0
 20
221.29998779296838
 30
0.0
 11
47.000000019000254
 21
221.29998779296838
 31
0.0
  0
LINE
  5
134
100
AcDbEntity
  8
0
  6
CONTINUOUS
 62
               7
100
AcDbLine
 10
70.0
 20
232.49996948242156
 30
0.0
 11
47.000000019000254
 21
232.49996948242156
 31
0.0
  0
LINE
  5
135
100
AcDbEntity
  8
0
  6
CONTINUOUS
 62
               7
100
AcDbLine
 10
70.0
 20
211.49996948242148
 30
0.0
 11
47.000000019000254
 21
211.49996948242148
 31
0.0
  0
LINE
  5
136
100
AcDbEntity
  8
0
  6
CONTINUOUS
 62
               7
100
AcDbLine
 10
5.5
 20
206.49996948242148
 30
0.0
 11
8.9999999810000872
 21
206.49996948242148
 31
0.0
  0
LINE
  5
137
100
AcDbEntity
  8
0
  6
CONTINUOUS
 62
               7
100
AcDbLine
 10
-102.99999999999994
 20
225.49996948242145
 30
0.0
 11
-102.99999999999994
 21
224.99996948242156
 31
0.0
  0
LINE
  5
138
100
AcDbEntity
  8
0
  6
CONTINUOUS
 62
               7
100
AcDbLine
 10
-99.0
 20
224.99996948242156
 30
0.0
 11
-102.99999999999994
 21
224.99996948242156
 31
0.0
  0
LINE
  5
139
100
AcDbEntity
  8
0
  6
CONTINUOUS
 62
               7
100
AcDbLine
 10
-99.0
 20
230.99996948242148
 30
0.0
 11
-102.99999999999994
 21
230.99996948242148
 31
0.0
  0
LINE
  5
13A
100
AcDbEntity
  8
0
  6
CONTINUOUS
 62
               7
100
AcDbLine
 10
-102.99999999999994
 20
230.99996948242148
 30
0.0
 11
-102.99999999999994
 21
230.49996948242145
 31
0.0
  0
LINE
  5
13B
100
AcDbEntity
  8
0
  6
CONTINUOUS
 62
               7
100
AcDbLine
 10
-99.0
 20
230.49996948242145
 30
0.0
 11
-102.99999999999994
 21
230.49996948242145
 31
0.0
  0
LINE
  5
13C
100
AcDbEntity
  8
0
  6
CONTINUOUS
 62
               7
100
AcDbLine
 10
-99.0
 20
225.49996948242145
 30
0.0
 11
-102.99999999999994
 21
225.49996948242145
 31
0.0
  0
LINE
  5
13D
100
AcDbEntity
  8
0
  6
CONTINUOUS
 62
               7
100
AcDbLine
 10
-99.0
 20
241.19998168945278
 30
0.0
 11
-101.45025634765625
 21
241.19998168945278
 31
0.0
  0
LINE
  5
13E
100
AcDbEntity
  8
0
  6
CONTINUOUS
 62
               7
100
AcDbLine
 10
7.0
 20
237.36447143554662
 30
0.0
 11
-99.0
 21
237.36447143554662
 31
0.0
  0
LINE
  5
13F
100
AcDbEntity
  8
0
  6
CONTINUOUS
 62
               7
100
AcDbLine
 10
148.00003051757807
 20
211.49996948242148
 30
0.0
 11
70.0
 21
211.49996948242148
 31
0.0
  0
LINE
  5
140
100
AcDbEntity
  8
0
  6
CONTINUOUS
 62
               7
100
AcDbLine
 10
70.0
 20
243.99996948242153
 30
0.0
 11
70.0
 21
211.49996948242148
 31
0.0
  0
LINE
  5
141
100
AcDbEntity
  8
0
  6
CONTINUOUS
 62
               7
100
AcDbLine
 10
70.0
 20
234.44638061523412
 30
0.0
 11
49.0
 21
234.44638061523412
 31
0.0
  0
LINE
  5
142
100
AcDbEntity
  8
0
  6
CONTINUOUS
 62
               7
100
AcDbLine
 10
70.0
 20
237.36447143554662
 30
0.0
 11
49.0
 21
237.36447143554662
 31
0.0
  0
LINE
  5
143
100
AcDbEntity
  8
0
  6
CONTINUOUS
 62
               7
100
AcDbLine
 10
7.0
 20
239.89999389648395
 30
0.0
 11
-99.0
 21
239.89999389648395
 31
0.0
  0
LINE
  5
144
100
AcDbEntity
  8
0
  6
CONTINUOUS
 62
               7
100
AcDbLine
 10
70.0
 20
239.89999389648395
 30
0.0
 11
49.0
 21
239.89999389648395
 31
0.0
  0
LINE
  5
145
100
AcDbEntity
  8
0
  6
CONTINUOUS
 62
               7
100
AcDbLine
 10
-99.0
 20
241.19998168945278
 30
0.0
 11
-99.0
 21
211.49996948242148
 31
0.0
  0
LINE
  5
146
100
AcDbEntity
  8
0
  6
CONTINUOUS
 62
               7
100
AcDbLine
 10
148.00003051757807
 20
243.99996948242153
 30
0.0
 11
70.0
 21
243.99996948242153
 31
0.0
  0
LINE
  5
147
100
AcDbEntity
  8
0
  6
CONTINUOUS
 62
               7
100
AcDbLine
 10
147.00003051757807
 20
238.82839965820287
 30
0.0
 11
70.742919921875
 21
238.82839965820287
 31
0.0
  0
LINE
  5
148
100
AcDbEntity
  8
0
  6
CONTINUOUS
 62
               7
100
AcDbLine
 10
7.0
 20
234.44638061523412
 30
0.0
 11
-99.0
 21
234.44638061523412
 31
0.0
  0
LINE
  5
149
100
AcDbEntity
  8
0
  6
CONTINUOUS
 62
               7
100
AcDbLine
 10
25.000038479957652
 20
56.000000000000057
 30
0.0
 11
-24.999999999999773
 21
56.000000000000057
 31
0.0
  0
LINE
  5
14A
100
AcDbEntity
  8
0
  6
CONTINUOUS
 62
               7
100
AcDbLine
 10
-102.99999999999994
 20
53.0
 30
0.0
 11
-36.196166992187273
 21
53.0
 31
0.0
  0
LINE
  5
14B
100
AcDbEntity
  8
0
  6
CONTINUOUS
 62
               7
100
AcDbLine
 10
-25.000038479957652
 20
55.999987725133906
 30
0.0
 11
-36.196146832146837
 21
52.999999508649125
 31
0.0
  0
LINE
  5
14C
100
AcDbEntity
  8
0
  6
CONTINUOUS
 62
               7
100
AcDbLine
 10
-104.99999999999994
 20
4.7911446771251462
 30
0.0
 11
-104.99999999999994
 21
51.000000000000057
 31
0.0
  0
LINE
  5
14D
100
AcDbEntity
  8
0
  6
CONTINUOUS
 62
               7
100
AcDbLine
 10
105.0
 20
4.7911446771691999
 30
0.0
 11
105.0
 21
51.000000000000057
 31
0.0
  0
LINE
  5
14E
100
AcDbEntity
  8
0
  6
CONTINUOUS
 62
               7
100
AcDbLine
 10
94.0
 20
0.0
 30
0.0
 11
94.0
 21
3.199981689453125
 31
0.0
  0
LINE
  5
14F
100
AcDbEntity
  8
0
  6
CONTINUOUS
 62
               7
100
AcDbLine
 10
81.999999999999886
 20
0.0
 30
0.0
 11
81.999999999999886
 21
3.199981689453125
 31
0.0
  0
LINE
  5
150
100
AcDbEntity
  8
0
  6
CONTINUOUS
 62
               2
100
AcDbLine
 10
0.0
 20
65.13611049395405
 30
0.0
 11
0.0
 21
-1.6541443229681931
 31
0.0
  0
LINE
  5
151
100
AcDbEntity
  8
0
  6
CONTINUOUS
 62
               7
100
AcDbLine
 10
-81.999999999999829
 20
0.0
 30
0.0
 11
-94.0
 21
0.0
 31
0.0
  0
LINE
  5
152
100
AcDbEntity
  8
0
  6
CONTINUOUS
 62
               7
100
AcDbLine
 10
-81.999999999999829
 20
0.0
 30
0.0
 11
-81.999999999999829
 21
3.199981689453125
 31
0.0
  0
LINE
  5
153
100
AcDbEntity
  8
0
  6
CONTINUOUS
 62
               7
100
AcDbLine
 10
-94.0
 20
0.0
 30
0.0
 11
-94.0
 21
3.199981689453125
 31
0.0
  0
LINE
  5
154
100
AcDbEntity
  8
0
  6
CONTINUOUS
 62
               7
100
AcDbLine
 10
81.999999999999886
 20
0.0
 30
0.0
 11
94.0
 21
0.0
 31
0.0
  0
LINE
  5
155
100
AcDbEntity
  8
0
  6
CONTINUOUS
 62
               7
100
AcDbLine
 10
5.5
 20
211.49996948242148
 30
0.0
 11
5.5
 21
206.49996948242148
 31
0.0
  0
LINE
  5
156
100
AcDbEntity
  8
0
  6
CONTINUOUS
 62
               7
100
AcDbLine
 10
105.5
 20
211.49996948242148
 30
0.0
 11
105.5
 21
206.49996948242148
 31
0.0
  0
LINE
  5
157
100
AcDbEntity
  8
0
  6
CONTINUOUS
 62
               7
100
AcDbLine
 10
97.1500244140625
 20
162.99999999999949
 30
0.0
 11
97.1500244140625
 21
53.0
 31
0.0
  0
LINE
  5
158
100
AcDbEntity
  8
0
  6
CONTINUOUS
 62
               7
100
AcDbLine
 10
92.849975585937386
 20
162.99999999999949
 30
0.0
 11
92.849975585937386
 21
53.0
 31
0.0
  0
LINE
  5
159
100
AcDbEntity
  8
0
  6
CONTINUOUS
 62
               7
100
AcDbLine
 10
77.1500244140625
 20
162.99999999999949
 30
0.0
 11
77.1500244140625
 21
53.0
 31
0.0
  0
LINE
  5
15A
100
AcDbEntity
  8
0
  6
CONTINUOUS
 62
               7
100
AcDbLine
 10
72.849975585937386
 20
162.99999999999949
 30
0.0
 11
72.849975585937386
 21
53.0
 31
0.0
  0
LINE
  5
15B
100
AcDbEntity
  8
0
  6
CONTINUOUS
 62
               7
100
AcDbLine
 10
65.0
 20
162.99999999999949
 30
0.0
 11
105.0
 21
162.99999999999949
 31
0.0
  0
LINE
  5
15C
100
AcDbEntity
  8
0
  6
CONTINUOUS
 62
               7
100
AcDbLine
 10
105.0
 20
53.0
 30
0.0
 11
105.0
 21
172.99999999999955
 31
0.0
  0
LINE
  5
15D
100
AcDbEntity
  8
0
  6
CONTINUOUS
 62
               7
100
AcDbLine
 10
65.0
 20
53.0
 30
0.0
 11
65.0
 21
172.99999999999955
 31
0.0
  0
LINE
  5
15E
100
AcDbEntity
  8
0
  6
CONTINUOUS
 62
               7
100
AcDbLine
 10
72.262563132923447
 20
232.26253261534504
 30
0.0
 11
74.737436867076326
 21
234.73740634949792
 31
0.0
  0
LINE
  5
15F
100
AcDbEntity
  8
0
  6
CONTINUOUS
 62
               7
100
AcDbLine
 10
74.737436867076326
 20
232.26253261534504
 30
0.0
 11
72.262563132923447
 21
234.73740634949792
 31
0.0
  0
LINE
  5
160
100
AcDbEntity
  8
0
  6
CONTINUOUS
 62
               7
100
AcDbLine
 10
72.262563132923447
 20
218.26253261534507
 30
0.0
 11
74.737436867076326
 21
220.73740634949795
 31
0.0
  0
LINE
  5
161
100
AcDbEntity
  8
0
  6
CONTINUOUS
 62
               7
100
AcDbLine
 10
74.737436867076326
 20
218.26253261534507
 30
0.0
 11
72.262563132923447
 21
220.73740634949795
 31
0.0
  0
ENDBLK
  5
162
100
AcDbEntity
  8
0
100
AcDbBlockEnd
  0
BLOCK
  5
163
100
AcDbEntity
  8
0
100
AcDbBlockBegin
  2
DTRB-CS3-2
 70
               0
 10
0.0
 20
0.0
 30
0.0
  3
DTRB-CS3-2
  1

  0
LINE
  5
164
100
AcDbEntity
  8
0
  6
CONTINUOUS
 62
               7
100
AcDbLine
 10
3.4000000000000341
 20
211.4999533789057
 30
0.0
 11
45.000015258789063
 21
211.49998168945251
 31
0.0
  0
CIRCLE
  5
165
100
AcDbEntity
  8
0
  6
CONTINUOUS
 62
               7
100
AcDbCircle
 10
62.800012216731147
 20
396.50244412122657
 30
0.0
 40
11.5
  0
CIRCLE
  5
166
100
AcDbEntity
  8
0
  6
CONTINUOUS
 62
               7
100
AcDbCircle
 10
62.800012216731147
 20
396.50244412122657
 30
0.0
 40
5.5
  0
CIRCLE
  5
167
100
AcDbEntity
  8
0
  6
CONTINUOUS
 62
               7
100
AcDbCircle
 10
62.800012216731147
 20
396.50244412122657
 30
0.0
 40
7.5
  0
ARC
  5
168
100
AcDbEntity
  8
0
  6
CONTINUOUS
 62
               7
100
AcDbCircle
 10
-0.0999999999999659
 20
216.9999533789057
 30
0.0
 40
1.0
100
AcDbArc
 50
180.0
 51
270.0
  0
LINE
  5
169
100
AcDbEntity
  8
0
  6
CONTINUOUS
 62
               7
100
AcDbLine
 10
3.4000000000000341
 20
215.79994506835885
 30
0.0
 11
3.4000000000000341
 21
211.4999533789057
 31
0.0
  0
LINE
  5
16A
100
AcDbEntity
  8
0
  6
CONTINUOUS
 62
               7
100
AcDbLine
 10
3.9000000000000909
 20
211.4999533789057
 30
0.0
 11
3.9000000000000909
 21
215.79994506835885
 31
0.0
  0
ARC
  5
16B
100
AcDbEntity
  8
0
  6
CONTINUOUS
 62
               7
100
AcDbCircle
 10
3.4000000000000341
 20
215.4999533789057
 30
0.0
 40
3.5000000000000004
100
AcDbArc
 50
180.0
 51
270.0
  0
LINE
  5
16C
100
AcDbEntity
  8
0
  6
CONTINUOUS
 62
               7
100
AcDbLine
 10
-1.0999999999999091
 20
229.99995337890567
 30
0.0
 11
-1.0999999999999091
 21
216.9999533789057
 31
0.0
  0
ARC
  5
16D
100
AcDbEntity
  8
0
  6
CONTINUOUS
 62
               7
100
AcDbCircle
 10
6.9000000000000909
 20
234.76938721148355
 30
0.0
 40
3.0
100
AcDbArc
 50
134.96855723541546
 51
180.0
  0
ARC
  5
16E
100
AcDbEntity
  8
0
  6
CONTINUOUS
 62
               7
100
AcDbCircle
 10
6.9000000000000909
 20
234.76938721148363
 30
0.0
 40
3.5000000000000004
100
AcDbArc
 50
134.9685572354158
 51
179.99999999999997
  0
ARC
  5
16F
100
AcDbEntity
  8
0
  6
CONTINUOUS
 62
               7
100
AcDbCircle
 10
3.4000000000000341
 20
231.49995337890573
 30
0.0
 40
3.5000000000000004
100
AcDbArc
 50
107.58284247057495
 51
180.0
  0
ARC
  5
170
100
AcDbEntity
  8
0
  6
CONTINUOUS
 62
               7
100
AcDbCircle
 10
8.5296558380127294
 20
233.49995727538982
 30
0.0
 40
6.3296561241149902
100
AcDbArc
 50
160.85729086486964
 51
199.14270731389303
  0
LINE
  5
171
100
AcDbEntity
  8
0
  6
CONTINUOUS
 62
               7
100
AcDbLine
 10
2.549999976158233
 20
231.42432255744879
 30
0.0
 11
2.549999976158233
 21
235.57559199333139
 31
0.0
  0
LINE
  5
172
100
AcDbEntity
  8
0
  6
CONTINUOUS
 62
               7
100
AcDbLine
 10
2.5499999984873511
 20
231.42432271713631
 30
0.0
 11
3.4000000042291845
 21
231.34995735285401
 31
0.0
  0
LINE
  5
173
100
AcDbEntity
  8
0
  6
CONTINUOUS
 62
               7
100
AcDbLine
 10
2.5499999984875785
 20
235.5755918336439
 30
0.0
 11
3.4000000042294118
 21
235.64995719792611
 31
0.0
  0
LINE
  5
174
100
AcDbEntity
  8
0
  6
CONTINUOUS
 62
               7
100
AcDbLine
 10
6.0041878807287503
 20
238.11487208720507
 30
0.0
 11
4.7798441134954146
 21
236.89187137324296
 31
0.0
  0
LINE
  5
175
100
AcDbEntity
  8
0
  6
CONTINUOUS
 62
               7
100
AcDbLine
 10
3.9000000000000909
 20
229.1999694824213
 30
0.0
 11
3.9000000000000909
 21
234.76938721148355
 31
0.0
  0
LINE
  5
176
100
AcDbEntity
  8
0
  6
CONTINUOUS
 62
               7
100
AcDbLine
 10
6.0041878807287503
 20
238.82159114170994
 30
0.0
 11
4.4264847990779685
 21
237.24561873353633
 31
0.0
  0
ARC
  5
177
100
AcDbEntity
  8
0
  6
CONTINUOUS
 62
               7
100
AcDbCircle
 10
-0.0999999999999659
 20
229.99995337890567
 30
0.0
 40
1.0
100
AcDbArc
 50
90.0
 51
180.0
  0
LINE
  5
178
100
AcDbEntity
  8
0
  6
CONTINUOUS
 62
               7
100
AcDbLine
 10
-0.0999999999999659
 20
215.4999533789057
 30
0.0
 11
-0.0999999999999659
 21
231.49995337890573
 31
0.0
  0
LINE
  5
179
100
AcDbEntity
  8
0
  6
CONTINUOUS
 62
               7
100
AcDbLine
 10
3.4000000000000341
 20
235.64995719792611
 30
0.0
 11
3.4000000000000341
 21
229.1999694824213
 31
0.0
  0
CIRCLE
  5
17A
100
AcDbEntity
  8
0
  6
CONTINUOUS
 62
               7
100
AcDbCircle
 10
-82.000030517578125
 20
184.99998168945251
 30
0.0
 40
11.5
  0
CIRCLE
  5
17B
100
AcDbEntity
  8
0
  6
CONTINUOUS
 62
               7
100
AcDbCircle
 10
-82.000030517578125
 20
184.99998168945251
 30
0.0
 40
5.5
  0
CIRCLE
  5
17C
100
AcDbEntity
  8
0
  6
CONTINUOUS
 62
               7
100
AcDbCircle
 10
-82.000030517578125
 20
184.99998168945251
 30
0.0
 40
7.5
  0
LINE
  5
17D
100
AcDbEntity
  8
0
  6
CONTINUOUS
 62
               7
100
AcDbLine
 10
-17.499999999999886
 20
191.19999389648365
 30
0.0
 11
-17.499999999999886
 21
176.79996948242115
 31
0.0
  0
LINE
  5
17E
100
AcDbEntity
  8
0
  6
CONTINUOUS
 62
               7
100
AcDbLine
 10
69.546477651681812
 20
201.399975585937
 30
0.0
 11
252.00001525878929
 21
201.399975585937
 31
0.0
  0
LINE
  5
17F
100
AcDbEntity
  8
0
  6
CONTINUOUS
 62
               7
100
AcDbLine
 10
-17.0
 20
177.29996948242126
 30
0.0
 11
-17.0
 21
172.99998168945251
 31
0.0
  0
LINE
  5
180
100
AcDbEntity
  8
0
  6
CONTINUOUS
 62
               7
100
AcDbLine
 10
-19.121618187524405
 20
182.649975585937
 30
0.0
 11
-17.5
 21
182.649975585937
 31
0.0
  0
LINE
  5
181
100
AcDbEntity
  8
0
  6
CONTINUOUS
 62
               7
100
AcDbLine
 10
-25.000030517578068
 20
185.34998779296814
 30
0.0
 11
-25.000030517578068
 21
185.99998168945251
 31
0.0
  0
CIRCLE
  5
182
100
AcDbEntity
  8
0
  6
CONTINUOUS
 62
               7
100
AcDbCircle
 10
20.000000000000114
 20
19.799987792968523
 30
0.0
 40
1.1499999999999999
  0
CIRCLE
  5
183
100
AcDbEntity
  8
0
  6
CONTINUOUS
 62
               7
100
AcDbCircle
 10
20.000000000000114
 20
19.799987792968523
 30
0.0
 40
1.4999999999999998
  0
CIRCLE
  5
184
100
AcDbEntity
  8
0
  6
CONTINUOUS
 62
               7
100
AcDbCircle
 10
20.000000000000114
 20
19.799987792968523
 30
0.0
 40
2.9999999999999996
  0
CIRCLE
  5
185
100
AcDbEntity
  8
0
  6
CONTINUOUS
 62
               7
100
AcDbCircle
 10
291.00000000000034
 20
11.799987792968523
 30
0.0
 40
3.0350000858306885
  0
CIRCLE
  5
186
100
AcDbEntity
  8
0
  6
CONTINUOUS
 62
               7
100
AcDbCircle
 10
291.00000000000034
 20
11.799987792968523
 30
0.0
 40
3.1500000953674316
  0
CIRCLE
  5
187
100
AcDbEntity
  8
0
  6
CONTINUOUS
 62
               7
100
AcDbCircle
 10
148.5000000000004
 20
11.799987792968523
 30
0.0
 40
3.0350000858306885
  0
CIRCLE
  5
188
100
AcDbEntity
  8
0
  6
CONTINUOUS
 62
               7
100
AcDbCircle
 10
148.5000000000004
 20
11.799987792968523
 30
0.0
 40
3.1500000953674316
  0
CIRCLE
  5
189
100
AcDbEntity
  8
0
  6
CONTINUOUS
 62
               7
100
AcDbCircle
 10
6.0
 20
11.799987792968523
 30
0.0
 40
3.0350000858306885
  0
CIRCLE
  5
18A
100
AcDbEntity
  8
0
  6
CONTINUOUS
 62
               7
100
AcDbCircle
 10
6.0
 20
11.799987792968523
 30
0.0
 40
3.1500000953674316
  0
LINE
  5
18B
100
AcDbEntity
  8
0
  6
CONTINUOUS
 62
               2
100
AcDbLine
 10
41.500015258789063
 20
252.08969316577821
 30
0.0
 11
41.500015258789063
 21
238.51981811523393
 31
0.0
  0
LINE
  5
18C
100
AcDbEntity
  8
0
  6
CONTINUOUS
 62
               2
100
AcDbLine
 10
8.500015258789233
 20
252.08969316577821
 30
0.0
 11
8.500015258789233
 21
238.51981811523393
 31
0.0
  0
LINE
  5
18D
100
AcDbEntity
  8
0
  6
CONTINUOUS
 62
               7
100
AcDbLine
 10
5.2000121707308722
 20
244.99998168945265
 30
0.0
 11
5.2000121707308722
 21
247.97244403772658
 31
0.0
  0
LINE
  5
18E
100
AcDbEntity
  8
0
  6
CONTINUOUS
 62
               7
100
AcDbLine
 10
6.2500161772134106
 20
250.97244404072651
 30
0.0
 11
7.94470425490465
 21
250.97244404072651
 31
0.0
  0
LINE
  5
18F
100
AcDbEntity
  8
0
  6
CONTINUOUS
 62
               7
100
AcDbLine
 10
5.750015223038929
 20
250.47244404022663
 30
0.0
 11
5.750015223038929
 21
248.57360995459143
 31
0.0
  0
LINE
  5
190
100
AcDbEntity
  8
0
  6
CONTINUOUS
 62
               7
100
AcDbLine
 10
5.7500206803352967
 20
250.47243958191785
 30
0.0
 11
6.2500196521929752
 21
250.97243665717485
 31
0.0
  0
LINE
  5
191
100
AcDbEntity
  8
0
  6
CONTINUOUS
 62
               7
100
AcDbLine
 10
5.7500161767130749
 20
250.47244308655223
 30
0.0
 11
7.4872564135717994
 21
250.47244308655223
 31
0.0
  0
LINE
  5
192
100
AcDbEntity
  8
0
  6
CONTINUOUS
 62
               7
100
AcDbLine
 10
83.300012249231315
 20
409.50244412122652
 30
0.0
 11
50.800012216731147
 21
409.50244412122652
 31
0.0
  0
LINE
  5
193
100
AcDbEntity
  8
0
  6
CONTINUOUS
 62
               7
100
AcDbLine
 10
73.746423372490085
 20
268.50250509338304
 30
0.0
 11
73.746423372490085
 21
212.50247451980428
 31
0.0
  0
LINE
  5
194
100
AcDbEntity
  8
0
  6
CONTINUOUS
 62
               7
100
AcDbLine
 10
79.200006141615461
 20
268.50250509338304
 30
0.0
 11
79.200006141615461
 21
212.50247451980428
 31
0.0
  0
LINE
  5
195
100
AcDbEntity
  8
0
  6
CONTINUOUS
 62
               7
100
AcDbLine
 10
71.800012237731266
 20
331.50250515638288
 30
0.0
 11
71.800012237731266
 21
212.50247451980428
 31
0.0
  0
LINE
  5
196
100
AcDbEntity
  8
0
  6
CONTINUOUS
 62
               7
100
AcDbLine
 10
76.664514195720642
 20
268.50250509338304
 30
0.0
 11
76.664514195720642
 21
212.50247451980428
 31
0.0
  0
LINE
  5
197
100
AcDbEntity
  8
0
  6
CONTINUOUS
 62
               7
100
AcDbLine
 10
60.600030537078112
 20
321.00250508031581
 30
0.0
 11
60.600030537078112
 21
212.50247451980428
 31
0.0
  0
LINE
  5
198
100
AcDbEntity
  8
0
  6
CONTINUOUS
 62
               7
100
AcDbLine
 10
64.000024436962462
 20
321.00250508031581
 30
0.0
 11
64.000024436962462
 21
212.50247451980428
 31
0.0
  0
CIRCLE
  5
199
100
AcDbEntity
  8
0
  6
CONTINUOUS
 62
               7
100
AcDbCircle
 10
57.800012223731301
 20
330.00250508931572
 30
0.0
 40
2.1500000975174318
  0
CIRCLE
  5
19A
100
AcDbEntity
  8
0
  6
CONTINUOUS
 62
               7
100
AcDbCircle
 10
57.800012223731301
 20
330.00250508931572
 30
0.0
 40
2.075000049758716
  0
CIRCLE
  5
19B
100
AcDbEntity
  8
0
  6
CONTINUOUS
 62
               7
100
AcDbCircle
 10
65.800012231730989
 20
330.00250508931572
 30
0.0
 40
2.1500000975174318
  0
CIRCLE
  5
19C
100
AcDbEntity
  8
0
  6
CONTINUOUS
 62
               7
100
AcDbCircle
 10
65.800012231730989
 20
330.00250508931572
 30
0.0
 40
2.075000049758716
  0
CIRCLE
  5
19D
100
AcDbEntity
  8
0
  6
CONTINUOUS
 62
               7
100
AcDbCircle
 10
58.800012224730835
 20
335.00250515988273
 30
0.0
 40
2.1500000975174318
  0
CIRCLE
  5
19E
100
AcDbEntity
  8
0
  6
CONTINUOUS
 62
               7
100
AcDbCircle
 10
58.800012224730835
 20
335.00250515988273
 30
0.0
 40
2.075000049758716
  0
CIRCLE
  5
19F
100
AcDbEntity
  8
0
  6
CONTINUOUS
 62
               7
100
AcDbCircle
 10
72.800012238731142
 20
335.00250515988273
 30
0.0
 40
2.1500000975174318
  0
CIRCLE
  5
1A0
100
AcDbEntity
  8
0
  6
CONTINUOUS
 62
               7
100
AcDbCircle
 10
72.800012238731142
 20
335.00250515988273
 30
0.0
 40
2.075000049758716
  0
ARC
  5
1A1
100
AcDbEntity
  8
0
  6
CONTINUOUS
 62
               7
100
AcDbCircle
 10
67.800012233731195
 20
326.50250515138288
 30
0.0
 40
1.5000000014999999
100
AcDbArc
 50
359.99999749552194
 51
62.181333512918997
  0
ARC
  5
1A2
100
AcDbEntity
  8
0
  6
CONTINUOUS
 62
               7
100
AcDbCircle
 10
55.800012221731095
 20
322.50250514738286
 30
0.0
 40
1.5000000014999999
100
AcDbArc
 50
180.00000865142201
 51
270.0
  0
ARC
  5
1A3
100
AcDbEntity
  8
0
  6
CONTINUOUS
 62
               7
100
AcDbCircle
 10
67.800012233731195
 20
322.50250514738286
 30
0.0
 40
1.5000000014999999
100
AcDbArc
 50
270.0
 51
359.99999749552194
  0
LINE
  5
1A4
100
AcDbEntity
  8
0
  6
CONTINUOUS
 62
               7
100
AcDbLine
 10
84.300012250231134
 20
310.50250513538282
 30
0.0
 11
84.300012250231134
 21
268.50250509338304
 31
0.0
  0
LINE
  5
1A5
100
AcDbEntity
  8
0
  6
CONTINUOUS
 62
               7
100
AcDbLine
 10
83.300012249231315
 20
331.50250515638288
 30
0.0
 11
68.500024441462358
 21
331.50250515638288
 31
0.0
  0
LINE
  5
1A6
100
AcDbEntity
  8
0
  6
CONTINUOUS
 62
               7
100
AcDbLine
 10
54.300012220231167
 20
326.50250515138288
 30
0.0
 11
54.300012220231167
 21
322.50250514738286
 31
0.0
  0
LINE
  5
1A7
100
AcDbEntity
  8
0
  6
CONTINUOUS
 62
               7
100
AcDbLine
 10
73.746423372490085
 20
331.50250515638288
 30
0.0
 11
73.746423372490085
 21
310.50250513538282
 31
0.0
  0
LINE
  5
1A8
100
AcDbEntity
  8
0
  6
CONTINUOUS
 62
               7
100
AcDbLine
 10
76.664514195720642
 20
331.50250515638288
 30
0.0
 11
76.664514195720642
 21
310.50250513538282
 31
0.0
  0
LINE
  5
1A9
100
AcDbEntity
  8
0
  6
CONTINUOUS
 62
               7
100
AcDbLine
 10
84.300012250231134
 20
268.50250509338304
 30
0.0
 11
72.700006135115359
 21
268.50250509338304
 31
0.0
  0
LINE
  5
1AA
100
AcDbEntity
  8
0
  6
CONTINUOUS
 62
               7
100
AcDbLine
 10
60.450006122865375
 20
340.46133322808197
 30
0.0
 11
60.450006122865375
 21
336.38091749131479
 31
0.0
  0
LINE
  5
1AB
100
AcDbEntity
  8
0
  6
CONTINUOUS
 62
               7
100
AcDbLine
 10
69.300012235231293
 20
326.50250515138288
 30
0.0
 11
69.300012235231293
 21
322.50250514738286
 31
0.0
  0
LINE
  5
1AC
100
AcDbEntity
  8
0
  6
CONTINUOUS
 62
               7
100
AcDbLine
 10
79.200006141615461
 20
331.50250515638288
 30
0.0
 11
79.200006141615461
 21
310.50250513538282
 31
0.0
  0
LINE
  5
1AD
100
AcDbEntity
  8
0
  6
CONTINUOUS
 62
               7
100
AcDbLine
 10
68.500024441462358
 20
321.50250508081587
 30
0.0
 11
55.100000013999818
 21
321.50250508081587
 31
0.0
  0
LINE
  5
1AE
100
AcDbEntity
  8
0
  6
CONTINUOUS
 62
               7
100
AcDbLine
 10
72.700006135115359
 20
310.50250513538282
 30
0.0
 11
72.700006135115359
 21
268.50250509338304
 31
0.0
  0
LINE
  5
1AF
100
AcDbEntity
  8
0
  6
CONTINUOUS
 62
               7
100
AcDbLine
 10
84.300012250231134
 20
310.50250513538282
 30
0.0
 11
72.700006135115359
 21
310.50250513538282
 31
0.0
  0
LINE
  5
1B0
100
AcDbEntity
  8
0
  6
CONTINUOUS
 62
               7
100
AcDbLine
 10
55.100000013999818
 20
332.00250509131581
 30
0.0
 11
55.100000013999818
 21
321.50250508081587
 31
0.0
  0
LINE
  5
1B1
100
AcDbEntity
  8
0
  6
CONTINUOUS
 62
               7
100
AcDbLine
 10
68.500024441462358
 20
332.00250509131581
 30
0.0
 11
68.500024441462358
 21
321.50250508081587
 31
0.0
  0
LINE
  5
1B2
100
AcDbEntity
  8
0
  6
CONTINUOUS
 62
               7
100
AcDbLine
 10
48.200012213731043
 20
294.97244408472665
 30
0.0
 11
50.800012216731147
 21
294.97244408472665
 31
0.0
  0
ARC
  5
1B3
100
AcDbEntity
  8
0
  6
CONTINUOUS
 62
               7
100
AcDbCircle
 10
75.499993930884216
 20
210.05221816969777
 30
0.0
 40
5.0000000050000013
100
AcDbArc
 50
309.41994593172478
 51
0.0
  0
ARC
  5
1B4
100
AcDbEntity
  8
0
  6
CONTINUOUS
 62
               7
100
AcDbCircle
 10
62.800012228731248
 20
254.50247456180477
 30
0.0
 40
50.000000050000011
100
AcDbArc
 50
258.96028760794934
 51
288.22598846548567
  0
ARC
  5
1B5
100
AcDbEntity
  8
0
  6
CONTINUOUS
 62
               7
100
AcDbCircle
 10
56.800012222731141
 20
207.47473403626088
 30
0.0
 40
6.0000000059999996
100
AcDbArc
 50
180.00000500895632
 51
251.59152071903708
  0
ARC
  5
1B6
100
AcDbEntity
  8
0
  6
CONTINUOUS
 62
               7
100
AcDbCircle
 10
53.800012219730888
 20
208.37222549223645
 30
0.0
 40
3.0000000029999998
100
AcDbArc
 50
180.00000500895632
 51
258.96028396548365
  0
ARC
  5
1B7
100
AcDbEntity
  8
0
  6
CONTINUOUS
 62
               7
100
AcDbCircle
 10
62.800012228731248
 20
225.50247453280446
 30
0.0
 40
25.000000025000006
100
AcDbArc
 50
251.5915175313136
 51
309.41994593172478
  0
ARC
  5
1B8
100
AcDbEntity
  8
0
  6
CONTINUOUS
 62
               7
100
AcDbCircle
 10
77.499993932884138
 20
209.86044570856853
 30
0.0
 40
3.0000000029999998
100
AcDbArc
 50
288.22598846548567
 51
0.0
  0
LINE
  5
1B9
100
AcDbEntity
  8
0
  6
CONTINUOUS
 62
               7
100
AcDbLine
 10
64.800012230731113
 20
208.50247451580421
 30
0.0
 11
64.300012230231346
 21
208.50247451580421
 31
0.0
  0
LINE
  5
1BA
100
AcDbEntity
  8
0
  6
CONTINUOUS
 62
               7
100
AcDbLine
 10
64.300012230231346
 20
212.50247451980428
 30
0.0
 11
64.300012230231346
 21
208.50247451580421
 31
0.0
  0
LINE
  5
1BB
100
AcDbEntity
  8
0
  6
CONTINUOUS
 62
               7
100
AcDbLine
 10
70.300012236231169
 20
212.50247451980428
 30
0.0
 11
70.300012236231169
 21
208.50247451580421
 31
0.0
  0
LINE
  5
1BC
100
AcDbEntity
  8
0
  6
CONTINUOUS
 62
               7
100
AcDbLine
 10
70.300012236231169
 20
208.50247451580421
 30
0.0
 11
69.80001223573106
 21
208.50247451580421
 31
0.0
  0
LINE
  5
1BD
100
AcDbEntity
  8
0
  6
CONTINUOUS
 62
               7
100
AcDbLine
 10
69.80001223573106
 20
212.50247451980428
 30
0.0
 11
69.80001223573106
 21
208.50247451580421
 31
0.0
  0
LINE
  5
1BE
100
AcDbEntity
  8
0
  6
CONTINUOUS
 62
               7
100
AcDbLine
 10
64.800012230731113
 20
212.50247451980428
 30
0.0
 11
64.800012230731113
 21
208.50247451580421
 31
0.0
  0
LINE
  5
1BF
100
AcDbEntity
  8
0
  6
CONTINUOUS
 62
               7
100
AcDbLine
 10
80.500024453462458
 20
212.50247451980428
 30
0.0
 11
80.500024453462458
 21
210.05221816969777
 31
0.0
  0
LINE
  5
1C0
100
AcDbEntity
  8
0
  6
CONTINUOUS
 62
               7
100
AcDbLine
 10
80.500024453462458
 20
212.50247451980428
 30
0.0
 11
50.800012216731147
 21
212.50247451980428
 31
0.0
  0
LINE
  5
1C1
100
AcDbEntity
  8
0
  6
CONTINUOUS
 62
               7
100
AcDbLine
 10
67.800012233731195
 20
321.00250508031581
 30
0.0
 11
55.800012221731095
 21
321.00250508031581
 31
0.0
  0
CIRCLE
  5
1C2
100
AcDbEntity
  8
0
  6
CONTINUOUS
 62
               2
100
AcDbCircle
 10
65.800012231730989
 20
319.00250514388296
 30
0.0
 40
1.0000000000000002
  0
CIRCLE
  5
1C3
100
AcDbEntity
  8
0
  6
CONTINUOUS
 62
               7
100
AcDbCircle
 10
65.800012231730989
 20
319.00250514388296
 30
0.0
 40
0.8
  0
CIRCLE
  5
1C4
100
AcDbEntity
  8
0
  6
CONTINUOUS
 62
               2
100
AcDbCircle
 10
57.800012223731301
 20
319.00250514388296
 30
0.0
 40
1.0000000000000002
  0
CIRCLE
  5
1C5
100
AcDbEntity
  8
0
  6
CONTINUOUS
 62
               7
100
AcDbCircle
 10
57.800012223731301
 20
319.00250514388296
 30
0.0
 40
0.8
  0
ARC
  5
1C6
100
AcDbEntity
  8
0
  6
CONTINUOUS
 62
               7
100
AcDbCircle
 10
55.800012221731095
 20
326.50250515138288
 30
0.0
 40
1.5000000014999999
100
AcDbArc
 50
117.81866648709736
 51
180.00000500895632
  0
LINE
  5
1C7
100
AcDbEntity
  8
0
  6
CONTINUOUS
 62
               7
100
AcDbLine
 10
55.100000013999818
 20
331.50250515638288
 30
0.0
 11
50.800012216731147
 21
331.50250515638288
 31
0.0
  0
LINE
  5
1C8
100
AcDbEntity
  8
0
  6
CONTINUOUS
 62
               7
100
AcDbLine
 10
65.010948089571571
 20
332.0024746388047
 30
0.0
 11
58.58907636589089
 21
332.0024746388047
 31
0.0
  0
LINE
  5
1C9
100
AcDbEntity
  8
0
  6
CONTINUOUS
 62
               7
100
AcDbLine
 10
60.300012216731147
 20
333.46221284319029
 30
0.0
 11
60.300012216731147
 21
332.0024746388047
 31
0.0
  0
ARC
  5
1CA
100
AcDbEntity
  8
0
  6
CONTINUOUS
 62
               7
100
AcDbCircle
 10
52.800012216731147
 20
333.50247463880476
 30
0.0
 40
2.0000000000000004
100
AcDbArc
 50
180.0
 51
270.0
  0
LINE
  5
1CB
100
AcDbEntity
  8
0
  6
CONTINUOUS
 62
               7
100
AcDbLine
 10
69.000024423762454
 20
332.0024746388047
 30
0.0
 11
66.589076373890578
 21
332.0024746388047
 31
0.0
  0
LINE
  5
1CC
100
AcDbEntity
  8
0
  6
CONTINUOUS
 62
               7
100
AcDbLine
 10
63.800012216731261
 20
339.75247463880476
 30
0.0
 11
63.800012216731204
 21
332.0024746388047
 31
0.0
  0
LINE
  5
1CD
100
AcDbEntity
  8
0
  6
CONTINUOUS
 62
               7
100
AcDbLine
 10
60.300012216731147
 20
339.75247463880476
 30
0.0
 11
60.300012216731147
 21
336.5427630243131
 31
0.0
  0
LINE
  5
1CE
100
AcDbEntity
  8
0
  6
CONTINUOUS
 62
               7
100
AcDbLine
 10
54.600000009700068
 20
331.50247463880476
 30
0.0
 11
54.600000009700068
 21
332.0024746388047
 31
0.0
  0
LINE
  5
1CF
100
AcDbEntity
  8
0
  6
CONTINUOUS
 62
               7
100
AcDbLine
 10
69.000024423762454
 20
331.50247463880476
 30
0.0
 11
69.000024423762454
 21
332.0024746388047
 31
0.0
  0
LINE
  5
1D0
100
AcDbEntity
  8
0
  6
CONTINUOUS
 62
               7
100
AcDbLine
 10
60.450006122865375
 20
333.62409282845073
 30
0.0
 11
60.450006122865375
 21
332.00250509131581
 31
0.0
  0
LINE
  5
1D1
100
AcDbEntity
  8
0
  6
CONTINUOUS
 62
               7
100
AcDbLine
 10
57.010948081571883
 20
332.0024746388047
 30
0.0
 11
54.600000009700068
 21
332.0024746388047
 31
0.0
  0
ARC
  5
1D2
100
AcDbEntity
  8
0
  6
CONTINUOUS
 62
               7
100
AcDbCircle
 10
62.050012216731261
 20
339.75247463880476
 30
0.0
 40
1.7499999999999998
100
AcDbArc
 50
0.0
 51
180.0
  0
LINE
  5
1D3
100
AcDbEntity
  8
0
  6
CONTINUOUS
 62
               7
100
AcDbLine
 10
5.2000177619495389
 20
247.97243892235454
 30
0.0
 11
48.200036647483557
 21
294.97244314061555
 31
0.0
  0
LINE
  5
1D4
100
AcDbEntity
  8
0
  6
CONTINUOUS
 62
               2
100
AcDbLine
 10
61.800012227731088
 20
342.58795432065108
 30
0.0
 11
61.800012227731088
 21
330.88155911469005
 31
0.0
  0
LINE
  5
1D5
100
AcDbEntity
  8
0
  6
CONTINUOUS
 62
               7
100
AcDbLine
 10
78.128442419840667
 20
408.57013210857536
 30
0.0
 11
78.128442419840667
 21
332.24542507900071
 31
0.0
  0
LINE
  5
1D6
100
AcDbEntity
  8
0
  6
CONTINUOUS
 62
               7
100
AcDbLine
 10
83.300012249231315
 20
409.50244412122652
 30
0.0
 11
83.300012249231315
 21
331.50244412122646
 31
0.0
  0
LINE
  5
1D7
100
AcDbEntity
  8
0
  6
CONTINUOUS
 62
               7
100
AcDbLine
 10
63.150018332596574
 20
341.11353545488123
 30
0.0
 11
63.150018332596574
 21
332.00250509131581
 31
0.0
  0
LINE
  5
1D8
100
AcDbEntity
  8
0
  6
CONTINUOUS
 62
               2
100
AcDbLine
 10
53.245159536370977
 20
287.0025051118829
 30
0.0
 11
45.859363642934738
 21
287.0025051118829
 31
0.0
  0
LINE
  5
1D9
100
AcDbEntity
  8
0
  6
CONTINUOUS
 62
               2
100
AcDbLine
 10
53.245159536370977
 20
257.0024745643048
 30
0.0
 11
45.859363642934738
 21
257.0024745643048
 31
0.0
  0
LINE
  5
1DA
100
AcDbEntity
  8
0
  6
CONTINUOUS
 62
               7
100
AcDbLine
 10
50.800012216731147
 20
409.50244412122652
 30
0.0
 11
50.800012216731147
 21
207.47473403626088
 31
0.0
  0
LINE
  5
1DB
100
AcDbEntity
  8
0
  6
CONTINUOUS
 62
               7
100
AcDbLine
 10
5.2000121707308722
 20
244.99998168945265
 30
0.0
 11
50.800012216731147
 21
244.99998168945265
 31
0.0
  0
LINE
  5
1DC
100
AcDbEntity
  8
0
  6
CONTINUOUS
 62
               2
100
AcDbLine
 10
283.00001525878946
 20
-4.720051132636172
 30
0.0
 11
283.00001525878946
 21
7.954018285203972
 31
0.0
  0
LINE
  5
1DD
100
AcDbEntity
  8
0
  6
CONTINUOUS
 62
               7
100
AcDbLine
 10
40.0
 20
162.99998124945262
 30
0.0
 11
40.0
 21
52.999981689452909
 31
0.0
  0
LINE
  5
1DE
100
AcDbEntity
  8
0
  6
CONTINUOUS
 62
               7
100
AcDbLine
 10
0.0
 20
162.99998124945262
 30
0.0
 11
0.0
 21
52.999981689452909
 31
0.0
  0
LINE
  5
1DF
100
AcDbEntity
  8
0
  6
CONTINUOUS
 62
               7
100
AcDbLine
 10
12.150009058073351
 20
52.999981689452909
 30
0.0
 11
12.150009058073351
 21
162.99998124945262
 31
0.0
  0
LINE
  5
1E0
100
AcDbEntity
  8
0
  6
CONTINUOUS
 62
               7
100
AcDbLine
 10
7.8499907819267492
 20
52.999981689452909
 30
0.0
 11
7.8499907819267492
 21
162.99998124945262
 31
0.0
  0
LINE
  5
1E1
100
AcDbEntity
  8
0
  6
CONTINUOUS
 62
               7
100
AcDbLine
 10
27.849990941926649
 20
52.999981689452909
 30
0.0
 11
27.849990941926649
 21
162.99998124945262
 31
0.0
  0
LINE
  5
1E2
100
AcDbEntity
  8
0
  6
CONTINUOUS
 62
               7
100
AcDbLine
 10
32.150009218073251
 20
52.999981689452909
 30
0.0
 11
32.150009218073251
 21
162.99998124945262
 31
0.0
  0
LINE
  5
1E3
100
AcDbEntity
  8
0
  6
CONTINUOUS
 62
               7
100
AcDbLine
 10
250.00000000000026
 20
162.99998124945262
 30
0.0
 11
250.00000000000026
 21
52.999981689452909
 31
0.0
  0
LINE
  5
1E4
100
AcDbEntity
  8
0
  6
CONTINUOUS
 62
               7
100
AcDbLine
 10
210.00000000000034
 20
162.99998124945262
 30
0.0
 11
210.00000000000034
 21
52.999981689452909
 31
0.0
  0
LINE
  5
1E5
100
AcDbEntity
  8
0
  6
CONTINUOUS
 62
               7
100
AcDbLine
 10
222.15000905807364
 20
52.999981689452909
 30
0.0
 11
222.15000905807364
 21
162.99998124945262
 31
0.0
  0
LINE
  5
1E6
100
AcDbEntity
  8
0
  6
CONTINUOUS
 62
               7
100
AcDbLine
 10
217.84999078192703
 20
52.999981689452909
 30
0.0
 11
217.84999078192703
 21
162.99998124945262
 31
0.0
  0
LINE
  5
1E7
100
AcDbEntity
  8
0
  6
CONTINUOUS
 62
               7
100
AcDbLine
 10
237.84999094192696
 20
52.999981689452909
 30
0.0
 11
237.84999094192696
 21
162.99998124945262
 31
0.0
  0
LINE
  5
1E8
100
AcDbEntity
  8
0
  6
CONTINUOUS
 62
               7
100
AcDbLine
 10
242.15000921807356
 20
52.999981689452909
 30
0.0
 11
242.15000921807356
 21
162.99998124945262
 31
0.0
  0
LINE
  5
1E9
100
AcDbEntity
  8
0
  6
CONTINUOUS
 62
               7
100
AcDbLine
 10
301.94667040109277
 20
52.99998168945308
 30
0.0
 11
300.11418138742079
 21
52.99998168945308
 31
0.0
  0
LINE
  5
1EA
100
AcDbEntity
  8
0
  6
CONTINUOUS
 62
               7
100
AcDbLine
 10
300.88340746163954
 20
55.999981689452909
 30
0.0
 11
300.00000000000023
 21
55.999981689452909
 31
0.0
  0
ARC
  5
1EB
100
AcDbEntity
  8
0
  6
CONTINUOUS
 62
               7
100
AcDbCircle
 10
148.9499969482425
 20
44.799987792968523
 30
0.0
 40
1.0499999523162842
100
AcDbArc
 50
269.99999749552182
 51
90.000002504478161
  0
ARC
  5
1EC
100
AcDbEntity
  8
0
  6
CONTINUOUS
 62
               7
100
AcDbCircle
 10
141.04998779296909
 20
44.799987792968523
 30
0.0
 40
1.0499999523162842
100
AcDbArc
 50
90.000002504478161
 51
270.00000068324533
  0
ARC
  5
1ED
100
AcDbEntity
  8
0
  6
CONTINUOUS
 62
               7
100
AcDbCircle
 10
133.95001220703159
 20
44.799987792968523
 30
0.0
 40
1.0499999523162842
100
AcDbArc
 50
269.99999749552182
 51
90.000002504478161
  0
ARC
  5
1EE
100
AcDbEntity
  8
0
  6
CONTINUOUS
 62
               7
100
AcDbCircle
 10
126.04998779296909
 20
44.799987792968523
 30
0.0
 40
1.0499999523162842
100
AcDbArc
 50
90.000002504478161
 51
270.00000068324533
  0
ARC
  5
1EF
100
AcDbEntity
  8
0
  6
CONTINUOUS
 62
               7
100
AcDbCircle
 10
118.95001220703165
 20
44.799987792968523
 30
0.0
 40
1.0499999523162842
100
AcDbArc
 50
269.99999749552182
 51
90.000002504478161
  0
ARC
  5
1F0
100
AcDbEntity
  8
0
  6
CONTINUOUS
 62
               7
100
AcDbCircle
 10
111.04998779296909
 20
44.799987792968523
 30
0.0
 40
1.0499999523162842
100
AcDbArc
 50
90.000002504478161
 51
270.00000068324533
  0
ARC
  5
1F1
100
AcDbEntity
  8
0
  6
CONTINUOUS
 62
               7
100
AcDbCircle
 10
96.049987792969034
 20
44.799987792968523
 30
0.0
 40
1.0499999523162842
100
AcDbArc
 50
90.000002504478161
 51
270.00000068324533
  0
ARC
  5
1F2
100
AcDbEntity
  8
0
  6
CONTINUOUS
 62
               7
100
AcDbCircle
 10
103.95001220703165
 20
44.799987792968523
 30
0.0
 40
1.0499999523162842
100
AcDbArc
 50
269.99999749552182
 51
90.000002504478161
  0
ARC
  5
1F3
100
AcDbEntity
  8
0
  6
CONTINUOUS
 62
               7
100
AcDbCircle
 10
111.45001220703165
 20
39.799987792968523
 30
0.0
 40
1.0499999523162842
100
AcDbArc
 50
269.99999749552182
 51
90.000002504478161
  0
ARC
  5
1F4
100
AcDbEntity
  8
0
  6
CONTINUOUS
 62
               7
100
AcDbCircle
 10
103.54998779296909
 20
39.799987792968523
 30
0.0
 40
1.0499999523162842
100
AcDbArc
 50
90.000002504478161
 51
270.00000068324533
  0
ARC
  5
1F5
100
AcDbEntity
  8
0
  6
CONTINUOUS
 62
               7
100
AcDbCircle
 10
126.45001220703165
 20
39.799987792968523
 30
0.0
 40
1.0499999523162842
100
AcDbArc
 50
269.99999749552182
 51
90.000002504478161
  0
ARC
  5
1F6
100
AcDbEntity
  8
0
  6
CONTINUOUS
 62
               7
100
AcDbCircle
 10
118.54998779296909
 20
39.799987792968523
 30
0.0
 40
1.0499999523162842
100
AcDbArc
 50
90.000002504478161
 51
270.00000068324533
  0
ARC
  5
1F7
100
AcDbEntity
  8
0
  6
CONTINUOUS
 62
               7
100
AcDbCircle
 10
141.45001220703159
 20
39.799987792968523
 30
0.0
 40
1.0499999523162842
100
AcDbArc
 50
269.99999749552182
 51
90.000002504478161
  0
ARC
  5
1F8
100
AcDbEntity
  8
0
  6
CONTINUOUS
 62
               7
100
AcDbCircle
 10
133.54998779296909
 20
39.799987792968523
 30
0.0
 40
1.0499999523162842
100
AcDbArc
 50
90.000002504478161
 51
270.00000068324533
  0
ARC
  5
1F9
100
AcDbEntity
  8
0
  6
CONTINUOUS
 62
               7
100
AcDbCircle
 10
148.85079956054727
 20
34.799987792968523
 30
0.0
 40
1.0499999523162842
100
AcDbArc
 50
269.99999749552182
 51
90.000002504478161
  0
ARC
  5
1FA
100
AcDbEntity
  8
0
  6
CONTINUOUS
 62
               7
100
AcDbCircle
 10
140.95080566406284
 20
34.799987792968523
 30
0.0
 40
1.0499999523162842
100
AcDbArc
 50
90.000002504478161
 51
270.00000068324533
  0
ARC
  5
1FB
100
AcDbEntity
  8
0
  6
CONTINUOUS
 62
               7
100
AcDbCircle
 10
133.95001220703159
 20
34.799987792968523
 30
0.0
 40
1.0499999523162842
100
AcDbArc
 50
269.99999749552182
 51
90.000002504478161
  0
ARC
  5
1FC
100
AcDbEntity
  8
0
  6
CONTINUOUS
 62
               7
100
AcDbCircle
 10
126.04998779296909
 20
34.799987792968523
 30
0.0
 40
1.0499999523162842
100
AcDbArc
 50
90.000002504478161
 51
270.00000068324533
  0
ARC
  5
1FD
100
AcDbEntity
  8
0
  6
CONTINUOUS
 62
               7
100
AcDbCircle
 10
118.95001220703165
 20
34.799987792968523
 30
0.0
 40
1.0499999523162842
100
AcDbArc
 50
269.99999749552182
 51
90.000002504478161
  0
ARC
  5
1FE
100
AcDbEntity
  8
0
  6
CONTINUOUS
 62
               7
100
AcDbCircle
 10
111.04998779296909
 20
34.799987792968523
 30
0.0
 40
1.0499999523162842
100
AcDbArc
 50
90.000002504478161
 51
270.00000068324533
  0
ARC
  5
1FF
100
AcDbEntity
  8
0
  6
CONTINUOUS
 62
               7
100
AcDbCircle
 10
96.049987792969034
 20
34.799987792968523
 30
0.0
 40
1.0499999523162842
100
AcDbArc
 50
90.000002504478161
 51
270.00000068324533
  0
ARC
  5
200
100
AcDbEntity
  8
0
  6
CONTINUOUS
 62
               7
100
AcDbCircle
 10
103.95001220703165
 20
34.799987792968523
 30
0.0
 40
1.0499999523162842
100
AcDbArc
 50
269.99999749552182
 51
90.000002504478161
  0
ARC
  5
201
100
AcDbEntity
  8
0
  6
CONTINUOUS
 62
               7
100
AcDbCircle
 10
111.45001220703165
 20
29.799987792968523
 30
0.0
 40
1.0499999523162842
100
AcDbArc
 50
269.99999749552182
 51
90.000002504478161
  0
ARC
  5
202
100
AcDbEntity
  8
0
  6
CONTINUOUS
 62
               7
100
AcDbCircle
 10
103.54998779296909
 20
29.799987792968523
 30
0.0
 40
1.0499999523162842
100
AcDbArc
 50
90.000002504478161
 51
270.00000068324533
  0
ARC
  5
203
100
AcDbEntity
  8
0
  6
CONTINUOUS
 62
               7
100
AcDbCircle
 10
118.54998779296909
 20
29.799987792968523
 30
0.0
 40
1.0499999523162842
100
AcDbArc
 50
90.000002504478161
 51
270.00000068324533
  0
ARC
  5
204
100
AcDbEntity
  8
0
  6
CONTINUOUS
 62
               7
100
AcDbCircle
 10
126.45001220703165
 20
29.799987792968523
 30
0.0
 40
1.0499999523162842
100
AcDbArc
 50
269.99999749552182
 51
90.000002504478161
  0
ARC
  5
205
100
AcDbEntity
  8
0
  6
CONTINUOUS
 62
               7
100
AcDbCircle
 10
133.54998779296909
 20
29.567840576171761
 30
0.0
 40
1.0499999523162842
100
AcDbArc
 50
90.000002504478161
 51
270.00000068324533
  0
ARC
  5
206
100
AcDbEntity
  8
0
  6
CONTINUOUS
 62
               7
100
AcDbCircle
 10
141.45001220703159
 20
29.567840576171761
 30
0.0
 40
1.0499999523162842
100
AcDbArc
 50
269.99999749552182
 51
90.000002504478161
  0
ARC
  5
207
100
AcDbEntity
  8
0
  6
CONTINUOUS
 62
               7
100
AcDbCircle
 10
148.9499969482425
 20
24.799987792968523
 30
0.0
 40
1.0499999523162842
100
AcDbArc
 50
269.99999749552182
 51
90.000002504478161
  0
ARC
  5
208
100
AcDbEntity
  8
0
  6
CONTINUOUS
 62
               7
100
AcDbCircle
 10
141.04998779296909
 20
24.799987792968523
 30
0.0
 40
1.0499999523162842
100
AcDbArc
 50
90.000002504478161
 51
270.00000068324533
  0
ARC
  5
209
100
AcDbEntity
  8
0
  6
CONTINUOUS
 62
               7
100
AcDbCircle
 10
133.95001220703159
 20
24.799987792968523
 30
0.0
 40
1.0499999523162842
100
AcDbArc
 50
269.99999749552182
 51
90.000002504478161
  0
ARC
  5
20A
100
AcDbEntity
  8
0
  6
CONTINUOUS
 62
               7
100
AcDbCircle
 10
126.04998779296909
 20
24.799987792968523
 30
0.0
 40
1.0499999523162842
100
AcDbArc
 50
90.000002504478161
 51
270.00000068324533
  0
ARC
  5
20B
100
AcDbEntity
  8
0
  6
CONTINUOUS
 62
               7
100
AcDbCircle
 10
118.95001220703165
 20
24.799987792968523
 30
0.0
 40
1.0499999523162842
100
AcDbArc
 50
269.99999749552182
 51
90.000002504478161
  0
ARC
  5
20C
100
AcDbEntity
  8
0
  6
CONTINUOUS
 62
               7
100
AcDbCircle
 10
111.04998779296909
 20
24.799987792968523
 30
0.0
 40
1.0499999523162842
100
AcDbArc
 50
90.000002504478161
 51
270.00000068324533
  0
ARC
  5
20D
100
AcDbEntity
  8
0
  6
CONTINUOUS
 62
               7
100
AcDbCircle
 10
103.95001220703165
 20
24.799987792968523
 30
0.0
 40
1.0499999523162842
100
AcDbArc
 50
269.99999749552182
 51
90.000002504478161
  0
ARC
  5
20E
100
AcDbEntity
  8
0
  6
CONTINUOUS
 62
               7
100
AcDbCircle
 10
96.049987792969034
 20
24.799987792968523
 30
0.0
 40
1.0499999523162842
100
AcDbArc
 50
90.000002504478161
 51
270.00000068324533
  0
LINE
  5
20F
100
AcDbEntity
  8
0
  6
CONTINUOUS
 62
               7
100
AcDbLine
 10
141.04998779296909
 20
43.74998474121071
 30
0.0
 11
148.9499969482425
 21
43.74998474121071
 31
0.0
  0
LINE
  5
210
100
AcDbEntity
  8
0
  6
CONTINUOUS
 62
               7
100
AcDbLine
 10
141.04998779296909
 20
45.849990844726392
 30
0.0
 11
148.9499969482425
 21
45.849990844726392
 31
0.0
  0
LINE
  5
211
100
AcDbEntity
  8
0
  6
CONTINUOUS
 62
               7
100
AcDbLine
 10
126.04998779296909
 20
45.849990844726392
 30
0.0
 11
133.95001220703159
 21
45.849990844726392
 31
0.0
  0
LINE
  5
212
100
AcDbEntity
  8
0
  6
CONTINUOUS
 62
               7
100
AcDbLine
 10
126.04998779296909
 20
43.74998474121071
 30
0.0
 11
133.95001220703159
 21
43.74998474121071
 31
0.0
  0
LINE
  5
213
100
AcDbEntity
  8
0
  6
CONTINUOUS
 62
               7
100
AcDbLine
 10
111.04998779296909
 20
43.74998474121071
 30
0.0
 11
118.95001220703165
 21
43.74998474121071
 31
0.0
  0
LINE
  5
214
100
AcDbEntity
  8
0
  6
CONTINUOUS
 62
               7
100
AcDbLine
 10
111.04998779296909
 20
45.849990844726392
 30
0.0
 11
118.95001220703165
 21
45.849990844726392
 31
0.0
  0
LINE
  5
215
100
AcDbEntity
  8
0
  6
CONTINUOUS
 62
               7
100
AcDbLine
 10
96.049987792969034
 20
45.849990844726392
 30
0.0
 11
103.95001220703165
 21
45.849990844726392
 31
0.0
  0
LINE
  5
216
100
AcDbEntity
  8
0
  6
CONTINUOUS
 62
               7
100
AcDbLine
 10
96.049987792969034
 20
43.74998474121071
 30
0.0
 11
103.95001220703165
 21
43.74998474121071
 31
0.0
  0
LINE
  5
217
100
AcDbEntity
  8
0
  6
CONTINUOUS
 62
               7
100
AcDbLine
 10
103.54998779296909
 20
38.74998474121071
 30
0.0
 11
111.45001220703165
 21
38.74998474121071
 31
0.0
  0
LINE
  5
218
100
AcDbEntity
  8
0
  6
CONTINUOUS
 62
               7
100
AcDbLine
 10
103.54998779296909
 20
40.849990844726392
 30
0.0
 11
111.45001220703165
 21
40.849990844726392
 31
0.0
  0
LINE
  5
219
100
AcDbEntity
  8
0
  6
CONTINUOUS
 62
               7
100
AcDbLine
 10
118.54998779296909
 20
38.74998474121071
 30
0.0
 11
126.45001220703165
 21
38.74998474121071
 31
0.0
  0
LINE
  5
21A
100
AcDbEntity
  8
0
  6
CONTINUOUS
 62
               7
100
AcDbLine
 10
118.54998779296909
 20
40.849990844726392
 30
0.0
 11
126.45001220703165
 21
40.849990844726392
 31
0.0
  0
LINE
  5
21B
100
AcDbEntity
  8
0
  6
CONTINUOUS
 62
               7
100
AcDbLine
 10
133.54998779296909
 20
40.849990844726392
 30
0.0
 11
141.45001220703159
 21
40.849990844726392
 31
0.0
  0
LINE
  5
21C
100
AcDbEntity
  8
0
  6
CONTINUOUS
 62
               7
100
AcDbLine
 10
133.54998779296909
 20
38.74998474121071
 30
0.0
 11
141.45001220703159
 21
38.74998474121071
 31
0.0
  0
LINE
  5
21D
100
AcDbEntity
  8
0
  6
CONTINUOUS
 62
               7
100
AcDbLine
 10
140.95080566406284
 20
33.74998474121071
 30
0.0
 11
148.85079956054727
 21
33.74998474121071
 31
0.0
  0
LINE
  5
21E
100
AcDbEntity
  8
0
  6
CONTINUOUS
 62
               7
100
AcDbLine
 10
140.95080566406284
 20
35.849990844726392
 30
0.0
 11
148.85079956054727
 21
35.849990844726392
 31
0.0
  0
LINE
  5
21F
100
AcDbEntity
  8
0
  6
CONTINUOUS
 62
               7
100
AcDbLine
 10
126.04998779296909
 20
35.849990844726392
 30
0.0
 11
133.95001220703159
 21
35.849990844726392
 31
0.0
  0
LINE
  5
220
100
AcDbEntity
  8
0
  6
CONTINUOUS
 62
               7
100
AcDbLine
 10
126.04998779296909
 20
33.74998474121071
 30
0.0
 11
133.95001220703159
 21
33.74998474121071
 31
0.0
  0
LINE
  5
221
100
AcDbEntity
  8
0
  6
CONTINUOUS
 62
               7
100
AcDbLine
 10
111.04998779296909
 20
33.74998474121071
 30
0.0
 11
118.95001220703165
 21
33.74998474121071
 31
0.0
  0
LINE
  5
222
100
AcDbEntity
  8
0
  6
CONTINUOUS
 62
               7
100
AcDbLine
 10
111.04998779296909
 20
35.849990844726392
 30
0.0
 11
118.95001220703165
 21
35.849990844726392
 31
0.0
  0
LINE
  5
223
100
AcDbEntity
  8
0
  6
CONTINUOUS
 62
               7
100
AcDbLine
 10
96.049987792969034
 20
33.74998474121071
 30
0.0
 11
103.95001220703165
 21
33.74998474121071
 31
0.0
  0
LINE
  5
224
100
AcDbEntity
  8
0
  6
CONTINUOUS
 62
               7
100
AcDbLine
 10
96.049987792969034
 20
35.849990844726392
 30
0.0
 11
103.95001220703165
 21
35.849990844726392
 31
0.0
  0
LINE
  5
225
100
AcDbEntity
  8
0
  6
CONTINUOUS
 62
               7
100
AcDbLine
 10
103.54998779296909
 20
30.849990844726335
 30
0.0
 11
111.45001220703165
 21
30.849990844726335
 31
0.0
  0
LINE
  5
226
100
AcDbEntity
  8
0
  6
CONTINUOUS
 62
               7
100
AcDbLine
 10
103.54998779296909
 20
28.74998474121071
 30
0.0
 11
111.45001220703165
 21
28.74998474121071
 31
0.0
  0
LINE
  5
227
100
AcDbEntity
  8
0
  6
CONTINUOUS
 62
               7
100
AcDbLine
 10
118.54998779296909
 20
30.849990844726335
 30
0.0
 11
126.45001220703165
 21
30.849990844726335
 31
0.0
  0
LINE
  5
228
100
AcDbEntity
  8
0
  6
CONTINUOUS
 62
               7
100
AcDbLine
 10
118.54998779296909
 20
28.74998474121071
 30
0.0
 11
126.45001220703165
 21
28.74998474121071
 31
0.0
  0
LINE
  5
229
100
AcDbEntity
  8
0
  6
CONTINUOUS
 62
               7
100
AcDbLine
 10
133.54998779296909
 20
28.517837524413835
 30
0.0
 11
141.45001220703159
 21
28.517837524413835
 31
0.0
  0
LINE
  5
22A
100
AcDbEntity
  8
0
  6
CONTINUOUS
 62
               7
100
AcDbLine
 10
133.54998779296909
 20
30.617828369140398
 30
0.0
 11
141.45001220703159
 21
30.617828369140398
 31
0.0
  0
LINE
  5
22B
100
AcDbEntity
  8
0
  6
CONTINUOUS
 62
               7
100
AcDbLine
 10
141.04998779296909
 20
25.849990844726335
 30
0.0
 11
148.9499969482425
 21
25.849990844726335
 31
0.0
  0
LINE
  5
22C
100
AcDbEntity
  8
0
  6
CONTINUOUS
 62
               7
100
AcDbLine
 10
141.04998779296909
 20
23.74998474121071
 30
0.0
 11
148.9499969482425
 21
23.74998474121071
 31
0.0
  0
LINE
  5
22D
100
AcDbEntity
  8
0
  6
CONTINUOUS
 62
               7
100
AcDbLine
 10
126.04998779296909
 20
25.849990844726335
 30
0.0
 11
133.95001220703159
 21
25.849990844726335
 31
0.0
  0
LINE
  5
22E
100
AcDbEntity
  8
0
  6
CONTINUOUS
 62
               7
100
AcDbLine
 10
126.04998779296909
 20
23.74998474121071
 30
0.0
 11
133.95001220703159
 21
23.74998474121071
 31
0.0
  0
LINE
  5
22F
100
AcDbEntity
  8
0
  6
CONTINUOUS
 62
               7
100
AcDbLine
 10
111.04998779296909
 20
23.74998474121071
 30
0.0
 11
118.95001220703165
 21
23.74998474121071
 31
0.0
  0
LINE
  5
230
100
AcDbEntity
  8
0
  6
CONTINUOUS
 62
               7
100
AcDbLine
 10
111.04998779296909
 20
25.849990844726335
 30
0.0
 11
118.95001220703165
 21
25.849990844726335
 31
0.0
  0
LINE
  5
231
100
AcDbEntity
  8
0
  6
CONTINUOUS
 62
               7
100
AcDbLine
 10
96.049987792969034
 20
23.74998474121071
 30
0.0
 11
103.95001220703165
 21
23.74998474121071
 31
0.0
  0
LINE
  5
232
100
AcDbEntity
  8
0
  6
CONTINUOUS
 62
               7
100
AcDbLine
 10
96.049987792969034
 20
25.849990844726335
 30
0.0
 11
103.95001220703165
 21
25.849990844726335
 31
0.0
  0
LINE
  5
233
100
AcDbEntity
  8
0
  6
CONTINUOUS
 62
               7
100
AcDbLine
 10
300.00000000000023
 20
55.999981689452909
 30
0.0
 11
300.00000000000023
 21
5.1999816894530113
 31
0.0
  0
LINE
  5
234
100
AcDbEntity
  8
0
  6
CONTINUOUS
 62
               7
100
AcDbLine
 10
0.0
 20
52.999981689452909
 30
0.0
 11
0.0
 21
3.1999816894528976
 31
0.0
  0
LINE
  5
235
100
AcDbEntity
  8
0
  6
CONTINUOUS
 62
               7
100
AcDbLine
 10
0.0
 20
3.1999816894528976
 30
0.0
 11
298.00000000000034
 21
3.1999816894528976
 31
0.0
  0
LINE
  5
236
100
AcDbEntity
  8
0
  6
CONTINUOUS
 62
               7
100
AcDbLine
 10
0.0
 20
52.999981689452909
 30
0.0
 11
300.00000000000023
 21
52.999981689452909
 31
0.0
  0
LINE
  5
237
100
AcDbEntity
  8
0
  6
CONTINUOUS
 62
               7
100
AcDbLine
 10
298.00000000000034
 20
5.1999816894530113
 30
0.0
 11
298.00000000000034
 21
3.1999816894528976
 31
0.0
  0
CIRCLE
  5
238
100
AcDbEntity
  8
0
  6
CONTINUOUS
 62
               7
100
AcDbCircle
 10
60.000000000000114
 20
19.799987792968523
 30
0.0
 40
2.9999999999999996
  0
CIRCLE
  5
239
100
AcDbEntity
  8
0
  6
CONTINUOUS
 62
               7
100
AcDbCircle
 10
60.000000000000114
 20
19.799987792968523
 30
0.0
 40
1.4999999999999998
  0
CIRCLE
  5
23A
100
AcDbEntity
  8
0
  6
CONTINUOUS
 62
               7
100
AcDbCircle
 10
60.000000000000114
 20
19.799987792968523
 30
0.0
 40
1.1499999999999999
  0
LINE
  5
23B
100
AcDbEntity
  8
0
  6
CONTINUOUS
 62
               7
100
AcDbLine
 10
148.54998779296906
 20
38.74998474121071
 30
0.0
 11
156.45001220703162
 21
38.74998474121071
 31
0.0
  0
LINE
  5
23C
100
AcDbEntity
  8
0
  6
CONTINUOUS
 62
               7
100
AcDbLine
 10
148.54998779296906
 20
40.849990844726392
 30
0.0
 11
156.45001220703162
 21
40.849990844726392
 31
0.0
  0
LINE
  5
23D
100
AcDbEntity
  8
0
  6
CONTINUOUS
 62
               7
100
AcDbLine
 10
148.54998779296906
 20
30.849990844726335
 30
0.0
 11
156.45001220703162
 21
30.849990844726335
 31
0.0
  0
LINE
  5
23E
100
AcDbEntity
  8
0
  6
CONTINUOUS
 62
               7
100
AcDbLine
 10
148.54998779296906
 20
28.74998474121071
 30
0.0
 11
156.45001220703162
 21
28.74998474121071
 31
0.0
  0
ARC
  5
23F
100
AcDbEntity
  8
0
  6
CONTINUOUS
 62
               7
100
AcDbCircle
 10
193.95001220703162
 20
24.799987792968523
 30
0.0
 40
1.0499999523162842
100
AcDbArc
 50
269.99999749552182
 51
90.000002504478161
  0
ARC
  5
240
100
AcDbEntity
  8
0
  6
CONTINUOUS
 62
               7
100
AcDbCircle
 10
193.95001220703162
 20
34.799987792968523
 30
0.0
 40
1.0499999523162842
100
AcDbArc
 50
269.99999749552182
 51
90.000002504478161
  0
ARC
  5
241
100
AcDbEntity
  8
0
  6
CONTINUOUS
 62
               7
100
AcDbCircle
 10
178.54998779296906
 20
29.799987792968523
 30
0.0
 40
1.0499999523162842
100
AcDbArc
 50
90.000002504478161
 51
270.00000068324533
  0
ARC
  5
242
100
AcDbEntity
  8
0
  6
CONTINUOUS
 62
               7
100
AcDbCircle
 10
178.54998779296906
 20
39.799987792968523
 30
0.0
 40
1.0499999523162842
100
AcDbArc
 50
90.000002504478161
 51
270.00000068324533
  0
ARC
  5
243
100
AcDbEntity
  8
0
  6
CONTINUOUS
 62
               7
100
AcDbCircle
 10
193.95001220703162
 20
44.799987792968523
 30
0.0
 40
1.0499999523162842
100
AcDbArc
 50
269.99999749552182
 51
90.000002504478161
  0
ARC
  5
244
100
AcDbEntity
  8
0
  6
CONTINUOUS
 62
               7
100
AcDbCircle
 10
186.04998779296918
 20
44.799987792968523
 30
0.0
 40
1.0499999523162842
100
AcDbArc
 50
90.000002504478161
 51
270.00000068324533
  0
ARC
  5
245
100
AcDbEntity
  8
0
  6
CONTINUOUS
 62
               7
100
AcDbCircle
 10
186.45001220703162
 20
39.799987792968523
 30
0.0
 40
1.0499999523162842
100
AcDbArc
 50
269.99999749552182
 51
90.000002504478161
  0
ARC
  5
246
100
AcDbEntity
  8
0
  6
CONTINUOUS
 62
               7
100
AcDbCircle
 10
186.04998779296918
 20
34.799987792968523
 30
0.0
 40
1.0499999523162842
100
AcDbArc
 50
90.000002504478161
 51
270.00000068324533
  0
ARC
  5
247
100
AcDbEntity
  8
0
  6
CONTINUOUS
 62
               7
100
AcDbCircle
 10
186.45001220703162
 20
29.799987792968523
 30
0.0
 40
1.0499999523162842
100
AcDbArc
 50
269.99999749552182
 51
90.000002504478161
  0
ARC
  5
248
100
AcDbEntity
  8
0
  6
CONTINUOUS
 62
               7
100
AcDbCircle
 10
186.04998779296918
 20
24.799987792968523
 30
0.0
 40
1.0499999523162842
100
AcDbArc
 50
90.000002504478161
 51
270.00000068324533
  0
LINE
  5
249
100
AcDbEntity
  8
0
  6
CONTINUOUS
 62
               7
100
AcDbLine
 10
186.04998779296918
 20
25.849990844726335
 30
0.0
 11
193.95001220703162
 21
25.849990844726335
 31
0.0
  0
LINE
  5
24A
100
AcDbEntity
  8
0
  6
CONTINUOUS
 62
               7
100
AcDbLine
 10
186.04998779296918
 20
23.74998474121071
 30
0.0
 11
193.95001220703162
 21
23.74998474121071
 31
0.0
  0
LINE
  5
24B
100
AcDbEntity
  8
0
  6
CONTINUOUS
 62
               7
100
AcDbLine
 10
178.54998779296906
 20
28.74998474121071
 30
0.0
 11
186.45001220703162
 21
28.74998474121071
 31
0.0
  0
LINE
  5
24C
100
AcDbEntity
  8
0
  6
CONTINUOUS
 62
               7
100
AcDbLine
 10
178.54998779296906
 20
30.849990844726335
 30
0.0
 11
186.45001220703162
 21
30.849990844726335
 31
0.0
  0
LINE
  5
24D
100
AcDbEntity
  8
0
  6
CONTINUOUS
 62
               7
100
AcDbLine
 10
186.04998779296918
 20
35.849990844726392
 30
0.0
 11
193.95001220703162
 21
35.849990844726392
 31
0.0
  0
LINE
  5
24E
100
AcDbEntity
  8
0
  6
CONTINUOUS
 62
               7
100
AcDbLine
 10
186.04998779296918
 20
33.74998474121071
 30
0.0
 11
193.95001220703162
 21
33.74998474121071
 31
0.0
  0
LINE
  5
24F
100
AcDbEntity
  8
0
  6
CONTINUOUS
 62
               7
100
AcDbLine
 10
178.54998779296906
 20
40.849990844726392
 30
0.0
 11
186.45001220703162
 21
40.849990844726392
 31
0.0
  0
LINE
  5
250
100
AcDbEntity
  8
0
  6
CONTINUOUS
 62
               7
100
AcDbLine
 10
178.54998779296906
 20
38.74998474121071
 30
0.0
 11
186.45001220703162
 21
38.74998474121071
 31
0.0
  0
LINE
  5
251
100
AcDbEntity
  8
0
  6
CONTINUOUS
 62
               7
100
AcDbLine
 10
186.04998779296918
 20
45.849990844726392
 30
0.0
 11
193.95001220703162
 21
45.849990844726392
 31
0.0
  0
LINE
  5
252
100
AcDbEntity
  8
0
  6
CONTINUOUS
 62
               7
100
AcDbLine
 10
186.04998779296918
 20
43.74998474121071
 30
0.0
 11
193.95001220703162
 21
43.74998474121071
 31
0.0
  0
ARC
  5
253
100
AcDbEntity
  8
0
  6
CONTINUOUS
 62
               7
100
AcDbCircle
 10
178.95001220703162
 20
24.799987792968523
 30
0.0
 40
1.0499999523162842
100
AcDbArc
 50
269.99999749552182
 51
90.000002504478161
  0
ARC
  5
254
100
AcDbEntity
  8
0
  6
CONTINUOUS
 62
               7
100
AcDbCircle
 10
178.95001220703162
 20
34.799987792968523
 30
0.0
 40
1.0499999523162842
100
AcDbArc
 50
269.99999749552182
 51
90.000002504478161
  0
ARC
  5
255
100
AcDbEntity
  8
0
  6
CONTINUOUS
 62
               7
100
AcDbCircle
 10
163.54998779296906
 20
29.799987792968523
 30
0.0
 40
1.0499999523162842
100
AcDbArc
 50
90.000002504478161
 51
270.00000068324533
  0
ARC
  5
256
100
AcDbEntity
  8
0
  6
CONTINUOUS
 62
               7
100
AcDbCircle
 10
163.54998779296906
 20
39.799987792968523
 30
0.0
 40
1.0499999523162842
100
AcDbArc
 50
90.000002504478161
 51
270.00000068324533
  0
ARC
  5
257
100
AcDbEntity
  8
0
  6
CONTINUOUS
 62
               7
100
AcDbCircle
 10
178.95001220703162
 20
44.799987792968523
 30
0.0
 40
1.0499999523162842
100
AcDbArc
 50
269.99999749552182
 51
90.000002504478161
  0
ARC
  5
258
100
AcDbEntity
  8
0
  6
CONTINUOUS
 62
               7
100
AcDbCircle
 10
171.04998779296906
 20
44.799987792968523
 30
0.0
 40
1.0499999523162842
100
AcDbArc
 50
90.000002504478161
 51
270.00000068324533
  0
ARC
  5
259
100
AcDbEntity
  8
0
  6
CONTINUOUS
 62
               7
100
AcDbCircle
 10
171.45001220703162
 20
39.799987792968523
 30
0.0
 40
1.0499999523162842
100
AcDbArc
 50
269.99999749552182
 51
90.000002504478161
  0
ARC
  5
25A
100
AcDbEntity
  8
0
  6
CONTINUOUS
 62
               7
100
AcDbCircle
 10
171.04998779296906
 20
34.799987792968523
 30
0.0
 40
1.0499999523162842
100
AcDbArc
 50
90.000002504478161
 51
270.00000068324533
  0
ARC
  5
25B
100
AcDbEntity
  8
0
  6
CONTINUOUS
 62
               7
100
AcDbCircle
 10
171.45001220703162
 20
29.799987792968523
 30
0.0
 40
1.0499999523162842
100
AcDbArc
 50
269.99999749552182
 51
90.000002504478161
  0
ARC
  5
25C
100
AcDbEntity
  8
0
  6
CONTINUOUS
 62
               7
100
AcDbCircle
 10
171.04998779296906
 20
24.799987792968523
 30
0.0
 40
1.0499999523162842
100
AcDbArc
 50
90.000002504478161
 51
270.00000068324533
  0
LINE
  5
25D
100
AcDbEntity
  8
0
  6
CONTINUOUS
 62
               7
100
AcDbLine
 10
171.04998779296906
 20
25.849990844726335
 30
0.0
 11
178.95001220703162
 21
25.849990844726335
 31
0.0
  0
LINE
  5
25E
100
AcDbEntity
  8
0
  6
CONTINUOUS
 62
               7
100
AcDbLine
 10
171.04998779296906
 20
23.74998474121071
 30
0.0
 11
178.95001220703162
 21
23.74998474121071
 31
0.0
  0
LINE
  5
25F
100
AcDbEntity
  8
0
  6
CONTINUOUS
 62
               7
100
AcDbLine
 10
163.54998779296906
 20
28.74998474121071
 30
0.0
 11
171.45001220703162
 21
28.74998474121071
 31
0.0
  0
LINE
  5
260
100
AcDbEntity
  8
0
  6
CONTINUOUS
 62
               7
100
AcDbLine
 10
163.54998779296906
 20
30.849990844726335
 30
0.0
 11
171.45001220703162
 21
30.849990844726335
 31
0.0
  0
LINE
  5
261
100
AcDbEntity
  8
0
  6
CONTINUOUS
 62
               7
100
AcDbLine
 10
171.04998779296906
 20
35.849990844726392
 30
0.0
 11
178.95001220703162
 21
35.849990844726392
 31
0.0
  0
LINE
  5
262
100
AcDbEntity
  8
0
  6
CONTINUOUS
 62
               7
100
AcDbLine
 10
171.04998779296906
 20
33.74998474121071
 30
0.0
 11
178.95001220703162
 21
33.74998474121071
 31
0.0
  0
LINE
  5
263
100
AcDbEntity
  8
0
  6
CONTINUOUS
 62
               7
100
AcDbLine
 10
163.54998779296906
 20
40.849990844726392
 30
0.0
 11
171.45001220703162
 21
40.849990844726392
 31
0.0
  0
LINE
  5
264
100
AcDbEntity
  8
0
  6
CONTINUOUS
 62
               7
100
AcDbLine
 10
163.54998779296906
 20
38.74998474121071
 30
0.0
 11
171.45001220703162
 21
38.74998474121071
 31
0.0
  0
LINE
  5
265
100
AcDbEntity
  8
0
  6
CONTINUOUS
 62
               7
100
AcDbLine
 10
171.04998779296906
 20
45.849990844726392
 30
0.0
 11
178.95001220703162
 21
45.849990844726392
 31
0.0
  0
LINE
  5
266
100
AcDbEntity
  8
0
  6
CONTINUOUS
 62
               7
100
AcDbLine
 10
171.04998779296906
 20
43.74998474121071
 30
0.0
 11
178.95001220703162
 21
43.74998474121071
 31
0.0
  0
ARC
  5
267
100
AcDbEntity
  8
0
  6
CONTINUOUS
 62
               7
100
AcDbCircle
 10
163.95001220703162
 20
24.799987792968523
 30
0.0
 40
1.0499999523162842
100
AcDbArc
 50
269.99999749552182
 51
90.000002504478161
  0
ARC
  5
268
100
AcDbEntity
  8
0
  6
CONTINUOUS
 62
               7
100
AcDbCircle
 10
163.95001220703162
 20
34.799987792968523
 30
0.0
 40
1.0499999523162842
100
AcDbArc
 50
269.99999749552182
 51
90.000002504478161
  0
ARC
  5
269
100
AcDbEntity
  8
0
  6
CONTINUOUS
 62
               7
100
AcDbCircle
 10
163.95001220703162
 20
44.799987792968523
 30
0.0
 40
1.0499999523162842
100
AcDbArc
 50
269.99999749552182
 51
90.000002504478161
  0
ARC
  5
26A
100
AcDbEntity
  8
0
  6
CONTINUOUS
 62
               7
100
AcDbCircle
 10
156.04998779296906
 20
44.799987792968523
 30
0.0
 40
1.0499999523162842
100
AcDbArc
 50
90.000002504478161
 51
270.00000068324533
  0
ARC
  5
26B
100
AcDbEntity
  8
0
  6
CONTINUOUS
 62
               7
100
AcDbCircle
 10
156.45001220703162
 20
39.799987792968523
 30
0.0
 40
1.0499999523162842
100
AcDbArc
 50
269.99999749552182
 51
90.000002504478161
  0
ARC
  5
26C
100
AcDbEntity
  8
0
  6
CONTINUOUS
 62
               7
100
AcDbCircle
 10
156.04998779296906
 20
34.799987792968523
 30
0.0
 40
1.0499999523162842
100
AcDbArc
 50
90.000002504478161
 51
270.00000068324533
  0
ARC
  5
26D
100
AcDbEntity
  8
0
  6
CONTINUOUS
 62
               7
100
AcDbCircle
 10
156.45001220703162
 20
29.799987792968523
 30
0.0
 40
1.0499999523162842
100
AcDbArc
 50
269.99999749552182
 51
90.000002504478161
  0
ARC
  5
26E
100
AcDbEntity
  8
0
  6
CONTINUOUS
 62
               7
100
AcDbCircle
 10
156.04998779296906
 20
24.799987792968523
 30
0.0
 40
1.0499999523162842
100
AcDbArc
 50
90.000002504478161
 51
270.00000068324533
  0
LINE
  5
26F
100
AcDbEntity
  8
0
  6
CONTINUOUS
 62
               7
100
AcDbLine
 10
156.04998779296906
 20
25.849990844726335
 30
0.0
 11
163.95001220703162
 21
25.849990844726335
 31
0.0
  0
LINE
  5
270
100
AcDbEntity
  8
0
  6
CONTINUOUS
 62
               7
100
AcDbLine
 10
156.04998779296906
 20
23.74998474121071
 30
0.0
 11
163.95001220703162
 21
23.74998474121071
 31
0.0
  0
LINE
  5
271
100
AcDbEntity
  8
0
  6
CONTINUOUS
 62
               7
100
AcDbLine
 10
156.04998779296906
 20
35.849990844726392
 30
0.0
 11
163.95001220703162
 21
35.849990844726392
 31
0.0
  0
LINE
  5
272
100
AcDbEntity
  8
0
  6
CONTINUOUS
 62
               7
100
AcDbLine
 10
156.04998779296906
 20
33.74998474121071
 30
0.0
 11
163.95001220703162
 21
33.74998474121071
 31
0.0
  0
LINE
  5
273
100
AcDbEntity
  8
0
  6
CONTINUOUS
 62
               7
100
AcDbLine
 10
156.04998779296906
 20
45.849990844726392
 30
0.0
 11
163.95001220703162
 21
45.849990844726392
 31
0.0
  0
LINE
  5
274
100
AcDbEntity
  8
0
  6
CONTINUOUS
 62
               7
100
AcDbLine
 10
156.04998779296906
 20
43.74998474121071
 30
0.0
 11
163.95001220703162
 21
43.74998474121071
 31
0.0
  0
ARC
  5
275
100
AcDbEntity
  8
0
  6
CONTINUOUS
 62
               7
100
AcDbCircle
 10
148.54998779296906
 20
39.799987792968523
 30
0.0
 40
1.0499999523162842
100
AcDbArc
 50
90.000002504478161
 51
270.00000068324533
  0
ARC
  5
276
100
AcDbEntity
  8
0
  6
CONTINUOUS
 62
               7
100
AcDbCircle
 10
148.54998779296906
 20
29.799987792968523
 30
0.0
 40
1.0499999523162842
100
AcDbArc
 50
90.000002504478161
 51
270.00000068324533
  0
LINE
  5
277
100
AcDbEntity
  8
0
  6
CONTINUOUS
 62
               7
100
AcDbLine
 10
11.0
 20
0.0
 30
0.0
 11
23.0
 21
0.0
 31
0.0
  0
LINE
  5
278
100
AcDbEntity
  8
0
  6
CONTINUOUS
 62
               7
100
AcDbLine
 10
23.0
 20
0.0
 30
0.0
 11
23.0
 21
3.1999816894528976
 31
0.0
  0
LINE
  5
279
100
AcDbEntity
  8
0
  6
CONTINUOUS
 62
               7
100
AcDbLine
 10
11.0
 20
0.0
 30
0.0
 11
11.0
 21
3.1999816894528976
 31
0.0
  0
LINE
  5
27A
100
AcDbEntity
  8
0
  6
CONTINUOUS
 62
               7
100
AcDbLine
 10
277.0000152587894
 20
0.0
 30
0.0
 11
277.0000152587894
 21
3.1999816894528976
 31
0.0
  0
LINE
  5
27B
100
AcDbEntity
  8
0
  6
CONTINUOUS
 62
               7
100
AcDbLine
 10
289.00001525878935
 20
0.0
 30
0.0
 11
289.00001525878935
 21
3.1999816894528976
 31
0.0
  0
LINE
  5
27C
100
AcDbEntity
  8
0
  6
CONTINUOUS
 62
               7
100
AcDbLine
 10
277.0000152587894
 20
0.0
 30
0.0
 11
289.00001525878935
 21
0.0
 31
0.0
  0
ARC
  5
27D
100
AcDbEntity
  8
0
  6
CONTINUOUS
 62
               7
100
AcDbCircle
 10
54.000015258789176
 20
29.099987792968591
 30
0.0
 40
250.0
100
AcDbArc
 50
355.14609020783729
 51
4.8539097921627041
  0
ARC
  5
27E
100
AcDbEntity
  8
0
  6
CONTINUOUS
 62
               7
100
AcDbCircle
 10
300.11418151855497
 20
8.1999633789061477
 30
0.0
 40
2.9999999999999996
100
AcDbArc
 50
269.99999749552182
 51
355.14609020783729
  0
ARC
  5
27F
100
AcDbEntity
  8
0
  6
CONTINUOUS
 62
               7
100
AcDbCircle
 10
300.11418151855497
 20
49.999981689453193
 30
0.0
 40
2.9999999999999996
100
AcDbArc
 50
4.8539097921627041
 51
90.000002504478161
  0
ARC
  5
280
100
AcDbEntity
  8
0
  6
CONTINUOUS
 62
               7
100
AcDbCircle
 10
210.00001525878946
 20
19.099987792968591
 30
0.0
 40
100.0
100
AcDbArc
 50
354.62440334723948
 51
20.455793309426426
  0
ARC
  5
281
100
AcDbEntity
  8
0
  6
CONTINUOUS
 62
               7
100
AcDbCircle
 10
300.88340759277366
 20
52.999981689452909
 30
0.0
 40
2.9999999999999996
100
AcDbArc
 50
20.455793309426426
 51
90.000002504478161
  0
ARC
  5
282
100
AcDbEntity
  8
0
  6
CONTINUOUS
 62
               7
100
AcDbCircle
 10
304.58219909668003
 20
10.199963378906034
 30
0.0
 40
5.0
100
AcDbArc
 50
269.99999749552182
 51
354.62440334723948
  0
ARC
  5
283
100
AcDbEntity
  8
0
  6
CONTINUOUS
 62
               7
100
AcDbCircle
 10
301.94667053222696
 20
49.999981689453193
 30
0.0
 40
2.9999999999999996
100
AcDbArc
 50
18.575665919617233
 51
90.000002504478161
  0
LINE
  5
284
100
AcDbEntity
  8
0
  6
CONTINUOUS
 62
               7
100
AcDbLine
 10
304.58219887812299
 20
5.1999816894530682
 30
0.0
 11
298.00001525878946
 21
5.1999816894530682
 31
0.0
  0
LINE
  5
285
100
AcDbEntity
  8
0
  6
CONTINUOUS
 62
               2
100
AcDbLine
 10
17.000000000000227
 20
-4.720051132636172
 30
0.0
 11
17.000000000000227
 21
7.954018285203972
 31
0.0
  0
LINE
  5
286
100
AcDbEntity
  8
0
  6
CONTINUOUS
 62
               2
100
AcDbLine
 10
330.71684628879262
 20
19.649981689452943
 30
0.0
 11
306.44319941532297
 21
19.649981689452943
 31
0.0
  0
LINE
  5
287
100
AcDbEntity
  8
0
  6
CONTINUOUS
 62
               7
100
AcDbLine
 10
325.50000015999905
 20
25.999981689452852
 30
0.0
 11
325.50000015999905
 21
13.299981689452807
 31
0.0
  0
LINE
  5
288
100
AcDbEntity
  8
0
  6
CONTINUOUS
 62
               7
100
AcDbLine
 10
326.50000015999893
 20
14.149981689452886
 30
0.0
 11
326.50000015999893
 21
25.149981689453057
 31
0.0
  0
LINE
  5
289
100
AcDbEntity
  8
0
  6
CONTINUOUS
 62
               7
100
AcDbLine
 10
325.50000015999905
 20
25.999981689452852
 30
0.0
 11
326.50000015999893
 21
25.149981689453057
 31
0.0
  0
LINE
  5
28A
100
AcDbEntity
  8
0
  6
CONTINUOUS
 62
               7
100
AcDbLine
 10
326.50000015999893
 20
14.149981689452886
 30
0.0
 11
325.50000015999905
 21
13.299981689452807
 31
0.0
  0
LINE
  5
28B
100
AcDbEntity
  8
0
  6
CONTINUOUS
 62
               7
100
AcDbLine
 10
328.0000001599991
 20
14.149981689452886
 30
0.0
 11
328.0000001599991
 21
25.149981689453057
 31
0.0
  0
LINE
  5
28C
100
AcDbEntity
  8
0
  6
CONTINUOUS
 62
               7
100
AcDbLine
 10
328.0000001599991
 20
25.149981689453057
 30
0.0
 11
326.50000015999893
 21
25.149981689453057
 31
0.0
  0
LINE
  5
28D
100
AcDbEntity
  8
0
  6
CONTINUOUS
 62
               7
100
AcDbLine
 10
328.0000001599991
 20
14.149981689452886
 30
0.0
 11
326.50000015999893
 21
14.149981689452886
 31
0.0
  0
LINE
  5
28E
100
AcDbEntity
  8
0
  6
CONTINUOUS
 62
               7
100
AcDbLine
 10
325.50000015999905
 20
25.999981689452852
 30
0.0
 11
309.76168166542317
 21
25.999981689452852
 31
0.0
  0
LINE
  5
28F
100
AcDbEntity
  8
0
  6
CONTINUOUS
 62
               7
100
AcDbLine
 10
325.50000015999905
 20
13.299981689452807
 30
0.0
 11
309.83167320955766
 21
13.299981689452807
 31
0.0
  0
LINE
  5
290
100
AcDbEntity
  8
0
  6
CONTINUOUS
 62
               7
100
AcDbLine
 10
5.0
 20
211.49998168945251
 30
0.0
 11
5.0
 21
206.49998168945251
 31
0.0
  0
LINE
  5
291
100
AcDbEntity
  8
0
  6
CONTINUOUS
 62
               7
100
AcDbLine
 10
45.000015258789063
 20
211.49998168945251
 30
0.0
 11
45.000015258789063
 21
206.49998168945251
 31
0.0
  0
LINE
  5
292
100
AcDbEntity
  8
0
  6
CONTINUOUS
 62
               2
100
AcDbLine
 10
38.000015258789062
 20
208.05357055664015
 30
0.0
 11
38.000015258789062
 21
202.32560289953494
 31
0.0
  0
LINE
  5
293
100
AcDbEntity
  8
0
  6
CONTINUOUS
 62
               2
100
AcDbLine
 10
11.999999999999943
 20
208.05357055664015
 30
0.0
 11
11.999999999999943
 21
202.32560289953494
 31
0.0
  0
LINE
  5
294
100
AcDbEntity
  8
0
  6
CONTINUOUS
 62
               7
100
AcDbLine
 10
250.00001501878924
 20
165.99998168945251
 30
0.0
 11
250.00001501878924
 21
162.99998168945251
 31
0.0
  0
LINE
  5
295
100
AcDbEntity
  8
0
  6
CONTINUOUS
 62
               7
100
AcDbLine
 10
250.00001501878924
 20
165.99998168945251
 30
0.0
 11
230.00001525878935
 21
165.99998168945251
 31
0.0
  0
LINE
  5
296
100
AcDbEntity
  8
0
  6
CONTINUOUS
 62
               7
100
AcDbLine
 10
0.0000002400000767
 20
162.99998128465256
 30
0.0
 11
0.0000002400000767
 21
165.99998128465251
 31
0.0
  0
LINE
  5
297
100
AcDbEntity
  8
0
  6
CONTINUOUS
 62
               7
100
AcDbLine
 10
20.0
 20
165.99998128465251
 30
0.0
 11
0.0000002400000767
 21
165.99998128465251
 31
0.0
  0
LINE
  5
298
100
AcDbEntity
  8
0
  6
CONTINUOUS
 62
               7
100
AcDbLine
 10
250.00000000000026
 20
162.99998168945251
 30
0.0
 11
0.0
 21
162.99998124945262
 31
0.0
  0
LINE
  5
299
100
AcDbEntity
  8
0
  6
CONTINUOUS
 62
               7
100
AcDbLine
 10
22.0
 20
172.99998168945251
 30
0.0
 11
20.0
 21
170.9999816894524
 31
0.0
  0
LINE
  5
29A
100
AcDbEntity
  8
0
  6
CONTINUOUS
 62
               7
100
AcDbLine
 10
230.00001525878935
 20
170.99998168945251
 30
0.0
 11
228.00001525878932
 21
172.99998168945251
 31
0.0
  0
LINE
  5
29B
100
AcDbEntity
  8
0
  6
CONTINUOUS
 62
               7
100
AcDbLine
 10
20.0
 20
162.99998124945262
 30
0.0
 11
20.0
 21
170.9999816894524
 31
0.0
  0
LINE
  5
29C
100
AcDbEntity
  8
0
  6
CONTINUOUS
 62
               7
100
AcDbLine
 10
230.00001525878935
 20
162.99998168945251
 30
0.0
 11
230.00001525878935
 21
170.99998168945251
 31
0.0
  0
CIRCLE
  5
29D
100
AcDbEntity
  8
0
  6
CONTINUOUS
 62
               7
100
AcDbCircle
 10
-20.500030517578011
 20
194.9999816894524
 30
0.0
 40
2.0750000476837158
  0
CIRCLE
  5
29E
100
AcDbEntity
  8
0
  6
CONTINUOUS
 62
               7
100
AcDbCircle
 10
-20.500030517578011
 20
194.9999816894524
 30
0.0
 40
2.1500000953674316
  0
CIRCLE
  5
29F
100
AcDbEntity
  8
0
  6
CONTINUOUS
 62
               7
100
AcDbCircle
 10
-20.500030517578011
 20
180.99998168945251
 30
0.0
 40
2.0750000476837158
  0
CIRCLE
  5
2A0
100
AcDbEntity
  8
0
  6
CONTINUOUS
 62
               7
100
AcDbCircle
 10
-20.500030517578011
 20
180.99998168945251
 30
0.0
 40
2.1500000953674316
  0
LINE
  5
2A1
100
AcDbEntity
  8
0
  6
CONTINUOUS
 62
               7
100
AcDbLine
 10
-95.000030517578068
 20
205.49998168945248
 30
0.0
 11
-95.000030517578068
 21
172.99998168945251
 31
0.0
  0
LINE
  5
2A2
100
AcDbEntity
  8
0
  6
CONTINUOUS
 62
               7
100
AcDbLine
 10
-95.000030517578068
 20
205.49998168945248
 30
0.0
 11
-17.0
 21
205.49998168945248
 31
0.0
  0
LINE
  5
2A3
100
AcDbEntity
  8
0
  6
CONTINUOUS
 62
               7
100
AcDbLine
 10
-94.067718505859318
 20
200.32841186523387
 30
0.0
 11
-17.74298095703125
 21
200.32841186523387
 31
0.0
  0
LINE
  5
2A4
100
AcDbEntity
  8
0
  6
CONTINUOUS
 62
               7
100
AcDbLine
 10
-17.0
 20
191.19999389648365
 30
0.0
 11
-17.499999999999886
 21
191.19999389648365
 31
0.0
  0
LINE
  5
2A5
100
AcDbEntity
  8
0
  6
CONTINUOUS
 62
               7
100
AcDbLine
 10
-17.0
 20
176.79996948242115
 30
0.0
 11
-17.499999999999886
 21
176.79996948242115
 31
0.0
  0
ARC
  5
2A6
100
AcDbEntity
  8
0
  6
CONTINUOUS
 62
               7
100
AcDbCircle
 10
-26.25
 20
184.24998168945251
 30
0.0
 40
1.7499999999999998
100
AcDbArc
 50
90.0
 51
270.0
  0
LINE
  5
2A7
100
AcDbEntity
  8
0
  6
CONTINUOUS
 62
               7
100
AcDbLine
 10
-26.25
 20
182.4999816894524
 30
0.0
 11
-22.040288385508347
 21
182.4999816894524
 31
0.0
  0
LINE
  5
2A8
100
AcDbEntity
  8
0
  6
CONTINUOUS
 62
               7
100
AcDbLine
 10
-26.25
 20
185.99998168945251
 30
0.0
 11
-17.499999999999886
 21
185.99998168945251
 31
0.0
  0
ARC
  5
2A9
100
AcDbEntity
  8
0
  6
CONTINUOUS
 62
               7
100
AcDbCircle
 10
-19.0
 20
174.9999816894524
 30
0.0
 40
2.0
100
AcDbArc
 50
270.0
 51
0.0
  0
LINE
  5
2AA
100
AcDbEntity
  8
0
  6
CONTINUOUS
 62
               7
100
AcDbLine
 10
-18.95973820438553
 20
182.4999816894524
 30
0.0
 11
-17.499999999999886
 21
182.4999816894524
 31
0.0
  0
LINE
  5
2AB
100
AcDbEntity
  8
0
  6
CONTINUOUS
 62
               7
100
AcDbLine
 10
-25.000030517578068
 20
182.4999816894524
 30
0.0
 11
-25.000030517578068
 21
182.649975585937
 31
0.0
  0
LINE
  5
2AC
100
AcDbEntity
  8
0
  6
CONTINUOUS
 62
               7
100
AcDbLine
 10
179.74999904632597
 20
160.00001220703052
 30
0.0
 11
175.2500123977664
 21
160.00001220703052
 31
0.0
  0
LINE
  5
2AD
100
AcDbEntity
  8
0
  6
CONTINUOUS
 62
               7
100
AcDbLine
 10
180.24999454270383
 20
160.50001666533922
 30
0.0
 11
179.74999557134623
 21
160.00001959058227
 31
0.0
  0
LINE
  5
2AE
100
AcDbEntity
  8
0
  6
CONTINUOUS
 62
               7
100
AcDbLine
 10
180.24999904632605
 20
160.50001316070484
 30
0.0
 11
174.75000000000028
 21
160.50001316070484
 31
0.0
  0
LINE
  5
2AF
100
AcDbEntity
  8
0
  6
CONTINUOUS
 62
               7
100
AcDbLine
 10
175.25000560876589
 20
160.00001975917201
 30
0.0
 11
174.75000659526137
 21
160.50001687607562
 31
0.0
  0
LINE
  5
2B0
100
AcDbEntity
  8
0
  6
CONTINUOUS
 62
               2
100
AcDbLine
 10
177.50000000000028
 20
176.56478530896459
 30
0.0
 11
177.50000000000028
 21
157.1796704643902
 31
0.0
  0
LINE
  5
2B1
100
AcDbEntity
  8
0
  6
CONTINUOUS
 62
               7
100
AcDbLine
 10
180.25000000000031
 20
160.50001220703058
 30
0.0
 11
180.25000000000031
 21
163.00001220703058
 31
0.0
  0
LINE
  5
2B2
100
AcDbEntity
  8
0
  6
CONTINUOUS
 62
               7
100
AcDbLine
 10
174.75000000000028
 20
163.00001220703058
 30
0.0
 11
174.75000000000028
 21
160.50001220703058
 31
0.0
  0
LINE
  5
2B3
100
AcDbEntity
  8
0
  6
CONTINUOUS
 62
               7
100
AcDbLine
 10
55.250005608765605
 20
160.00001975917201
 30
0.0
 11
54.750006595261141
 21
160.50001687607562
 31
0.0
  0
LINE
  5
2B4
100
AcDbEntity
  8
0
  6
CONTINUOUS
 62
               7
100
AcDbLine
 10
60.249999046325797
 20
160.50001316070484
 30
0.0
 11
54.750000000000057
 21
160.50001316070484
 31
0.0
  0
LINE
  5
2B5
100
AcDbEntity
  8
0
  6
CONTINUOUS
 62
               7
100
AcDbLine
 10
60.249994542703575
 20
160.50001666533922
 30
0.0
 11
59.749995571346062
 21
160.00001959058227
 31
0.0
  0
LINE
  5
2B6
100
AcDbEntity
  8
0
  6
CONTINUOUS
 62
               7
100
AcDbLine
 10
59.749999046325797
 20
160.00001220703052
 30
0.0
 11
55.250012397766113
 21
160.00001220703052
 31
0.0
  0
LINE
  5
2B7
100
AcDbEntity
  8
0
  6
CONTINUOUS
 62
               2
100
AcDbLine
 10
57.500000000000057
 20
176.56478530896459
 30
0.0
 11
57.500000000000057
 21
157.1796704643902
 31
0.0
  0
LINE
  5
2B8
100
AcDbEntity
  8
0
  6
CONTINUOUS
 62
               7
100
AcDbLine
 10
60.250000000000057
 20
160.50001220703058
 30
0.0
 11
60.250000000000057
 21
163.00001220703058
 31
0.0
  0
LINE
  5
2B9
100
AcDbEntity
  8
0
  6
CONTINUOUS
 62
               7
100
AcDbLine
 10
54.750000000000057
 20
163.00001220703058
 30
0.0
 11
54.750000000000057
 21
160.50001220703058
 31
0.0
  0
LINE
  5
2BA
100
AcDbEntity
  8
0
  6
CONTINUOUS
 62
               7
100
AcDbLine
 10
14.249999046325627
 20
203.49998168945262
 30
0.0
 11
9.7500123977661133
 21
203.49998168945262
 31
0.0
  0
LINE
  5
2BB
100
AcDbEntity
  8
0
  6
CONTINUOUS
 62
               7
100
AcDbLine
 10
14.75
 20
203.99998168945251
 30
0.0
 11
14.75
 21
206.49998168945251
 31
0.0
  0
LINE
  5
2BC
100
AcDbEntity
  8
0
  6
CONTINUOUS
 62
               7
100
AcDbLine
 10
14.749994542703462
 20
203.99998614776115
 30
0.0
 11
14.249995571345892
 21
203.49998907300426
 31
0.0
  0
LINE
  5
2BD
100
AcDbEntity
  8
0
  6
CONTINUOUS
 62
               7
100
AcDbLine
 10
14.749999046325684
 20
203.99998264312694
 30
0.0
 11
9.2499999999998863
 21
203.99998264312694
 31
0.0
  0
LINE
  5
2BE
100
AcDbEntity
  8
0
  6
CONTINUOUS
 62
               7
100
AcDbLine
 10
9.2499999999998863
 20
206.49998168945251
 30
0.0
 11
9.2499999999998863
 21
203.99998168945251
 31
0.0
  0
LINE
  5
2BF
100
AcDbEntity
  8
0
  6
CONTINUOUS
 62
               7
100
AcDbLine
 10
9.7500056087654343
 20
203.49998924159388
 30
0.0
 11
9.2500065952609702
 21
203.99998635849749
 31
0.0
  0
LINE
  5
2C0
100
AcDbEntity
  8
0
  6
CONTINUOUS
 62
               7
100
AcDbLine
 10
40.250014305114746
 20
203.49998168945262
 30
0.0
 11
35.750027656555176
 21
203.49998168945262
 31
0.0
  0
LINE
  5
2C1
100
AcDbEntity
  8
0
  6
CONTINUOUS
 62
               7
100
AcDbLine
 10
40.750015258789006
 20
203.99998168945251
 30
0.0
 11
40.750015258789006
 21
206.49998168945251
 31
0.0
  0
LINE
  5
2C2
100
AcDbEntity
  8
0
  6
CONTINUOUS
 62
               7
100
AcDbLine
 10
40.750009801492467
 20
203.99998614776115
 30
0.0
 11
40.250010830134897
 21
203.49998907300426
 31
0.0
  0
LINE
  5
2C3
100
AcDbEntity
  8
0
  6
CONTINUOUS
 62
               7
100
AcDbLine
 10
40.750014305114689
 20
203.99998264312694
 30
0.0
 11
35.250015258789063
 21
203.99998264312694
 31
0.0
  0
LINE
  5
2C4
100
AcDbEntity
  8
0
  6
CONTINUOUS
 62
               7
100
AcDbLine
 10
35.250015258789063
 20
206.49998168945251
 30
0.0
 11
35.250015258789063
 21
203.99998168945251
 31
0.0
  0
LINE
  5
2C5
100
AcDbEntity
  8
0
  6
CONTINUOUS
 62
               7
100
AcDbLine
 10
35.750020867554667
 20
203.49998924159388
 30
0.0
 11
35.250021854050146
 21
203.99998635849749
 31
0.0
  0
CIRCLE
  5
2C6
100
AcDbEntity
  8
0
  6
CONTINUOUS
 62
               7
100
AcDbCircle
 10
-15.499999999999886
 20
179.99998168945251
 30
0.0
 40
2.1500000953674316
  0
CIRCLE
  5
2C7
100
AcDbEntity
  8
0
  6
CONTINUOUS
 62
               7
100
AcDbCircle
 10
-15.499999999999886
 20
179.99998168945251
 30
0.0
 40
2.0750000476837158
  0
CIRCLE
  5
2C8
100
AcDbEntity
  8
0
  6
CONTINUOUS
 62
               7
100
AcDbCircle
 10
-15.499999999999886
 20
187.99998168945251
 30
0.0
 40
2.1500000953674316
  0
CIRCLE
  5
2C9
100
AcDbEntity
  8
0
  6
CONTINUOUS
 62
               7
100
AcDbCircle
 10
-15.499999999999886
 20
187.99998168945251
 30
0.0
 40
2.0750000476837158
  0
ARC
  5
2CA
100
AcDbEntity
  8
0
  6
CONTINUOUS
 62
               7
100
AcDbCircle
 10
254.45024108886741
 20
197.69996337890575
 30
0.0
 40
5.0
100
AcDbArc
 50
39.419948436202937
 51
90.000002504478161
  0
ARC
  5
2CB
100
AcDbEntity
  8
0
  6
CONTINUOUS
 62
               7
100
AcDbCircle
 10
210.0000152587894
 20
184.99998168945262
 30
0.0
 40
50.0
100
AcDbArc
 50
348.96028584355929
 51
18.225985847321969
  0
ARC
  5
2CC
100
AcDbEntity
  8
0
  6
CONTINUOUS
 62
               7
100
AcDbCircle
 10
257.02775573730491
 20
178.99998168945251
 30
0.0
 40
5.9999999999999991
100
AcDbArc
 50
269.99999749552182
 51
341.59152003579175
  0
ARC
  5
2CD
100
AcDbEntity
  8
0
  6
CONTINUOUS
 62
               7
100
AcDbCircle
 10
256.13026428222679
 20
175.99998168945251
 30
0.0
 40
2.9999999999999996
100
AcDbArc
 50
269.99999749552182
 51
348.96028584355929
  0
ARC
  5
2CE
100
AcDbEntity
  8
0
  6
CONTINUOUS
 62
               7
100
AcDbCircle
 10
239.00001525878932
 20
184.99998168945262
 30
0.0
 40
25.0
100
AcDbArc
 50
341.59152003579175
 51
39.419948436202937
  0
ARC
  5
2CF
100
AcDbEntity
  8
0
  6
CONTINUOUS
 62
               7
100
AcDbCircle
 10
254.64201354980494
 20
199.69996337890564
 30
0.0
 40
2.9999999999999996
100
AcDbArc
 50
18.225985847321969
 51
90.000002504478161
  0
ARC
  5
2D0
100
AcDbEntity
  8
0
  6
CONTINUOUS
 62
               7
100
AcDbCircle
 10
-12.0
 20
189.99998168945262
 30
0.0
 40
1.4999999999999998
100
AcDbArc
 50
89.999995674288996
 51
152.18133351291164
  0
ARC
  5
2D1
100
AcDbEntity
  8
0
  6
CONTINUOUS
 62
               7
100
AcDbCircle
 10
-8.0
 20
177.99998168945251
 30
0.0
 40
1.4999999999999998
100
AcDbArc
 50
270.00000432571102
 51
0.0
  0
ARC
  5
2D2
100
AcDbEntity
  8
0
  6
CONTINUOUS
 62
               7
100
AcDbCircle
 10
-12.0
 20
177.99998168945251
 30
0.0
 40
1.4999999999999998
100
AcDbArc
 50
207.81866648708836
 51
270.00000432571102
  0
ARC
  5
2D3
100
AcDbEntity
  8
0
  6
CONTINUOUS
 62
               7
100
AcDbCircle
 10
-8.0
 20
189.99998168945262
 30
0.0
 40
1.4999999999999998
100
AcDbArc
 50
0.0
 51
89.999995674288996
  0
LINE
  5
2D4
100
AcDbEntity
  8
0
  6
CONTINUOUS
 62
               7
100
AcDbLine
 10
-6.5000000000000568
 20
186.19999389648376
 30
0.0
 11
252.00001525878929
 21
186.19999389648376
 31
0.0
  0
LINE
  5
2D5
100
AcDbEntity
  8
0
  6
CONTINUOUS
 62
               7
100
AcDbLine
 10
-6.5000000000000568
 20
182.79996948242137
 30
0.0
 11
252.00001525878929
 21
182.79996948242137
 31
0.0
  0
LINE
  5
2D6
100
AcDbEntity
  8
0
  6
CONTINUOUS
 62
               7
100
AcDbLine
 10
46.000015258789006
 20
201.399975585937
 30
0.0
 11
56.053546805780798
 21
201.399975585937
 31
0.0
  0
LINE
  5
2D7
100
AcDbEntity
  8
0
  6
CONTINUOUS
 62
               7
100
AcDbLine
 10
256.00001525878929
 20
186.99998168945251
 30
0.0
 11
256.00001525878929
 21
186.49998168945251
 31
0.0
  0
LINE
  5
2D8
100
AcDbEntity
  8
0
  6
CONTINUOUS
 62
               7
100
AcDbLine
 10
252.00001525878929
 20
192.49998168945262
 30
0.0
 11
256.00001525878929
 21
192.49998168945262
 31
0.0
  0
LINE
  5
2D9
100
AcDbEntity
  8
0
  6
CONTINUOUS
 62
               7
100
AcDbLine
 10
252.00001525878929
 20
186.49998168945251
 30
0.0
 11
256.00001525878929
 21
186.49998168945251
 31
0.0
  0
LINE
  5
2DA
100
AcDbEntity
  8
0
  6
CONTINUOUS
 62
               7
100
AcDbLine
 10
256.00001525878929
 20
192.49998168945262
 30
0.0
 11
256.00001525878929
 21
191.99998168945251
 31
0.0
  0
LINE
  5
2DB
100
AcDbEntity
  8
0
  6
CONTINUOUS
 62
               7
100
AcDbLine
 10
252.00001525878929
 20
191.99998168945251
 30
0.0
 11
256.00001525878929
 21
191.99998168945251
 31
0.0
  0
LINE
  5
2DC
100
AcDbEntity
  8
0
  6
CONTINUOUS
 62
               7
100
AcDbLine
 10
252.00001525878929
 20
186.99998168945251
 30
0.0
 11
256.00001525878929
 21
186.99998168945251
 31
0.0
  0
LINE
  5
2DD
100
AcDbEntity
  8
0
  6
CONTINUOUS
 62
               7
100
AcDbLine
 10
252.00001525878929
 20
202.69999389648376
 30
0.0
 11
254.45024108886741
 21
202.69999389648376
 31
0.0
  0
LINE
  5
2DE
100
AcDbEntity
  8
0
  6
CONTINUOUS
 62
               7
100
AcDbLine
 10
46.000015258789006
 20
198.86448364257751
 30
0.0
 11
252.00001525878929
 21
198.86448364257751
 31
0.0
  0
LINE
  5
2DF
100
AcDbEntity
  8
0
  6
CONTINUOUS
 62
               7
100
AcDbLine
 10
-95.000030517578068
 20
172.99998168945251
 30
0.0
 11
256.1302641510926
 21
172.99998168945251
 31
0.0
  0
LINE
  5
2E0
100
AcDbEntity
  8
0
  6
CONTINUOUS
 62
               7
100
AcDbLine
 10
4.0
 20
206.49998168945251
 30
0.0
 11
46.000015258789006
 21
206.49998168945251
 31
0.0
  0
LINE
  5
2E1
100
AcDbEntity
  8
0
  6
CONTINUOUS
 62
               7
100
AcDbLine
 10
-17.0
 20
193.99998168945251
 30
0.0
 11
252.00001525878929
 21
193.99998168945251
 31
0.0
  0
LINE
  5
2E2
100
AcDbEntity
  8
0
  6
CONTINUOUS
 62
               7
100
AcDbLine
 10
-17.0
 20
205.49998168945248
 30
0.0
 11
-17.0
 21
190.69999389648387
 31
0.0
  0
LINE
  5
2E3
100
AcDbEntity
  8
0
  6
CONTINUOUS
 62
               7
100
AcDbLine
 10
-27.611060826057496
 20
185.34998779296814
 30
0.0
 11
-17.5
 21
185.34998779296814
 31
0.0
  0
LINE
  5
2E4
100
AcDbEntity
  8
0
  6
CONTINUOUS
 62
               7
100
AcDbLine
 10
-12.0
 20
176.49998168945251
 30
0.0
 11
-8.0
 21
176.49998168945251
 31
0.0
  0
LINE
  5
2E5
100
AcDbEntity
  8
0
  6
CONTINUOUS
 62
               7
100
AcDbLine
 10
-6.5000000000000568
 20
189.99998168945262
 30
0.0
 11
-6.5000000000000568
 21
177.99998168945251
 31
0.0
  0
LINE
  5
2E6
100
AcDbEntity
  8
0
  6
CONTINUOUS
 62
               7
100
AcDbLine
 10
-17.0
 20
195.94639282226501
 30
0.0
 11
4.0
 21
195.94639282226501
 31
0.0
  0
LINE
  5
2E7
100
AcDbEntity
  8
0
  6
CONTINUOUS
 62
               7
100
AcDbLine
 10
-17.0
 20
198.86448364257751
 30
0.0
 11
4.0
 21
198.86448364257751
 31
0.0
  0
LINE
  5
2E8
100
AcDbEntity
  8
0
  6
CONTINUOUS
 62
               7
100
AcDbLine
 10
46.000015258789006
 20
206.49998168945251
 30
0.0
 11
46.000015258789006
 21
194.899975585937
 31
0.0
  0
LINE
  5
2E9
100
AcDbEntity
  8
0
  6
CONTINUOUS
 62
               7
100
AcDbLine
 10
-26.958858567496577
 20
182.649975585937
 30
0.0
 11
-21.878442847631618
 21
182.649975585937
 31
0.0
  0
LINE
  5
2EA
100
AcDbEntity
  8
0
  6
CONTINUOUS
 62
               7
100
AcDbLine
 10
-12.0
 20
191.49998168945251
 30
0.0
 11
-8.0
 21
191.49998168945251
 31
0.0
  0
LINE
  5
2EB
100
AcDbEntity
  8
0
  6
CONTINUOUS
 62
               7
100
AcDbLine
 10
-17.0
 20
201.399975585937
 30
0.0
 11
4.0
 21
201.399975585937
 31
0.0
  0
LINE
  5
2EC
100
AcDbEntity
  8
0
  6
CONTINUOUS
 62
               7
100
AcDbLine
 10
252.00001525878929
 20
202.69999389648376
 30
0.0
 11
252.00001525878929
 21
172.99998168945251
 31
0.0
  0
LINE
  5
2ED
100
AcDbEntity
  8
0
  6
CONTINUOUS
 62
               7
100
AcDbLine
 10
-7.0
 20
190.69999389648387
 30
0.0
 11
-7.0
 21
177.29996948242126
 31
0.0
  0
LINE
  5
2EE
100
AcDbEntity
  8
0
  6
CONTINUOUS
 62
               7
100
AcDbLine
 10
4.0
 20
194.899975585937
 30
0.0
 11
46.000015258789006
 21
194.899975585937
 31
0.0
  0
LINE
  5
2EF
100
AcDbEntity
  8
0
  6
CONTINUOUS
 62
               2
100
AcDbLine
 10
-29.556999921427973
 20
183.99998168945251
 30
0.0
 11
-16.4652127048804
 21
183.99998168945251
 31
0.0
  0
LINE
  5
2F0
100
AcDbEntity
  8
0
  6
CONTINUOUS
 62
               7
100
AcDbLine
 10
4.0
 20
206.49998168945251
 30
0.0
 11
4.0
 21
194.899975585937
 31
0.0
  0
LINE
  5
2F1
100
AcDbEntity
  8
0
  6
CONTINUOUS
 62
               7
100
AcDbLine
 10
-17.5
 20
177.29996948242126
 30
0.0
 11
-7.0
 21
177.29996948242126
 31
0.0
  0
LINE
  5
2F2
100
AcDbEntity
  8
0
  6
CONTINUOUS
 62
               7
100
AcDbLine
 10
46.000015258789006
 20
195.94639282226501
 30
0.0
 11
252.00001525878929
 21
195.94639282226501
 31
0.0
  0
LINE
  5
2F3
100
AcDbEntity
  8
0
  6
CONTINUOUS
 62
               7
100
AcDbLine
 10
-17.5
 20
190.69999389648387
 30
0.0
 11
-7.0
 21
190.69999389648387
 31
0.0
  0
LINE
  5
2F4
100
AcDbEntity
  8
0
  6
CONTINUOUS
 62
               7
100
AcDbLine
 10
6.0
 20
244.49998168945262
 30
0.0
 11
6.0
 21
211.49998168945251
 31
0.0
  0
LINE
  5
2F5
100
AcDbEntity
  8
0
  6
CONTINUOUS
 62
               7
100
AcDbLine
 10
44.000015258789063
 20
244.49998168945262
 30
0.0
 11
44.000015258789063
 21
211.49998168945251
 31
0.0
  0
LINE
  5
2F6
100
AcDbEntity
  8
0
  6
CONTINUOUS
 62
               7
100
AcDbLine
 10
5.1499999795842086
 20
235.5756162938666
 30
0.0
 11
6.0000000042293209
 21
235.64998165980248
 31
0.0
  0
LINE
  5
2F7
100
AcDbEntity
  8
0
  6
CONTINUOUS
 62
               7
100
AcDbLine
 10
5.1499999795840949
 20
231.42434708503868
 30
0.0
 11
6.0000000042290367
 21
231.34998171910254
 31
0.0
  0
LINE
  5
2F8
100
AcDbEntity
  8
0
  6
CONTINUOUS
 62
               7
100
AcDbLine
 10
5.1499999761579716
 20
231.42434697151143
 30
0.0
 11
5.1499999761581421
 21
235.57561640739394
 31
0.0
  0
ARC
  5
2F9
100
AcDbEntity
  8
0
  6
CONTINUOUS
 62
               7
100
AcDbCircle
 10
11.129655838012638
 20
233.49998168945234
 30
0.0
 40
6.3296561241149902
100
AcDbArc
 50
160.85729086486964
 51
199.14270731389303
  0
LINE
  5
2FA
100
AcDbEntity
  8
0
  6
CONTINUOUS
 62
               7
100
AcDbLine
 10
44.85001527920474
 20
231.42434708503868
 30
0.0
 11
44.000015254559685
 21
231.34998171910254
 31
0.0
  0
LINE
  5
2FB
100
AcDbEntity
  8
0
  6
CONTINUOUS
 62
               7
100
AcDbLine
 10
44.850015279204854
 20
235.5756162938664
 30
0.0
 11
44.000015254559912
 21
235.64998165980248
 31
0.0
  0
LINE
  5
2FC
100
AcDbEntity
  8
0
  6
CONTINUOUS
 62
               7
100
AcDbLine
 10
44.85001528263092
 20
235.57561640739377
 30
0.0
 11
44.850015282630807
 21
231.42434697151128
 31
0.0
  0
ARC
  5
2FD
100
AcDbEntity
  8
0
  6
CONTINUOUS
 62
               7
100
AcDbCircle
 10
38.870359420776367
 20
233.49998168945282
 30
0.0
 40
6.3296561241149902
100
AcDbArc
 50
340.85729086486964
 51
19.142707313893034
  0
LINE
  5
2FE
100
AcDbEntity
  8
0
  6
CONTINUOUS
 62
               7
100
AcDbLine
 10
44.85001527920474
 20
217.42434708503856
 30
0.0
 11
44.000015254559685
 21
217.3499817191026
 31
0.0
  0
LINE
  5
2FF
100
AcDbEntity
  8
0
  6
CONTINUOUS
 62
               7
100
AcDbLine
 10
44.850015279204854
 20
221.5756162938664
 30
0.0
 11
44.000015254559912
 21
221.64998165980256
 31
0.0
  0
LINE
  5
300
100
AcDbEntity
  8
0
  6
CONTINUOUS
 62
               7
100
AcDbLine
 10
44.85001528263092
 20
221.5756164073938
 30
0.0
 11
44.850015282630807
 21
217.42434697151117
 31
0.0
  0
ARC
  5
301
100
AcDbEntity
  8
0
  6
CONTINUOUS
 62
               7
100
AcDbCircle
 10
38.870359420776367
 20
219.49998168945282
 30
0.0
 40
6.3296561241149902
100
AcDbArc
 50
340.85729086486964
 51
19.142707313893034
  0
LINE
  5
302
100
AcDbEntity
  8
0
  6
CONTINUOUS
 62
               7
100
AcDbLine
 10
1.1499999795842655
 20
228.57561629386649
 30
0.0
 11
2.0000000042293777
 21
228.64998165980253
 31
0.0
  0
LINE
  5
303
100
AcDbEntity
  8
0
  6
CONTINUOUS
 62
               7
100
AcDbLine
 10
1.1499999795840949
 20
224.42434708503859
 30
0.0
 11
2.0000000042290935
 21
224.34998171910263
 31
0.0
  0
LINE
  5
304
100
AcDbEntity
  8
0
  6
CONTINUOUS
 62
               7
100
AcDbLine
 10
1.1499999761580284
 20
224.42434697151128
 30
0.0
 11
1.1499999761582558
 21
228.57561640739402
 31
0.0
  0
ARC
  5
305
100
AcDbEntity
  8
0
  6
CONTINUOUS
 62
               7
100
AcDbCircle
 10
7.1296558380126953
 20
226.49998168945243
 30
0.0
 40
6.3296561241149902
100
AcDbArc
 50
160.85729086486964
 51
199.14270731389303
  0
LINE
  5
306
100
AcDbEntity
  8
0
  6
CONTINUOUS
 62
               7
100
AcDbLine
 10
1.1499999795842655
 20
220.57561629386646
 30
0.0
 11
2.0000000042293777
 21
220.64998165980253
 31
0.0
  0
LINE
  5
307
100
AcDbEntity
  8
0
  6
CONTINUOUS
 62
               7
100
AcDbLine
 10
1.1499999795840949
 20
216.42434708503862
 30
0.0
 11
2.0000000042290935
 21
216.34998171910246
 31
0.0
  0
LINE
  5
308
100
AcDbEntity
  8
0
  6
CONTINUOUS
 62
               7
100
AcDbLine
 10
1.1499999761580284
 20
216.42434697151131
 30
0.0
 11
1.1499999761582558
 21
220.57561640739385
 31
0.0
  0
ARC
  5
309
100
AcDbEntity
  8
0
  6
CONTINUOUS
 62
               7
100
AcDbCircle
 10
7.1296558380126953
 20
218.49998168945231
 30
0.0
 40
6.3296561241149902
100
AcDbArc
 50
160.85729086486964
 51
199.14270731389303
  0
ARC
  5
30A
100
AcDbEntity
  8
0
  6
CONTINUOUS
 62
               7
100
AcDbCircle
 10
36.500015258789063
 20
240.49998168945271
 30
0.0
 40
2.4000000953674316
100
AcDbArc
 50
331.17621921195268
 51
163.04248945089057
  0
ARC
  5
30B
100
AcDbEntity
  8
0
  6
CONTINUOUS
 62
               7
100
AcDbCircle
 10
13.5
 20
240.49998168945271
 30
0.0
 40
2.4000000953674316
100
AcDbArc
 50
16.957513850518463
 51
208.82378579700367
  0
ARC
  5
30C
100
AcDbEntity
  8
0
  6
CONTINUOUS
 62
               7
100
AcDbCircle
 10
41.000015258789006
 20
214.49998168945254
 30
0.0
 40
2.9999999999999996
100
AcDbArc
 50
269.99999749552182
 51
0.0
  0
ARC
  5
30D
100
AcDbEntity
  8
0
  6
CONTINUOUS
 62
               7
100
AcDbCircle
 10
38.000015258789062
 20
241.99998168945257
 30
0.0
 40
2.0
100
AcDbArc
 50
60.000001669652114
 51
90.000002504478161
  0
ARC
  5
30E
100
AcDbEntity
  8
0
  6
CONTINUOUS
 62
               7
100
AcDbCircle
 10
11.999999999999943
 20
241.99998168945257
 30
0.0
 40
2.0
100
AcDbArc
 50
90.000002504478161
 51
119.99999999999946
  0
ARC
  5
30F
100
AcDbEntity
  8
0
  6
CONTINUOUS
 62
               7
100
AcDbCircle
 10
35.792892456054631
 20
238.89997558593697
 30
0.0
 40
2.2999999523162842
100
AcDbArc
 50
45.00000125223908
 51
90.000002504478161
  0
ARC
  5
310
100
AcDbEntity
  8
0
  6
CONTINUOUS
 62
               7
100
AcDbCircle
 10
9.4999999999999432
 20
232.49580078124941
 30
0.0
 40
3.4999999999999996
100
AcDbArc
 50
135.00000034162267
 51
180.00000500895632
  0
ARC
  5
311
100
AcDbEntity
  8
0
  6
CONTINUOUS
 62
               7
100
AcDbCircle
 10
40.500015258789063
 20
232.49580078124941
 30
0.0
 40
3.4999999999999996
100
AcDbArc
 50
0.0000000000000509
 51
45.00000125223908
  0
ARC
  5
312
100
AcDbEntity
  8
0
  6
CONTINUOUS
 62
               7
100
AcDbCircle
 10
14.207107543945256
 20
238.89997558593697
 30
0.0
 40
2.2999999523162842
100
AcDbArc
 50
90.000002504478161
 51
135.00000034162267
  0
ARC
  5
313
100
AcDbEntity
  8
0
  6
CONTINUOUS
 62
               7
100
AcDbCircle
 10
9.0
 20
214.49998168945254
 30
0.0
 40
2.9999999999999996
100
AcDbArc
 50
179.99999499104368
 51
269.99999749552182
  0
ARC
  5
314
100
AcDbEntity
  8
0
  6
CONTINUOUS
 62
               7
100
AcDbCircle
 10
38.000015258789062
 20
241.99998168945257
 30
0.0
 40
1.4999999999999998
100
AcDbArc
 50
48.189685934256701
 51
90.000002504478161
  0
ARC
  5
315
100
AcDbEntity
  8
0
  6
CONTINUOUS
 62
               7
100
AcDbCircle
 10
43.500015258789006
 20
244.49998168945262
 30
0.0
 40
0.5
100
AcDbArc
 50
7.4208451464152363
 51
90.000002504478161
  0
ARC
  5
316
100
AcDbEntity
  8
0
  6
CONTINUOUS
 62
               7
100
AcDbCircle
 10
11.999999999999943
 20
241.99998168945257
 30
0.0
 40
1.4999999999999998
100
AcDbArc
 50
90.000002504478161
 51
131.81031565960504
  0
ARC
  5
317
100
AcDbEntity
  8
0
  6
CONTINUOUS
 62
               7
100
AcDbCircle
 10
39.500015258789006
 20
244.49998168945262
 30
0.0
 40
0.5
100
AcDbArc
 50
90.000002504478161
 51
180.00000500895632
  0
ARC
  5
318
100
AcDbEntity
  8
0
  6
CONTINUOUS
 62
               7
100
AcDbCircle
 10
10.499999999999886
 20
244.49998168945262
 30
0.0
 40
0.5
100
AcDbArc
 50
0.0
 51
90.000002504478161
  0
ARC
  5
319
100
AcDbEntity
  8
0
  6
CONTINUOUS
 62
               7
100
AcDbCircle
 10
6.5
 20
244.49998168945262
 30
0.0
 40
0.5
100
AcDbArc
 50
89.999995674288996
 51
172.57915473989922
  0
LINE
  5
31A
100
AcDbEntity
  8
0
  6
CONTINUOUS
 62
               7
100
AcDbLine
 10
1.9999999999999432
 20
229.19999389648382
 30
0.0
 11
1.9999999999999432
 21
215.79996948242132
 31
0.0
  0
LINE
  5
31B
100
AcDbEntity
  8
0
  6
CONTINUOUS
 62
               7
100
AcDbLine
 10
6.0
 20
215.79996948242132
 30
0.0
 11
1.9999999999999432
 21
215.79996948242132
 31
0.0
  0
LINE
  5
31C
100
AcDbEntity
  8
0
  6
CONTINUOUS
 62
               7
100
AcDbLine
 10
6.0
 20
229.19999389648382
 30
0.0
 11
1.9999999999999432
 21
229.19999389648382
 31
0.0
  0
LINE
  5
31D
100
AcDbEntity
  8
0
  6
CONTINUOUS
 62
               2
100
AcDbLine
 10
3.956195061422136
 20
233.49998168945254
 30
0.0
 11
7.6709150777815012
 21
233.49998168945254
 31
0.0
  0
LINE
  5
31E
100
AcDbEntity
  8
0
  6
CONTINUOUS
 62
               7
100
AcDbLine
 10
38.000015258789062
 20
243.9999816894526
 30
0.0
 11
11.999999999999943
 21
243.9999816894526
 31
0.0
  0
LINE
  5
31F
100
AcDbEntity
  8
0
  6
CONTINUOUS
 62
               7
100
AcDbLine
 10
7.0251317014162851
 20
234.97068505443093
 30
0.0
 11
12.580736313063369
 21
240.52628966607804
 31
0.0
  0
LINE
  5
320
100
AcDbEntity
  8
0
  6
CONTINUOUS
 62
               7
100
AcDbLine
 10
42.974868835913185
 20
234.97066347524495
 30
0.0
 11
37.419231855486942
 21
240.52630045567111
 31
0.0
  0
LINE
  5
321
100
AcDbEntity
  8
0
  6
CONTINUOUS
 62
               7
100
AcDbLine
 10
11.0
 20
244.49998168945262
 30
0.0
 11
11.0
 21
238.94553833007754
 31
0.0
  0
LINE
  5
322
100
AcDbEntity
  8
0
  6
CONTINUOUS
 62
               7
100
AcDbLine
 10
35.792892456054631
 20
241.19996337890569
 30
0.0
 11
14.207107543945256
 21
241.19996337890569
 31
0.0
  0
LINE
  5
323
100
AcDbEntity
  8
0
  6
CONTINUOUS
 62
               7
100
AcDbLine
 10
38.000015258789062
 20
243.4999816894526
 30
0.0
 11
11.999999999999943
 21
243.4999816894526
 31
0.0
  0
LINE
  5
324
100
AcDbEntity
  8
0
  6
CONTINUOUS
 62
               7
100
AcDbLine
 10
39.000015258789063
 20
244.49998168945262
 30
0.0
 11
39.000015258789063
 21
238.94553833007754
 31
0.0
  0
LINE
  5
325
100
AcDbEntity
  8
0
  6
CONTINUOUS
 62
               7
100
AcDbLine
 10
4.7625631329235603
 20
10.562550925892083
 30
0.0
 11
7.2374368670764397
 21
13.037424660044962
 31
0.0
  0
LINE
  5
326
100
AcDbEntity
  8
0
  6
CONTINUOUS
 62
               7
100
AcDbLine
 10
7.2374368670764397
 20
10.562550925892083
 30
0.0
 11
4.7625631329235603
 21
13.037424660044962
 31
0.0
  0
LINE
  5
327
100
AcDbEntity
  8
0
  6
CONTINUOUS
 62
               7
100
AcDbLine
 10
147.26256313292396
 20
10.562550925892083
 30
0.0
 11
149.73743686707684
 21
13.037424660044962
 31
0.0
  0
LINE
  5
328
100
AcDbEntity
  8
0
  6
CONTINUOUS
 62
               7
100
AcDbLine
 10
149.73743686707684
 20
10.562550925892083
 30
0.0
 11
147.26256313292396
 21
13.037424660044962
 31
0.0
  0
LINE
  5
329
100
AcDbEntity
  8
0
  6
CONTINUOUS
 62
               7
100
AcDbLine
 10
289.7625631329239
 20
10.562550925892083
 30
0.0
 11
292.23743686707678
 21
13.037424660044962
 31
0.0
  0
LINE
  5
32A
100
AcDbEntity
  8
0
  6
CONTINUOUS
 62
               7
100
AcDbLine
 10
292.23743686707678
 20
10.562550925892083
 30
0.0
 11
289.7625631329239
 21
13.037424660044962
 31
0.0
  0
LINE
  5
32B
100
AcDbEntity
  8
0
  6
CONTINUOUS
 62
               7
100
AcDbLine
 10
-21.560690689357841
 20
193.93932151767257
 30
0.0
 11
-19.439370345798181
 21
196.06064186123223
 31
0.0
  0
LINE
  5
32C
100
AcDbEntity
  8
0
  6
CONTINUOUS
 62
               7
100
AcDbLine
 10
-19.439370345798181
 20
193.93932151767257
 30
0.0
 11
-21.560690689357841
 21
196.06064186123223
 31
0.0
  0
LINE
  5
32D
100
AcDbEntity
  8
0
  6
CONTINUOUS
 62
               7
100
AcDbLine
 10
-16.560660171779716
 20
186.93932151767268
 30
0.0
 11
-14.439339828220056
 21
189.06064186123234
 31
0.0
  0
LINE
  5
32E
100
AcDbEntity
  8
0
  6
CONTINUOUS
 62
               7
100
AcDbLine
 10
-14.439339828220056
 20
186.93932151767268
 30
0.0
 11
-16.560660171779716
 21
189.06064186123234
 31
0.0
  0
LINE
  5
32F
100
AcDbEntity
  8
0
  6
CONTINUOUS
 62
               7
100
AcDbLine
 10
-21.560690689357841
 20
179.93932151767268
 30
0.0
 11
-19.439370345798181
 21
182.06064186123234
 31
0.0
  0
LINE
  5
330
100
AcDbEntity
  8
0
  6
CONTINUOUS
 62
               7
100
AcDbLine
 10
-19.439370345798181
 20
179.93932151767268
 30
0.0
 11
-21.560690689357841
 21
182.06064186123234
 31
0.0
  0
LINE
  5
331
100
AcDbEntity
  8
0
  6
CONTINUOUS
 62
               7
100
AcDbLine
 10
-16.560660171779716
 20
178.93932151767268
 30
0.0
 11
-14.439339828220056
 21
181.06064186123234
 31
0.0
  0
LINE
  5
332
100
AcDbEntity
  8
0
  6
CONTINUOUS
 62
               7
100
AcDbLine
 10
-14.439339828220056
 20
178.93932151767268
 30
0.0
 11
-16.560660171779716
 21
181.06064186123234
 31
0.0
  0
LINE
  5
333
100
AcDbEntity
  8
0
  6
CONTINUOUS
 62
               7
100
AcDbLine
 10
71.739352066951312
 20
333.9418449881029
 30
0.0
 11
73.860672410510972
 21
336.06316533166256
 31
0.0
  0
LINE
  5
334
100
AcDbEntity
  8
0
  6
CONTINUOUS
 62
               7
100
AcDbLine
 10
73.860672410510972
 20
333.9418449881029
 30
0.0
 11
71.739352066951312
 21
336.06316533166256
 31
0.0
  0
LINE
  5
335
100
AcDbEntity
  8
0
  6
CONTINUOUS
 62
               7
100
AcDbLine
 10
57.739352052951006
 20
333.9418449881029
 30
0.0
 11
59.860672396510665
 21
336.06316533166256
 31
0.0
  0
LINE
  5
336
100
AcDbEntity
  8
0
  6
CONTINUOUS
 62
               7
100
AcDbLine
 10
59.860672396510665
 20
333.9418449881029
 30
0.0
 11
57.739352052951006
 21
336.06316533166256
 31
0.0
  0
LINE
  5
337
100
AcDbEntity
  8
0
  6
CONTINUOUS
 62
               7
100
AcDbLine
 10
64.739352059951159
 20
328.94184491753589
 30
0.0
 11
66.860672403510819
 21
331.06316526109555
 31
0.0
  0
LINE
  5
338
100
AcDbEntity
  8
0
  6
CONTINUOUS
 62
               7
100
AcDbLine
 10
66.860672403510819
 20
328.94184491753589
 30
0.0
 11
64.739352059951159
 21
331.06316526109555
 31
0.0
  0
LINE
  5
339
100
AcDbEntity
  8
0
  6
CONTINUOUS
 62
               7
100
AcDbLine
 10
56.739352051951471
 20
328.94184491753589
 30
0.0
 11
58.860672395511131
 21
331.06316526109555
 31
0.0
  0
LINE
  5
33A
100
AcDbEntity
  8
0
  6
CONTINUOUS
 62
               7
100
AcDbLine
 10
58.860672395511131
 20
328.94184491753589
 30
0.0
 11
56.739352051951471
 21
331.06316526109555
 31
0.0
  0
ENDBLK
  5
33B
100
AcDbEntity
  8
0
100
AcDbBlockEnd
  0
BLOCK
  5
33C
100
AcDbEntity
  8
0
100
AcDbBlockBegin
  2
DTRB-CS3-3
 70
               0
 10
0.0
 20
0.0
 30
0.0
  3
DTRB-CS3-3
  1

  0
LINE
  5
33D
100
AcDbEntity
  8
0
  6
CONTINUOUS
 62
               2
100
AcDbLine
 10
10.000000010000008
 20
-98.154766631653274
 30
0.0
 11
10.000000010000008
 21
-103.80372043772087
 31
0.0
  0
LINE
  5
33E
100
AcDbEntity
  8
0
  6
CONTINUOUS
 62
               2
100
AcDbLine
 10
-10.000000009999894
 20
-98.154766631653274
 30
0.0
 11
-10.000000009999894
 21
-103.80372043772087
 31
0.0
  0
LINE
  5
33F
100
AcDbEntity
  8
0
  6
CONTINUOUS
 62
               2
100
AcDbLine
 10
-12.822649046312677
 20
-101.00000010100035
 30
0.0
 11
-6.9695161794584237
 21
-101.00000010100035
 31
0.0
  0
CIRCLE
  5
340
100
AcDbEntity
  8
0
  6
CONTINUOUS
 62
               7
100
AcDbCircle
 10
-10.000000009999894
 20
-101.00000010100035
 30
0.0
 40
1.5000000014999999
  0
LINE
  5
341
100
AcDbEntity
  8
0
  6
CONTINUOUS
 62
               2
100
AcDbLine
 10
12.82264904631279
 20
-101.00000010100035
 30
0.0
 11
6.9695161794584237
 21
-101.00000010100035
 31
0.0
  0
CIRCLE
  5
342
100
AcDbEntity
  8
0
  6
CONTINUOUS
 62
               7
100
AcDbCircle
 10
10.000000010000008
 20
-101.00000010100035
 30
0.0
 40
1.5000000014999999
  0
CIRCLE
  5
343
100
AcDbEntity
  8
0
  6
CONTINUOUS
 62
               7
100
AcDbCircle
 10
-10.000000009999894
 20
-221.00000022100025
 30
0.0
 40
1.5000000014999999
  0
LINE
  5
344
100
AcDbEntity
  8
0
  6
CONTINUOUS
 62
               2
100
AcDbLine
 10
-12.822649046312677
 20
-221.00000022100025
 30
0.0
 11
-6.9695161794584237
 21
-221.00000022100025
 31
0.0
  0
CIRCLE
  5
345
100
AcDbEntity
  8
0
  6
CONTINUOUS
 62
               7
100
AcDbCircle
 10
10.000000010000008
 20
-221.00000022100025
 30
0.0
 40
1.5000000014999999
  0
LINE
  5
346
100
AcDbEntity
  8
0
  6
CONTINUOUS
 62
               2
100
AcDbLine
 10
7.177350973687453
 20
-221.00000022100025
 30
0.0
 11
13.030483840541592
 21
-221.00000022100025
 31
0.0
  0
ARC
  5
347
100
AcDbEntity
  8
0
  6
CONTINUOUS
 62
               7
100
AcDbCircle
 10
40.0
 20
-6.0000007323961881
 30
0.0
 40
3.1500000953674316
100
AcDbArc
 50
55.628912907231921
 51
124.37108709276798
  0
ARC
  5
348
100
AcDbEntity
  8
0
  6
CONTINUOUS
 62
               7
100
AcDbCircle
 10
40.0
 20
-6.0000007323961881
 30
0.0
 40
3.0350000858306885
100
AcDbArc
 50
58.945153571369744
 51
121.0548464286303
  0
ARC
  5
349
100
AcDbEntity
  8
0
  6
CONTINUOUS
 62
               7
100
AcDbCircle
 10
-30.000000000001478
 20
-5.9999984740904324
 30
0.0
 40
1.0
100
AcDbArc
 50
359.99999191303857
 51
179.99999191303863
  0
ARC
  5
34A
100
AcDbEntity
  8
0
  6
CONTINUOUS
 62
               7
100
AcDbCircle
 10
-30.000000000001478
 20
-5.9999984740904324
 30
0.0
 40
0.7
100
AcDbArc
 50
359.99999191303857
 51
179.99999191303863
  0
LINE
  5
34B
100
AcDbEntity
  8
0
  6
CONTINUOUS
 62
               7
100
AcDbLine
 10
45.907879374400977
 20
-4.7999984584720892
 30
0.0
 11
49.000000021000005
 21
-4.7999984584720892
 31
0.0
  0
ARC
  5
34C
100
AcDbEntity
  8
0
  6
CONTINUOUS
 62
               7
100
AcDbCircle
 10
-39.999999999999886
 20
-6.0000007323961881
 30
0.0
 40
3.0350000858306885
100
AcDbArc
 50
0.0
 51
180.0
  0
ARC
  5
34D
100
AcDbEntity
  8
0
  6
CONTINUOUS
 62
               7
100
AcDbCircle
 10
-39.999999999999886
 20
-6.0000007323961881
 30
0.0
 40
3.1500000953674316
100
AcDbArc
 50
0.0
 51
180.0
  0
CIRCLE
  5
34E
100
AcDbEntity
  8
0
  6
CONTINUOUS
 62
               7
100
AcDbCircle
 10
40.0
 20
-291.00001525878946
 30
0.0
 40
3.0350000858306885
  0
CIRCLE
  5
34F
100
AcDbEntity
  8
0
  6
CONTINUOUS
 62
               7
100
AcDbCircle
 10
40.0
 20
-291.00001525878946
 30
0.0
 40
3.1500000953674316
  0
CIRCLE
  5
350
100
AcDbEntity
  8
0
  6
CONTINUOUS
 62
               7
100
AcDbCircle
 10
-39.999999999999886
 20
-291.00001525878946
 30
0.0
 40
3.0350000858306885
  0
CIRCLE
  5
351
100
AcDbEntity
  8
0
  6
CONTINUOUS
 62
               7
100
AcDbCircle
 10
-39.999999999999886
 20
-291.00001525878946
 30
0.0
 40
3.1500000953674316
  0
LINE
  5
352
100
AcDbEntity
  8
0
  6
CONTINUOUS
 62
               7
100
AcDbLine
 10
106.29998697395479
 20
-3.3999877929687159
 30
0.0
 11
106.29998697395479
 21
-2.9637207834474566
 31
0.0
  0
ARC
  5
353
100
AcDbEntity
  8
0
  6
CONTINUOUS
 62
               7
100
AcDbCircle
 10
98.917601720048538
 20
-6.0000061838381953
 30
0.0
 40
7.982419490814209
100
AcDbArc
 50
19.009085624347371
 51
22.356542861572724
  0
LINE
  5
354
100
AcDbEntity
  8
0
  6
CONTINUOUS
 62
               7
100
AcDbLine
 10
106.29997913433237
 20
-2.9637341933566859
 30
0.0
 11
105.00001312363077
 21
-2.8500019047833121
 31
0.0
  0
LINE
  5
355
100
AcDbEntity
  8
0
  6
CONTINUOUS
 62
               7
100
AcDbLine
 10
106.29998697395308
 20
-151.5362609713373
 30
0.0
 11
106.29998697395308
 21
-145.46372068813417
 31
0.0
  0
ARC
  5
356
100
AcDbEntity
  8
0
  6
CONTINUOUS
 62
               7
100
AcDbCircle
 10
98.917601720046832
 20
-148.50000608852491
 30
0.0
 40
7.982419490814209
100
AcDbArc
 50
337.64346078089295
 51
22.356542861572724
  0
LINE
  5
357
100
AcDbEntity
  8
0
  6
CONTINUOUS
 62
               7
100
AcDbLine
 10
106.29997913433067
 20
-145.4637340980434
 30
0.0
 11
105.00001312362906
 21
-145.35000180947003
 31
0.0
  0
LINE
  5
358
100
AcDbEntity
  8
0
  6
CONTINUOUS
 62
               7
100
AcDbLine
 10
106.3000136899725
 20
-151.53626058239291
 30
0.0
 11
104.99998687637049
 21
-151.64999819053082
 31
0.0
  0
LINE
  5
359
100
AcDbEntity
  8
0
  6
CONTINUOUS
 62
               7
100
AcDbLine
 10
106.29998697395308
 20
-294.03626097133724
 30
0.0
 11
106.29998697395308
 21
-287.96372068813412
 31
0.0
  0
ARC
  5
35A
100
AcDbEntity
  8
0
  6
CONTINUOUS
 62
               7
100
AcDbCircle
 10
98.917601720046832
 20
-291.00000608852486
 30
0.0
 40
7.982419490814209
100
AcDbArc
 50
337.64346078089295
 51
22.356542861572724
  0
LINE
  5
35B
100
AcDbEntity
  8
0
  6
CONTINUOUS
 62
               7
100
AcDbLine
 10
106.29997913433067
 20
-287.96373409804335
 30
0.0
 11
105.00001312362906
 21
-287.85000180946997
 31
0.0
  0
LINE
  5
35C
100
AcDbEntity
  8
0
  6
CONTINUOUS
 62
               7
100
AcDbLine
 10
106.3000136899725
 20
-294.03626058239286
 30
0.0
 11
104.99998687637049
 21
-294.14999819053077
 31
0.0
  0
ARC
  5
35D
100
AcDbEntity
  8
0
  6
CONTINUOUS
 62
               7
100
AcDbCircle
 10
-98.917601720048424
 20
-6.0000061838381953
 30
0.0
 40
7.982419490814209
100
AcDbArc
 50
157.64345713842727
 51
182.94918176348961
  0
LINE
  5
35E
100
AcDbEntity
  8
0
  6
CONTINUOUS
 62
               7
100
AcDbLine
 10
-106.29998697395473
 20
-6.1000516361833093
 30
0.0
 11
-106.29998697395473
 21
-2.9637207834474566
 31
0.0
  0
LINE
  5
35F
100
AcDbEntity
  8
0
  6
CONTINUOUS
 62
               7
100
AcDbLine
 10
-106.29997913433232
 20
-2.9637341933566859
 30
0.0
 11
-105.00001312363071
 21
-2.8500019047833121
 31
0.0
  0
ARC
  5
360
100
AcDbEntity
  8
0
  6
CONTINUOUS
 62
               7
100
AcDbCircle
 10
-98.917601720046719
 20
-148.50000608852491
 30
0.0
 40
7.982419490814209
100
AcDbArc
 50
157.64345713842727
 51
202.35653921910705
  0
LINE
  5
361
100
AcDbEntity
  8
0
  6
CONTINUOUS
 62
               7
100
AcDbLine
 10
-106.29998697395303
 20
-151.5362609713373
 30
0.0
 11
-106.29998697395303
 21
-145.46372068813417
 31
0.0
  0
LINE
  5
362
100
AcDbEntity
  8
0
  6
CONTINUOUS
 62
               7
100
AcDbLine
 10
-106.29997913433061
 20
-145.4637340980434
 30
0.0
 11
-105.000013123629
 21
-145.35000180947003
 31
0.0
  0
LINE
  5
363
100
AcDbEntity
  8
0
  6
CONTINUOUS
 62
               7
100
AcDbLine
 10
-106.30001368997245
 20
-151.53626058239291
 30
0.0
 11
-104.99998687637037
 21
-151.64999819053082
 31
0.0
  0
ARC
  5
364
100
AcDbEntity
  8
0
  6
CONTINUOUS
 62
               7
100
AcDbCircle
 10
-98.917601720046719
 20
-291.00000608852486
 30
0.0
 40
7.982419490814209
100
AcDbArc
 50
157.64345713842727
 51
202.35653921910705
  0
LINE
  5
365
100
AcDbEntity
  8
0
  6
CONTINUOUS
 62
               7
100
AcDbLine
 10
-106.29998697395303
 20
-294.03626097133724
 30
0.0
 11
-106.29998697395303
 21
-287.96372068813412
 31
0.0
  0
LINE
  5
366
100
AcDbEntity
  8
0
  6
CONTINUOUS
 62
               7
100
AcDbLine
 10
-106.29997913433061
 20
-287.96373409804335
 30
0.0
 11
-105.000013123629
 21
-287.85000180946997
 31
0.0
  0
LINE
  5
367
100
AcDbEntity
  8
0
  6
CONTINUOUS
 62
               7
100
AcDbLine
 10
-106.30001368997245
 20
-294.03626058239286
 30
0.0
 11
-104.99998687637037
 21
-294.14999819053077
 31
0.0
  0
ARC
  5
368
100
AcDbEntity
  8
0
  6
CONTINUOUS
 62
               7
100
AcDbCircle
 10
44.000000012999976
 20
-5.3999954104145331
 30
0.0
 40
2.0
100
AcDbArc
 50
0.0
 51
90.0
  0
ARC
  5
369
100
AcDbEntity
  8
0
  6
CONTINUOUS
 62
               7
100
AcDbCircle
 10
44.000000012999976
 20
-11.599995410414522
 30
0.0
 40
2.0
100
AcDbArc
 50
270.0
 51
0.0
  0
LINE
  5
36A
100
AcDbEntity
  8
0
  6
CONTINUOUS
 62
               7
100
AcDbLine
 10
27.499999993088863
 20
-10.999995410414499
 30
0.0
 11
27.499999993088863
 21
-13.599995386882028
 31
0.0
  0
LINE
  5
36B
100
AcDbEntity
  8
0
  6
CONTINUOUS
 62
               7
100
AcDbLine
 10
25.500000012999976
 20
-3.3999953988029006
 30
0.0
 11
25.500000012999976
 21
-13.599995410414522
 31
0.0
  0
LINE
  5
36C
100
AcDbEntity
  8
0
  6
CONTINUOUS
 62
               7
100
AcDbLine
 10
27.499999993088863
 20
-3.3999953988029006
 30
0.0
 11
27.499999993088863
 21
-5.999995410414499
 31
0.0
  0
LINE
  5
36D
100
AcDbEntity
  8
0
  6
CONTINUOUS
 62
               7
100
AcDbLine
 10
32.499999993088863
 20
-10.999995410414499
 30
0.0
 11
32.499999993088863
 21
-13.599995386882028
 31
0.0
  0
LINE
  5
36E
100
AcDbEntity
  8
0
  6
CONTINUOUS
 62
               7
100
AcDbLine
 10
32.499999993088863
 20
-3.3999953988029006
 30
0.0
 11
32.499999993088863
 21
-5.999995410414499
 31
0.0
  0
LINE
  5
36F
100
AcDbEntity
  8
0
  6
CONTINUOUS
 62
               7
100
AcDbLine
 10
44.000000012999976
 20
-3.3999954104144763
 30
0.0
 11
25.499999993088863
 21
-3.3999954104144763
 31
0.0
  0
LINE
  5
370
100
AcDbEntity
  8
0
  6
CONTINUOUS
 62
               7
100
AcDbLine
 10
32.499999993088863
 20
-10.999995410414499
 30
0.0
 11
27.499999993088863
 21
-10.999995410414499
 31
0.0
  0
LINE
  5
371
100
AcDbEntity
  8
0
  6
CONTINUOUS
 62
               7
100
AcDbLine
 10
32.499999993088863
 20
-5.999995410414499
 30
0.0
 11
27.499999993088863
 21
-5.999995410414499
 31
0.0
  0
LINE
  5
372
100
AcDbEntity
  8
0
  6
CONTINUOUS
 62
               7
100
AcDbLine
 10
35.500000012999976
 20
-5.999995410414499
 30
0.0
 11
34.918120958473764
 21
-5.999995410414499
 31
0.0
  0
LINE
  5
373
100
AcDbEntity
  8
0
  6
CONTINUOUS
 62
               7
100
AcDbLine
 10
35.500000012999976
 20
-10.999995410414499
 30
0.0
 11
34.918120958473764
 21
-10.999995410414499
 31
0.0
  0
LINE
  5
374
100
AcDbEntity
  8
0
  6
CONTINUOUS
 62
               7
100
AcDbLine
 10
44.000000012999976
 20
-13.599995410414522
 30
0.0
 11
25.500000012999976
 21
-13.599995410414522
 31
0.0
  0
LINE
  5
375
100
AcDbEntity
  8
0
  6
CONTINUOUS
 62
               7
100
AcDbLine
 10
35.500000012999976
 20
-3.3999953988029006
 30
0.0
 11
35.500000012999976
 21
-13.599995410414522
 31
0.0
  0
LINE
  5
376
100
AcDbEntity
  8
0
  6
CONTINUOUS
 62
               7
100
AcDbLine
 10
34.918120958473764
 20
-3.3999953988029006
 30
0.0
 11
34.918120958473764
 21
-13.599995386882028
 31
0.0
  0
ARC
  5
377
100
AcDbEntity
  8
0
  6
CONTINUOUS
 62
               7
100
AcDbCircle
 10
9.8999999999999773
 20
-74.069424763304539
 30
0.0
 40
3.5000000000000004
100
AcDbArc
 50
180.00000000000006
 51
225.03144276458423
  0
ARC
  5
378
100
AcDbEntity
  8
0
  6
CONTINUOUS
 62
               7
100
AcDbCircle
 10
11.529655833783522
 20
-72.800419430273678
 30
0.0
 40
6.3296561241149902
100
AcDbArc
 50
192.18528551792392
 51
199.14270731389522
  0
LINE
  5
379
100
AcDbEntity
  8
0
  6
CONTINUOUS
 62
               7
100
AcDbLine
 10
5.549999971928969
 20
-74.876054148214621
 30
0.0
 11
5.549999971928969
 21
-74.195208147971925
 31
0.0
  0
LINE
  5
37A
100
AcDbEntity
  8
0
  6
CONTINUOUS
 62
               7
100
AcDbLine
 10
5.5499999942580871
 20
-74.876053988527246
 30
0.0
 11
6.3999999999999773
 21
-74.950419352809604
 31
0.0
  0
LINE
  5
37B
100
AcDbEntity
  8
0
  6
CONTINUOUS
 62
               7
100
AcDbLine
 10
13.599710538158661
 20
-82.712110257190261
 30
0.0
 11
7.4264847990779117
 21
-76.545656285357154
 31
0.0
  0
LINE
  5
37C
100
AcDbEntity
  8
0
  6
CONTINUOUS
 62
               7
100
AcDbLine
 10
6.3999999999999773
 20
-50.799990930726608
 30
0.0
 11
6.3999999999999773
 21
-74.950419352809604
 31
0.0
  0
LINE
  5
37D
100
AcDbEntity
  8
0
  6
CONTINUOUS
 62
               7
100
AcDbLine
 10
2.8999999999999773
 20
-70.799990930726608
 30
0.0
 11
2.8999999999999773
 21
-54.799990930726608
 31
0.0
  0
LINE
  5
37E
100
AcDbEntity
  8
0
  6
CONTINUOUS
 62
               7
100
AcDbLine
 10
1.8999999999999773
 20
-56.299990930726608
 30
0.0
 11
1.8999999999999773
 21
-69.299990930726608
 31
0.0
  0
ARC
  5
37F
100
AcDbEntity
  8
0
  6
CONTINUOUS
 62
               7
100
AcDbCircle
 10
2.8999999999999773
 20
-69.299990930726608
 30
0.0
 40
1.0
100
AcDbArc
 50
180.0
 51
270.0
  0
ARC
  5
380
100
AcDbEntity
  8
0
  6
CONTINUOUS
 62
               7
100
AcDbCircle
 10
2.8999999999999773
 20
-56.299990930726608
 30
0.0
 40
1.0
100
AcDbArc
 50
90.0
 51
180.0
  0
ARC
  5
381
100
AcDbEntity
  8
0
  6
CONTINUOUS
 62
               7
100
AcDbCircle
 10
6.3999999999999773
 20
-54.799990930726608
 30
0.0
 40
3.5000000000000004
100
AcDbArc
 50
90.0
 51
180.0
  0
ARC
  5
382
100
AcDbEntity
  8
0
  6
CONTINUOUS
 62
               7
100
AcDbCircle
 10
6.3999999999999773
 20
-70.799990930726608
 30
0.0
 40
3.5000000000000004
100
AcDbArc
 50
180.0
 51
270.0
  0
LINE
  5
383
100
AcDbEntity
  8
0
  6
CONTINUOUS
 62
               7
100
AcDbLine
 10
29.499999980088774
 20
-42.699990920726577
 30
0.0
 11
29.499999980088774
 21
-45.999990920726589
 31
0.0
  0
LINE
  5
384
100
AcDbEntity
  8
0
  6
CONTINUOUS
 62
               7
100
AcDbLine
 10
15.721679646572284
 20
-42.749987852135348
 30
0.0
 11
14.278320266761057
 21
-42.749987852135348
 31
0.0
  0
LINE
  5
385
100
AcDbEntity
  8
0
  6
CONTINUOUS
 62
               7
100
AcDbLine
 10
15.721676798017484
 20
-42.749964998639825
 30
0.0
 11
16.443354638258256
 21
-41.499978012965869
 31
0.0
  0
LINE
  5
386
100
AcDbEntity
  8
0
  6
CONTINUOUS
 62
               7
100
AcDbLine
 10
16.443383988290066
 20
-41.499971486251695
 30
0.0
 11
15.721704341399914
 21
-40.249985532948813
 31
0.0
  0
LINE
  5
387
100
AcDbEntity
  8
0
  6
CONTINUOUS
 62
               7
100
AcDbLine
 10
15.721690762332173
 20
-40.249997835056547
 30
0.0
 11
14.278331382520946
 21
-40.249998788721314
 31
0.0
  0
LINE
  5
388
100
AcDbEntity
  8
0
  6
CONTINUOUS
 62
               7
100
AcDbLine
 10
14.278359393125015
 20
-40.25000504699625
 30
0.0
 11
13.556680778605937
 21
-41.499991602515706
 31
0.0
  0
LINE
  5
389
100
AcDbEntity
  8
0
  6
CONTINUOUS
 62
               7
100
AcDbLine
 10
13.556623083372301
 20
-41.499979158601775
 30
0.0
 11
14.278303203432642
 21
-42.749964767780966
 31
0.0
  0
LINE
  5
38A
100
AcDbEntity
  8
0
  6
CONTINUOUS
 62
               2
100
AcDbLine
 10
18.0
 20
-43.820582545082573
 30
0.0
 11
18.0
 21
-52.807370880730218
 31
0.0
  0
LINE
  5
38B
100
AcDbEntity
  8
0
  6
CONTINUOUS
 62
               7
100
AcDbLine
 10
20.750026700158628
 20
-45.29999305487172
 30
0.0
 11
20.25003598793262
 21
-44.800004239215127
 31
0.0
  0
LINE
  5
38C
100
AcDbEntity
  8
0
  6
CONTINUOUS
 62
               7
100
AcDbLine
 10
20.250000007500034
 20
-44.799990910726592
 30
0.0
 11
15.749999992499966
 21
-44.799990910726592
 31
0.0
  0
LINE
  5
38D
100
AcDbEntity
  8
0
  6
CONTINUOUS
 62
               7
100
AcDbLine
 10
20.75000000916657
 20
-45.299990912393241
 30
0.0
 11
15.249999990833317
 21
-45.299990912393241
 31
0.0
  0
LINE
  5
38E
100
AcDbEntity
  8
0
  6
CONTINUOUS
 62
               7
100
AcDbLine
 10
15.750055014695931
 20
-44.800015080579328
 30
0.0
 11
15.250042723242018
 21
-45.300025475382085
 31
0.0
  0
LINE
  5
38F
100
AcDbEntity
  8
0
  6
CONTINUOUS
 62
               7
100
AcDbLine
 10
15.249999990833317
 20
-47.7999909207266
 30
0.0
 11
15.249999990833317
 21
-45.299990912393241
 31
0.0
  0
LINE
  5
390
100
AcDbEntity
  8
0
  6
CONTINUOUS
 62
               7
100
AcDbLine
 10
20.75000000916657
 20
-45.299990912393241
 30
0.0
 11
20.75000000916657
 21
-47.7999909207266
 31
0.0
  0
LINE
  5
391
100
AcDbEntity
  8
0
  6
CONTINUOUS
 62
               7
100
AcDbLine
 10
22.499999980088887
 20
-42.699990920726577
 30
0.0
 11
22.499999980088887
 21
-47.7999909207266
 31
0.0
  0
LINE
  5
392
100
AcDbEntity
  8
0
  6
CONTINUOUS
 62
               7
100
AcDbLine
 10
24.499999980088774
 20
-42.699990920726577
 30
0.0
 11
24.499999980088774
 21
-45.999990920726589
 31
0.0
  0
LINE
  5
393
100
AcDbEntity
  8
0
  6
CONTINUOUS
 62
               7
100
AcDbLine
 10
29.499999980088774
 20
-44.399990920726623
 30
0.0
 11
24.499999980088774
 21
-44.399990920726623
 31
0.0
  0
CIRCLE
  5
394
100
AcDbEntity
  8
0
  6
CONTINUOUS
 62
               7
100
AcDbCircle
 10
14.99999995666667
 20
-41.499987847968725
 30
0.0
 40
2.7500000091666661
  0
LINE
  5
395
100
AcDbEntity
  8
0
  6
CONTINUOUS
 62
               2
100
AcDbLine
 10
38.0
 20
-41.494415853235523
 30
0.0
 11
38.0
 21
-52.807370880730218
 31
0.0
  0
LINE
  5
396
100
AcDbEntity
  8
0
  6
CONTINUOUS
 62
               7
100
AcDbLine
 10
42.999999980088774
 20
-45.999990920726589
 30
0.0
 11
42.999999980088774
 21
-47.7999909207266
 31
0.0
  0
LINE
  5
397
100
AcDbEntity
  8
0
  6
CONTINUOUS
 62
               7
100
AcDbLine
 10
32.499999980088887
 20
-45.999990890260619
 30
0.0
 11
31.918120937999788
 21
-42.69999087833969
 31
0.0
  0
LINE
  5
398
100
AcDbEntity
  8
0
  6
CONTINUOUS
 62
               7
100
AcDbLine
 10
40.250000007500034
 20
-42.999990910726581
 30
0.0
 11
35.749999992499966
 21
-42.999990910726581
 31
0.0
  0
LINE
  5
399
100
AcDbEntity
  8
0
  6
CONTINUOUS
 62
               7
100
AcDbLine
 10
40.750026700158628
 20
-43.499993054871766
 30
0.0
 11
40.25003598793262
 21
-43.000004239215116
 31
0.0
  0
LINE
  5
39A
100
AcDbEntity
  8
0
  6
CONTINUOUS
 62
               7
100
AcDbLine
 10
40.75000000916657
 20
-43.499990912393287
 30
0.0
 11
35.249999990833317
 21
-43.499990912393287
 31
0.0
  0
LINE
  5
39B
100
AcDbEntity
  8
0
  6
CONTINUOUS
 62
               7
100
AcDbLine
 10
35.750055014695931
 20
-43.000015080579374
 30
0.0
 11
35.250042723242018
 21
-43.500025475382131
 31
0.0
  0
LINE
  5
39C
100
AcDbEntity
  8
0
  6
CONTINUOUS
 62
               7
100
AcDbLine
 10
35.249999990833317
 20
-45.999990920726589
 30
0.0
 11
35.249999990833317
 21
-43.499990912393287
 31
0.0
  0
LINE
  5
39D
100
AcDbEntity
  8
0
  6
CONTINUOUS
 62
               7
100
AcDbLine
 10
40.75000000916657
 20
-43.499990912393287
 30
0.0
 11
40.75000000916657
 21
-45.999990920726589
 31
0.0
  0
LINE
  5
39E
100
AcDbEntity
  8
0
  6
CONTINUOUS
 62
               7
100
AcDbLine
 10
41.721679733238943
 20
-42.749987852135348
 30
0.0
 11
40.278320353427716
 21
-42.749987852135348
 31
0.0
  0
LINE
  5
39F
100
AcDbEntity
  8
0
  6
CONTINUOUS
 62
               7
100
AcDbLine
 10
41.721676884684257
 20
-42.749964998639825
 30
0.0
 11
42.443354724924916
 21
-41.499978012965869
 31
0.0
  0
LINE
  5
3A0
100
AcDbEntity
  8
0
  6
CONTINUOUS
 62
               7
100
AcDbLine
 10
42.443384074956612
 20
-41.499971486251695
 30
0.0
 11
41.72170442806646
 21
-40.249985532948813
 31
0.0
  0
LINE
  5
3A1
100
AcDbEntity
  8
0
  6
CONTINUOUS
 62
               7
100
AcDbLine
 10
41.721690848998833
 20
-40.249997835056547
 30
0.0
 11
40.278331469187606
 21
-40.249998788721314
 31
0.0
  0
LINE
  5
3A2
100
AcDbEntity
  8
0
  6
CONTINUOUS
 62
               7
100
AcDbLine
 10
40.278359479791675
 20
-40.25000504699625
 30
0.0
 11
39.556680865272597
 21
-41.499991602515706
 31
0.0
  0
LINE
  5
3A3
100
AcDbEntity
  8
0
  6
CONTINUOUS
 62
               7
100
AcDbLine
 10
39.556623170038961
 20
-41.499979158601775
 30
0.0
 11
40.278303290099302
 21
-42.749964767780966
 31
0.0
  0
ARC
  5
3A4
100
AcDbEntity
  8
0
  6
CONTINUOUS
 62
               7
100
AcDbCircle
 10
41.000000043333216
 20
-41.499987847968725
 30
0.0
 40
2.7500000091666661
100
AcDbArc
 50
264.78409073216426
 51
213.0558071618525
  0
LINE
  5
3A5
100
AcDbEntity
  8
0
  6
CONTINUOUS
 62
               7
100
AcDbLine
 10
31.918120945473788
 20
-42.699990920726577
 30
0.0
 11
22.499999980088887
 21
-42.699990920726577
 31
0.0
  0
LINE
  5
3A6
100
AcDbEntity
  8
0
  6
CONTINUOUS
 62
               7
100
AcDbLine
 10
42.999999980088774
 20
-45.999990920726589
 30
0.0
 11
22.499999980088887
 21
-45.999990920726589
 31
0.0
  0
LINE
  5
3A7
100
AcDbEntity
  8
0
  6
CONTINUOUS
 62
               7
100
AcDbLine
 10
6.3999999999999773
 20
-50.799990930726608
 30
0.0
 11
49.000000069999942
 21
-50.799990930726608
 31
0.0
  0
LINE
  5
3A8
100
AcDbEntity
  8
0
  6
CONTINUOUS
 62
               7
100
AcDbLine
 10
9.9999999400000661
 20
-47.7999909207266
 30
0.0
 11
46.000000059999934
 21
-47.7999909207266
 31
0.0
  0
LINE
  5
3A9
100
AcDbEntity
  8
0
  6
CONTINUOUS
 62
               2
100
AcDbLine
 10
67.749779005713549
 20
82.200012207030966
 30
0.0
 11
58.863061222247438
 21
82.200012207030966
 31
0.0
  0
ARC
  5
3AA
100
AcDbEntity
  8
0
  6
CONTINUOUS
 62
               7
100
AcDbCircle
 10
62.499971389770508
 20
75.700012207030966
 30
0.0
 40
1.0
100
AcDbArc
 50
180.0
 51
270.0
  0
ARC
  5
3AB
100
AcDbEntity
  8
0
  6
CONTINUOUS
 62
               7
100
AcDbCircle
 10
65.999971389770508
 20
74.200012207030966
 30
0.0
 40
3.5000000000000004
100
AcDbArc
 50
180.0
 51
270.0
  0
ARC
  5
3AC
100
AcDbEntity
  8
0
  6
CONTINUOUS
 62
               7
100
AcDbCircle
 10
62.499971389770508
 20
88.700012207030966
 30
0.0
 40
1.0
100
AcDbArc
 50
90.0
 51
180.0
  0
LINE
  5
3AD
100
AcDbEntity
  8
0
  6
CONTINUOUS
 62
               7
100
AcDbLine
 10
62.499971389770508
 20
74.200012207030966
 30
0.0
 11
62.499971389770508
 21
90.200012207030966
 31
0.0
  0
LINE
  5
3AE
100
AcDbEntity
  8
0
  6
CONTINUOUS
 62
               7
100
AcDbLine
 10
61.499971389770394
 20
88.700012207030966
 30
0.0
 11
61.499971389770394
 21
75.700012207030966
 31
0.0
  0
ARC
  5
3AF
100
AcDbEntity
  8
0
  6
CONTINUOUS
 62
               7
100
AcDbCircle
 10
65.999971389770508
 20
90.200012207030966
 30
0.0
 40
3.5000000000000004
100
AcDbArc
 50
90.0
 51
180.0
  0
LINE
  5
3B0
100
AcDbEntity
  8
0
  6
CONTINUOUS
 62
               2
100
AcDbLine
 10
135.00000000000006
 20
-5.1497763354254289
 30
0.0
 11
135.00000000000006
 21
3.7369414480406817
 31
0.0
  0
ARC
  5
3B1
100
AcDbEntity
  8
0
  6
CONTINUOUS
 62
               7
100
AcDbCircle
 10
128.50000000000006
 20
0.1000312805176691
 30
0.0
 40
1.0
100
AcDbArc
 50
90.0
 51
180.0
  0
ARC
  5
3B2
100
AcDbEntity
  8
0
  6
CONTINUOUS
 62
               7
100
AcDbCircle
 10
127.0
 20
-3.3999687194823878
 30
0.0
 40
3.5000000000000004
100
AcDbArc
 50
90.0
 51
180.0
  0
ARC
  5
3B3
100
AcDbEntity
  8
0
  6
CONTINUOUS
 62
               7
100
AcDbCircle
 10
141.50000000000006
 20
0.1000312805176691
 30
0.0
 40
1.0
100
AcDbArc
 50
0.0
 51
90.0
  0
LINE
  5
3B4
100
AcDbEntity
  8
0
  6
CONTINUOUS
 62
               7
100
AcDbLine
 10
127.0
 20
0.1000312805176691
 30
0.0
 11
143.00000000000006
 21
0.1000312805176691
 31
0.0
  0
LINE
  5
3B5
100
AcDbEntity
  8
0
  6
CONTINUOUS
 62
               7
100
AcDbLine
 10
141.50000000000006
 20
1.1000312805175554
 30
0.0
 11
128.50000000000006
 21
1.1000312805175554
 31
0.0
  0
ARC
  5
3B6
100
AcDbEntity
  8
0
  6
CONTINUOUS
 62
               7
100
AcDbCircle
 10
143.00000000000006
 20
-3.3999687194823878
 30
0.0
 40
3.5000000000000004
100
AcDbArc
 50
0.0
 51
90.0
  0
LINE
  5
3B7
100
AcDbEntity
  8
0
  6
CONTINUOUS
 62
               7
100
AcDbLine
 10
148.00000000000006
 20
-3.3999877929687159
 30
0.0
 11
70.0
 21
-3.3999877929687159
 31
0.0
  0
LINE
  5
3B8
100
AcDbEntity
  8
0
  6
CONTINUOUS
 62
               2
100
AcDbLine
 10
-115.99999999999707
 20
-24.999987792968739
 30
0.0
 11
153.00000000000006
 21
-24.999987792968739
 31
0.0
  0
LINE
  5
3BA
100
AcDbEntity
  8
0
  6
PHANTOM
 62
               2
100
AcDbLine
 10
28.0
 20
-84.299998537972044
 30
0.0
 11
-71.999999999999773
 21
-84.299998537972044
 31
0.0
  0
LINE
  5
3BB
100
AcDbEntity
  8
0
  6
PHANTOM
 62
               2
100
AcDbLine
 10
28.0
 20
-284.3000061719178
 30
0.0
 11
-71.999999999999773
 21
-284.3000061719178
 31
0.0
  0
LINE
  5
3BC
100
AcDbEntity
  8
0
  6
PHANTOM
 62
               2
100
AcDbLine
 10
28.0
 20
-84.300006171917516
 30
0.0
 11
28.0
 21
-284.3000061719178
 31
0.0
  0
LINE
  5
3BD
100
AcDbEntity
  8
0
  6
CONTINUOUS
 62
               7
100
AcDbLine
 10
9.999999981999963
 20
-47.7999909207266
 30
0.0
 11
9.999999981999963
 21
-4.7999984584720892
 31
0.0
  0
LINE
  5
3BE
100
AcDbEntity
  8
0
  6
CONTINUOUS
 62
               7
100
AcDbLine
 10
46.000000017999923
 20
-47.7999909207266
 30
0.0
 11
46.000000017999923
 21
-4.7999984584720892
 31
0.0
  0
LINE
  5
3BF
100
AcDbEntity
  8
0
  6
CONTINUOUS
 62
               7
100
AcDbLine
 10
13.585788448034918
 20
-82.714219426824116
 30
0.0
 11
10.025136426466247
 21
-79.153567405255558
 31
0.0
  0
LINE
  5
3C0
100
AcDbEntity
  8
0
  6
CONTINUOUS
 62
               7
100
AcDbLine
 10
6.9999999790001084
 20
-45.000003051757858
 30
0.0
 11
5.5000000000001137
 21
-45.000003051757858
 31
0.0
  0
LINE
  5
3C1
100
AcDbEntity
  8
0
  6
CONTINUOUS
 62
               7
100
AcDbLine
 10
6.9999999790001084
 20
-44.000003051757858
 30
0.0
 11
-105.67529296874955
 21
-44.000003051757858
 31
0.0
  0
LINE
  5
3C2
100
AcDbEntity
  8
0
  6
CONTINUOUS
 62
               7
100
AcDbLine
 10
6.9999999790001084
 20
-4.9999877929687955
 30
0.0
 11
5.5000000000001137
 21
-4.9999877929687955
 31
0.0
  0
LINE
  5
3C3
100
AcDbEntity
  8
0
  6
CONTINUOUS
 62
               7
100
AcDbLine
 10
49.000000021000005
 20
-6.0000096244748988
 30
0.0
 11
70.0
 21
-6.0000125885011357
 31
0.0
  0
LINE
  5
3C4
100
AcDbEntity
  8
0
  6
CONTINUOUS
 62
               7
100
AcDbLine
 10
6.9999999790001084
 20
-11.59999389648442
 30
0.0
 11
-98.999999999999829
 21
-11.59999389648442
 31
0.0
  0
LINE
  5
3C5
100
AcDbEntity
  8
0
  6
CONTINUOUS
 62
               7
100
AcDbLine
 10
6.9999999790001084
 20
-13.799990844726494
 30
0.0
 11
-98.999999999999829
 21
-13.799990844726494
 31
0.0
  0
LINE
  5
3C6
100
AcDbEntity
  8
0
  6
CONTINUOUS
 62
               7
100
AcDbLine
 10
6.9999999790001084
 20
-38.399996948242233
 30
0.0
 11
-98.999999999999829
 21
-38.399996948242233
 31
0.0
  0
LINE
  5
3C7
100
AcDbEntity
  8
0
  6
CONTINUOUS
 62
               7
100
AcDbLine
 10
6.9999999790001084
 20
-36.199984741210983
 30
0.0
 11
-98.999999999999829
 21
-36.199984741210983
 31
0.0
  0
CIRCLE
  5
3C8
100
AcDbEntity
  8
0
  6
CONTINUOUS
 62
               7
100
AcDbCircle
 10
14.999999987000024
 20
-8.499995410414499
 30
0.0
 40
2.7500000027500002
  0
LINE
  5
3C9
100
AcDbEntity
  8
0
  6
CONTINUOUS
 62
               7
100
AcDbLine
 10
13.556634119564023
 20
-8.4999956949908437
 30
0.0
 11
14.278318499675038
 21
-9.7499886827883984
 31
0.0
  0
LINE
  5
3CA
100
AcDbEntity
  8
0
  6
CONTINUOUS
 62
               7
100
AcDbLine
 10
14.278316837933858
 20
-7.2500031235671827
 30
0.0
 11
13.556634082582264
 21
-8.4999968512337318
 31
0.0
  0
LINE
  5
3CB
100
AcDbEntity
  8
0
  6
CONTINUOUS
 62
               7
100
AcDbLine
 10
15.721685525044109
 20
-7.2500092374419864
 30
0.0
 11
14.278313273997469
 21
-7.2500101911153934
 31
0.0
  0
LINE
  5
3CC
100
AcDbEntity
  8
0
  6
CONTINUOUS
 62
               7
100
AcDbLine
 10
16.443365647650126
 20
-8.4999952431078327
 30
0.0
 11
15.721682306956041
 21
-7.2500028919478723
 31
0.0
  0
LINE
  5
3CD
100
AcDbEntity
  8
0
  6
CONTINUOUS
 62
               7
100
AcDbLine
 10
15.721684125596312
 20
-9.7499887510124381
 30
0.0
 11
16.443366136467489
 21
-8.4999945415694924
 31
0.0
  0
LINE
  5
3CE
100
AcDbEntity
  8
0
  6
CONTINUOUS
 62
               7
100
AcDbLine
 10
15.721687662244108
 20
-9.7499954116644858
 30
0.0
 11
14.278314099895283
 21
-9.7499954116644858
 31
0.0
  0
CIRCLE
  5
3CF
100
AcDbEntity
  8
0
  6
CONTINUOUS
 62
               7
100
AcDbCircle
 10
41.000000012999976
 20
-8.499995410414499
 30
0.0
 40
2.7500000027500002
  0
LINE
  5
3D0
100
AcDbEntity
  8
0
  6
CONTINUOUS
 62
               7
100
AcDbLine
 10
39.556634145563976
 20
-8.4999956949908437
 30
0.0
 11
40.278318525674877
 21
-9.7499886827883984
 31
0.0
  0
LINE
  5
3D1
100
AcDbEntity
  8
0
  6
CONTINUOUS
 62
               7
100
AcDbLine
 10
40.278316863934151
 20
-7.2500031235671827
 30
0.0
 11
39.556634108582216
 21
-8.4999968512337318
 31
0.0
  0
LINE
  5
3D2
100
AcDbEntity
  8
0
  6
CONTINUOUS
 62
               7
100
AcDbLine
 10
41.721685551044288
 20
-7.2500092374419864
 30
0.0
 11
40.278313299997649
 21
-7.2500101911153934
 31
0.0
  0
LINE
  5
3D3
100
AcDbEntity
  8
0
  6
CONTINUOUS
 62
               7
100
AcDbLine
 10
42.443365673650192
 20
-8.4999952431078327
 30
0.0
 11
41.72168233295622
 21
-7.2500028919478723
 31
0.0
  0
LINE
  5
3D4
100
AcDbEntity
  8
0
  6
CONTINUOUS
 62
               7
100
AcDbLine
 10
41.721684151596264
 20
-9.7499887510124381
 30
0.0
 11
42.443366162467555
 21
-8.4999945415694924
 31
0.0
  0
LINE
  5
3D5
100
AcDbEntity
  8
0
  6
CONTINUOUS
 62
               7
100
AcDbLine
 10
41.72168768824406
 20
-9.7499954116644858
 30
0.0
 11
40.278314125895236
 21
-9.7499954116644858
 31
0.0
  0
LINE
  5
3D6
100
AcDbEntity
  8
0
  6
CONTINUOUS
 62
               7
100
AcDbLine
 10
6.9999999790001084
 20
-4.7999984584720892
 30
0.0
 11
25.500000012999976
 21
-4.7999984584720892
 31
0.0
  0
LINE
  5
3D7
100
AcDbEntity
  8
0
  6
CONTINUOUS
 62
               7
100
AcDbLine
 10
47.000000019000026
 20
-76.678691157304172
 30
0.0
 11
47.000000019000026
 21
-50.799998504472285
 31
0.0
  0
LINE
  5
3D8
100
AcDbEntity
  8
0
  6
CONTINUOUS
 62
               7
100
AcDbLine
 10
41.000000012999976
 20
-83.299998536972339
 30
0.0
 11
14.999999987000024
 21
-83.299998536972339
 31
0.0
  0
LINE
  5
3D9
100
AcDbEntity
  8
0
  6
CONTINUOUS
 62
               7
100
AcDbLine
 10
42.414211551965082
 20
-82.714219426824116
 30
0.0
 11
45.974863573533753
 21
-79.153567405255558
 31
0.0
  0
LINE
  5
3DA
100
AcDbEntity
  8
0
  6
CONTINUOUS
 62
               7
100
AcDbLine
 10
46.500000018499918
 20
-84.299998537972044
 30
0.0
 11
42.500000014500188
 21
-84.299998537972044
 31
0.0
  0
LINE
  5
3DB
100
AcDbEntity
  8
0
  6
CONTINUOUS
 62
               7
100
AcDbLine
 10
42.000000014000079
 20
-83.799998537472277
 30
0.0
 11
42.000000014000079
 21
-83.032049344272991
 31
0.0
  0
LINE
  5
3DC
100
AcDbEntity
  8
0
  6
CONTINUOUS
 62
               7
100
AcDbLine
 10
13.999999999999886
 20
-83.799998537472277
 30
0.0
 11
13.999999999999886
 21
-83.032049352355898
 31
0.0
  0
LINE
  5
3DD
100
AcDbEntity
  8
0
  6
CONTINUOUS
 62
               7
100
AcDbLine
 10
8.9999999810000872
 20
-83.799998537472277
 30
0.0
 11
8.9999999810000872
 21
-78.117445387750934
 31
0.0
  0
LINE
  5
3DE
100
AcDbEntity
  8
0
  6
CONTINUOUS
 62
               7
100
AcDbLine
 10
47.000000019000026
 20
-83.799998537472277
 30
0.0
 11
47.000000019000026
 21
-76.678691157304172
 31
0.0
  0
LINE
  5
3DF
100
AcDbEntity
  8
0
  6
CONTINUOUS
 62
               7
100
AcDbLine
 10
13.999999986000148
 20
-84.299998537972044
 30
0.0
 11
9.499999981500082
 21
-84.299998537972044
 31
0.0
  0
LINE
  5
3E0
100
AcDbEntity
  8
0
  6
CONTINUOUS
 62
               2
100
AcDbLine
 10
11.749999983750058
 20
-85.916270512244864
 30
0.0
 11
11.749999983750058
 21
-76.678691157304172
 31
0.0
  0
LINE
  5
3E1
100
AcDbEntity
  8
0
  6
CONTINUOUS
 62
               2
100
AcDbLine
 10
44.250000016250169
 20
-85.993571537712683
 30
0.0
 11
44.250000016250169
 21
-76.678691157304172
 31
0.0
  0
ARC
  5
3E2
100
AcDbEntity
  8
0
  6
CONTINUOUS
 62
               7
100
AcDbCircle
 10
43.50000001549995
 20
-76.678691157304172
 30
0.0
 40
3.5000000034999998
100
AcDbArc
 50
315.00000125223909
 51
0.0000025044781673
  0
ARC
  5
3E3
100
AcDbEntity
  8
0
  6
CONTINUOUS
 62
               7
100
AcDbCircle
 10
14.999999987000024
 20
-81.299998534972133
 30
0.0
 40
2.0000000020000006
100
AcDbArc
 50
224.99999874776091
 51
270.0
  0
ARC
  5
3E4
100
AcDbEntity
  8
0
  6
CONTINUOUS
 62
               7
100
AcDbCircle
 10
41.000000012999976
 20
-81.299998534972133
 30
0.0
 40
2.0000000020000006
100
AcDbArc
 50
270.0
 51
315.00000125223909
  0
ARC
  5
3E5
100
AcDbEntity
  8
0
  6
CONTINUOUS
 62
               7
100
AcDbCircle
 10
46.500000018499918
 20
-83.799998537472277
 30
0.0
 40
0.5000000005000002
100
AcDbArc
 50
270.0
 51
0.0000025044781673
  0
ARC
  5
3E6
100
AcDbEntity
  8
0
  6
CONTINUOUS
 62
               7
100
AcDbCircle
 10
42.500000014500188
 20
-83.799998537472277
 30
0.0
 40
0.5000000005000002
100
AcDbArc
 50
179.99999749552182
 51
270.0
  0
ARC
  5
3E7
100
AcDbEntity
  8
0
  6
CONTINUOUS
 62
               7
100
AcDbCircle
 10
13.499999999500119
 20
-83.799998537472277
 30
0.0
 40
0.5000000005000002
100
AcDbArc
 50
270.0
 51
0.0000025044781673
  0
ARC
  5
3E8
100
AcDbEntity
  8
0
  6
CONTINUOUS
 62
               7
100
AcDbCircle
 10
9.499999981500082
 20
-83.799998537472277
 30
0.0
 40
0.5000000005000002
100
AcDbArc
 50
179.99999749552182
 51
270.0
  0
ARC
  5
3E9
100
AcDbEntity
  8
0
  6
CONTINUOUS
 62
               7
100
AcDbCircle
 10
41.870344175857667
 20
-58.799998512471973
 30
0.0
 40
6.329656130444647
100
AcDbArc
 50
340.85729268610248
 51
19.14270913512587
  0
LINE
  5
3EA
100
AcDbEntity
  8
0
  6
CONTINUOUS
 62
               7
100
AcDbLine
 10
47.850000043691807
 20
-60.875633232489236
 30
0.0
 11
47.850000043692035
 21
-56.724363792455449
 31
0.0
  0
LINE
  5
3EB
100
AcDbEntity
  8
0
  6
CONTINUOUS
 62
               7
100
AcDbLine
 10
47.850000040265741
 20
-60.875633118961957
 30
0.0
 11
47.000000014770649
 21
-60.949998484972184
 31
0.0
  0
LINE
  5
3EC
100
AcDbEntity
  8
0
  6
CONTINUOUS
 62
               7
100
AcDbLine
 10
47.850000040265854
 20
-56.724363905982557
 30
0.0
 11
47.000000014770876
 21
-56.649998539971932
 31
0.0
  0
ARC
  5
3ED
100
AcDbEntity
  8
0
  6
CONTINUOUS
 62
               7
100
AcDbCircle
 10
41.870344175857667
 20
-72.799998526471882
 30
0.0
 40
6.329656130444647
100
AcDbArc
 50
340.85729268610248
 51
19.14270913512587
  0
LINE
  5
3EE
100
AcDbEntity
  8
0
  6
CONTINUOUS
 62
               7
100
AcDbLine
 10
47.850000043691807
 20
-74.875633246489201
 30
0.0
 11
47.850000043692035
 21
-70.724363806455187
 31
0.0
  0
LINE
  5
3EF
100
AcDbEntity
  8
0
  6
CONTINUOUS
 62
               7
100
AcDbLine
 10
47.850000040265741
 20
-74.875633132961866
 30
0.0
 11
47.000000014770649
 21
-74.94999849897215
 31
0.0
  0
LINE
  5
3F0
100
AcDbEntity
  8
0
  6
CONTINUOUS
 62
               7
100
AcDbLine
 10
47.850000040265854
 20
-70.724363919982466
 30
0.0
 11
47.000000014770876
 21
-70.649998553972239
 31
0.0
  0
LINE
  5
3F1
100
AcDbEntity
  8
0
  6
CONTINUOUS
 62
               7
100
AcDbLine
 10
6.9999999790001084
 20
-50.799998504472285
 30
0.0
 11
6.9999999790001084
 21
-4.7999984584720892
 31
0.0
  0
LINE
  5
3F2
100
AcDbEntity
  8
0
  6
CONTINUOUS
 62
               7
100
AcDbLine
 10
49.000000021000005
 20
-50.799998504472285
 30
0.0
 11
49.000000021000005
 21
-4.7999984584720892
 31
0.0
  0
LINE
  5
3F3
100
AcDbEntity
  8
0
  6
CONTINUOUS
 62
               7
100
AcDbLine
 10
65.500000076000106
 20
-250.00000305175817
 30
0.0
 11
65.999999999999886
 21
-250.00000305175817
 31
0.0
  0
LINE
  5
3F4
100
AcDbEntity
  8
0
  6
CONTINUOUS
 62
               7
100
AcDbLine
 10
105.0
 20
-230.00000337175825
 30
0.0
 11
104.00000000000011
 21
-230.00000337175825
 31
0.0
  0
ARC
  5
3F5
100
AcDbEntity
  8
0
  6
CONTINUOUS
 62
               7
100
AcDbCircle
 10
65.500000076000106
 20
-249.50000305575813
 30
0.0
 40
0.4999999959999998
100
AcDbArc
 50
179.99999749552182
 51
270.0
  0
LINE
  5
3F6
100
AcDbEntity
  8
0
  6
CONTINUOUS
 62
               7
100
AcDbLine
 10
65.0
 20
-230.00000337175825
 30
0.0
 11
65.999999999999886
 21
-230.00000337175825
 31
0.0
  0
ARC
  5
3F7
100
AcDbEntity
  8
0
  6
CONTINUOUS
 62
               7
100
AcDbCircle
 10
65.500000076000106
 20
-230.5000033677583
 30
0.0
 40
0.4999999959999998
100
AcDbArc
 50
90.0
 51
180.00000250447818
  0
ARC
  5
3F8
100
AcDbEntity
  8
0
  6
CONTINUOUS
 62
               7
100
AcDbCircle
 10
104.49999992400001
 20
-249.50000305575824
 30
0.0
 40
0.4999999959999998
100
AcDbArc
 50
270.0
 51
0.0000025044781673
  0
ARC
  5
3F9
100
AcDbEntity
  8
0
  6
CONTINUOUS
 62
               7
100
AcDbCircle
 10
104.49999992400001
 20
-230.5000033677583
 30
0.0
 40
0.4999999959999998
100
AcDbArc
 50
359.99999749552182
 51
90.0
  0
LINE
  5
3FA
100
AcDbEntity
  8
0
  6
CONTINUOUS
 62
               7
100
AcDbLine
 10
104.49999992400001
 20
-250.00000305175817
 30
0.0
 11
104.00000000000011
 21
-250.00000305175817
 31
0.0
  0
ARC
  5
3FB
100
AcDbEntity
  8
0
  6
CONTINUOUS
 62
               7
100
AcDbCircle
 10
104.49999992400001
 20
-0.4999999960000423
 30
0.0
 40
0.4999999959999998
100
AcDbArc
 50
359.99999749552182
 51
90.0
  0
LINE
  5
3FC
100
AcDbEntity
  8
0
  6
CONTINUOUS
 62
               7
100
AcDbLine
 10
148.00000000000006
 20
-44.000003051757915
 30
0.0
 11
49.000000021000005
 21
-44.000003051757915
 31
0.0
  0
LINE
  5
3FD
100
AcDbEntity
  8
0
  6
CONTINUOUS
 62
               7
100
AcDbLine
 10
-105.67529296874955
 20
-5.9999877929687955
 30
0.0
 11
6.9999999790001084
 21
-6.0000036964223682
 31
0.0
  0
LINE
  5
3FE
100
AcDbEntity
  8
0
  6
CONTINUOUS
 62
               7
100
AcDbLine
 10
71.921435475800081
 20
-45.000003051757858
 30
0.0
 11
49.000000021000005
 21
-45.000003051757858
 31
0.0
  0
LINE
  5
3FF
100
AcDbEntity
  8
0
  6
CONTINUOUS
 62
               7
100
AcDbLine
 10
71.424365395586051
 20
-44.850003072173536
 30
0.0
 11
71.350000029650005
 21
-44.00000304752848
 31
0.0
  0
LINE
  5
400
100
AcDbEntity
  8
0
  6
CONTINUOUS
 62
               7
100
AcDbLine
 10
75.575634604413835
 20
-44.850003072173706
 30
0.0
 11
75.649999970349882
 21
-44.000003047528764
 31
0.0
  0
LINE
  5
401
100
AcDbEntity
  8
0
  6
CONTINUOUS
 62
               7
100
AcDbLine
 10
75.575634717941284
 20
-44.850003075599716
 30
0.0
 11
71.424365282058602
 21
-44.850003075599545
 31
0.0
  0
ARC
  5
402
100
AcDbEntity
  8
0
  6
CONTINUOUS
 62
               7
100
AcDbCircle
 10
73.500000000000227
 20
-38.870347213745163
 30
0.0
 40
6.3296561241149902
100
AcDbArc
 50
250.85729086486964
 51
289.14270731389303
  0
LINE
  5
403
100
AcDbEntity
  8
0
  6
CONTINUOUS
 62
               7
100
AcDbLine
 10
71.415614939947432
 20
-2.6500122070314092
 30
0.0
 11
70.500000000000227
 21
-2.6500122070314092
 31
0.0
  0
LINE
  5
404
100
AcDbEntity
  8
0
  6
CONTINUOUS
 62
               7
100
AcDbLine
 10
60.0
 20
-6.0000125885011357
 30
0.0
 11
60.0
 21
-2.000012588501022
 31
0.0
  0
LINE
  5
405
100
AcDbEntity
  8
0
  6
CONTINUOUS
 62
               7
100
AcDbLine
 10
71.424365441746431
 20
-2.5499935135021587
 30
0.0
 11
71.35000007746396
 21
-3.3999935192439921
 31
0.0
  0
LINE
  5
406
100
AcDbEntity
  8
0
  6
CONTINUOUS
 62
               7
100
AcDbLine
 10
75.575634558254023
 20
-2.5499935135020451
 30
0.0
 11
75.649999922536153
 21
-3.3999935192439921
 31
0.0
  0
LINE
  5
407
100
AcDbEntity
  8
0
  6
CONTINUOUS
 62
               7
100
AcDbLine
 10
75.575634717941512
 20
-2.5499934911726996
 30
0.0
 11
71.424365282058602
 21
-2.549993491172927
 31
0.0
  0
LINE
  5
408
100
AcDbEntity
  8
0
  6
CONTINUOUS
 62
               7
100
AcDbLine
 10
66.424365441745977
 20
-1.1500125869883959
 30
0.0
 11
66.350000077463847
 21
-2.0000125927302292
 31
0.0
  0
LINE
  5
409
100
AcDbEntity
  8
0
  6
CONTINUOUS
 62
               7
100
AcDbLine
 10
70.575634558254023
 20
-1.1500125869883959
 30
0.0
 11
70.649999922536153
 21
-2.0000125927302292
 31
0.0
  0
LINE
  5
40A
100
AcDbEntity
  8
0
  6
CONTINUOUS
 62
               7
100
AcDbLine
 10
70.575634717941512
 20
-1.1500125646591073
 30
0.0
 11
66.424365282058602
 21
-1.1500125646592778
 31
0.0
  0
ARC
  5
40B
100
AcDbEntity
  8
0
  6
CONTINUOUS
 62
               7
100
AcDbCircle
 10
73.500000000000341
 20
-8.5296493530273665
 30
0.0
 40
6.3296561241149902
100
AcDbArc
 50
70.857292686107982
 51
109.14270913513137
  0
ARC
  5
40C
100
AcDbEntity
  8
0
  6
CONTINUOUS
 62
               7
100
AcDbCircle
 10
68.500000000000341
 20
-7.129668426513831
 30
0.0
 40
6.3296561241149902
100
AcDbArc
 50
70.857292686105737
 51
109.14270913512912
  0
ARC
  5
40D
100
AcDbEntity
  8
0
  6
CONTINUOUS
 62
               7
100
AcDbCircle
 10
75.0
 20
-9.000012588501022
 30
0.0
 40
6.3499999999999996
100
AcDbArc
 50
61.871646064942688
 51
84.698108691995031
  0
LINE
  5
40E
100
AcDbEntity
  8
0
  6
CONTINUOUS
 62
               7
100
AcDbLine
 10
70.500000000000227
 20
-2.000012588501022
 30
0.0
 11
70.500000000000227
 21
-3.3999877929687159
 31
0.0
  0
LINE
  5
40F
100
AcDbEntity
  8
0
  6
CONTINUOUS
 62
               7
100
AcDbLine
 10
60.0
 20
-2.000012588501022
 30
0.0
 11
70.649999922536153
 21
-2.000012588501022
 31
0.0
  0
LINE
  5
410
100
AcDbEntity
  8
0
  6
CONTINUOUS
 62
               7
100
AcDbLine
 10
148.00000000000006
 20
-44.000003051757801
 30
0.0
 11
148.00000000000006
 21
-3.3999877929687159
 31
0.0
  0
LINE
  5
411
100
AcDbEntity
  8
0
  6
CONTINUOUS
 62
               7
100
AcDbLine
 10
146.67431640625006
 20
-11.17000122070317
 30
0.0
 11
71.04644775390625
 21
-11.17000122070317
 31
0.0
  0
LINE
  5
412
100
AcDbEntity
  8
0
  6
CONTINUOUS
 62
               7
100
AcDbLine
 10
146.85473632812483
 20
-38.830004882812545
 30
0.0
 11
70.866149902343636
 21
-38.830004882812545
 31
0.0
  0
ARC
  5
413
100
AcDbEntity
  8
0
  6
CONTINUOUS
 62
               7
100
AcDbCircle
 10
0.0
 20
610.19999694824014
 30
0.0
 40
920.0
100
AcDbArc
 50
272.76310112686076
 51
276.49788211075821
  0
LINE
  5
414
100
AcDbEntity
  8
0
  6
CONTINUOUS
 62
               7
100
AcDbLine
 10
-25.0
 20
-5.9999877929687955
 30
0.0
 11
-25.0
 21
0.0
 31
0.0
  0
LINE
  5
415
100
AcDbEntity
  8
0
  6
CONTINUOUS
 62
               7
100
AcDbLine
 10
25.0
 20
-4.7999984584720892
 30
0.0
 11
25.0
 21
0.0
 31
0.0
  0
LINE
  5
416
100
AcDbEntity
  8
0
  6
PHANTOM
 62
               2
100
AcDbLine
 10
-71.999999999999773
 20
-284.3000061719178
 30
0.0
 11
-71.999999999999773
 21
-84.299998537972044
 31
0.0
  0
LINE
  5
417
100
AcDbEntity
  8
0
  6
CONTINUOUS
 62
               7
100
AcDbLine
 10
104.00000000000011
 20
0.0
 30
0.0
 11
105.0
 21
0.0
 31
0.0
  0
LINE
  5
418
100
AcDbEntity
  8
0
  6
CONTINUOUS
 62
               7
100
AcDbLine
 10
-104.99999999999966
 20
-5.9999878882823623
 30
0.0
 11
-104.99999999999966
 21
0.0
 31
0.0
  0
LINE
  5
419
100
AcDbEntity
  8
0
  6
CONTINUOUS
 62
               7
100
AcDbLine
 10
64.999984741210937
 20
0.0
 30
0.0
 11
-104.99999999999966
 21
0.0
 31
0.0
  0
LINE
  5
41A
100
AcDbEntity
  8
0
  6
CONTINUOUS
 62
               7
100
AcDbLine
 10
105.0
 20
0.0
 30
0.0
 11
105.0
 21
-3.3999877929687159
 31
0.0
  0
CIRCLE
  5
41B
100
AcDbEntity
  8
0
  6
CONTINUOUS
 62
               7
100
AcDbCircle
 10
-97.242857524326553
 20
-50.0
 30
0.0
 40
5.0
  0
ARC
  5
41C
100
AcDbEntity
  8
0
  6
CONTINUOUS
 62
               7
100
AcDbCircle
 10
-97.242857524326553
 20
-10.0
 30
0.0
 40
5.0
100
AcDbArc
 50
53.130304673904462
 51
126.86967915217231
  0
LINE
  5
41D
100
AcDbEntity
  8
0
  6
CONTINUOUS
 62
               7
100
AcDbLine
 10
49.800003051757926
 20
-289.8000106811528
 30
0.0
 11
60.199996948242188
 21
-289.8000106811528
 31
0.0
  0
LINE
  5
41E
100
AcDbEntity
  8
0
  6
CONTINUOUS
 62
               7
100
AcDbLine
 10
49.800003051757926
 20
-292.2000122070317
 30
0.0
 11
60.199996948242188
 21
-292.2000122070317
 31
0.0
  0
LINE
  5
41F
100
AcDbEntity
  8
0
  6
CONTINUOUS
 62
               7
100
AcDbLine
 10
-60.199999332427637
 20
-292.2000122070317
 30
0.0
 11
-60.199999332427637
 21
-289.8000106811528
 31
0.0
  0
LINE
  5
420
100
AcDbEntity
  8
0
  6
CONTINUOUS
 62
               7
100
AcDbLine
 10
60.199996948242188
 20
-292.2000122070317
 30
0.0
 11
60.199996948242188
 21
-289.8000106811528
 31
0.0
  0
LINE
  5
421
100
AcDbEntity
  8
0
  6
CONTINUOUS
 62
               7
100
AcDbLine
 10
-49.79999923706032
 20
-292.2000122070317
 30
0.0
 11
-49.79999923706032
 21
-289.8000106811528
 31
0.0
  0
LINE
  5
422
100
AcDbEntity
  8
0
  6
CONTINUOUS
 62
               7
100
AcDbLine
 10
49.800003051757926
 20
-292.2000122070317
 30
0.0
 11
49.800003051757926
 21
-289.8000106811528
 31
0.0
  0
LINE
  5
423
100
AcDbEntity
  8
0
  6
CONTINUOUS
 62
               7
100
AcDbLine
 10
-60.199999332427637
 20
-289.8000106811528
 30
0.0
 11
-49.79999923706032
 21
-289.8000106811528
 31
0.0
  0
LINE
  5
424
100
AcDbEntity
  8
0
  6
CONTINUOUS
 62
               7
100
AcDbLine
 10
-60.199999332427637
 20
-292.2000122070317
 30
0.0
 11
-49.79999923706032
 21
-292.2000122070317
 31
0.0
  0
LINE
  5
425
100
AcDbEntity
  8
0
  6
CONTINUOUS
 62
               7
100
AcDbLine
 10
71.169998168945313
 20
93.874328613280966
 30
0.0
 11
71.169998168945313
 21
18.046459960937341
 31
0.0
  0
LINE
  5
426
100
AcDbEntity
  8
0
  6
CONTINUOUS
 62
               7
100
AcDbLine
 10
103.99999999999989
 20
95.200012207030966
 30
0.0
 11
65.999990463256836
 21
95.200012207030966
 31
0.0
  0
LINE
  5
427
100
AcDbEntity
  8
0
  6
CONTINUOUS
 62
               7
100
AcDbLine
 10
98.830001831054801
 20
94.054748535155966
 30
0.0
 11
98.830001831054801
 21
17.86616210937467
 31
0.0
  0
LINE
  5
428
100
AcDbEntity
  8
0
  6
CONTINUOUS
 62
               7
100
AcDbLine
 10
65.999990463256836
 20
95.200012207030966
 30
0.0
 11
65.999990463256836
 21
-2.000012588501022
 31
0.0
  0
LINE
  5
429
100
AcDbEntity
  8
0
  6
CONTINUOUS
 62
               7
100
AcDbLine
 10
62.650009155273665
 20
22.000012207031091
 30
0.0
 11
62.650009155273665
 21
17.500012207031205
 31
0.0
  0
LINE
  5
42A
100
AcDbEntity
  8
0
  6
CONTINUOUS
 62
               7
100
AcDbLine
 10
66.000009536743391
 20
7.0000122070310908
 30
0.0
 11
62.000009536743164
 21
7.0000122070310908
 31
0.0
  0
LINE
  5
42B
100
AcDbEntity
  8
0
  6
CONTINUOUS
 62
               7
100
AcDbLine
 10
65.149990461744324
 20
18.424377648777522
 30
0.0
 11
65.999990467486214
 21
18.350012284494994
 31
0.0
  0
LINE
  5
42C
100
AcDbEntity
  8
0
  6
CONTINUOUS
 62
               7
100
AcDbLine
 10
65.14999046174421
 20
22.575646765285114
 30
0.0
 11
65.999990467486214
 21
22.650012129567131
 31
0.0
  0
LINE
  5
42D
100
AcDbEntity
  8
0
  6
CONTINUOUS
 62
               7
100
AcDbLine
 10
65.149990439414864
 20
22.575646924972489
 30
0.0
 11
65.149990439415092
 21
18.424377489089636
 31
0.0
  0
LINE
  5
42E
100
AcDbEntity
  8
0
  6
CONTINUOUS
 62
               7
100
AcDbLine
 10
61.150009535230652
 20
13.424377648776954
 30
0.0
 11
62.000009540972314
 21
13.350012284494937
 31
0.0
  0
LINE
  5
42F
100
AcDbEntity
  8
0
  6
CONTINUOUS
 62
               7
100
AcDbLine
 10
61.150009535230652
 20
17.575646765285114
 30
0.0
 11
62.000009540972314
 21
17.650012129567131
 31
0.0
  0
LINE
  5
430
100
AcDbEntity
  8
0
  6
CONTINUOUS
 62
               7
100
AcDbLine
 10
61.150009512901306
 20
17.575646924972489
 30
0.0
 11
61.15000951290142
 21
13.424377489089636
 31
0.0
  0
ARC
  5
431
100
AcDbEntity
  8
0
  6
CONTINUOUS
 62
               7
100
AcDbCircle
 10
71.129646301269531
 20
20.500012207031375
 30
0.0
 40
6.3296561241149902
100
AcDbArc
 50
160.857292686108
 51
199.14270913513135
  0
ARC
  5
432
100
AcDbEntity
  8
0
  6
CONTINUOUS
 62
               7
100
AcDbCircle
 10
67.129665374756087
 20
15.500012207031375
 30
0.0
 40
6.3296561241149902
100
AcDbArc
 50
160.85729268610575
 51
199.14270913512914
  0
ARC
  5
433
100
AcDbEntity
  8
0
  6
CONTINUOUS
 62
               7
100
AcDbCircle
 10
69.000009536743164
 20
22.000012207031091
 30
0.0
 40
6.3499999999999996
100
AcDbArc
 50
118.19305582695574
 51
180.0
  0
LINE
  5
434
100
AcDbEntity
  8
0
  6
CONTINUOUS
 62
               7
100
AcDbLine
 10
62.000009536743164
 20
17.500012207031205
 30
0.0
 11
65.999990463256836
 21
17.500012207031205
 31
0.0
  0
LINE
  5
435
100
AcDbEntity
  8
0
  6
CONTINUOUS
 62
               7
100
AcDbLine
 10
62.000009536743164
 20
7.0000122070310908
 30
0.0
 11
62.000009536743164
 21
17.650012129567131
 31
0.0
  0
LINE
  5
436
100
AcDbEntity
  8
0
  6
CONTINUOUS
 62
               2
100
AcDbLine
 10
37.999999999999659
 20
-332.79998795296859
 30
0.0
 11
37.999999999999659
 21
-297.65072453698991
 31
0.0
  0
LINE
  5
437
100
AcDbEntity
  8
0
  6
CONTINUOUS
 62
               7
100
AcDbLine
 10
44.349999999999568
 20
-325.29998795296854
 30
0.0
 11
31.64999999999975
 21
-325.29998795296854
 31
0.0
  0
LINE
  5
438
100
AcDbEntity
  8
0
  6
CONTINUOUS
 62
               7
100
AcDbLine
 10
32.5
 20
-326.29998795296842
 30
0.0
 11
43.499999999999773
 21
-326.29998795296842
 31
0.0
  0
LINE
  5
439
100
AcDbEntity
  8
0
  6
CONTINUOUS
 62
               7
100
AcDbLine
 10
44.349999999999568
 20
-325.29998795296854
 30
0.0
 11
43.499999999999773
 21
-326.29998795296842
 31
0.0
  0
LINE
  5
43A
100
AcDbEntity
  8
0
  6
CONTINUOUS
 62
               7
100
AcDbLine
 10
32.5
 20
-326.29998795296842
 30
0.0
 11
31.64999999999975
 21
-325.29998795296854
 31
0.0
  0
LINE
  5
43B
100
AcDbEntity
  8
0
  6
CONTINUOUS
 62
               7
100
AcDbLine
 10
32.5
 20
-327.79998795296859
 30
0.0
 11
43.499999999999773
 21
-327.79998795296859
 31
0.0
  0
LINE
  5
43C
100
AcDbEntity
  8
0
  6
CONTINUOUS
 62
               7
100
AcDbLine
 10
43.499999999999773
 20
-327.79998795296859
 30
0.0
 11
43.499999999999773
 21
-326.29998795296842
 31
0.0
  0
LINE
  5
43D
100
AcDbEntity
  8
0
  6
CONTINUOUS
 62
               7
100
AcDbLine
 10
32.5
 20
-327.79998795296859
 30
0.0
 11
32.5
 21
-326.29998795296842
 31
0.0
  0
LINE
  5
43E
100
AcDbEntity
  8
0
  6
CONTINUOUS
 62
               7
100
AcDbLine
 10
44.349999999999568
 20
-325.29998795296854
 30
0.0
 11
44.349999999999568
 21
-306.23386712497944
 31
0.0
  0
LINE
  5
43F
100
AcDbEntity
  8
0
  6
CONTINUOUS
 62
               7
100
AcDbLine
 10
31.64999999999975
 20
-325.29998795296854
 30
0.0
 11
31.64999999999975
 21
-306.87906273116965
 31
0.0
  0
LINE
  5
440
100
AcDbEntity
  8
0
  6
CONTINUOUS
 62
               7
100
AcDbLine
 10
64.999984741210937
 20
-1.9999877929686818
 30
0.0
 11
64.999984741210937
 21
7.0000122070310908
 31
0.0
  0
LINE
  5
441
100
AcDbEntity
  8
0
  6
CONTINUOUS
 62
               2
100
AcDbLine
 10
10.000000010000008
 20
-114.15476664765305
 30
0.0
 11
10.000000010000008
 21
-119.80372045372081
 31
0.0
  0
LINE
  5
442
100
AcDbEntity
  8
0
  6
CONTINUOUS
 62
               2
100
AcDbLine
 10
12.82264904631279
 20
-117.0000001170003
 30
0.0
 11
6.9695161794584237
 21
-117.0000001170003
 31
0.0
  0
CIRCLE
  5
443
100
AcDbEntity
  8
0
  6
CONTINUOUS
 62
               7
100
AcDbCircle
 10
10.000000010000008
 20
-117.0000001170003
 30
0.0
 40
1.0000000010000001
  0
CIRCLE
  5
444
100
AcDbEntity
  8
0
  6
CONTINUOUS
 62
               2
100
AcDbCircle
 10
10.000000010000008
 20
-117.0000001170003
 30
0.0
 40
1.5000000014999999
  0
LINE
  5
445
100
AcDbEntity
  8
0
  6
CONTINUOUS
 62
               2
100
AcDbLine
 10
10.000000010000008
 20
-218.15476675165314
 30
0.0
 11
10.000000010000008
 21
-223.80372055772077
 31
0.0
  0
LINE
  5
446
100
AcDbEntity
  8
0
  6
CONTINUOUS
 62
               2
100
AcDbLine
 10
10.000000010000008
 20
-174.15476670765315
 30
0.0
 11
10.000000010000008
 21
-179.80372051372086
 31
0.0
  0
CIRCLE
  5
447
100
AcDbEntity
  8
0
  6
CONTINUOUS
 62
               7
100
AcDbCircle
 10
10.000000010000008
 20
-177.00000017700029
 30
0.0
 40
1.0000000010000001
  0
CIRCLE
  5
448
100
AcDbEntity
  8
0
  6
CONTINUOUS
 62
               2
100
AcDbCircle
 10
10.000000010000008
 20
-177.00000017700029
 30
0.0
 40
1.5000000014999999
  0
LINE
  5
449
100
AcDbEntity
  8
0
  6
CONTINUOUS
 62
               2
100
AcDbLine
 10
7.1773509736873393
 20
-177.00000017700029
 30
0.0
 11
13.030483840541592
 21
-177.00000017700029
 31
0.0
  0
LINE
  5
44A
100
AcDbEntity
  8
0
  6
CONTINUOUS
 62
               2
100
AcDbLine
 10
-10.000000009999894
 20
-218.15476675165314
 30
0.0
 11
-10.000000009999894
 21
-223.80372055772077
 31
0.0
  0
CIRCLE
  5
44B
100
AcDbEntity
  8
0
  6
CONTINUOUS
 62
               2
100
AcDbCircle
 10
-10.000000009999894
 20
-117.0000001170003
 30
0.0
 40
1.5000000014999999
  0
CIRCLE
  5
44C
100
AcDbEntity
  8
0
  6
CONTINUOUS
 62
               7
100
AcDbCircle
 10
-10.000000009999894
 20
-117.0000001170003
 30
0.0
 40
1.0000000010000001
  0
LINE
  5
44D
100
AcDbEntity
  8
0
  6
CONTINUOUS
 62
               2
100
AcDbLine
 10
-12.82264904631279
 20
-117.0000001170003
 30
0.0
 11
-6.9695161794584237
 21
-117.0000001170003
 31
0.0
  0
LINE
  5
44E
100
AcDbEntity
  8
0
  6
CONTINUOUS
 62
               2
100
AcDbLine
 10
-10.000000009999894
 20
-114.15476664765305
 30
0.0
 11
-10.000000009999894
 21
-119.80372045372081
 31
0.0
  0
CIRCLE
  5
44F
100
AcDbEntity
  8
0
  6
CONTINUOUS
 62
               2
100
AcDbCircle
 10
-10.000000009999894
 20
-177.00000017700029
 30
0.0
 40
1.5000000014999999
  0
CIRCLE
  5
450
100
AcDbEntity
  8
0
  6
CONTINUOUS
 62
               7
100
AcDbCircle
 10
-10.000000009999894
 20
-177.00000017700029
 30
0.0
 40
1.0000000010000001
  0
LINE
  5
451
100
AcDbEntity
  8
0
  6
CONTINUOUS
 62
               2
100
AcDbLine
 10
-12.82264904631279
 20
-177.00000017700029
 30
0.0
 11
-6.9695161794584237
 21
-177.00000017700029
 31
0.0
  0
LINE
  5
452
100
AcDbEntity
  8
0
  6
CONTINUOUS
 62
               2
100
AcDbLine
 10
-10.000000009999894
 20
-174.15476670765315
 30
0.0
 11
-10.000000009999894
 21
-179.80372051372086
 31
0.0
  0
LINE
  5
453
100
AcDbEntity
  8
0
  6
CONTINUOUS
 62
               7
100
AcDbLine
 10
104.85000002041568
 20
18.424377602617028
 30
0.0
 11
103.99999999577062
 21
18.350012236680925
 31
0.0
  0
LINE
  5
454
100
AcDbEntity
  8
0
  6
CONTINUOUS
 62
               7
100
AcDbLine
 10
104.85000002041591
 20
22.575646811444813
 30
0.0
 11
103.99999999577096
 21
22.650012177380972
 31
0.0
  0
LINE
  5
455
100
AcDbEntity
  8
0
  6
CONTINUOUS
 62
               7
100
AcDbLine
 10
104.85000002384197
 20
22.575646924972261
 30
0.0
 11
104.85000002384174
 21
18.424377489089636
 31
0.0
  0
ARC
  5
456
100
AcDbEntity
  8
0
  6
CONTINUOUS
 62
               7
100
AcDbCircle
 10
98.870344161987305
 20
20.500012207031318
 30
0.0
 40
6.3296561241149902
100
AcDbArc
 50
340.85729086486964
 51
19.142707313893034
  0
ARC
  5
457
100
AcDbEntity
  8
0
  6
CONTINUOUS
 62
               7
100
AcDbCircle
 10
102.0
 20
-258.67529602050831
 30
0.0
 40
2.0
100
AcDbArc
 50
292.13135824114102
 51
0.0000025044781673
  0
ARC
  5
458
100
AcDbEntity
  8
0
  6
CONTINUOUS
 62
               7
100
AcDbCircle
 10
68.000000000000114
 20
-258.67529602050831
 30
0.0
 40
2.0
100
AcDbArc
 50
179.99999749552182
 51
247.86864175885896
  0
ARC
  5
459
100
AcDbEntity
  8
0
  6
CONTINUOUS
 62
               7
100
AcDbCircle
 10
68.000000000000114
 20
-254.9519989013676
 30
0.0
 40
2.0
100
AcDbArc
 50
179.99999749552182
 51
260.84681653571539
  0
ARC
  5
45A
100
AcDbEntity
  8
0
  6
CONTINUOUS
 62
               7
100
AcDbCircle
 10
102.0
 20
-254.9519989013676
 30
0.0
 40
2.0
100
AcDbArc
 50
279.15318346428461
 51
0.0000025044781673
  0
ARC
  5
45B
100
AcDbEntity
  8
0
  6
CONTINUOUS
 62
               7
100
AcDbCircle
 10
85.0
 20
-216.87500305175817
 30
0.0
 40
47.125
100
AcDbArc
 50
247.86864175885896
 51
292.13135824114102
  0
ARC
  5
45C
100
AcDbEntity
  8
0
  6
CONTINUOUS
 62
               7
100
AcDbCircle
 10
85.0
 20
-149.44467468261757
 30
0.0
 40
108.86813354492186
100
AcDbArc
 50
260.84681653571539
 51
279.15318346428461
  0
ARC
  5
45D
100
AcDbEntity
  8
0
  6
CONTINUOUS
 62
               7
100
AcDbCircle
 10
-105.67529296874955
 20
-42.000003051757858
 30
0.0
 40
2.0
100
AcDbArc
 50
202.13136085930475
 51
270.0
  0
ARC
  5
45E
100
AcDbEntity
  8
0
  6
CONTINUOUS
 62
               7
100
AcDbCircle
 10
-105.67529296874955
 20
-7.9999877929687955
 30
0.0
 40
2.0
100
AcDbArc
 50
90.000005008956336
 51
157.86863048927324
  0
ARC
  5
45F
100
AcDbEntity
  8
0
  6
CONTINUOUS
 62
               7
100
AcDbCircle
 10
-101.9520263671871
 20
-7.9999877929687955
 30
0.0
 40
2.0
100
AcDbArc
 50
90.000005008956336
 51
170.84680953499787
  0
ARC
  5
460
100
AcDbEntity
  8
0
  6
CONTINUOUS
 62
               7
100
AcDbCircle
 10
-101.9520263671871
 20
-42.000003051757858
 30
0.0
 40
2.0
100
AcDbArc
 50
189.15318181358012
 51
270.0
  0
ARC
  5
461
100
AcDbEntity
  8
0
  6
CONTINUOUS
 62
               7
100
AcDbCircle
 10
-63.874999999999545
 20
-25.000003051757858
 30
0.0
 40
47.125
100
AcDbArc
 50
157.86864096192809
 51
202.13136085930475
  0
ARC
  5
462
100
AcDbEntity
  8
0
  6
CONTINUOUS
 62
               7
100
AcDbCircle
 10
3.5552978515625
 20
-25.000003051757858
 30
0.0
 40
108.86813354492186
100
AcDbArc
 50
170.84681317746356
 51
189.15318181358012
  0
ARC
  5
463
100
AcDbEntity
  8
0
  6
CONTINUOUS
 62
               7
100
AcDbCircle
 10
0.0
 20
-168.86357116699259
 30
0.0
 40
135.72679138183594
100
AcDbArc
 50
255.0562291149291
 51
284.94377088507088
  0
ARC
  5
464
100
AcDbEntity
  8
0
  6
CONTINUOUS
 62
               7
100
AcDbCircle
 10
104.00000000000011
 20
-301.79203796386764
 30
0.0
 40
1.0
100
AcDbArc
 50
271.98128483929463
 51
0.0000025044781673
  0
ARC
  5
465
100
AcDbEntity
  8
0
  6
CONTINUOUS
 62
               7
100
AcDbCircle
 10
-103.99999999999983
 20
-301.79203796386764
 30
0.0
 40
1.0
100
AcDbArc
 50
179.99999749552182
 51
268.01871516070537
  0
ARC
  5
466
100
AcDbEntity
  8
0
  6
CONTINUOUS
 62
               7
100
AcDbCircle
 10
0.0
 20
2704.5327606201172
 30
0.0
 40
3009.123046875
100
AcDbArc
 50
268.01871516070537
 51
271.98128483929463
  0
ARC
  5
467
100
AcDbEntity
  8
0
  6
CONTINUOUS
 62
               7
100
AcDbCircle
 10
104.00000000000011
 20
-302.80000305175832
 30
0.0
 40
1.0
100
AcDbArc
 50
270.0
 51
0.0000025044781673
  0
ARC
  5
468
100
AcDbEntity
  8
0
  6
CONTINUOUS
 62
               7
100
AcDbCircle
 10
104.00000000000011
 20
-302.89637756347696
 30
0.0
 40
1.0
100
AcDbArc
 50
276.49788211075821
 51
0.0000025044781673
  0
ARC
  5
469
100
AcDbEntity
  8
0
  6
CONTINUOUS
 62
               7
100
AcDbCircle
 10
-103.99999999999983
 20
-302.89637756347696
 30
0.0
 40
1.0
100
AcDbArc
 50
179.99999749552182
 51
263.50211788924179
  0
ARC
  5
46A
100
AcDbEntity
  8
0
  6
CONTINUOUS
 62
               7
100
AcDbCircle
 10
0.0
 20
610.19999694824014
 30
0.0
 40
920.0
100
AcDbArc
 50
263.50211788924179
 51
271.97148838100145
  0
LINE
  5
46B
100
AcDbEntity
  8
0
  6
CONTINUOUS
 62
               7
100
AcDbLine
 10
70.0
 20
-38.399996948242233
 30
0.0
 11
49.000000021000005
 21
-38.399996948242233
 31
0.0
  0
LINE
  5
46C
100
AcDbEntity
  8
0
  6
CONTINUOUS
 62
               7
100
AcDbLine
 10
70.0
 20
-36.199984741210983
 30
0.0
 11
49.000000021000005
 21
-36.199984741210983
 31
0.0
  0
LINE
  5
46D
100
AcDbEntity
  8
0
  6
CONTINUOUS
 62
               7
100
AcDbLine
 10
70.0
 20
-13.799990844726494
 30
0.0
 11
49.000000021000005
 21
-13.799990844726494
 31
0.0
  0
LINE
  5
46E
100
AcDbEntity
  8
0
  6
CONTINUOUS
 62
               7
100
AcDbLine
 10
70.0
 20
-11.59999389648442
 30
0.0
 11
49.000000021000005
 21
-11.59999389648442
 31
0.0
  0
LINE
  5
46F
100
AcDbEntity
  8
0
  6
CONTINUOUS
 62
               7
100
AcDbLine
 10
65.999999999999886
 20
-45.000003051757858
 30
0.0
 11
65.999999999999886
 21
-258.67529593308547
 31
0.0
  0
LINE
  5
470
100
AcDbEntity
  8
0
  6
CONTINUOUS
 62
               7
100
AcDbLine
 10
65.0
 20
-45.000003051757858
 30
0.0
 11
65.0
 21
-249.50000303390246
 31
0.0
  0
LINE
  5
471
100
AcDbEntity
  8
0
  6
CONTINUOUS
 62
               7
100
AcDbLine
 10
105.0
 20
-45.000003051757858
 30
0.0
 11
105.0
 21
-302.80000305175832
 31
0.0
  0
LINE
  5
472
100
AcDbEntity
  8
0
  6
CONTINUOUS
 62
               7
100
AcDbLine
 10
105.50000000000011
 20
-44.000003051757858
 30
0.0
 11
105.50000000000011
 21
-45.000003051757858
 31
0.0
  0
LINE
  5
473
100
AcDbEntity
  8
0
  6
CONTINUOUS
 62
               7
100
AcDbLine
 10
70.999999999999886
 20
-45.000003051757858
 30
0.0
 11
70.999999999999886
 21
-46.000003051757801
 31
0.0
  0
LINE
  5
474
100
AcDbEntity
  8
0
  6
CONTINUOUS
 62
               7
100
AcDbLine
 10
71.599975585937386
 20
-45.000003051757858
 30
0.0
 11
71.599975585937386
 21
-252.0000030517582
 31
0.0
  0
LINE
  5
475
100
AcDbEntity
  8
0
  6
CONTINUOUS
 62
               7
100
AcDbLine
 10
73.799987792968636
 20
-45.192890529027068
 30
0.0
 11
73.799987792968636
 21
-252.00000305175817
 31
0.0
  0
LINE
  5
476
100
AcDbEntity
  8
0
  6
CONTINUOUS
 62
               7
100
AcDbLine
 10
96.200012207031364
 20
-45.000003051757858
 30
0.0
 11
96.200012207031364
 21
-252.0000030517582
 31
0.0
  0
LINE
  5
477
100
AcDbEntity
  8
0
  6
CONTINUOUS
 62
               7
100
AcDbLine
 10
98.400024414062614
 20
-45.000003051757858
 30
0.0
 11
98.400024414062614
 21
-252.0000030517582
 31
0.0
  0
LINE
  5
478
100
AcDbEntity
  8
0
  6
CONTINUOUS
 62
               7
100
AcDbLine
 10
99.000000000000114
 20
-45.000003051757858
 30
0.0
 11
99.000000000000114
 21
-46.000003051757801
 31
0.0
  0
LINE
  5
479
100
AcDbEntity
  8
0
  6
CONTINUOUS
 62
               7
100
AcDbLine
 10
104.00000000000011
 20
-45.000003051757858
 30
0.0
 11
104.00000000000011
 21
-258.67529593308547
 31
0.0
  0
LINE
  5
47A
100
AcDbEntity
  8
0
  6
CONTINUOUS
 62
               7
100
AcDbLine
 10
60.0
 20
-4.9999877929687955
 30
0.0
 11
49.000000021000005
 21
-4.9999877929687955
 31
0.0
  0
LINE
  5
47B
100
AcDbEntity
  8
0
  6
CONTINUOUS
 62
               7
100
AcDbLine
 10
5.5000000000001137
 20
-44.000003051757858
 30
0.0
 11
5.5000000000001137
 21
-45.000003051757858
 31
0.0
  0
LINE
  5
47C
100
AcDbEntity
  8
0
  6
CONTINUOUS
 62
               7
100
AcDbLine
 10
25.0
 20
-83.299998536972339
 30
0.0
 11
25.0
 21
-300.00001525878957
 31
0.0
  0
LINE
  5
47D
100
AcDbEntity
  8
0
  6
CONTINUOUS
 62
               7
100
AcDbLine
 10
-25.0
 20
-44.000003051757858
 30
0.0
 11
-25.0
 21
-300.00001525878957
 31
0.0
  0
LINE
  5
47E
100
AcDbEntity
  8
0
  6
CONTINUOUS
 62
               7
100
AcDbLine
 10
-104.99999999999966
 20
-44.000003051757858
 30
0.0
 11
-104.99999999999966
 21
-302.89637756347696
 31
0.0
  0
LINE
  5
47F
100
AcDbEntity
  8
0
  6
CONTINUOUS
 62
               7
100
AcDbLine
 10
104.00000000000011
 20
-252.0000030517582
 30
0.0
 11
65.999999999999886
 21
-252.0000030517582
 31
0.0
  0
LINE
  5
480
100
AcDbEntity
  8
0
  6
CONTINUOUS
 62
               7
100
AcDbLine
 10
96.200012207031364
 20
17.000012207031091
 30
0.0
 11
96.200012207031364
 21
-3.3999877929687159
 31
0.0
  0
LINE
  5
481
100
AcDbEntity
  8
0
  6
CONTINUOUS
 62
               7
100
AcDbLine
 10
104.00000000000011
 20
95.200012207030966
 30
0.0
 11
104.00000000000011
 21
-3.3999877929687159
 31
0.0
  0
LINE
  5
482
100
AcDbEntity
  8
0
  6
CONTINUOUS
 62
               7
100
AcDbLine
 10
71.599975585937386
 20
-46.000003051757801
 30
0.0
 11
65.999999999999886
 21
-46.000003051757801
 31
0.0
  0
LINE
  5
483
100
AcDbEntity
  8
0
  6
CONTINUOUS
 62
               7
100
AcDbLine
 10
73.799987792968636
 20
17.000012207031091
 30
0.0
 11
73.799987792968636
 21
-2.2071060377454614
 31
0.0
  0
LINE
  5
484
100
AcDbEntity
  8
0
  6
CONTINUOUS
 62
               7
100
AcDbLine
 10
71.599975585937386
 20
17.000012207031091
 30
0.0
 11
71.599975585937386
 21
-2.4918969669559488
 31
0.0
  0
LINE
  5
485
100
AcDbEntity
  8
0
  6
CONTINUOUS
 62
               7
100
AcDbLine
 10
98.400024414062614
 20
17.000012207031091
 30
0.0
 11
98.400024414062614
 21
-3.3999877929687159
 31
0.0
  0
LINE
  5
486
100
AcDbEntity
  8
0
  6
CONTINUOUS
 62
               7
100
AcDbLine
 10
104.00000000000011
 20
-46.000003051757801
 30
0.0
 11
98.400024414062614
 21
-46.000003051757801
 31
0.0
  0
LINE
  5
487
100
AcDbEntity
  8
0
  6
CONTINUOUS
 62
               7
100
AcDbLine
 10
104.00000000000011
 20
17.000012207031091
 30
0.0
 11
65.999990463256836
 21
17.000012207031091
 31
0.0
  0
LINE
  5
488
100
AcDbEntity
  8
0
  6
CONTINUOUS
 62
               7
100
AcDbLine
 10
-98.999999999999829
 20
-44.000003051757858
 30
0.0
 11
-98.999999999999829
 21
-5.9999877929687955
 31
0.0
  0
LINE
  5
489
100
AcDbEntity
  8
0
  6
CONTINUOUS
 62
               7
100
AcDbLine
 10
70.0
 20
-44.000003051757858
 30
0.0
 11
70.0
 21
-3.3999877929687159
 31
0.0
  0
LINE
  5
48A
100
AcDbEntity
  8
0
  6
CONTINUOUS
 62
               7
100
AcDbLine
 10
105.50000000000011
 20
-45.000003051757858
 30
0.0
 11
75.078564524200374
 21
-45.000003051757858
 31
0.0
  0
LINE
  5
48B
100
AcDbEntity
  8
0
  6
CONTINUOUS
 62
               7
100
AcDbLine
 10
5.5000000000001137
 20
-4.9999877929687955
 30
0.0
 11
5.5000000000001137
 21
-5.9999877929687955
 31
0.0
  0
LINE
  5
48C
100
AcDbEntity
  8
0
  6
CONTINUOUS
 62
               2
100
AcDbLine
 10
0.0
 20
10.0
 30
0.0
 11
0.0
 21
-319.80000305175986
 31
0.0
  0
LINE
  5
48D
100
AcDbEntity
  8
0
  6
CONTINUOUS
 62
               7
100
AcDbLine
 10
-104.99999999999966
 20
-300.00001525878957
 30
0.0
 11
105.0
 21
-300.00001525878957
 31
0.0
  0
SPLINE
  5
48E
100
AcDbEntity
  8
0
  6
CONTINUOUS
 62
               7
100
AcDbSpline
210
0.0
220
0.0
230
1.0
 70
               0
 71
               3
 72
               0
 73
               0
 74
               3
 44
0.000001
 12
-0.994162944659953
 22
-0.1078890145707673
 32
0.0
 13
-0.9999789424324793
 23
0.0064895833163766
 33
0.0
 11
44.349999999999682
 21
-306.23386712497944
 31
0.0
 11
39.579992163618272
 21
-306.64768987705241
 31
0.0
 11
31.649999999999682
 21
-306.87906273116965
 31
0.0
  0
LINE
  5
48F
100
AcDbEntity
  8
0
  6
CONTINUOUS
 62
               7
100
AcDbLine
 10
38.76256313292356
 20
-292.2374521258659
 30
0.0
 11
41.23743686707644
 21
-289.76257839171302
 31
0.0
  0
LINE
  5
490
100
AcDbEntity
  8
0
  6
CONTINUOUS
 62
               7
100
AcDbLine
 10
41.23743686707644
 20
-292.2374521258659
 30
0.0
 11
38.76256313292356
 21
-289.76257839171302
 31
0.0
  0
LINE
  5
491
100
AcDbEntity
  8
0
  6
CONTINUOUS
 62
               7
100
AcDbLine
 10
-41.237436867076326
 20
-292.2374521258659
 30
0.0
 11
-38.762563132923447
 21
-289.76257839171302
 31
0.0
  0
LINE
  5
492
100
AcDbEntity
  8
0
  6
CONTINUOUS
 62
               7
100
AcDbLine
 10
-38.762563132923447
 20
-292.2374521258659
 30
0.0
 11
-41.237436867076326
 21
-289.76257839171302
 31
0.0
  0
LINE
  5
493
100
AcDbEntity
  8
0
  6
CONTINUOUS
 62
               2
100
AcDbLine
 10
84.999995231628418
 20
101.78507431354927
 30
0.0
 11
84.999995231628418
 21
-277.36868280102141
 31
0.0
  0
ENDBLK
  5
494
100
AcDbEntity
  8
0
100
AcDbBlockEnd
  0
BLOCK
  5
22
100
AcDbEntity
  8
0
  6
ByBlock
 62
               0
100
AcDbBlockBegin
  2
_OPEN30
 70
               2
 10
0.0
 20
0.0
 30
0.0
  3
_OPEN30
  1

  0
LINE
  5
23
100
AcDbEntity
  8
0
  6
ByBlock
 62
               0
100
AcDbLine
 10
-1.0
 20
0.267949
 30
0.0
 11
0.0
 21
0.0
 31
0.0
  0
LINE
  5
24
100
AcDbEntity
  8
0
  6
ByBlock
 62
               0
100
AcDbLine
 10
0.0
 20
0.0
 30
0.0
 11
-1.0
 21
-0.267949
 31
0.0
  0
LINE
  5
25
100
AcDbEntity
  8
0
  6
ByBlock
 62
               0
100
AcDbLine
 10
0.0
 20
0.0
 30
0.0
 11
-1.0
 21
0.0
 31
0.0
  0
ENDBLK
  5
26
100
AcDbEntity
  8
0
  6
ByBlock
 62
               0
100
AcDbBlockEnd
  0
BLOCK
  5
499
100
AcDbEntity
  8
0
  6
ByBlock
 62
               0
100
AcDbBlockBegin
  2
*D4
 70
               1
 10
0.0
 20
0.0
 30
0.0
  3
*D4
  1

  0
LINE
  5
49A
100
AcDbEntity
  8
0
  6
CONTINUOUS
 62
               2
100
AcDbLine
 10
125.90022320878819
 20
-220.49749488561707
 30
0.0
 11
125.90022320878819
 21
-170.49749488561704
 31
0.0
  0
LINE
  5
49B
100
AcDbEntity
  8
0
  6
CONTINUOUS
 62
               2
100
AcDbLine
 10
125.90022320878819
 20
-170.49749488561704
 30
0.0
 11
125.90022320878819
 21
-17.937680432492073
 31
0.0
  0
LINE
  5
49C
100
AcDbEntity
  8
0
  6
CONTINUOUS
 62
               2
100
AcDbLine
 10
292.62281842363194
 20
-220.49749488561707
 30
0.0
 11
124.40022320878819
 21
-220.49749488561707
 31
0.0
  0
LINE
  5
49D
100
AcDbEntity
  8
0
  6
CONTINUOUS
 62
               2
100
AcDbLine
 10
293.22279400956944
 20
-170.49749488561704
 30
0.0
 11
124.40022320878819
 21
-170.49749488561704
 31
0.0
  0
INSERT
  5
49E
100
AcDbEntity
  8
0
  6
CONTINUOUS
 62
               2
100
AcDbBlockReference
  2
_OPEN30
 10
125.90022320878819
 20
-220.49749488561707
 30
0.0
 41
8.3100000000000005
 42
8.3100000000000005
 43
8.3100000000000005
 50
270.0
  0
INSERT
  5
49F
100
AcDbEntity
  8
0
  6
CONTINUOUS
 62
               2
100
AcDbBlockReference
  2
_OPEN30
 10
125.90022320878819
 20
-170.49749488561704
 30
0.0
 41
8.3100000000000005
 42
8.3100000000000005
 43
8.3100000000000005
 50
90.0
  0
MTEXT
  5
4A1
100
AcDbEntity
  8
0
  6
CONTINUOUS
 62
               2
100
AcDbMText
 10
118.90022320878819
 20
-89.937680432492073
 30
0.0
 40
12.0
 41
0.0
 71
               5
 72
               1
  1
\A1;Z-STROKE(50)
  7
MX_DIMTXSTY_2
 11
0.0000000000000001
 21
1.0
 31
0.0
  0
POINT
  5
4A2
100
AcDbEntity
  8
DEFPOINTS
  6
CONTINUOUS
 62
               0
100
AcDbPoint
 10
294.12281842363194
 20
-220.49749488561707
 30
0.0
  0
POINT
  5
4A3
100
AcDbEntity
  8
DEFPOINTS
  6
CONTINUOUS
 62
               0
100
AcDbPoint
 10
294.72279400956944
 20
-170.49749488561704
 30
0.0
  0
POINT
  5
4A4
100
AcDbEntity
  8
DEFPOINTS
  6
CONTINUOUS
 62
               0
100
AcDbPoint
 10
125.90022320878819
 20
-170.49749488561704
 30
0.0
  0
ENDBLK
  5
4A5
100
AcDbEntity
  8
0
  6
ByBlock
 62
               0
100
AcDbBlockEnd
  0
BLOCK
  5
4A8
100
AcDbEntity
  8
0
  6
ByBlock
 62
               0
100
AcDbBlockBegin
  2
*D5
 70
               1
 10
0.0
 20
0.0
 30
0.0
  3
*D5
  1

  0
LINE
  5
4A9
100
AcDbEntity
  8
0
  6
CONTINUOUS
 62
               2
100
AcDbLine
 10
198.00000000000026
 20
460.68417622054466
 30
0.0
 11
297.99999999999989
 21
460.68417622054466
 31
0.0
  0
LINE
  5
4AA
100
AcDbEntity
  8
0
  6
CONTINUOUS
 62
               2
100
AcDbLine
 10
40.284645080566662
 20
460.68417622054466
 30
0.0
 11
198.00000000000026
 21
460.68417622054466
 31
0.0
  0
LINE
  5
4AB
100
AcDbEntity
  8
0
  6
CONTINUOUS
 62
               2
100
AcDbLine
 10
198.00000000000026
 20
297.89998127425559
 30
0.0
 11
198.00000000000026
 21
462.18417622054466
 31
0.0
  0
LINE
  5
4AC
100
AcDbEntity
  8
0
  6
CONTINUOUS
 62
               2
100
AcDbLine
 10
297.99999999999989
 20
297.89998127425559
 30
0.0
 11
297.99999999999989
 21
462.18417622054466
 31
0.0
  0
INSERT
  5
4AD
100
AcDbEntity
  8
0
  6
CONTINUOUS
 62
               2
100
AcDbBlockReference
  2
_OPEN30
 10
198.00000000000026
 20
460.68417622054466
 30
0.0
 41
8.3100000000000005
 42
8.3100000000000005
 43
8.3100000000000005
 50
180.0
  0
INSERT
  5
4AE
100
AcDbEntity
  8
0
  6
CONTINUOUS
 62
               2
100
AcDbBlockReference
  2
_OPEN30
 10
297.99999999999989
 20
460.68417622054466
 30
0.0
 41
8.3100000000000005
 42
8.3100000000000005
 43
8.3100000000000005
  0
MTEXT
  5
4AF
100
AcDbEntity
  8
0
  6
CONTINUOUS
 62
               2
100
AcDbMText
 10
118.28464508056666
 20
467.68417622054466
 30
0.0
 40
12.0
 41
0.0
 71
               5
 72
               1
  1
\A1;X-STROKE(100）
  7
MX_DIMTXSTY_2
  0
POINT
  5
4B0
100
AcDbEntity
  8
DEFPOINTS
  6
CONTINUOUS
 62
               0
100
AcDbPoint
 10
198.00000000000026
 20
296.39998127425559
 30
0.0
  0
POINT
  5
4B1
100
AcDbEntity
  8
DEFPOINTS
  6
CONTINUOUS
 62
               0
100
AcDbPoint
 10
297.99999999999989
 20
296.39998127425559
 30
0.0
  0
POINT
  5
4B2
100
AcDbEntity
  8
DEFPOINTS
  6
CONTINUOUS
 62
               0
100
AcDbPoint
 10
297.99999999999989
 20
460.68417622054466
 30
0.0
  0
ENDBLK
  5
4B3
100
AcDbEntity
  8
0
  6
ByBlock
 62
               0
100
AcDbBlockEnd
  0
BLOCK
  5
4B6
100
AcDbEntity
  8
0
  6
ByBlock
 62
               0
100
AcDbBlockBegin
  2
*D6
 70
               1
 10
0.0
 20
0.0
 30
0.0
  3
*D6
  1

  0
LINE
  5
4B7
100
AcDbEntity
  8
0
  6
CONTINUOUS
 62
               2
100
AcDbLine
 10
97.48147189958992
 20
95.700001457476645
 30
0.0
 11
97.48147189958992
 21
295.70000146202796
 31
0.0
  0
LINE
  5
4B8
100
AcDbEntity
  8
0
  6
CONTINUOUS
 62
               2
100
AcDbLine
 10
193.42280185564459
 20
95.700001457476645
 30
0.0
 11
95.98147189958992
 21
95.700001457476645
 31
0.0
  0
LINE
  5
4B9
100
AcDbEntity
  8
0
  6
CONTINUOUS
 62
               2
100
AcDbLine
 10
193.42280185564459
 20
295.70000146202796
 30
0.0
 11
95.98147189958992
 21
295.70000146202796
 31
0.0
  0
INSERT
  5
4BA
100
AcDbEntity
  8
0
  6
CONTINUOUS
 62
               2
100
AcDbBlockReference
  2
_OPEN30
 10
97.48147189958992
 20
95.700001457476645
 30
0.0
 41
8.3100000000000005
 42
8.3100000000000005
 43
8.3100000000000005
 50
270.0
  0
INSERT
  5
4BB
100
AcDbEntity
  8
0
  6
CONTINUOUS
 62
               2
100
AcDbBlockReference
  2
_OPEN30
 10
97.48147189958992
 20
295.70000146202796
 30
0.0
 41
8.3100000000000005
 42
8.3100000000000005
 43
8.3100000000000005
 50
90.0
  0
MTEXT
  5
4BC
100
AcDbEntity
  8
0
  6
CONTINUOUS
 62
               2
100
AcDbMText
 10
90.48147189958992
 20
202.20139763667586
 30
0.0
 40
12.0
 41
0.0
 71
               5
 72
               1
  1
\A1;Y-STROKE(200）
  7
MX_DIMTXSTY_2
 11
0.0000000000000001
 21
1.0
 31
0.0
  0
POINT
  5
4BD
100
AcDbEntity
  8
DEFPOINTS
  6
CONTINUOUS
 62
               0
100
AcDbPoint
 10
194.92280185564459
 20
95.700001457476645
 30
0.0
  0
POINT
  5
4BE
100
AcDbEntity
  8
DEFPOINTS
  6
CONTINUOUS
 62
               0
100
AcDbPoint
 10
194.92280185564459
 20
295.70000146202796
 30
0.0
  0
POINT
  5
4BF
100
AcDbEntity
  8
DEFPOINTS
  6
CONTINUOUS
 62
               0
100
AcDbPoint
 10
97.48147189958992
 20
295.70000146202796
 30
0.0
  0
ENDBLK
  5
4C0
100
AcDbEntity
  8
0
  6
ByBlock
 62
               0
100
AcDbBlockEnd
  0
ENDSEC
  0
SECTION
  2
ENTITIES
  0
INSERT
  5
495
100
AcDbEntity
  8
0
  6
ByBlock
100
AcDbBlockReference
  2
DTRB-CS3-3
 10
270.0
 20
380.0
 30
0.0
  0
INSERT
  5
496
100
AcDbEntity
  8
0
  6
ByBlock
100
AcDbBlockReference
  2
DTRB-CS3-2
 10
-400.0
 20
-460.0
 30
0.0
  0
INSERT
  5
497
100
AcDbEntity
  8
0
  6
ByBlock
100
AcDbBlockReference
  2
DTRB-CS3-1
 10
270.0
 20
-460.0
 30
0.0
  0
DIMENSION
  5
4A6
100
AcDbEntity
  8
0
  6
CONTINUOUS
 62
               2
100
AcDbDimension
  2
*D4
 10
125.90022320878819
 20
-170.49749488561704
 30
0.0
 11
125.90022320878819
 21
-89.937680432492073
 31
0.0
 70
             128
  1
Z-STROKE(50)
  3
MXDIMSTYLE
100
AcDbAlignedDimension
 13
294.12281842363194
 23
-220.49749488561707
 33
0.0
 14
294.72279400956944
 24
-170.49749488561704
 34
0.0
 50
90.0
100
AcDbRotatedDimension
1001
ACAD
1000
DSTYLE
1002
{
1070
              41
1040
8.3100000000000005
1070
             140
1040
12.0
1070
             340
1005
4A0
1002
}
  0
DIMENSION
  5
4B4
100
AcDbEntity
  8
0
  6
CONTINUOUS
 62
               2
100
AcDbDimension
  2
*D5
 10
297.99999999999989
 20
460.68417622054466
 30
0.0
 11
118.28464508056666
 21
460.68417622054466
 31
0.0
 70
             128
  1
X-STROKE(100）
  3
MXDIMSTYLE
100
AcDbAlignedDimension
 13
198.00000000000026
 23
296.39998127425559
 33
0.0
 14
297.99999999999989
 24
296.39998127425559
 34
0.0
100
AcDbRotatedDimension
1001
ACAD
1000
DSTYLE
1002
{
1070
              41
1040
8.3100000000000005
1070
             140
1040
12.0
1070
             340
1005
4A0
1002
}
  0
DIMENSION
  5
4C1
100
AcDbEntity
  8
0
  6
CONTINUOUS
 62
               2
100
AcDbDimension
  2
*D6
 10
97.48147189958992
 20
295.70000146202796
 30
0.0
 11
97.48147189958992
 21
202.20139763667586
 31
0.0
 70
             128
  1
Y-STROKE(200）
  3
MXDIMSTYLE
100
AcDbAlignedDimension
 13
194.92280185564459
 23
95.700001457476645
 33
0.0
 14
194.92280185564459
 24
295.70000146202796
 34
0.0
 50
90.0
100
AcDbRotatedDimension
1001
ACAD
1000
DSTYLE
1002
{
1070
              41
1040
8.3100000000000005
1070
             140
1040
12.0
1070
             340
1005
4A0
1002
}
  0
MTEXT
  5
4C2
100
AcDbEntity
  8
0
  6
CONTINUOUS
 62
               7
100
AcDbMText
 10
-678.5
 20
459.5
 30
0.0
 40
18.0
 41
0.0
 71
               4
 72
               1
  1
\A1;DTRB-CSL3
  0
MTEXT
  5
4C3
100
AcDbEntity
  8
0
  6
CONTINUOUS
 62
               7
100
AcDbMText
 10
-741.38679245283015
 20
562.0
 30
0.0
 40
18.0
 41
0.0
 71
               4
 72
               1
  1
\W1.038;\A1;CELL MASTER
  0
LINE
  5
4C4
100
AcDbEntity
  8
0
  6
CONTINUOUS
 62
               7
100
AcDbLine
 10
-820.5
 20
-574.5
 30
0.0
 11
820.5
 21
-574.5
 31
0.0
  0
LINE
  5
4C5
100
AcDbEntity
  8
0
  6
CONTINUOUS
 62
               7
100
AcDbLine
 10
-820.5
 20
574.5
 30
0.0
 11
-820.5
 21
-574.5
 31
0.0
  0
LINE
  5
4C6
100
AcDbEntity
  8
0
  6
CONTINUOUS
 62
               7
100
AcDbLine
 10
820.5
 20
574.5
 30
0.0
 11
820.5
 21
-574.5
 31
0.0
  0
LINE
  5
4C7
100
AcDbEntity
  8
0
  6
CONTINUOUS
 62
               7
100
AcDbLine
 10
-820.5
 20
574.5
 30
0.0
 11
820.5
 21
574.5
 31
0.0
  0
LINE
  5
4C8
100
AcDbEntity
  8
0
  6
CONTINUOUS
 62
               7
100
AcDbLine
 10
-820.5
 20
524.5
 30
0.0
 11
-470.5
 21
524.5
 31
0.0
  0
LINE
  5
4C9
100
AcDbEntity
  8
0
  6
CONTINUOUS
 62
               7
100
AcDbLine
 10
470.5
 20
-524.5
 30
0.0
 11
820.5
 21
-524.5
 31
0.0
  0
LINE
  5
4CA
100
AcDbEntity
  8
0
  6
CONTINUOUS
 62
               7
100
AcDbLine
 10
470.5
 20
574.5
 30
0.0
 11
470.5
 21
524.5
 31
0.0
  0
LINE
  5
4CB
100
AcDbEntity
  8
0
  6
CONTINUOUS
 62
               7
100
AcDbLine
 10
-470.5
 20
574.5
 30
0.0
 11
-470.5
 21
524.5
 31
0.0
  0
LINE
  5
4CC
100
AcDbEntity
  8
0
  6
CONTINUOUS
 62
               7
100
AcDbLine
 10
470.5
 20
-524.5
 30
0.0
 11
470.5
 21
-574.5
 31
0.0
  0
LINE
  5
4CD
100
AcDbEntity
  8
0
  6
CONTINUOUS
 62
               7
100
AcDbLine
 10
470.5
 20
524.5
 30
0.0
 11
820.5
 21
524.5
 31
0.0
  0
MTEXT
  5
4CE
100
AcDbEntity
  8
0
  6
CONTINUOUS
 62
               7
100
AcDbMText
 10
-786.35000000234697
 20
484.5
 30
0.0
 40
18.0
 41
0.0
 71
               4
 72
               1
  1
\W1.050;\A1;MODEL:DTRB-CS3
  0
MTEXT
  5
4CF
100
AcDbEntity
  8
0
  6
CONTINUOUS
 62
               7
100
AcDbMText
 10
487.66954021788825
 20
-549.5
 30
0.0
 40
25.0
 41
0.0
 71
               4
 72
               1
  1
\W1.121;\A1;KOGANEI CORP.
  0
MTEXT
  5
4D0
100
AcDbEntity
  8
0
  6
CONTINUOUS
 62
               7
100
AcDbMText
 10
577.43442619106395
 20
549.5
 30
0.0
 40
18.0
 41
0.0
 71
               4
 72
               1
  1
\W1.311;\A1;Ver. 1.0
  0
MTEXT
  5
4D1
100
AcDbEntity
  8
0
  6
CONTINUOUS
 62
               7
100
AcDbMText
 10
-714.5
 20
537.0
 30
0.0
 40
18.0
 41
0.0
 71
               4
 72
               1
  1
\A1;DTRB-CS3
  0
ENDSEC
  0
SECTION
  2
OBJECTS
  0
DICTIONARY
  5
19
100
AcDbDictionary
  3
ACAD_GROUP
350
1A
  3
ACAD_MLINESTYLE
350
1B
  0
DICTIONARY
  5
1A
102
{ACAD_REACTORS
330
19
102
}
100
AcDbDictionary
  0
DICTIONARY
  5
1B
102
{ACAD_REACTORS
330
19
102
}
100
AcDbDictionary
  3
STANDARD
350
1C
  0
MLINESTYLE
  5
1C
102
{ACAD_REACTORS
330
1B
102
}
100
AcDbMlineStyle
  2
Standard
 70
               0
  3

 62
               0
 51
90.0
 52
90.0
 71
               2
 49
0.5
 62
             256
  6
ByLayer
 49
-0.5
 62
             256
  6
ByLayer
  0
ENDSEC
  0
EOF
