  0
SECTION
  2
HEADER
  9
$ACADVER
  1
AC1012
  9
$DWGCODEPAGE
  3
dos932
  9
$INSBASE
 10
0.0
 20
0.0
 30
0.0
  9
$EXTMIN
 10
-820.5
 20
-574.5
 30
0.0
  9
$EXTMAX
 10
820.5
 20
575.5
 30
0.0
  9
$LIMMIN
 10
-840.50000000000011
 20
-594.5
  9
$LIMMAX
 10
840.50000000000011
 20
594.5
  9
$ORTHOMODE
 70
               0
  9
$REGENMODE
 70
               1
  9
$FILLMODE
 70
               1
  9
$QTEXTMODE
 70
               0
  9
$MIRRTEXT
 70
               1
  9
$DRAGMODE
 70
               2
  9
$LTSCALE
 40
1.0
  9
$OSMODE
 70
               0
  9
$ATTMODE
 70
               1
  9
$TEXTSIZE
 40
3.2000000476837158
  9
$TRACEWID
 40
0.05
  9
$TEXTSTYLE
  7
MX_NOTE_STANDARD
  9
$CLAYER
  8
0
  9
$CELTYPE
  6
CONTINUOUS
  9
$CECOLOR
 62
             256
  9
$CELTSCALE
 40
1.0
  9
$DELOBJ
 70
               1
  9
$DISPSILH
 70
               0
  9
$DIMSCALE
 40
1.0
  9
$DIMASZ
 40
2.5
  9
$DIMEXO
 40
1.5
  9
$DIMDLI
 40
3.75
  9
$DIMRND
 40
0.0
  9
$DIMDLE
 40
0.0
  9
$DIMEXE
 40
1.5
  9
$DIMTP
 40
0.0
  9
$DIMTM
 40
0.0
  9
$DIMTXT
 40
3.2000000476837158
  9
$DIMCEN
 40
2.5
  9
$DIMTSZ
 40
0.0
  9
$DIMTOL
 70
               0
  9
$DIMLIM
 70
               0
  9
$DIMTIH
 70
               0
  9
$DIMTOH
 70
               0
  9
$DIMSE1
 70
               0
  9
$DIMSE2
 70
               0
  9
$DIMTAD
 70
               1
  9
$DIMZIN
 70
               8
  9
$DIMBLK
  1

  9
$DIMASO
 70
               1
  9
$DIMSHO
 70
               1
  9
$DIMPOST
  1

  9
$DIMAPOST
  1

  9
$DIMALT
 70
               0
  9
$DIMALTD
 70
               4
  9
$DIMALTF
 40
0.03937007874016
  9
$DIMLFAC
 40
1.0
  9
$DIMTOFL
 70
               1
  9
$DIMTVP
 40
0.0
  9
$DIMTIX
 70
               0
  9
$DIMSOXD
 70
               0
  9
$DIMSAH
 70
               1
  9
$DIMBLK1
  1
_OPEN30
  9
$DIMBLK2
  1
_OPEN30
  9
$DIMSTYLE
  2
MXDIMSTYLE
  9
$DIMCLRD
 70
               0
  9
$DIMCLRE
 70
               0
  9
$DIMCLRT
 70
               0
  9
$DIMTFAC
 40
1.0
  9
$DIMGAP
 40
1.0
  9
$DIMJUST
 70
               0
  9
$DIMSD1
 70
               0
  9
$DIMSD2
 70
               0
  9
$DIMTOLJ
 70
               0
  9
$DIMTZIN
 70
               0
  9
$DIMALTZ
 70
               0
  9
$DIMALTTZ
 70
               0
  9
$DIMFIT
 70
               3
  9
$DIMUPT
 70
               1
  9
$DIMUNIT
 70
               2
  9
$DIMDEC
 70
               2
  9
$DIMTDEC
 70
               2
  9
$DIMALTU
 70
               2
  9
$DIMALTTD
 70
               4
  9
$DIMTXSTY
  7
MX_NOTE_STANDARD
  9
$DIMAUNIT
 70
               0
  9
$LUNITS
 70
               2
  9
$LUPREC
 70
               4
  9
$SKETCHINC
 40
0.1
  9
$FILLETRAD
 40
0.0
  9
$AUNITS
 70
               0
  9
$AUPREC
 70
               0
  9
$MENU
  1
acad
  9
$ELEVATION
 40
0.0
  9
$PELEVATION
 40
0.0
  9
$THICKNESS
 40
0.0
  9
$LIMCHECK
 70
               0
  9
$BLIPMODE
 70
               1
  9
$CHAMFERA
 40
0.0
  9
$CHAMFERB
 40
0.0
  9
$CHAMFERC
 40
0.0
  9
$CHAMFERD
 40
0.0
  9
$SKPOLY
 70
               0
  9
$TDCREATE
 40
2453916.737175926
  9
$TDUPDATE
 40
2453916.737175926
  9
$TDINDWG
 40
0.0000000000
  9
$TDUSRTIMER
 40
0.0000000000
  9
$USRTIMER
 70
               1
  9
$ANGBASE
 50
0.0
  9
$ANGDIR
 70
               0
  9
$PDMODE
 70
               0
  9
$PDSIZE
 40
0.0
  9
$PLINEWID
 40
0.0
  9
$COORDS
 70
               1
  9
$SPLFRAME
 70
               0
  9
$SPLINETYPE
 70
               6
  9
$SPLINESEGS
 70
               8
  9
$ATTDIA
 70
               0
  9
$ATTREQ
 70
               1
  9
$HANDLING
 70
               1
  9
$HANDSEED
  5
46C
  9
$SURFTAB1
 70
               6
  9
$SURFTAB2
 70
               6
  9
$SURFTYPE
 70
               6
  9
$SURFU
 70
               6
  9
$SURFV
 70
               6
  9
$UCSNAME
  2

  9
$UCSORG
 10
0.0
 20
0.0
 30
0.0
  9
$UCSXDIR
 10
1.0
 20
0.0
 30
0.0
  9
$UCSYDIR
 10
0.0
 20
1.0
 30
0.0
  9
$PUCSNAME
  2

  9
$PUCSORG
 10
0.0
 20
0.0
 30
0.0
  9
$PUCSXDIR
 10
1.0
 20
0.0
 30
0.0
  9
$PUCSYDIR
 10
0.0
 20
1.0
 30
0.0
  9
$USERI1
 70
               0
  9
$USERI2
 70
               0
  9
$USERI3
 70
               0
  9
$USERI4
 70
               0
  9
$USERI5
 70
               0
  9
$USERR1
 40
0.0
  9
$USERR2
 40
0.0
  9
$USERR3
 40
0.0
  9
$USERR4
 40
0.0
  9
$USERR5
 40
0.0
  9
$WORLDVIEW
 70
               1
  9
$SHADEDGE
 70
               3
  9
$SHADEDIF
 70
              70
  9
$TILEMODE
 70
               1
  9
$MAXACTVP
 70
              16
  9
$PINSBASE
 10
0.0
 20
0.0
 30
0.0
  9
$PLIMCHECK
 70
               0
  9
$PEXTMIN
 10
1.0000000000000000E+20
 20
1.0000000000000000E+20
 30
1.0000000000000000E+20
  9
$PEXTMAX
 10
-1.0000000000000000E+20
 20
-1.0000000000000000E+20
 30
-1.0000000000000000E+20
  9
$PLIMMIN
 10
0.0
 20
0.0
  9
$PLIMMAX
 10
12.0
 20
9.0
  9
$UNITMODE
 70
               0
  9
$VISRETAIN
 70
               0
  9
$PLINEGEN
 70
               1
  9
$PSLTSCALE
 70
               0
  9
$TREEDEPTH
 70
            3020
  9
$PICKSTYLE
 70
               1
  9
$CMLSTYLE
  2
Standard
  9
$CMLJUST
 70
               0
  9
$CMLSCALE
 40
1.0
  9
$SAVEIMAGES
 70
               0
  0
ENDSEC
  0
SECTION
  2
CLASSES
  0
CLASS
  1
LWPOLYLINE
  2
AcDbPolyline
  3
"AutoCAD"
 90
    32768
280
               0
281
               1
  0
CLASS
  1
IMAGE
  2
AcDbRasterImage
  3
ISM
 90
    32895
280
               0
281
               1
  0
CLASS
  1
OLE2FRAME
  2
AcDbOle2Frame
  3
""
 90
    32768
280
               0
281
               1
  0
CLASS
  1
HATCH
  2
AcDbHatch
  3
"ACAD_SEDONA"
 90
    32768
280
               0
281
               1
  0
CLASS
  1
DICTIONARYVAR
  2
AcDbDictionaryVar
  3
"AutoCAD"
 90
    32768
280
               0
281
               0
  0
CLASS
  1
RASTERVARIABLES
  2
AcDbRasterVariables
  3
ISM
 90
    32768
280
               0
281
               0
  0
CLASS
  1
IMAGEDEF
  2
AcDbRasterImageDef
  3
ISM
 90
    32768
280
               0
281
               0
  0
CLASS
  1
IMAGEDEF_REACTOR
  2
AcDbRasterImageDefReactor
  3
ISM
 90
    32769
280
               0
281
               0
  0
CLASS
  1
IDBUFFER
  2
AcDbIdBuffer
  3
"Acad"
 90
    32768
280
               0
281
               0
  0
CLASS
  1
SPATIAL_FILTER
  2
AcDbSpatialFilter
  3
"Acad"
 90
    32768
280
               0
281
               0
  0
CLASS
  1
XRECORD
  2
AcDbXrecord
  3
"<Built In>"
 90
    32768
280
               0
281
               0
  0
CLASS
  1
SORTENTSTABLE
  2
AcDbSortentsTable
  3
"AutoCAD"
 90
    32768
280
               0
281
               0
  0
CLASS
  1
LAYER_INDEX
  2
AcDbLayerIndex
  3
"Acad"
 90
    32768
280
               0
281
               0
  0
CLASS
  1
SPATIAL_INDEX
  2
AcDbSpatialIndex
  3
"Acad"
 90
    32768
280
               0
281
               0
  0
CLASS
  1
OBJECT_PTR
  2
CAseDLPNTableRecord
  3
"ASE-LPNTableRecord"
 90
    32769
280
               0
281
               0
  0
CLASS
  1
LAYOUT
  2
AcDbLayout
  3
"AutoCAD 2000"
 90
    32768
280
               0
281
               0
  0
CLASS
  1
PLOTSETTINGS
  2
AcDbPlotSettings
  3
"AutoCAD 2000"
 90
    32768
280
               0
281
               0
  0
CLASS
  1
ACDBDICTIONARYWDFLT
  2
AcDbDictionaryWithDefault
  3
"AutoCAD 2000"
 90
    32768
280
               0
281
               0
  0
CLASS
  1
ACDBPLACEHOLDER
  2
AcDbPlaceHolder
  3
"AutoCAD 2000"
 90
    32768
280
               0
281
               0
  0
ENDSEC
  0
SECTION
  2
TABLES
  0
TABLE
  2
VPORT
  5
7
100
AcDbSymbolTable
 70
               1
  0
VPORT
  5
15
100
AcDbSymbolTableRecord
100
AcDbViewportTableRecord
  2
*ACTIVE
 70
               0
 10
0.0
 20
0.0
 11
1.0
 21
1.0
 12
0.0
 22
0.0
 13
0.0
 23
0.0
 14
1.0
 24
1.0
 15
0.0
 25
0.0
 16
0.0
 26
0.0
 36
1.0
 17
0.0
 27
0.0
 37
0.0
 40
1200.8900000000001
 41
1.7320508075688772
 42
50.0
 43
0.0
 44
0.0
 50
0.0
 51
0.0
 71
               0
 72
             100
 73
               1
 74
               1
 75
               0
 76
               0
 77
               0
 78
               0
  0
ENDTAB
  0
TABLE
  2
LTYPE
  5
4
100
AcDbSymbolTable
 70
               4
  0
LTYPE
  5
11
100
AcDbSymbolTableRecord
100
AcDbLinetypeTableRecord
  2
BYBLOCK
 70
              64
  3

 72
              65
 73
               0
 40
0.0
  0
LTYPE
  5
12
100
AcDbSymbolTableRecord
100
AcDbLinetypeTableRecord
  2
BYLAYER
 70
              64
  3

 72
              65
 73
               0
 40
0.0
  0
LTYPE
  5
13
100
AcDbSymbolTableRecord
100
AcDbLinetypeTableRecord
  2
CONTINUOUS
 70
              64
  3
Solid line
 72
              65
 73
               0
 40
0.0
  0
LTYPE
  5
2C
100
AcDbSymbolTableRecord
100
AcDbLinetypeTableRecord
  2
DASHED
 70
              64
  3
Dashed __ __ __ __ __ __ __ __ __ __ __ __ __ _
 72
              65
 73
               2
 40
19.049999999999997
 49
12.699999999999999
 74
               0
 49
-6.3499999999999996
 74
               0
  0
ENDTAB
  0
TABLE
  2
LAYER
  5
2
100
AcDbSymbolTable
 70
               2
  0
LAYER
  5
14
100
AcDbSymbolTableRecord
100
AcDbLayerTableRecord
  2
0
 70
               0
 62
               7
  6
CONTINUOUS
  0
LAYER
  5
1D
100
AcDbSymbolTableRecord
100
AcDbLayerTableRecord
  2
DEFPOINTS
 70
               0
 62
               7
  6
CONTINUOUS
  0
ENDTAB
  0
TABLE
  2
STYLE
  5
3
100
AcDbSymbolTable
 70
               2
  0
STYLE
  5
17
100
AcDbSymbolTableRecord
100
AcDbTextStyleTableRecord
  2
MX_NOTE_STANDARD
 70
               0
 40
0.0
 41
1.0
 50
0.0
 71
               0
 42
3.2000000476837158
  3
txt.shx
  4
extfont.shx
  0
STYLE
  5
438
100
AcDbSymbolTableRecord
100
AcDbTextStyleTableRecord
  2
MX_DIMTXSTY_2
 70
               0
 40
0.0
 41
1.05
 50
0.0
 71
               0
 42
3.2000000476837158
  3
txt.shx
  4
extfont.shx
  0
ENDTAB
  0
TABLE
  2
VIEW
  5
5
100
AcDbSymbolTable
 70
               0
  0
ENDTAB
  0
TABLE
  2
UCS
  5
6
100
AcDbSymbolTable
 70
               0
  0
ENDTAB
  0
TABLE
  2
APPID
  5
8
100
AcDbSymbolTable
 70
               1
  0
APPID
  5
16
100
AcDbSymbolTableRecord
100
AcDbRegAppTableRecord
  2
ACAD
 70
               0
  0
ENDTAB
  0
TABLE
  2
DIMSTYLE
  5
9
100
AcDbSymbolTable
 70
               1
  0
DIMSTYLE
105
18
100
AcDbSymbolTableRecord
100
AcDbDimStyleTableRecord
  2
MXDIMSTYLE
 70
               0
  3

  4

  5

  6
_OPEN30
  7
_OPEN30
 40
1.0
 41
2.5
 42
1.5
 43
3.75
 44
1.5
 45
0.0
 46
0.0
 47
0.0
 48
0.0
 71
               0
 72
               0
 73
               0
 74
               0
 75
               0
 76
               0
 77
               1
 78
               8
140
3.2000000476837158
141
2.5
142
0.0
143
0.03937007874016
144
1.0
145
0.0
146
1.0
147
1.0
170
               0
171
               4
172
               1
173
               1
174
               0
175
               0
176
               0
177
               0
178
               0
270
               2
271
               2
272
               2
273
               2
274
               4
275
               0
280
               0
281
               0
282
               0
283
               0
284
               0
285
               0
286
               0
287
               3
288
               1
340
17
  0
ENDTAB
  0
TABLE
  2
BLOCK_RECORD
  5
1
100
AcDbSymbolTable
 70
               7
  0
BLOCK_RECORD
  5
A
100
AcDbSymbolTableRecord
100
AcDbBlockTableRecord
  2
*MODEL_SPACE
  0
BLOCK_RECORD
  5
B
100
AcDbSymbolTableRecord
100
AcDbBlockTableRecord
  2
*PAPER_SPACE
  0
BLOCK_RECORD
  5
1E
100
AcDbSymbolTableRecord
100
AcDbBlockTableRecord
  2
DTRB-AL3-1
  0
BLOCK_RECORD
  5
1F
100
AcDbSymbolTableRecord
100
AcDbBlockTableRecord
  2
DTRB-AL3-2
  0
BLOCK_RECORD
  5
20
100
AcDbSymbolTableRecord
100
AcDbBlockTableRecord
  2
DTRB-AL3-3
  0
BLOCK_RECORD
  5
21
100
AcDbSymbolTableRecord
100
AcDbBlockTableRecord
  2
_OPEN30
  0
BLOCK_RECORD
  5
431
100
AcDbSymbolTableRecord
100
AcDbBlockTableRecord
  2
*D4
  0
BLOCK_RECORD
  5
440
100
AcDbSymbolTableRecord
100
AcDbBlockTableRecord
  2
*D5
  0
BLOCK_RECORD
  5
44E
100
AcDbSymbolTableRecord
100
AcDbBlockTableRecord
  2
*D6
  0
ENDTAB
  0
ENDSEC
  0
SECTION
  2
BLOCKS
  0
BLOCK
  5
D
100
AcDbEntity
  8
0
100
AcDbBlockBegin
  2
*MODEL_SPACE
 70
               0
 10
0.0
 20
0.0
 30
0.0
  3
*MODEL_SPACE
  1

  0
ENDBLK
  5
E
100
AcDbEntity
  8
0
100
AcDbBlockEnd
  0
BLOCK
  5
F
100
AcDbEntity
 67
               1
  8
0
100
AcDbBlockBegin
  2
*PAPER_SPACE
 70
               0
 10
0.0
 20
0.0
 30
0.0
  3
*PAPER_SPACE
  1

  0
ENDBLK
  5
10
100
AcDbEntity
 67
               1
  8
0
100
AcDbBlockEnd
  0
BLOCK
  5
27
100
AcDbEntity
  8
0
100
AcDbBlockBegin
  2
DTRB-AL3-1
 70
               0
 10
0.0
 20
0.0
 30
0.0
  3
DTRB-AL3-1
  1

  0
LINE
  5
28
100
AcDbEntity
  8
0
  6
CONTINUOUS
 62
               2
100
AcDbLine
 10
86.499998656121917
 20
201.0024619497741
 30
0.0
 11
38.499999978999313
 21
201.0024619497741
 31
0.0
  0
LINE
  5
29
100
AcDbEntity
  8
0
  6
CONTINUOUS
 62
               2
100
AcDbLine
 10
86.499998656121917
 20
251.0024619497741
 30
0.0
 11
38.499999978999313
 21
251.0024619497741
 31
0.0
  0
CIRCLE
  5
2A
100
AcDbEntity
  8
0
  6
CONTINUOUS
 62
               7
100
AcDbCircle
 10
177.49999999999881
 20
188.99999999999997
 30
0.0
 40
1.7500000000000002
  0
LINE
  5
2B
100
AcDbEntity
  8
0
  6
CONTINUOUS
 62
               7
100
AcDbLine
 10
182.49999999999881
 20
205.49999999999997
 30
0.0
 11
182.49999999999881
 21
172.99999999999997
 31
0.0
  0
LINE
  5
2D
100
AcDbEntity
  8
0
  6
DASHED
 62
               7
100
AcDbLine
 10
-91.0
 20
52.999999999999943
 30
0.0
 11
-99.000000000000114
 21
52.999999999999943
 31
0.0
  0
LINE
  5
2E
100
AcDbEntity
  8
0
  6
CONTINUOUS
 62
               7
100
AcDbLine
 10
36.999999999999204
 20
19.950000000000045
 30
0.0
 11
36.999999999999204
 21
19.350000000000023
 31
0.0
  0
LINE
  5
2F
100
AcDbEntity
  8
0
  6
CONTINUOUS
 62
               7
100
AcDbLine
 10
32.50818791290078
 20
19.350000000000023
 30
0.0
 11
36.999999999999204
 21
19.350000000000023
 31
0.0
  0
LINE
  5
30
100
AcDbEntity
  8
0
  6
CONTINUOUS
 62
               7
100
AcDbLine
 10
32.50818791290078
 20
19.950000000000045
 30
0.0
 11
36.999999999999204
 21
19.950000000000045
 31
0.0
  0
CIRCLE
  5
31
100
AcDbEntity
  8
0
  6
CONTINUOUS
 62
               7
100
AcDbCircle
 10
37.999999999999204
 20
19.650000000000034
 30
0.0
 40
6.5000000000000009
  0
CIRCLE
  5
32
100
AcDbEntity
  8
0
  6
CONTINUOUS
 62
               7
100
AcDbCircle
 10
37.999999999999204
 20
19.650000000000034
 30
0.0
 40
5.5
  0
CIRCLE
  5
33
100
AcDbEntity
  8
0
  6
CONTINUOUS
 62
               7
100
AcDbCircle
 10
37.999999999999204
 20
19.650000000000034
 30
0.0
 40
6.3499999999999996
  0
CIRCLE
  5
34
100
AcDbEntity
  8
0
  6
CONTINUOUS
 62
               7
100
AcDbCircle
 10
37.999999999999318
 20
19.64999999999992
 30
0.0
 40
10.0
  0
LINE
  5
35
100
AcDbEntity
  8
0
  6
CONTINUOUS
 62
               7
100
AcDbLine
 10
40.049999956307261
 20
294.42682727525721
 30
0.0
 11
40.049999956307602
 21
298.57809660146387
 31
0.0
  0
LINE
  5
36
100
AcDbEntity
  8
0
  6
CONTINUOUS
 62
               7
100
AcDbLine
 10
40.049999959733441
 20
294.42682738878455
 30
0.0
 11
40.899999985228419
 21
294.35246202277415
 31
0.0
  0
LINE
  5
37
100
AcDbEntity
  8
0
  6
CONTINUOUS
 62
               7
100
AcDbLine
 10
40.049999959733555
 20
298.57809660176366
 30
0.0
 11
40.89999998522876
 21
298.65246196777406
 31
0.0
  0
ARC
  5
38
100
AcDbEntity
  8
0
  6
CONTINUOUS
 62
               7
100
AcDbCircle
 10
46.029655824141628
 20
296.50246199527379
 30
0.0
 40
6.3296561304446461
100
AcDbArc
 50
160.85729086486964
 51
199.14270731389303
  0
ARC
  5
39
100
AcDbEntity
  8
0
  6
CONTINUOUS
 62
               7
100
AcDbCircle
 10
40.899999936665836
 20
350.00246199177406
 30
0.0
 40
3.5000000000000004
100
AcDbArc
 50
180.0
 51
270.0
  0
ARC
  5
3A
100
AcDbEntity
  8
0
  6
CONTINUOUS
 62
               7
100
AcDbCircle
 10
37.399999936665949
 20
351.502461991774
 30
0.0
 40
1.0
100
AcDbArc
 50
180.0
 51
270.0
  0
ARC
  5
3B
100
AcDbEntity
  8
0
  6
CONTINUOUS
 62
               7
100
AcDbCircle
 10
37.399999936665949
 20
364.502461991774
 30
0.0
 40
1.0
100
AcDbArc
 50
90.0
 51
180.0
  0
LINE
  5
3C
100
AcDbEntity
  8
0
  6
CONTINUOUS
 62
               7
100
AcDbLine
 10
37.399999936665949
 20
350.00246199177406
 30
0.0
 11
37.399999936665949
 21
366.002461991774
 31
0.0
  0
LINE
  5
3D
100
AcDbEntity
  8
0
  6
CONTINUOUS
 62
               7
100
AcDbLine
 10
36.399999936665836
 20
364.502461991774
 30
0.0
 11
36.399999936665836
 21
351.502461991774
 31
0.0
  0
ARC
  5
3E
100
AcDbEntity
  8
0
  6
CONTINUOUS
 62
               7
100
AcDbCircle
 10
40.899999936665836
 20
366.002461991774
 30
0.0
 40
3.5000000000000004
100
AcDbArc
 50
90.0
 51
180.0
  0
LINE
  5
3F
100
AcDbEntity
  8
0
  6
CONTINUOUS
 62
               2
100
AcDbLine
 10
42.649807552608877
 20
358.002461991774
 30
0.0
 11
33.763089769142766
 21
358.002461991774
 31
0.0
  0
LINE
  5
40
100
AcDbEntity
  8
0
  6
CONTINUOUS
 62
               7
100
AcDbLine
 10
40.899999936665836
 20
371.002461991774
 30
0.0
 11
40.899999936665836
 21
293.00246175844075
 31
0.0
  0
LINE
  5
41
100
AcDbEntity
  8
0
  6
CONTINUOUS
 62
               2
100
AcDbLine
 10
-16.499999999999773
 20
53.968601835260813
 30
0.0
 11
-16.499999999999773
 21
64.199782179569695
 31
0.0
  0
LINE
  5
42
100
AcDbEntity
  8
0
  6
CONTINUOUS
 62
               2
100
AcDbLine
 10
16.499999999999659
 20
53.968601835260813
 30
0.0
 11
16.499999999999659
 21
64.199782179569695
 31
0.0
  0
LINE
  5
43
100
AcDbEntity
  8
0
  6
CONTINUOUS
 62
               7
100
AcDbLine
 10
-13.999999999999773
 20
57.999999999999943
 30
0.0
 11
13.999999999999659
 21
57.999999999999943
 31
0.0
  0
LINE
  5
44
100
AcDbEntity
  8
0
  6
CONTINUOUS
 62
               7
100
AcDbLine
 10
18.999999999999545
 20
57.999999999999943
 30
0.0
 11
24.999999999999659
 21
57.999999999999943
 31
0.0
  0
LINE
  5
45
100
AcDbEntity
  8
0
  6
CONTINUOUS
 62
               2
100
AcDbLine
 10
-59.999999999999204
 20
166.41648751022092
 30
0.0
 11
-59.999999999999204
 21
156.39432428592977
 31
0.0
  0
LINE
  5
46
100
AcDbEntity
  8
0
  6
CONTINUOUS
 62
               7
100
AcDbLine
 10
-24.999999999999773
 20
57.999999999999943
 30
0.0
 11
-18.999999999999773
 21
57.999999999999943
 31
0.0
  0
LINE
  5
47
100
AcDbEntity
  8
0
  6
CONTINUOUS
 62
               7
100
AcDbLine
 10
-32.075638099721345
 20
54.85000245695386
 30
0.0
 11
-32.142463798605036
 21
54.08618122131611
 31
0.0
  0
LINE
  5
48
100
AcDbEntity
  8
0
  6
CONTINUOUS
 62
               7
100
AcDbLine
 10
-29.291809082031023
 20
54.850006103515682
 30
0.0
 11
-32.075622558593409
 21
54.850006103515682
 31
0.0
  0
ARC
  5
49
100
AcDbEntity
  8
0
  6
CONTINUOUS
 62
               7
100
AcDbCircle
 10
-29.999999999999659
 20
48.870330810546818
 30
0.0
 40
6.3296561241149902
100
AcDbArc
 50
77.07456800075721
 51
109.14270913512811
  0
LINE
  5
4A
100
AcDbEntity
  8
0
  6
CONTINUOUS
 62
               7
100
AcDbLine
 10
-24.999990533184018
 20
55.99998951113588
 30
0.0
 11
-36.196098885372976
 21
53.000001294651156
 31
0.0
  0
LINE
  5
4B
100
AcDbEntity
  8
0
  6
CONTINUOUS
 62
               7
100
AcDbLine
 10
-13.999999999999773
 20
57.999999999999943
 30
0.0
 11
-13.999999999999773
 21
55.999999999999943
 31
0.0
  0
LINE
  5
4C
100
AcDbEntity
  8
0
  6
CONTINUOUS
 62
               7
100
AcDbLine
 10
-18.999999999999773
 20
57.999999999999943
 30
0.0
 11
-18.999999999999773
 21
55.999999999999943
 31
0.0
  0
LINE
  5
4D
100
AcDbEntity
  8
0
  6
CONTINUOUS
 62
               7
100
AcDbLine
 10
-24.999999999999773
 20
62.0
 30
0.0
 11
-24.999999999999773
 21
57.999999999999943
 31
0.0
  0
LINE
  5
4E
100
AcDbEntity
  8
0
  6
CONTINUOUS
 62
               7
100
AcDbLine
 10
-102.00000000000017
 20
172.99999999999997
 30
0.0
 11
-105.00000000000023
 21
169.99999999999997
 31
0.0
  0
LINE
  5
4F
100
AcDbEntity
  8
0
  6
CONTINUOUS
 62
               7
100
AcDbLine
 10
101.99999999999881
 20
172.99999999999997
 30
0.0
 11
104.99999999999881
 21
169.99999999999997
 31
0.0
  0
LINE
  5
50
100
AcDbEntity
  8
0
  6
CONTINUOUS
 62
               2
100
AcDbLine
 10
30.0
 20
166.41648751022092
 30
0.0
 11
30.0
 21
156.39432428592977
 31
0.0
  0
ARC
  5
51
100
AcDbEntity
  8
0
  6
CONTINUOUS
 62
               7
100
AcDbCircle
 10
43.150024391711895
 20
298.00246199177406
 30
0.0
 40
3.0
100
AcDbArc
 50
138.59108401943732
 51
168.66758377997829
  0
LINE
  5
52
100
AcDbEntity
  8
0
  6
CONTINUOUS
 62
               7
100
AcDbLine
 10
40.899999936665836
 20
293.50258399701949
 30
0.0
 11
39.499999976999334
 21
293.50258399701949
 31
0.0
  0
LINE
  5
53
100
AcDbEntity
  8
0
  6
CONTINUOUS
 62
               7
100
AcDbLine
 10
43.499999980999405
 20
283.00258398651943
 30
0.0
 11
39.499999976999334
 21
283.00258398651943
 31
0.0
  0
LINE
  5
54
100
AcDbEntity
  8
0
  6
CONTINUOUS
 62
               7
100
AcDbLine
 10
39.499999976999334
 20
293.65258396751949
 30
0.0
 11
39.499999976999334
 21
283.00258398651943
 31
0.0
  0
ARC
  5
55
100
AcDbEntity
  8
0
  6
CONTINUOUS
 62
               7
100
AcDbCircle
 10
44.629655820141693
 20
291.50258399501968
 30
0.0
 40
6.3296561304446461
100
AcDbArc
 50
160.85729268610697
 51
199.14270913513036
  0
LINE
  5
56
100
AcDbEntity
  8
0
  6
CONTINUOUS
 62
               7
100
AcDbLine
 10
38.649999952307553
 20
293.57821871503643
 30
0.0
 11
38.649999952307553
 21
289.42694927500264
 31
0.0
  0
LINE
  5
57
100
AcDbEntity
  8
0
  6
CONTINUOUS
 62
               7
100
AcDbLine
 10
38.649999955733506
 20
293.57821860150904
 30
0.0
 11
39.499999981228484
 21
293.65258396751949
 31
0.0
  0
LINE
  5
58
100
AcDbEntity
  8
0
  6
CONTINUOUS
 62
               7
100
AcDbLine
 10
38.64999995573362
 20
289.42694938852998
 30
0.0
 11
39.499999981228711
 21
289.35258402251952
 31
0.0
  0
LINE
  5
59
100
AcDbEntity
  8
0
  6
CONTINUOUS
 62
               7
100
AcDbLine
 10
40.150024391711895
 20
294.4180763849364
 30
0.0
 11
40.150024391711895
 21
293.50258399701949
 31
0.0
  0
LINE
  5
5A
100
AcDbEntity
  8
0
  6
CONTINUOUS
 62
               7
100
AcDbLine
 10
43.499999980999405
 20
293.00246199177406
 30
0.0
 11
43.499999980999405
 21
167.3271688973488
 31
0.0
  0
LINE
  5
5B
100
AcDbEntity
  8
0
  6
CONTINUOUS
 62
               7
100
AcDbLine
 10
41.499999978999313
 20
256.5024619552741
 30
0.0
 11
41.499999978999313
 21
194.89999389648443
 31
0.0
  0
LINE
  5
5C
100
AcDbEntity
  8
0
  6
CONTINUOUS
 62
               7
100
AcDbLine
 10
83.500000020998812
 20
256.5024619552741
 30
0.0
 11
83.499984733765075
 21
194.89999389648443
 31
0.0
  0
LINE
  5
5D
100
AcDbEntity
  8
0
  6
CONTINUOUS
 62
               7
100
AcDbLine
 10
52.712782055592356
 20
162.99999999999994
 30
0.0
 11
-105.00000000000023
 21
162.99999999999994
 31
0.0
  0
LINE
  5
5E
100
AcDbEntity
  8
0
  6
CONTINUOUS
 62
               7
100
AcDbLine
 10
43.499999980999405
 20
172.99999999999997
 30
0.0
 11
-169.52777125836235
 21
172.99999999999997
 31
0.0
  0
LINE
  5
5F
100
AcDbEntity
  8
0
  6
CONTINUOUS
 62
               7
100
AcDbLine
 10
43.499999980999405
 20
182.80000000000001
 30
0.0
 11
-164.50000000000028
 21
182.80000000000001
 31
0.0
  0
LINE
  5
60
100
AcDbEntity
  8
0
  6
CONTINUOUS
 62
               7
100
AcDbLine
 10
43.499999980999405
 20
186.20000000000002
 30
0.0
 11
-164.50000000000028
 21
186.20000000000002
 31
0.0
  0
LINE
  5
61
100
AcDbEntity
  8
0
  6
CONTINUOUS
 62
               7
100
AcDbLine
 10
43.499999980999405
 20
194.00000000000003
 30
0.0
 11
-164.50000000000028
 21
194.00000000000003
 31
0.0
  0
LINE
  5
62
100
AcDbEntity
  8
0
  6
CONTINUOUS
 62
               7
100
AcDbLine
 10
75.900024427461403
 20
293.00246199177406
 30
0.0
 11
75.900024427461403
 21
174.00246187277415
 31
0.0
  0
LINE
  5
63
100
AcDbEntity
  8
0
  6
CONTINUOUS
 62
               7
100
AcDbLine
 10
49.09997557253655
 20
293.00246199177406
 30
0.0
 11
49.09997557253655
 21
174.00246187277415
 31
0.0
  0
LINE
  5
64
100
AcDbEntity
  8
0
  6
CONTINUOUS
 62
               7
100
AcDbLine
 10
51.299987781767982
 20
293.00246199177406
 30
0.0
 11
51.299987781767982
 21
174.00246187277415
 31
0.0
  0
LINE
  5
65
100
AcDbEntity
  8
0
  6
CONTINUOUS
 62
               7
100
AcDbLine
 10
81.50000001899889
 20
371.002461991774
 30
0.0
 11
81.50000001899889
 21
167.3271688973488
 31
0.0
  0
LINE
  5
66
100
AcDbEntity
  8
0
  6
CONTINUOUS
 62
               7
100
AcDbLine
 10
73.700012218230313
 20
293.00246199177406
 30
0.0
 11
73.700012218230313
 21
174.00246187277415
 31
0.0
  0
LINE
  5
67
100
AcDbEntity
  8
0
  6
CONTINUOUS
 62
               7
100
AcDbLine
 10
82.350000040264376
 20
294.42682738878443
 30
0.0
 11
81.500000014769398
 21
294.35246202277415
 31
0.0
  0
LINE
  5
68
100
AcDbEntity
  8
0
  6
CONTINUOUS
 62
               7
100
AcDbLine
 10
82.350000040264831
 20
298.57809660176349
 30
0.0
 11
81.500000014769739
 21
298.65246196777406
 31
0.0
  0
LINE
  5
69
100
AcDbEntity
  8
0
  6
CONTINUOUS
 62
               7
100
AcDbLine
 10
82.350000043690784
 20
298.578096715291
 30
0.0
 11
82.350000043690557
 21
294.42682727525721
 31
0.0
  0
ARC
  5
6A
100
AcDbEntity
  8
0
  6
CONTINUOUS
 62
               7
100
AcDbCircle
 10
76.370344175856758
 20
296.50246199527425
 30
0.0
 40
6.3296561304446461
100
AcDbArc
 50
340.85729086486964
 51
19.142707313893034
  0
CIRCLE
  5
6B
100
AcDbEntity
  8
0
  6
CONTINUOUS
 62
               7
100
AcDbCircle
 10
45.999999983499379
 20
238.00246193677407
 30
0.0
 40
1.2500000012500001
  0
CIRCLE
  5
6C
100
AcDbEntity
  8
0
  6
CONTINUOUS
 62
               2
100
AcDbCircle
 10
45.999999983499379
 20
238.00246193677407
 30
0.0
 40
1.5000000014999999
  0
CIRCLE
  5
6D
100
AcDbEntity
  8
0
  6
CONTINUOUS
 62
               7
100
AcDbCircle
 10
45.999999983499379
 20
264.00246196277408
 30
0.0
 40
1.2500000012500001
  0
CIRCLE
  5
6E
100
AcDbEntity
  8
0
  6
CONTINUOUS
 62
               2
100
AcDbCircle
 10
45.999999983499379
 20
264.00246196277408
 30
0.0
 40
1.5000000014999999
  0
CIRCLE
  5
6F
100
AcDbEntity
  8
0
  6
CONTINUOUS
 62
               7
100
AcDbCircle
 10
79.000000016498802
 20
264.00246196277408
 30
0.0
 40
1.2500000012500001
  0
CIRCLE
  5
70
100
AcDbEntity
  8
0
  6
CONTINUOUS
 62
               2
100
AcDbCircle
 10
79.000000016498802
 20
264.00246196277408
 30
0.0
 40
1.5000000014999999
  0
CIRCLE
  5
71
100
AcDbEntity
  8
0
  6
CONTINUOUS
 62
               7
100
AcDbCircle
 10
79.000000016498802
 20
238.00246193677407
 30
0.0
 40
1.2500000012500001
  0
CIRCLE
  5
72
100
AcDbEntity
  8
0
  6
CONTINUOUS
 62
               2
100
AcDbCircle
 10
79.000000016498802
 20
238.00246193677407
 30
0.0
 40
1.5000000014999999
  0
ARC
  5
73
100
AcDbEntity
  8
0
  6
CONTINUOUS
 62
               7
100
AcDbCircle
 10
51.999999989499202
 20
241.50246194027409
 30
0.0
 40
3.2500000032500003
100
AcDbArc
 50
153.16468353359647
 51
206.8353264843162
  0
ARC
  5
74
100
AcDbEntity
  8
0
  6
CONTINUOUS
 62
               7
100
AcDbCircle
 10
51.999999989499202
 20
260.502461959274
 30
0.0
 40
3.2500000032500003
100
AcDbArc
 50
153.16468353359647
 51
206.8353264843162
  0
ARC
  5
75
100
AcDbEntity
  8
0
  6
CONTINUOUS
 62
               7
100
AcDbCircle
 10
73.000000010498866
 20
241.50246194027409
 30
0.0
 40
3.2500000032500003
100
AcDbArc
 50
333.16467852464012
 51
26.835321475359859
  0
ARC
  5
76
100
AcDbEntity
  8
0
  6
CONTINUOUS
 62
               7
100
AcDbCircle
 10
73.000000010498866
 20
260.502461959274
 30
0.0
 40
3.2500000032500003
100
AcDbArc
 50
333.16467852464012
 51
26.835321475359859
  0
LINE
  5
77
100
AcDbEntity
  8
0
  6
CONTINUOUS
 62
               7
100
AcDbLine
 10
81.50000001899889
 20
256.5024619552741
 30
0.0
 11
83.500000020998812
 21
256.5024619552741
 31
0.0
  0
LINE
  5
78
100
AcDbEntity
  8
0
  6
CONTINUOUS
 62
               7
100
AcDbLine
 10
43.499999959999286
 20
206.49996949402197
 30
0.0
 11
41.499999957999307
 21
206.49996949402197
 31
0.0
  0
LINE
  5
79
100
AcDbEntity
  8
0
  6
CONTINUOUS
 62
               7
100
AcDbLine
 10
49.09997557253655
 20
272.00246197077416
 30
0.0
 11
43.499999980999405
 21
272.00246197077416
 31
0.0
  0
LINE
  5
7A
100
AcDbEntity
  8
0
  6
CONTINUOUS
 62
               7
100
AcDbLine
 10
48.499999985999239
 20
272.00246197077416
 30
0.0
 11
48.499999985999239
 21
230.00246192877404
 31
0.0
  0
LINE
  5
7B
100
AcDbEntity
  8
0
  6
CONTINUOUS
 62
               7
100
AcDbLine
 10
76.330017103672731
 20
369.85719831875389
 30
0.0
 11
76.330017103672731
 21
293.86861189498404
 31
0.0
  0
LINE
  5
7C
100
AcDbEntity
  8
0
  6
CONTINUOUS
 62
               7
100
AcDbLine
 10
49.09997557253655
 20
230.00246192877404
 30
0.0
 11
43.499999980999405
 21
230.00246192877404
 31
0.0
  0
LINE
  5
7D
100
AcDbEntity
  8
0
  6
CONTINUOUS
 62
               7
100
AcDbLine
 10
81.50000001899889
 20
371.002461991774
 30
0.0
 11
40.899999936665836
 21
371.002461991774
 31
0.0
  0
LINE
  5
7E
100
AcDbEntity
  8
0
  6
CONTINUOUS
 62
               2
100
AcDbLine
 10
48.499999985999239
 20
238.00246193677407
 30
0.0
 11
43.499999980999405
 21
238.00246193677407
 31
0.0
  0
LINE
  5
7F
100
AcDbEntity
  8
0
  6
CONTINUOUS
 62
               2
100
AcDbLine
 10
45.999999983499379
 20
235.50246193427404
 30
0.0
 11
45.999999983499379
 21
240.50246193927404
 31
0.0
  0
LINE
  5
80
100
AcDbEntity
  8
0
  6
CONTINUOUS
 62
               2
100
AcDbLine
 10
48.499999985999239
 20
264.00246196277408
 30
0.0
 11
43.499999980999405
 21
264.00246196277408
 31
0.0
  0
LINE
  5
81
100
AcDbEntity
  8
0
  6
CONTINUOUS
 62
               2
100
AcDbLine
 10
45.999999983499379
 20
261.5024619602741
 30
0.0
 11
45.999999983499379
 21
266.50246196527411
 31
0.0
  0
LINE
  5
82
100
AcDbEntity
  8
0
  6
CONTINUOUS
 62
               2
100
AcDbLine
 10
81.50000001899889
 20
264.00246196277408
 30
0.0
 11
76.500000013998829
 21
264.00246196277408
 31
0.0
  0
LINE
  5
83
100
AcDbEntity
  8
0
  6
CONTINUOUS
 62
               2
100
AcDbLine
 10
79.000000016498802
 20
261.5024619602741
 30
0.0
 11
79.000000016498802
 21
266.50246196527411
 31
0.0
  0
LINE
  5
84
100
AcDbEntity
  8
0
  6
CONTINUOUS
 62
               2
100
AcDbLine
 10
81.50000001899889
 20
238.00246193677407
 30
0.0
 11
76.500000013998829
 21
238.00246193677407
 31
0.0
  0
LINE
  5
85
100
AcDbEntity
  8
0
  6
CONTINUOUS
 62
               2
100
AcDbLine
 10
79.000000016498802
 20
235.50246193427404
 30
0.0
 11
79.000000016498802
 21
240.50246193927404
 31
0.0
  0
LINE
  5
86
100
AcDbEntity
  8
0
  6
CONTINUOUS
 62
               7
100
AcDbLine
 10
81.50000001899889
 20
230.00246192877404
 30
0.0
 11
75.900024427461403
 21
230.00246192877404
 31
0.0
  0
LINE
  5
87
100
AcDbEntity
  8
0
  6
CONTINUOUS
 62
               7
100
AcDbLine
 10
81.50000001899889
 20
272.00246197077416
 30
0.0
 11
75.900024427461403
 21
272.00246197077416
 31
0.0
  0
LINE
  5
88
100
AcDbEntity
  8
0
  6
CONTINUOUS
 62
               7
100
AcDbLine
 10
81.50000001899889
 20
293.00246199177406
 30
0.0
 11
40.899999936665836
 21
293.00246199177406
 31
0.0
  0
LINE
  5
89
100
AcDbEntity
  8
0
  6
CONTINUOUS
 62
               7
100
AcDbLine
 10
48.66998289632545
 20
369.67690046701102
 30
0.0
 11
48.66998289632545
 21
294.04897078188316
 31
0.0
  0
LINE
  5
8A
100
AcDbEntity
  8
0
  6
CONTINUOUS
 62
               7
100
AcDbLine
 10
76.500000013998829
 20
272.00246197077416
 30
0.0
 11
76.500000013998829
 21
230.00246192877404
 31
0.0
  0
LINE
  5
8B
100
AcDbEntity
  8
0
  6
CONTINUOUS
 62
               7
100
AcDbLine
 10
41.499999978999313
 20
256.5024619552741
 30
0.0
 11
43.499999980999405
 21
256.5024619552741
 31
0.0
  0
ARC
  5
8C
100
AcDbEntity
  8
0
  6
CONTINUOUS
 62
               7
100
AcDbCircle
 10
79.500000016998797
 20
167.3271688973488
 30
0.0
 40
2.0000000020000002
100
AcDbArc
 50
292.13136085930472
 51
0.0
  0
ARC
  5
8D
100
AcDbEntity
  8
0
  6
CONTINUOUS
 62
               7
100
AcDbCircle
 10
45.499999982999157
 20
167.3271688973488
 30
0.0
 40
2.0000000020000002
100
AcDbArc
 50
180.00000500895632
 51
247.86863048927324
  0
ARC
  5
8E
100
AcDbEntity
  8
0
  6
CONTINUOUS
 62
               7
100
AcDbCircle
 10
45.499999982999157
 20
171.0504660202127
 30
0.0
 40
2.0000000020000002
100
AcDbArc
 50
180.00000500895632
 51
260.84680953499787
  0
ARC
  5
8F
100
AcDbEntity
  8
0
  6
CONTINUOUS
 62
               7
100
AcDbCircle
 10
79.500000016998797
 20
171.0504660202127
 30
0.0
 40
2.0000000020000002
100
AcDbArc
 50
279.15318181358009
 51
0.0
  0
ARC
  5
90
100
AcDbEntity
  8
0
  6
CONTINUOUS
 62
               7
100
AcDbCircle
 10
62.499999999999091
 20
209.12746190789912
 30
0.0
 40
47.125000047124999
100
AcDbArc
 50
247.86864096192809
 51
292.13136085930472
  0
ARC
  5
91
100
AcDbEntity
  8
0
  6
CONTINUOUS
 62
               7
100
AcDbCircle
 10
62.499999999999091
 20
276.55782086204823
 30
0.0
 40
108.86813365378998
100
AcDbArc
 50
260.84681317746356
 51
279.15318181358009
  0
LINE
  5
92
100
AcDbEntity
  8
0
  6
CONTINUOUS
 62
               7
100
AcDbLine
 10
81.50000001899889
 20
174.00246187277415
 30
0.0
 11
43.499999980999405
 21
174.00246187277415
 31
0.0
  0
LINE
  5
93
100
AcDbEntity
  8
0
  6
CONTINUOUS
 62
               7
100
AcDbLine
 10
43.499999959999286
 20
194.89999389648443
 30
0.0
 11
41.499999957999307
 21
194.89999389648443
 31
0.0
  0
LINE
  5
94
100
AcDbEntity
  8
0
  6
CONTINUOUS
 62
               7
100
AcDbLine
 10
81.499999997998884
 20
206.50000001160006
 30
0.0
 11
83.499984741209744
 21
206.50000001160006
 31
0.0
  0
LINE
  5
95
100
AcDbEntity
  8
0
  6
CONTINUOUS
 62
               7
100
AcDbLine
 10
81.499999997998884
 20
194.89999389648443
 30
0.0
 11
83.499984741209744
 21
194.89999389648443
 31
0.0
  0
LINE
  5
96
100
AcDbEntity
  8
0
  6
CONTINUOUS
 62
               2
100
AcDbLine
 10
62.499999999999091
 20
376.16914900865959
 30
0.0
 11
62.499999999999091
 21
154.03579447392354
 31
0.0
  0
ARC
  5
97
100
AcDbEntity
  8
0
  6
CONTINUOUS
 62
               7
100
AcDbCircle
 10
-98.917602539062614
 20
11.799981689453091
 30
0.0
 40
7.982419490814209
100
AcDbArc
 50
157.64345713842727
 51
202.35653921910705
  0
LINE
  5
98
100
AcDbEntity
  8
0
  6
CONTINUOUS
 62
               7
100
AcDbLine
 10
-106.29998779296898
 20
8.7637268066407046
 30
0.0
 11
-106.29998779296898
 21
14.83626708984383
 31
0.0
  0
LINE
  5
99
100
AcDbEntity
  8
0
  6
CONTINUOUS
 62
               7
100
AcDbLine
 10
-106.3000145089884
 20
8.7637271955850906
 30
0.0
 11
-104.99998769538632
 21
8.6499895874472372
 31
0.0
  0
LINE
  5
9A
100
AcDbEntity
  8
0
  6
CONTINUOUS
 62
               7
100
AcDbLine
 10
-106.29997995334656
 20
14.8362536799346
 30
0.0
 11
-105.00001394264496
 21
14.949985968507974
 31
0.0
  0
ARC
  5
9B
100
AcDbEntity
  8
0
  6
CONTINUOUS
 62
               7
100
AcDbCircle
 10
98.917541503905056
 20
11.799987769126858
 30
0.0
 40
7.982419490814209
100
AcDbArc
 50
337.64346066720742
 51
22.356539332792593
  0
LINE
  5
9C
100
AcDbEntity
  8
0
  6
CONTINUOUS
 62
               7
100
AcDbLine
 10
106.29998779296756
 20
8.7637328863144717
 30
0.0
 11
106.29998779296756
 21
14.836273169517597
 31
0.0
  0
LINE
  5
9D
100
AcDbEntity
  8
0
  6
CONTINUOUS
 62
               7
100
AcDbLine
 10
106.29997228135352
 20
14.836267295419646
 30
0.0
 11
105.00000627065191
 21
14.949999583993019
 31
0.0
  0
LINE
  5
9E
100
AcDbEntity
  8
0
  6
CONTINUOUS
 62
               7
100
AcDbLine
 10
106.30000683699535
 20
8.7637257394476933
 30
0.0
 11
105.00004082629374
 21
8.6499934508743195
 31
0.0
  0
CIRCLE
  5
9F
100
AcDbEntity
  8
0
  6
CONTINUOUS
 62
               7
100
AcDbCircle
 10
-36.000000000000114
 20
19.300000000000011
 30
0.0
 40
2.1000000000000001
  0
CIRCLE
  5
A0
100
AcDbEntity
  8
0
  6
CONTINUOUS
 62
               7
100
AcDbCircle
 10
-46.0
 20
19.300000000000011
 30
0.0
 40
2.1000000000000001
  0
LINE
  5
A1
100
AcDbEntity
  8
0
  6
CONTINUOUS
 62
               7
100
AcDbLine
 10
-56.5
 20
11.300000000000011
 30
0.0
 11
-89.500000000000114
 21
11.300000000000011
 31
0.0
  0
LINE
  5
A2
100
AcDbEntity
  8
0
  6
CONTINUOUS
 62
               7
100
AcDbLine
 10
-89.500000000000114
 20
27.300000000000011
 30
0.0
 11
-89.500000000000114
 21
11.300000000000011
 31
0.0
  0
LINE
  5
A3
100
AcDbEntity
  8
0
  6
CONTINUOUS
 62
               7
100
AcDbLine
 10
-56.5
 20
27.300000000000011
 30
0.0
 11
-89.500000000000114
 21
27.300000000000011
 31
0.0
  0
LINE
  5
A4
100
AcDbEntity
  8
0
  6
CONTINUOUS
 62
               7
100
AcDbLine
 10
-56.5
 20
27.300000000000011
 30
0.0
 11
-56.5
 21
11.300000000000011
 31
0.0
  0
LINE
  5
A5
100
AcDbEntity
  8
0
  6
CONTINUOUS
 62
               7
100
AcDbLine
 10
47.999999999999318
 20
24.150000000000034
 30
0.0
 11
47.999999999999318
 21
11.650000000000034
 31
0.0
  0
LINE
  5
A6
100
AcDbEntity
  8
0
  6
CONTINUOUS
 62
               7
100
AcDbLine
 10
81.999999999999091
 20
11.650000000000034
 30
0.0
 11
47.999999999999318
 21
11.650000000000034
 31
0.0
  0
LINE
  5
A7
100
AcDbEntity
  8
0
  6
CONTINUOUS
 62
               7
100
AcDbLine
 10
81.999999999999091
 20
24.150000000000034
 30
0.0
 11
81.999999999999091
 21
11.650000000000034
 31
0.0
  0
LINE
  5
A8
100
AcDbEntity
  8
0
  6
CONTINUOUS
 62
               7
100
AcDbLine
 10
81.999999999999091
 20
24.150000000000034
 30
0.0
 11
47.999999999999318
 21
24.150000000000034
 31
0.0
  0
LINE
  5
A9
100
AcDbEntity
  8
0
  6
CONTINUOUS
 62
               7
100
AcDbLine
 10
-80.000024437904358
 20
3.1999816894530682
 30
0.0
 11
-103.40002441406267
 21
3.1999816894530682
 31
0.0
  0
LINE
  5
AA
100
AcDbEntity
  8
0
  6
CONTINUOUS
 62
               7
100
AcDbLine
 10
80.000024437903221
 20
4.7999816894530909
 30
0.0
 11
80.000024437903221
 21
3.1999816894530682
 31
0.0
  0
LINE
  5
AB
100
AcDbEntity
  8
0
  6
CONTINUOUS
 62
               7
100
AcDbLine
 10
-80.000024437904358
 20
4.7999816894530909
 30
0.0
 11
-80.000024437904358
 21
3.1999816894530682
 31
0.0
  0
LINE
  5
AC
100
AcDbEntity
  8
0
  6
CONTINUOUS
 62
               7
100
AcDbLine
 10
-103.39999685287495
 20
5.1999816894530682
 30
0.0
 11
-103.39999685287495
 21
4.7999816894530909
 31
0.0
  0
LINE
  5
AD
100
AcDbEntity
  8
0
  6
CONTINUOUS
 62
               7
100
AcDbLine
 10
-103.29999685287498
 20
5.1999816894530682
 30
0.0
 11
-103.29999685287498
 21
4.7999816894530909
 31
0.0
  0
LINE
  5
AE
100
AcDbEntity
  8
0
  6
CONTINUOUS
 62
               7
100
AcDbLine
 10
-100.49999690055853
 20
5.1999816894530682
 30
0.0
 11
-100.49999690055853
 21
4.7999816894530909
 31
0.0
  0
LINE
  5
AF
100
AcDbEntity
  8
0
  6
CONTINUOUS
 62
               7
100
AcDbLine
 10
-89.499997138977164
 20
5.1999816894530682
 30
0.0
 11
-89.499997138977164
 21
4.7999816894530909
 31
0.0
  0
LINE
  5
B0
100
AcDbEntity
  8
0
  6
CONTINUOUS
 62
               7
100
AcDbLine
 10
103.40000305175676
 20
5.1999816894530682
 30
0.0
 11
103.40000305175676
 21
4.7999816894530909
 31
0.0
  0
LINE
  5
B1
100
AcDbEntity
  8
0
  6
CONTINUOUS
 62
               7
100
AcDbLine
 10
103.30000305175685
 20
5.1999816894530682
 30
0.0
 11
103.30000305175685
 21
4.7999816894530909
 31
0.0
  0
LINE
  5
B2
100
AcDbEntity
  8
0
  6
CONTINUOUS
 62
               7
100
AcDbLine
 10
100.49999999999881
 20
5.1999816894530682
 30
0.0
 11
100.49999999999881
 21
4.7999816894530909
 31
0.0
  0
LINE
  5
B3
100
AcDbEntity
  8
0
  6
CONTINUOUS
 62
               7
100
AcDbLine
 10
89.499999999999034
 20
5.1999816894530682
 30
0.0
 11
89.499999999999034
 21
4.7999816894530909
 31
0.0
  0
LINE
  5
B4
100
AcDbEntity
  8
0
  6
CONTINUOUS
 62
               7
100
AcDbLine
 10
103.40000305175676
 20
4.7999816894530909
 30
0.0
 11
-103.39999685287489
 21
4.7999816894530909
 31
0.0
  0
ARC
  5
B5
100
AcDbEntity
  8
0
  6
CONTINUOUS
 62
               7
100
AcDbCircle
 10
-103.40002441406267
 20
6.7999877929686932
 30
0.0
 40
1.6000000238418579
100
AcDbArc
 50
179.99999499104368
 51
269.99999749552182
  0
ARC
  5
B6
100
AcDbEntity
  8
0
  6
CONTINUOUS
 62
               7
100
AcDbCircle
 10
103.40002441406131
 20
6.7999877929686932
 30
0.0
 40
1.6000000238418579
100
AcDbArc
 50
269.99999749552182
 51
0.0000000000001018
  0
LINE
  5
B7
100
AcDbEntity
  8
0
  6
CONTINUOUS
 62
               7
100
AcDbLine
 10
104.99999999999881
 20
169.99999999999997
 30
0.0
 11
104.99999999999881
 21
4.7999877929686932
 31
0.0
  0
LINE
  5
B8
100
AcDbEntity
  8
0
  6
CONTINUOUS
 62
               7
100
AcDbLine
 10
103.40002441406131
 20
5.1999816894530682
 30
0.0
 11
-103.40002441406267
 21
5.1999816894530682
 31
0.0
  0
LINE
  5
B9
100
AcDbEntity
  8
0
  6
CONTINUOUS
 62
               2
100
AcDbLine
 10
-88.000000000000114
 20
-4.5347576498259627
 30
0.0
 11
-88.000000000000114
 21
7.3474986184758109
 31
0.0
  0
LINE
  5
BA
100
AcDbEntity
  8
0
  6
CONTINUOUS
 62
               2
100
AcDbLine
 10
87.999999999998806
 20
-4.5347576498259627
 30
0.0
 11
87.999999999998806
 21
7.3474986184758109
 31
0.0
  0
LINE
  5
BB
100
AcDbEntity
  8
0
  6
CONTINUOUS
 62
               2
100
AcDbLine
 10
-137.50000000000023
 20
207.09879596592387
 30
0.0
 11
-137.50000000000023
 21
154.03579447392354
 31
0.0
  0
LINE
  5
BC
100
AcDbEntity
  8
0
  6
CONTINUOUS
 62
               7
100
AcDbLine
 10
104.49999999999881
 20
186.20000000000002
 30
0.0
 11
81.50000001899889
 21
186.20000000000002
 31
0.0
  0
LINE
  5
BD
100
AcDbEntity
  8
0
  6
CONTINUOUS
 62
               7
100
AcDbLine
 10
104.49999999999881
 20
182.80000000000001
 30
0.0
 11
81.50000001899889
 21
182.80000000000001
 31
0.0
  0
LINE
  5
BE
100
AcDbEntity
  8
0
  6
CONTINUOUS
 62
               7
100
AcDbLine
 10
-57.750000953674316
 20
160.00003051757812
 30
0.0
 11
-62.249987602234
 21
160.00003051757812
 31
0.0
  0
LINE
  5
BF
100
AcDbEntity
  8
0
  6
CONTINUOUS
 62
               7
100
AcDbLine
 10
-57.250000000000114
 20
160.50003051757807
 30
0.0
 11
-57.250000000000114
 21
163.00003051757807
 31
0.0
  0
LINE
  5
C0
100
AcDbEntity
  8
0
  6
CONTINUOUS
 62
               7
100
AcDbLine
 10
-57.250005457296652
 20
160.50003497588676
 30
0.0
 11
-57.750004428654279
 21
160.00003790112982
 31
0.0
  0
LINE
  5
C1
100
AcDbEntity
  8
0
  6
CONTINUOUS
 62
               7
100
AcDbLine
 10
-57.25000095367443
 20
160.50003147125238
 30
0.0
 11
-62.75
 21
160.50003147125238
 31
0.0
  0
LINE
  5
C2
100
AcDbEntity
  8
0
  6
CONTINUOUS
 62
               7
100
AcDbLine
 10
-62.75
 20
163.00003051757807
 30
0.0
 11
-62.75
 21
160.50003051757807
 31
0.0
  0
LINE
  5
C3
100
AcDbEntity
  8
0
  6
CONTINUOUS
 62
               7
100
AcDbLine
 10
-62.249994391234736
 20
160.00003806971944
 30
0.0
 11
-62.749993404738916
 21
160.50003518662317
 31
0.0
  0
LINE
  5
C4
100
AcDbEntity
  8
0
  6
CONTINUOUS
 62
               7
100
AcDbLine
 10
32.249999046324774
 20
160.00003051757812
 30
0.0
 11
27.750012397765204
 21
160.00003051757812
 31
0.0
  0
LINE
  5
C5
100
AcDbEntity
  8
0
  6
CONTINUOUS
 62
               7
100
AcDbLine
 10
32.749999999998977
 20
160.50003051757807
 30
0.0
 11
32.749999999998977
 21
162.99999999999994
 31
0.0
  0
LINE
  5
C6
100
AcDbEntity
  8
0
  6
CONTINUOUS
 62
               7
100
AcDbLine
 10
32.749994542702666
 20
160.50003497588676
 30
0.0
 11
32.249995571345039
 21
160.00003790112982
 31
0.0
  0
LINE
  5
C7
100
AcDbEntity
  8
0
  6
CONTINUOUS
 62
               7
100
AcDbLine
 10
32.749999046324888
 20
160.50003147125238
 30
0.0
 11
27.249999999999204
 21
160.50003147125238
 31
0.0
  0
LINE
  5
C8
100
AcDbEntity
  8
0
  6
CONTINUOUS
 62
               7
100
AcDbLine
 10
27.249999999999204
 20
163.00003051757807
 30
0.0
 11
27.249999999999204
 21
160.50003051757807
 31
0.0
  0
LINE
  5
C9
100
AcDbEntity
  8
0
  6
CONTINUOUS
 62
               7
100
AcDbLine
 10
27.750005608764582
 20
160.00003806971944
 30
0.0
 11
27.250006595260174
 21
160.50003518662317
 31
0.0
  0
CIRCLE
  5
CA
100
AcDbEntity
  8
0
  6
CONTINUOUS
 62
               7
100
AcDbCircle
 10
107.99999999999903
 20
180.99999999999994
 30
0.0
 40
2.1500000953674316
  0
CIRCLE
  5
CB
100
AcDbEntity
  8
0
  6
CONTINUOUS
 62
               7
100
AcDbCircle
 10
107.99999999999903
 20
180.99999999999994
 30
0.0
 40
2.0750000476837158
  0
CIRCLE
  5
CC
100
AcDbEntity
  8
0
  6
CONTINUOUS
 62
               7
100
AcDbCircle
 10
107.99999999999903
 20
194.99999999999997
 30
0.0
 40
2.1500000953674316
  0
CIRCLE
  5
CD
100
AcDbEntity
  8
0
  6
CONTINUOUS
 62
               7
100
AcDbCircle
 10
107.99999999999903
 20
194.99999999999997
 30
0.0
 40
2.0750000476837158
  0
ARC
  5
CE
100
AcDbEntity
  8
0
  6
CONTINUOUS
 62
               7
100
AcDbCircle
 10
-166.95025634765653
 20
197.69998168945307
 30
0.0
 40
5.0
100
AcDbArc
 50
90.000002504478161
 51
140.58004632746963
  0
ARC
  5
CF
100
AcDbEntity
  8
0
  6
CONTINUOUS
 62
               7
100
AcDbCircle
 10
-122.50000000000023
 20
184.99999999999997
 30
0.0
 40
50.0
100
AcDbArc
 50
161.77401403899248
 51
191.03970806633964
  0
ARC
  5
D0
100
AcDbEntity
  8
0
  6
CONTINUOUS
 62
               7
100
AcDbCircle
 10
-169.52777099609403
 20
179.00000000000003
 30
0.0
 40
5.9999999999999991
100
AcDbArc
 50
198.4084749552519
 51
269.99999749552182
  0
ARC
  5
D1
100
AcDbEntity
  8
0
  6
CONTINUOUS
 62
               7
100
AcDbCircle
 10
-168.63024902343778
 20
175.99999999999994
 30
0.0
 40
2.9999999999999996
100
AcDbArc
 50
191.03971170880533
 51
269.99999749552182
  0
ARC
  5
D2
100
AcDbEntity
  8
0
  6
CONTINUOUS
 62
               7
100
AcDbCircle
 10
-151.50000000000028
 20
184.99999999999997
 30
0.0
 40
25.0
100
AcDbArc
 50
140.58004632746963
 51
198.40848497316458
  0
ARC
  5
D3
100
AcDbEntity
  8
0
  6
CONTINUOUS
 62
               7
100
AcDbCircle
 10
-167.14202880859403
 20
199.6999816894531
 30
0.0
 40
2.9999999999999996
100
AcDbArc
 50
90.000002504478161
 51
161.77401403899248
  0
ARC
  5
D4
100
AcDbEntity
  8
0
  6
CONTINUOUS
 62
               7
100
AcDbCircle
 10
49.999999999999318
 20
44.699981689453068
 30
0.0
 40
1.299999952316284
100
AcDbArc
 50
90.000002504478161
 51
180.00000500895632
  0
ARC
  5
D5
100
AcDbEntity
  8
0
  6
CONTINUOUS
 62
               7
100
AcDbCircle
 10
49.999999999999318
 20
35.699981689453068
 30
0.0
 40
1.299999952316284
100
AcDbArc
 50
179.99999499104368
 51
269.99999749552182
  0
ARC
  5
D6
100
AcDbEntity
  8
0
  6
CONTINUOUS
 62
               7
100
AcDbCircle
 10
79.999999999998977
 20
35.699981689453068
 30
0.0
 40
1.299999952316284
100
AcDbArc
 50
269.99999749552182
 51
0.0
  0
ARC
  5
D7
100
AcDbEntity
  8
0
  6
CONTINUOUS
 62
               7
100
AcDbCircle
 10
79.999999999998977
 20
44.699981689453068
 30
0.0
 40
1.299999952316284
100
AcDbArc
 50
0.0
 51
90.000002504478161
  0
ARC
  5
D8
100
AcDbEntity
  8
0
  6
CONTINUOUS
 62
               7
100
AcDbCircle
 10
-97.000000000000114
 20
34.199981689453182
 30
0.0
 40
1.299999952316284
100
AcDbArc
 50
179.99999499104368
 51
269.99999749552182
  0
ARC
  5
D9
100
AcDbEntity
  8
0
  6
CONTINUOUS
 62
               7
100
AcDbCircle
 10
-49.0
 20
34.199981689453182
 30
0.0
 40
1.299999952316284
100
AcDbArc
 50
269.99999749552182
 51
0.0
  0
ARC
  5
DA
100
AcDbEntity
  8
0
  6
CONTINUOUS
 62
               7
100
AcDbCircle
 10
-49.0
 20
46.199981689453125
 30
0.0
 40
1.299999952316284
100
AcDbArc
 50
0.0
 51
90.000002504478161
  0
ARC
  5
DB
100
AcDbEntity
  8
0
  6
CONTINUOUS
 62
               7
100
AcDbCircle
 10
-97.000000000000114
 20
46.199981689453125
 30
0.0
 40
1.299999952316284
100
AcDbArc
 50
90.000002504478161
 51
180.00000500895632
  0
ARC
  5
DC
100
AcDbEntity
  8
0
  6
CONTINUOUS
 62
               7
100
AcDbCircle
 10
49.999999999999318
 20
35.699981689453068
 30
0.0
 40
1.0
100
AcDbArc
 50
179.99999499104368
 51
269.99999749552182
  0
ARC
  5
DD
100
AcDbEntity
  8
0
  6
CONTINUOUS
 62
               7
100
AcDbCircle
 10
79.999999999998977
 20
35.699981689453068
 30
0.0
 40
1.0
100
AcDbArc
 50
269.99999749552182
 51
0.0
  0
ARC
  5
DE
100
AcDbEntity
  8
0
  6
CONTINUOUS
 62
               7
100
AcDbCircle
 10
-49.0
 20
46.199981689453125
 30
0.0
 40
1.0
100
AcDbArc
 50
0.0
 51
90.000002504478161
  0
ARC
  5
DF
100
AcDbEntity
  8
0
  6
CONTINUOUS
 62
               7
100
AcDbCircle
 10
-97.000000000000114
 20
34.199981689453182
 30
0.0
 40
1.0
100
AcDbArc
 50
179.99999499104368
 51
269.99999749552182
  0
ARC
  5
E0
100
AcDbEntity
  8
0
  6
CONTINUOUS
 62
               7
100
AcDbCircle
 10
-97.000000000000114
 20
46.199981689453125
 30
0.0
 40
1.0
100
AcDbArc
 50
90.000002504478161
 51
180.00000500895632
  0
ARC
  5
E1
100
AcDbEntity
  8
0
  6
CONTINUOUS
 62
               7
100
AcDbCircle
 10
-49.0
 20
34.199981689453182
 30
0.0
 40
1.0
100
AcDbArc
 50
269.99999749552182
 51
0.0
  0
ARC
  5
E2
100
AcDbEntity
  8
0
  6
CONTINUOUS
 62
               7
100
AcDbCircle
 10
79.999999999998977
 20
44.699981689453068
 30
0.0
 40
1.0
100
AcDbArc
 50
0.0
 51
90.000002504478161
  0
ARC
  5
E3
100
AcDbEntity
  8
0
  6
CONTINUOUS
 62
               7
100
AcDbCircle
 10
49.999999999999318
 20
44.699981689453068
 30
0.0
 40
1.0
100
AcDbArc
 50
90.000002504478161
 51
180.00000500895632
  0
ARC
  5
E4
100
AcDbEntity
  8
0
  6
CONTINUOUS
 62
               7
100
AcDbCircle
 10
0.0
 20
372.41571044921869
 30
0.0
 40
321.4600830078125
100
AcDbArc
 50
263.53483796893181
 51
276.46516769591074
  0
CIRCLE
  5
E5
100
AcDbEntity
  8
0
  6
CONTINUOUS
 62
               7
100
AcDbCircle
 10
-36.000000000000114
 20
19.331939697265682
 30
0.0
 40
2.7000000476837158
  0
CIRCLE
  5
E6
100
AcDbEntity
  8
0
  6
CONTINUOUS
 62
               7
100
AcDbCircle
 10
-36.000000000000114
 20
19.331939697265682
 30
0.0
 40
3.2000000476837158
  0
CIRCLE
  5
E7
100
AcDbEntity
  8
0
  6
CONTINUOUS
 62
               7
100
AcDbCircle
 10
-46.000000000000114
 20
19.299987792968693
 30
0.0
 40
3.2000000476837158
  0
CIRCLE
  5
E8
100
AcDbEntity
  8
0
  6
CONTINUOUS
 62
               7
100
AcDbCircle
 10
-46.000000000000114
 20
19.299987792968693
 30
0.0
 40
2.7000000476837158
  0
ARC
  5
E9
100
AcDbEntity
  8
0
  6
CONTINUOUS
 62
               7
100
AcDbCircle
 10
29.999999999999659
 20
48.870330810546818
 30
0.0
 40
6.3296561241149902
100
AcDbArc
 50
70.857290864871885
 51
102.92543199924279
  0
ARC
  5
EA
100
AcDbEntity
  8
0
  6
CONTINUOUS
 62
               7
100
AcDbCircle
 10
103.40002441406131
 20
51.399993896484432
 30
0.0
 40
1.6000000238418579
100
AcDbArc
 50
0.0000000000000509
 51
90.000002504478161
  0
ARC
  5
EB
100
AcDbEntity
  8
0
  6
CONTINUOUS
 62
               7
100
AcDbCircle
 10
103.40002441406131
 20
4.7999877929686932
 30
0.0
 40
1.6000000238418579
100
AcDbArc
 50
269.99999749552182
 51
0.0000000000001018
  0
ARC
  5
EC
100
AcDbEntity
  8
0
  6
CONTINUOUS
 62
               7
100
AcDbCircle
 10
-103.40002441406267
 20
51.399993896484432
 30
0.0
 40
1.6000000238418579
100
AcDbArc
 50
90.000002504478161
 51
180.00000500895632
  0
ARC
  5
ED
100
AcDbEntity
  8
0
  6
CONTINUOUS
 62
               7
100
AcDbCircle
 10
-103.40002441406267
 20
4.7999877929686932
 30
0.0
 40
1.6000000238418579
100
AcDbArc
 50
179.99999499104368
 51
269.99999749552182
  0
LINE
  5
EE
100
AcDbEntity
  8
0
  6
CONTINUOUS
 62
               7
100
AcDbLine
 10
104.49999999999881
 20
194.00000000000003
 30
0.0
 11
81.50000001899889
 21
194.00000000000003
 31
0.0
  0
LINE
  5
EF
100
AcDbEntity
  8
0
  6
CONTINUOUS
 62
               7
100
AcDbLine
 10
104.99999999999881
 20
162.99999999999994
 30
0.0
 11
72.287217944405938
 21
162.99999999999994
 31
0.0
  0
LINE
  5
F0
100
AcDbEntity
  8
0
  6
CONTINUOUS
 62
               7
100
AcDbLine
 10
-168.50000000000045
 20
187.0
 30
0.0
 11
-168.50000000000045
 21
186.50000000000003
 31
0.0
  0
LINE
  5
F1
100
AcDbEntity
  8
0
  6
CONTINUOUS
 62
               7
100
AcDbLine
 10
-164.50000000000028
 20
186.50000000000003
 30
0.0
 11
-168.50000000000045
 21
186.50000000000003
 31
0.0
  0
LINE
  5
F2
100
AcDbEntity
  8
0
  6
CONTINUOUS
 62
               7
100
AcDbLine
 10
-164.50000000000028
 20
192.49999999999997
 30
0.0
 11
-168.50000000000045
 21
192.49999999999997
 31
0.0
  0
LINE
  5
F3
100
AcDbEntity
  8
0
  6
CONTINUOUS
 62
               7
100
AcDbLine
 10
-168.50000000000045
 20
192.49999999999997
 30
0.0
 11
-168.50000000000045
 21
192.0
 31
0.0
  0
LINE
  5
F4
100
AcDbEntity
  8
0
  6
CONTINUOUS
 62
               7
100
AcDbLine
 10
-164.50000000000028
 20
192.0
 30
0.0
 11
-168.50000000000045
 21
192.0
 31
0.0
  0
LINE
  5
F5
100
AcDbEntity
  8
0
  6
CONTINUOUS
 62
               7
100
AcDbLine
 10
-164.50000000000028
 20
187.0
 30
0.0
 11
-168.50000000000045
 21
187.0
 31
0.0
  0
LINE
  5
F6
100
AcDbEntity
  8
0
  6
CONTINUOUS
 62
               7
100
AcDbLine
 10
-164.50000000000028
 20
202.70001220703122
 30
0.0
 11
-166.95025634765653
 21
202.70001220703122
 31
0.0
  0
LINE
  5
F7
100
AcDbEntity
  8
0
  6
CONTINUOUS
 62
               7
100
AcDbLine
 10
41.499999978999313
 20
198.86450195312503
 30
0.0
 11
-164.50000000000028
 21
198.86450195312503
 31
0.0
  0
LINE
  5
F8
100
AcDbEntity
  8
0
  6
CONTINUOUS
 62
               7
100
AcDbLine
 10
104.49999999999881
 20
205.49999999999997
 30
0.0
 11
104.49999999999881
 21
172.99999999999997
 31
0.0
  0
LINE
  5
F9
100
AcDbEntity
  8
0
  6
CONTINUOUS
 62
               7
100
AcDbLine
 10
104.49999999999881
 20
195.94641113281253
 30
0.0
 11
83.499985000888216
 21
195.94641113281253
 31
0.0
  0
LINE
  5
FA
100
AcDbEntity
  8
0
  6
CONTINUOUS
 62
               7
100
AcDbLine
 10
104.49999999999881
 20
198.86450195312503
 30
0.0
 11
83.499985725039949
 21
198.86450195312503
 31
0.0
  0
LINE
  5
FB
100
AcDbEntity
  8
0
  6
CONTINUOUS
 62
               7
100
AcDbLine
 10
41.499999978999313
 20
201.39999389648435
 30
0.0
 11
-164.50000000000028
 21
201.39999389648435
 31
0.0
  0
LINE
  5
FC
100
AcDbEntity
  8
0
  6
CONTINUOUS
 62
               7
100
AcDbLine
 10
104.49999999999881
 20
201.39999389648435
 30
0.0
 11
83.499986354246118
 21
201.39999389648435
 31
0.0
  0
LINE
  5
FD
100
AcDbEntity
  8
0
  6
CONTINUOUS
 62
               7
100
AcDbLine
 10
-164.50000000000028
 20
202.70001220703122
 30
0.0
 11
-164.50000000000028
 21
172.99999999999997
 31
0.0
  0
LINE
  5
FE
100
AcDbEntity
  8
0
  6
CONTINUOUS
 62
               7
100
AcDbLine
 10
41.499999978999313
 20
195.94641113281253
 30
0.0
 11
-164.50000000000028
 21
195.94641113281253
 31
0.0
  0
LINE
  5
FF
100
AcDbEntity
  8
0
  6
CONTINUOUS
 62
               7
100
AcDbLine
 10
48.700012207030454
 20
35.699981689453068
 30
0.0
 11
48.700012207030454
 21
44.699981689453068
 31
0.0
  0
LINE
  5
100
100
AcDbEntity
  8
0
  6
CONTINUOUS
 62
               7
100
AcDbLine
 10
79.999999999998977
 20
34.399993896484432
 30
0.0
 11
49.999999999999318
 21
34.399993896484432
 31
0.0
  0
LINE
  5
101
100
AcDbEntity
  8
0
  6
CONTINUOUS
 62
               7
100
AcDbLine
 10
81.299987792967727
 20
35.699981689453068
 30
0.0
 11
81.299987792967727
 21
44.699981689453068
 31
0.0
  0
LINE
  5
102
100
AcDbEntity
  8
0
  6
CONTINUOUS
 62
               7
100
AcDbLine
 10
79.999999999998977
 20
45.999969482421818
 30
0.0
 11
49.999999999999318
 21
45.999969482421818
 31
0.0
  0
LINE
  5
103
100
AcDbEntity
  8
0
  6
CONTINUOUS
 62
               7
100
AcDbLine
 10
-49.0
 20
32.899993896484318
 30
0.0
 11
-97.000000000000114
 21
32.899993896484318
 31
0.0
  0
LINE
  5
104
100
AcDbEntity
  8
0
  6
CONTINUOUS
 62
               7
100
AcDbLine
 10
-47.700012207031364
 20
34.199981689453182
 30
0.0
 11
-47.700012207031364
 21
46.199981689453125
 31
0.0
  0
LINE
  5
105
100
AcDbEntity
  8
0
  6
CONTINUOUS
 62
               7
100
AcDbLine
 10
-49.0
 20
47.499969482421818
 30
0.0
 11
-97.000000000000114
 21
47.499969482421818
 31
0.0
  0
LINE
  5
106
100
AcDbEntity
  8
0
  6
CONTINUOUS
 62
               7
100
AcDbLine
 10
-98.299987792968864
 20
34.199981689453182
 30
0.0
 11
-98.299987792968864
 21
46.199981689453125
 31
0.0
  0
LINE
  5
107
100
AcDbEntity
  8
0
  6
CONTINUOUS
 62
               7
100
AcDbLine
 10
79.999999999998977
 20
34.699981689453182
 30
0.0
 11
49.999999999999318
 21
34.699981689453182
 31
0.0
  0
LINE
  5
108
100
AcDbEntity
  8
0
  6
CONTINUOUS
 62
               7
100
AcDbLine
 10
79.999999999998977
 20
45.699981689453068
 30
0.0
 11
49.999999999999318
 21
45.699981689453068
 31
0.0
  0
LINE
  5
109
100
AcDbEntity
  8
0
  6
CONTINUOUS
 62
               7
100
AcDbLine
 10
80.999999999998977
 20
35.699981689453068
 30
0.0
 11
80.999999999998977
 21
44.699981689453068
 31
0.0
  0
LINE
  5
10A
100
AcDbEntity
  8
0
  6
CONTINUOUS
 62
               7
100
AcDbLine
 10
48.999999999999204
 20
35.699981689453068
 30
0.0
 11
48.999999999999204
 21
44.699981689453068
 31
0.0
  0
LINE
  5
10B
100
AcDbEntity
  8
0
  6
CONTINUOUS
 62
               7
100
AcDbLine
 10
-49.0
 20
47.199981689453068
 30
0.0
 11
-97.000000000000114
 21
47.199981689453068
 31
0.0
  0
LINE
  5
10C
100
AcDbEntity
  8
0
  6
CONTINUOUS
 62
               7
100
AcDbLine
 10
-49.0
 20
33.199981689453068
 30
0.0
 11
-97.000000000000114
 21
33.199981689453068
 31
0.0
  0
LINE
  5
10D
100
AcDbEntity
  8
0
  6
CONTINUOUS
 62
               7
100
AcDbLine
 10
-98.000000000000114
 20
34.199981689453182
 30
0.0
 11
-98.000000000000114
 21
46.199981689453125
 31
0.0
  0
LINE
  5
10E
100
AcDbEntity
  8
0
  6
CONTINUOUS
 62
               7
100
AcDbLine
 10
-48.000000000000114
 20
34.199981689453182
 30
0.0
 11
-48.000000000000114
 21
46.199981689453125
 31
0.0
  0
LINE
  5
10F
100
AcDbEntity
  8
0
  6
CONTINUOUS
 62
               7
100
AcDbLine
 10
24.999999999999659
 20
55.999999999999943
 30
0.0
 11
-24.999951388210775
 21
55.999999999999943
 31
0.0
  0
LINE
  5
110
100
AcDbEntity
  8
0
  6
CONTINUOUS
 62
               7
100
AcDbLine
 10
24.999999999999659
 20
62.0
 30
0.0
 11
24.999999999999659
 21
57.999999999999943
 31
0.0
  0
LINE
  5
111
100
AcDbEntity
  8
0
  6
CONTINUOUS
 62
               7
100
AcDbLine
 10
24.999999999999659
 20
62.0
 30
0.0
 11
-25.0
 21
62.0
 31
0.0
  0
LINE
  5
112
100
AcDbEntity
  8
0
  6
CONTINUOUS
 62
               7
100
AcDbLine
 10
13.999999999999659
 20
57.999999999999943
 30
0.0
 11
13.999999999999659
 21
55.999999999999943
 31
0.0
  0
LINE
  5
113
100
AcDbEntity
  8
0
  6
CONTINUOUS
 62
               7
100
AcDbLine
 10
18.999999999999545
 20
57.999999999999943
 30
0.0
 11
18.999999999999545
 21
55.999999999999943
 31
0.0
  0
LINE
  5
114
100
AcDbEntity
  8
0
  6
CONTINUOUS
 62
               7
100
AcDbLine
 10
29.291809082030795
 20
54.850006103515682
 30
0.0
 11
32.075622558593295
 21
54.850006103515682
 31
0.0
  0
LINE
  5
115
100
AcDbEntity
  8
0
  6
CONTINUOUS
 62
               7
100
AcDbLine
 10
32.075638099721232
 20
54.85000245695386
 30
0.0
 11
32.142463798604922
 21
54.08618122131611
 31
0.0
  0
LINE
  5
116
100
AcDbEntity
  8
0
  6
CONTINUOUS
 62
               7
100
AcDbLine
 10
92.849975585936306
 20
162.99999999999994
 30
0.0
 11
92.849975585936306
 21
52.999999999999943
 31
0.0
  0
LINE
  5
117
100
AcDbEntity
  8
0
  6
CONTINUOUS
 62
               7
100
AcDbLine
 10
97.150024414061306
 20
162.99999999999994
 30
0.0
 11
97.150024414061306
 21
52.999999999999943
 31
0.0
  0
LINE
  5
118
100
AcDbEntity
  8
0
  6
CONTINUOUS
 62
               7
100
AcDbLine
 10
-97.150024414062614
 20
162.99999999999994
 30
0.0
 11
-97.150024414062614
 21
52.999999999999943
 31
0.0
  0
LINE
  5
119
100
AcDbEntity
  8
0
  6
CONTINUOUS
 62
               7
100
AcDbLine
 10
-92.849975585937727
 20
162.99999999999994
 30
0.0
 11
-92.849975585937727
 21
52.999999999999943
 31
0.0
  0
LINE
  5
11A
100
AcDbEntity
  8
0
  6
CONTINUOUS
 62
               7
100
AcDbLine
 10
-85.000000000000114
 20
162.99999999999994
 30
0.0
 11
-85.000000000000114
 21
52.999999999999943
 31
0.0
  0
LINE
  5
11B
100
AcDbEntity
  8
0
  6
CONTINUOUS
 62
               7
100
AcDbLine
 10
84.999999999998806
 20
162.99999999999994
 30
0.0
 11
84.999999999998806
 21
52.999999999999943
 31
0.0
  0
LINE
  5
11C
100
AcDbEntity
  8
0
  6
CONTINUOUS
 62
               7
100
AcDbLine
 10
104.99999999999881
 20
52.999999999999943
 30
0.0
 11
36.196105957030795
 21
52.999999999999943
 31
0.0
  0
LINE
  5
11D
100
AcDbEntity
  8
0
  6
CONTINUOUS
 62
               7
100
AcDbLine
 10
81.999999999998977
 20
0.0
 30
0.0
 11
93.999999999998806
 21
0.0
 31
0.0
  0
LINE
  5
11E
100
AcDbEntity
  8
0
  6
CONTINUOUS
 62
               7
100
AcDbLine
 10
81.999999999998977
 20
0.0
 30
0.0
 11
81.999999999998977
 21
3.1999816894530682
 31
0.0
  0
LINE
  5
11F
100
AcDbEntity
  8
0
  6
CONTINUOUS
 62
               7
100
AcDbLine
 10
93.999999999998806
 20
0.0
 30
0.0
 11
93.999999999998806
 21
3.1999816894530682
 31
0.0
  0
LINE
  5
120
100
AcDbEntity
  8
0
  6
CONTINUOUS
 62
               7
100
AcDbLine
 10
24.999990533183905
 20
55.99998951113588
 30
0.0
 11
36.196098885372976
 21
53.000001294651156
 31
0.0
  0
LINE
  5
121
100
AcDbEntity
  8
0
  6
CONTINUOUS
 62
               7
100
AcDbLine
 10
-105.00000000000023
 20
52.999999999999943
 30
0.0
 11
-36.196531403030008
 21
52.999999999999943
 31
0.0
  0
LINE
  5
122
100
AcDbEntity
  8
0
  6
CONTINUOUS
 62
               2
100
AcDbLine
 10
0.0
 20
72.0
 30
0.0
 11
0.0
 21
-5.2000183105469091
 31
0.0
  0
LINE
  5
123
100
AcDbEntity
  8
0
  6
CONTINUOUS
 62
               7
100
AcDbLine
 10
-105.00000000000023
 20
169.99999999999997
 30
0.0
 11
-105.00000000000023
 21
52.999999999999943
 31
0.0
  0
LINE
  5
124
100
AcDbEntity
  8
0
  6
CONTINUOUS
 62
               7
100
AcDbLine
 10
103.40002441406131
 20
3.1999816894530682
 30
0.0
 11
80.000024437903221
 21
3.1999816894530682
 31
0.0
  0
LINE
  5
125
100
AcDbEntity
  8
0
  6
CONTINUOUS
 62
               7
100
AcDbLine
 10
-82.000000000000114
 20
0.0
 30
0.0
 11
-94.000000000000114
 21
0.0
 31
0.0
  0
LINE
  5
126
100
AcDbEntity
  8
0
  6
CONTINUOUS
 62
               7
100
AcDbLine
 10
-82.000000000000114
 20
0.0
 30
0.0
 11
-82.000000000000114
 21
3.1999816894530682
 31
0.0
  0
LINE
  5
127
100
AcDbEntity
  8
0
  6
CONTINUOUS
 62
               7
100
AcDbLine
 10
-94.000000000000114
 20
0.0
 30
0.0
 11
-94.000000000000114
 21
3.1999816894530682
 31
0.0
  0
LINE
  5
128
100
AcDbEntity
  8
0
  6
CONTINUOUS
 62
               7
100
AcDbLine
 10
-105.00000000000023
 20
4.7999877929686932
 30
0.0
 11
-105.00000000000023
 21
51.399993896484432
 31
0.0
  0
LINE
  5
129
100
AcDbEntity
  8
0
  6
CONTINUOUS
 62
               7
100
AcDbLine
 10
106.93933982821926
 20
193.93933982822017
 30
0.0
 11
109.06066017177892
 21
196.06066017177972
 31
0.0
  0
LINE
  5
12A
100
AcDbEntity
  8
0
  6
CONTINUOUS
 62
               7
100
AcDbLine
 10
106.93933982821926
 20
196.06066017177972
 30
0.0
 11
109.06066017177892
 21
193.93933982822017
 31
0.0
  0
LINE
  5
12B
100
AcDbEntity
  8
0
  6
CONTINUOUS
 62
               7
100
AcDbLine
 10
106.93933982821926
 20
179.93933982822017
 30
0.0
 11
109.06066017177892
 21
182.06066017177972
 31
0.0
  0
LINE
  5
12C
100
AcDbEntity
  8
0
  6
CONTINUOUS
 62
               7
100
AcDbLine
 10
106.93933982821926
 20
182.06066017177972
 30
0.0
 11
109.06066017177892
 21
179.93933982822017
 31
0.0
  0
LINE
  5
12D
100
AcDbEntity
  8
0
  6
CONTINUOUS
 62
               7
100
AcDbLine
 10
181.56762695312381
 20
200.32843017578128
 30
0.0
 11
105.24291992187381
 21
200.32843017578128
 31
0.0
  0
LINE
  5
12E
100
AcDbEntity
  8
0
  6
CONTINUOUS
 62
               7
100
AcDbLine
 10
182.49999999999881
 20
205.49999999999997
 30
0.0
 11
104.49999999999881
 21
205.49999999999997
 31
0.0
  0
LINE
  5
12F
100
AcDbEntity
  8
0
  6
CONTINUOUS
 62
               7
100
AcDbLine
 10
182.49999999999881
 20
172.99999999999997
 30
0.0
 11
81.50000001899889
 21
172.99999999999997
 31
0.0
  0
ENDBLK
  5
130
100
AcDbEntity
  8
0
100
AcDbBlockEnd
  0
BLOCK
  5
131
100
AcDbEntity
  8
0
100
AcDbBlockBegin
  2
DTRB-AL3-2
 70
               0
 10
0.0
 20
0.0
 30
0.0
  3
DTRB-AL3-2
  1

  0
LINE
  5
132
100
AcDbEntity
  8
0
  6
CONTINUOUS
 62
               2
100
AcDbLine
 10
283.00001525878912
 20
-4.7200511326361152
 30
0.0
 11
283.00001525878912
 21
7.9540182852038583
 31
0.0
  0
LINE
  5
133
100
AcDbEntity
  8
0
  6
CONTINUOUS
 62
               7
100
AcDbLine
 10
-3.4000152587891534
 20
143.9999813594531
 30
0.0
 11
-3.4000152587891534
 21
148.9999813594531
 31
0.0
  0
LINE
  5
134
100
AcDbEntity
  8
0
  6
CONTINUOUS
 62
               7
100
AcDbLine
 10
-5.1000152587891989
 20
143.9999813594531
 30
0.0
 11
-1.8000152587892444
 21
143.9999813594531
 31
0.0
  0
LINE
  5
135
100
AcDbEntity
  8
0
  6
CONTINUOUS
 62
               7
100
AcDbLine
 10
-5.1000152587891989
 20
148.9999813594531
 30
0.0
 11
-1.8000152587892444
 21
148.9999813594531
 31
0.0
  0
LINE
  5
136
100
AcDbEntity
  8
0
  6
CONTINUOUS
 62
               7
100
AcDbLine
 10
-1.8000152892552705
 20
140.99998135945305
 30
0.0
 11
-5.1000153011760858
 21
141.58186040154209
 31
0.0
  0
LINE
  5
137
100
AcDbEntity
  8
0
  6
CONTINUOUS
 62
               7
100
AcDbLine
 10
-1.8000152587892444
 20
130.49998135945299
 30
0.0
 11
-1.8000152587892444
 21
150.99998135945305
 31
0.0
  0
LINE
  5
138
100
AcDbEntity
  8
0
  6
CONTINUOUS
 62
               7
100
AcDbLine
 10
-5.1000152587891989
 20
141.58186039406809
 30
0.0
 11
-5.1000152587891989
 21
150.99998135945305
 31
0.0
  0
LINE
  5
139
100
AcDbEntity
  8
0
  6
CONTINUOUS
 62
               7
100
AcDbLine
 10
-5.5000150680542674
 20
138.99998135945299
 30
0.0
 11
-1.8000152587892444
 21
138.99998135945299
 31
0.0
  0
LINE
  5
13A
100
AcDbEntity
  8
0
  6
CONTINUOUS
 62
               7
100
AcDbLine
 10
-5.5000152314013349
 20
138.99998126806378
 30
0.0
 11
-5.8000152194804286
 21
138.48036615347269
 31
0.0
  0
LINE
  5
13B
100
AcDbEntity
  8
0
  6
CONTINUOUS
 62
               7
100
AcDbLine
 10
-5.8000152587892444
 20
138.48036618611314
 30
0.0
 11
-5.8000152587892444
 21
132.51959748646715
 31
0.0
  0
LINE
  5
13C
100
AcDbEntity
  8
0
  6
CONTINUOUS
 62
               7
100
AcDbLine
 10
-5.5000150680542674
 20
138.99998135945299
 30
0.0
 11
-5.5000150680542674
 21
131.99998135945299
 31
0.0
  0
LINE
  5
13D
100
AcDbEntity
  8
0
  6
CONTINUOUS
 62
               7
100
AcDbLine
 10
-5.5000150257498603
 20
131.99998177647473
 30
0.0
 11
-5.8000151449591613
 21
132.5195974113073
 31
0.0
  0
LINE
  5
13E
100
AcDbEntity
  8
0
  6
CONTINUOUS
 62
               7
100
AcDbLine
 10
-5.5000150680542674
 20
131.99998135945299
 30
0.0
 11
-1.8000152587892444
 21
131.99998135945299
 31
0.0
  0
LINE
  5
13F
100
AcDbEntity
  8
0
  6
CONTINUOUS
 62
               2
100
AcDbLine
 10
-6.8981315421009981
 20
135.49998135945299
 30
0.0
 11
2.398989219129362
 21
135.49998135945299
 31
0.0
  0
LINE
  5
140
100
AcDbEntity
  8
0
  6
CONTINUOUS
 62
               7
100
AcDbLine
 10
-5.1000152587891989
 20
150.99998135945305
 30
0.0
 11
-0.0000152587891762
 21
150.99998135945305
 31
0.0
  0
LINE
  5
141
100
AcDbEntity
  8
0
  6
CONTINUOUS
 62
               7
100
AcDbLine
 10
-1.8000152587892444
 20
130.49998135945299
 30
0.0
 11
-0.0000152587891762
 21
130.49998135945299
 31
0.0
  0
LINE
  5
142
100
AcDbEntity
  8
0
  6
CONTINUOUS
 62
               7
100
AcDbLine
 10
-49.499969482421761
 20
46.499981689452909
 30
0.0
 11
0.0000152587891762
 21
46.499981689452909
 31
0.0
  0
CIRCLE
  5
143
100
AcDbEntity
  8
0
  6
CONTINUOUS
 62
               7
100
AcDbCircle
 10
77.799996722108745
 20
358.00244368122685
 30
0.0
 40
7.5
  0
CIRCLE
  5
144
100
AcDbEntity
  8
0
  6
CONTINUOUS
 62
               7
100
AcDbCircle
 10
77.799996722108745
 20
358.00244368122685
 30
0.0
 40
5.5
  0
CIRCLE
  5
145
100
AcDbEntity
  8
0
  6
CONTINUOUS
 62
               7
100
AcDbCircle
 10
77.799996722108745
 20
358.00244368122685
 30
0.0
 40
11.5
  0
ARC
  5
146
100
AcDbEntity
  8
0
  6
CONTINUOUS
 62
               7
100
AcDbCircle
 10
14.900015098789083
 20
178.99998735296867
 30
0.0
 40
1.0
100
AcDbArc
 50
180.0
 51
270.0
  0
ARC
  5
147
100
AcDbEntity
  8
0
  6
CONTINUOUS
 62
               7
100
AcDbCircle
 10
18.40001509878914
 20
177.49998735296867
 30
0.0
 40
3.5000000000000004
100
AcDbArc
 50
180.0
 51
270.0
  0
LINE
  5
148
100
AcDbEntity
  8
0
  6
CONTINUOUS
 62
               7
100
AcDbLine
 10
18.900015098789083
 20
172.99998124945304
 30
0.0
 11
18.900015098789083
 21
177.30000345648432
 31
0.0
  0
LINE
  5
149
100
AcDbEntity
  8
0
  6
CONTINUOUS
 62
               7
100
AcDbLine
 10
18.40001509878914
 20
177.30000345648432
 30
0.0
 11
18.40001509878914
 21
172.99998124945304
 31
0.0
  0
ARC
  5
14A
100
AcDbEntity
  8
0
  6
CONTINUOUS
 62
               7
100
AcDbCircle
 10
21.90001509878914
 20
196.76942118554661
 30
0.0
 40
3.5000000000000004
100
AcDbArc
 50
134.9685572354158
 51
179.99999999999997
  0
ARC
  5
14B
100
AcDbEntity
  8
0
  6
CONTINUOUS
 62
               7
100
AcDbCircle
 10
21.90001509878914
 20
196.26942118554652
 30
0.0
 40
3.0
100
AcDbArc
 50
134.96855723541546
 51
180.0
  0
ARC
  5
14C
100
AcDbEntity
  8
0
  6
CONTINUOUS
 62
               7
100
AcDbCircle
 10
14.900015098789083
 20
191.9999873529687
 30
0.0
 40
1.0
100
AcDbArc
 50
90.0
 51
180.0
  0
ARC
  5
14D
100
AcDbEntity
  8
0
  6
CONTINUOUS
 62
               7
100
AcDbCircle
 10
18.40001509878914
 20
193.4999873529687
 30
0.0
 40
3.5000000000000004
100
AcDbArc
 50
107.58284247057495
 51
180.0
  0
ARC
  5
14E
100
AcDbEntity
  8
0
  6
CONTINUOUS
 62
               7
100
AcDbCircle
 10
23.529670936801779
 20
195.49999124945285
 30
0.0
 40
6.3296561241149902
100
AcDbArc
 50
160.85729086486964
 51
199.14270731389303
  0
LINE
  5
14F
100
AcDbEntity
  8
0
  6
CONTINUOUS
 62
               7
100
AcDbLine
 10
17.550015074947282
 20
193.42435653151176
 30
0.0
 11
17.550015074947282
 21
197.57562596739433
 31
0.0
  0
LINE
  5
150
100
AcDbEntity
  8
0
  6
CONTINUOUS
 62
               7
100
AcDbLine
 10
17.5500150972764
 20
193.42435669119928
 30
0.0
 11
18.400015103018291
 21
193.34999132691698
 31
0.0
  0
LINE
  5
151
100
AcDbEntity
  8
0
  6
CONTINUOUS
 62
               7
100
AcDbLine
 10
17.550015097276571
 20
197.57562580770687
 30
0.0
 11
18.400015103018461
 21
197.64999117198909
 31
0.0
  0
LINE
  5
152
100
AcDbEntity
  8
0
  6
CONTINUOUS
 62
               7
100
AcDbLine
 10
18.40001509878914
 20
197.64999117198909
 30
0.0
 11
18.40001509878914
 21
190.70002787054682
 31
0.0
  0
LINE
  5
153
100
AcDbEntity
  8
0
  6
CONTINUOUS
 62
               7
100
AcDbLine
 10
13.900015098789083
 20
191.9999873529687
 30
0.0
 11
13.900015098789083
 21
178.99998735296867
 31
0.0
  0
LINE
  5
154
100
AcDbEntity
  8
0
  6
CONTINUOUS
 62
               7
100
AcDbLine
 10
14.900015098789083
 20
177.49998735296867
 30
0.0
 11
14.900015098789083
 21
193.4999873529687
 31
0.0
  0
LINE
  5
155
100
AcDbEntity
  8
0
  6
CONTINUOUS
 62
               7
100
AcDbLine
 10
21.0042029795178
 20
199.61490606126807
 30
0.0
 11
19.779859212284464
 21
198.39190534730596
 31
0.0
  0
LINE
  5
156
100
AcDbEntity
  8
0
  6
CONTINUOUS
 62
               7
100
AcDbLine
 10
21.0042029795178
 20
200.82162511577292
 30
0.0
 11
19.426499897867018
 21
199.24565270759928
 31
0.0
  0
LINE
  5
157
100
AcDbEntity
  8
0
  6
CONTINUOUS
 62
               7
100
AcDbLine
 10
18.900015098789083
 20
190.7000034564843
 30
0.0
 11
18.900015098789083
 21
196.26942118554652
 31
0.0
  0
LINE
  5
158
100
AcDbEntity
  8
0
  6
CONTINUOUS
 62
               7
100
AcDbLine
 10
60.000015098789106
 20
169.99998124945304
 30
0.0
 11
20.000015098789049
 21
169.99998124945304
 31
0.0
  0
LINE
  5
159
100
AcDbEntity
  8
0
  6
CONTINUOUS
 62
               2
100
AcDbLine
 10
92.072880821046397
 20
251.00250467438335
 30
0.0
 11
105.05821246342634
 21
251.00250467438335
 31
0.0
  0
CIRCLE
  5
15A
100
AcDbEntity
  8
0
  6
CONTINUOUS
 62
               7
100
AcDbCircle
 10
60.000015258789176
 20
19.799987792968579
 30
0.0
 40
1.1499999999999999
  0
CIRCLE
  5
15B
100
AcDbEntity
  8
0
  6
CONTINUOUS
 62
               7
100
AcDbCircle
 10
60.000015258789176
 20
19.799987792968579
 30
0.0
 40
1.5
  0
CIRCLE
  5
15C
100
AcDbEntity
  8
0
  6
CONTINUOUS
 62
               7
100
AcDbCircle
 10
60.000015258789176
 20
19.799987792968579
 30
0.0
 40
3.0
  0
CIRCLE
  5
15D
100
AcDbEntity
  8
0
  6
CONTINUOUS
 62
               7
100
AcDbCircle
 10
291.00001525878957
 20
11.799987792968579
 30
0.0
 40
3.1500000953674316
  0
CIRCLE
  5
15E
100
AcDbEntity
  8
0
  6
CONTINUOUS
 62
               7
100
AcDbCircle
 10
291.00001525878957
 20
11.799987792968579
 30
0.0
 40
3.0350000858306885
  0
CIRCLE
  5
15F
100
AcDbEntity
  8
0
  6
CONTINUOUS
 62
               7
100
AcDbCircle
 10
20.000015258789176
 20
19.799987792968579
 30
0.0
 40
3.0
  0
CIRCLE
  5
160
100
AcDbEntity
  8
0
  6
CONTINUOUS
 62
               7
100
AcDbCircle
 10
20.000015258789176
 20
19.799987792968579
 30
0.0
 40
1.5
  0
CIRCLE
  5
161
100
AcDbEntity
  8
0
  6
CONTINUOUS
 62
               7
100
AcDbCircle
 10
20.000015258789176
 20
19.799987792968579
 30
0.0
 40
1.1499999999999999
  0
CIRCLE
  5
162
100
AcDbEntity
  8
0
  6
CONTINUOUS
 62
               7
100
AcDbCircle
 10
6.000015258789233
 20
11.799987792968579
 30
0.0
 40
3.0350000858306885
  0
CIRCLE
  5
163
100
AcDbEntity
  8
0
  6
CONTINUOUS
 62
               7
100
AcDbCircle
 10
6.000015258789233
 20
11.799987792968579
 30
0.0
 40
3.1500000953674316
  0
CIRCLE
  5
164
100
AcDbEntity
  8
0
  6
CONTINUOUS
 62
               7
100
AcDbCircle
 10
148.50001525878963
 20
11.799987792968579
 30
0.0
 40
3.0350000858306885
  0
CIRCLE
  5
165
100
AcDbEntity
  8
0
  6
CONTINUOUS
 62
               7
100
AcDbCircle
 10
148.50001525878963
 20
11.799987792968579
 30
0.0
 40
3.1500000953674316
  0
ARC
  5
166
100
AcDbEntity
  8
0
  6
CONTINUOUS
 62
               7
100
AcDbCircle
 10
148.55000305175793
 20
29.799987792968579
 30
0.0
 40
1.0499999523162842
100
AcDbArc
 50
90.000002504478161
 51
270.00000068324533
  0
ARC
  5
167
100
AcDbEntity
  8
0
  6
CONTINUOUS
 62
               7
100
AcDbCircle
 10
148.55000305175793
 20
39.799987792968579
 30
0.0
 40
1.0499999523162842
100
AcDbArc
 50
90.000002504478161
 51
270.00000068324533
  0
LINE
  5
168
100
AcDbEntity
  8
0
  6
CONTINUOUS
 62
               7
100
AcDbLine
 10
156.05000305175793
 20
43.749984741210824
 30
0.0
 11
163.95002746582048
 21
43.749984741210824
 31
0.0
  0
LINE
  5
169
100
AcDbEntity
  8
0
  6
CONTINUOUS
 62
               7
100
AcDbLine
 10
156.05000305175793
 20
45.849990844726392
 30
0.0
 11
163.95002746582048
 21
45.849990844726392
 31
0.0
  0
LINE
  5
16A
100
AcDbEntity
  8
0
  6
CONTINUOUS
 62
               7
100
AcDbLine
 10
156.05000305175793
 20
33.749984741210824
 30
0.0
 11
163.95002746582048
 21
33.749984741210824
 31
0.0
  0
LINE
  5
16B
100
AcDbEntity
  8
0
  6
CONTINUOUS
 62
               7
100
AcDbLine
 10
156.05000305175793
 20
35.849990844726392
 30
0.0
 11
163.95002746582048
 21
35.849990844726392
 31
0.0
  0
LINE
  5
16C
100
AcDbEntity
  8
0
  6
CONTINUOUS
 62
               7
100
AcDbLine
 10
156.05000305175793
 20
23.749984741210767
 30
0.0
 11
163.95002746582048
 21
23.749984741210767
 31
0.0
  0
LINE
  5
16D
100
AcDbEntity
  8
0
  6
CONTINUOUS
 62
               7
100
AcDbLine
 10
156.05000305175793
 20
25.849990844726392
 30
0.0
 11
163.95002746582048
 21
25.849990844726392
 31
0.0
  0
ARC
  5
16E
100
AcDbEntity
  8
0
  6
CONTINUOUS
 62
               7
100
AcDbCircle
 10
156.05000305175793
 20
24.799987792968579
 30
0.0
 40
1.0499999523162842
100
AcDbArc
 50
90.000002504478161
 51
270.00000068324533
  0
ARC
  5
16F
100
AcDbEntity
  8
0
  6
CONTINUOUS
 62
               7
100
AcDbCircle
 10
156.45002746582048
 20
29.799987792968579
 30
0.0
 40
1.0499999523162842
100
AcDbArc
 50
269.99999749552182
 51
90.000002504478161
  0
ARC
  5
170
100
AcDbEntity
  8
0
  6
CONTINUOUS
 62
               7
100
AcDbCircle
 10
156.05000305175793
 20
34.799987792968579
 30
0.0
 40
1.0499999523162842
100
AcDbArc
 50
90.000002504478161
 51
270.00000068324533
  0
ARC
  5
171
100
AcDbEntity
  8
0
  6
CONTINUOUS
 62
               7
100
AcDbCircle
 10
156.45002746582048
 20
39.799987792968579
 30
0.0
 40
1.0499999523162842
100
AcDbArc
 50
269.99999749552182
 51
90.000002504478161
  0
ARC
  5
172
100
AcDbEntity
  8
0
  6
CONTINUOUS
 62
               7
100
AcDbCircle
 10
156.05000305175793
 20
44.799987792968579
 30
0.0
 40
1.0499999523162842
100
AcDbArc
 50
90.000002504478161
 51
270.00000068324533
  0
ARC
  5
173
100
AcDbEntity
  8
0
  6
CONTINUOUS
 62
               7
100
AcDbCircle
 10
163.95002746582048
 20
44.799987792968579
 30
0.0
 40
1.0499999523162842
100
AcDbArc
 50
269.99999749552182
 51
90.000002504478161
  0
ARC
  5
174
100
AcDbEntity
  8
0
  6
CONTINUOUS
 62
               7
100
AcDbCircle
 10
163.95002746582048
 20
34.799987792968579
 30
0.0
 40
1.0499999523162842
100
AcDbArc
 50
269.99999749552182
 51
90.000002504478161
  0
ARC
  5
175
100
AcDbEntity
  8
0
  6
CONTINUOUS
 62
               7
100
AcDbCircle
 10
163.95002746582048
 20
24.799987792968579
 30
0.0
 40
1.0499999523162842
100
AcDbArc
 50
269.99999749552182
 51
90.000002504478161
  0
LINE
  5
176
100
AcDbEntity
  8
0
  6
CONTINUOUS
 62
               7
100
AcDbLine
 10
171.05000305175793
 20
43.749984741210824
 30
0.0
 11
178.95002746582048
 21
43.749984741210824
 31
0.0
  0
LINE
  5
177
100
AcDbEntity
  8
0
  6
CONTINUOUS
 62
               7
100
AcDbLine
 10
171.05000305175793
 20
45.849990844726392
 30
0.0
 11
178.95002746582048
 21
45.849990844726392
 31
0.0
  0
LINE
  5
178
100
AcDbEntity
  8
0
  6
CONTINUOUS
 62
               7
100
AcDbLine
 10
163.55000305175793
 20
38.749984741210824
 30
0.0
 11
171.45002746582048
 21
38.749984741210824
 31
0.0
  0
LINE
  5
179
100
AcDbEntity
  8
0
  6
CONTINUOUS
 62
               7
100
AcDbLine
 10
163.55000305175793
 20
40.849990844726392
 30
0.0
 11
171.45002746582048
 21
40.849990844726392
 31
0.0
  0
LINE
  5
17A
100
AcDbEntity
  8
0
  6
CONTINUOUS
 62
               7
100
AcDbLine
 10
171.05000305175793
 20
33.749984741210824
 30
0.0
 11
178.95002746582048
 21
33.749984741210824
 31
0.0
  0
LINE
  5
17B
100
AcDbEntity
  8
0
  6
CONTINUOUS
 62
               7
100
AcDbLine
 10
171.05000305175793
 20
35.849990844726392
 30
0.0
 11
178.95002746582048
 21
35.849990844726392
 31
0.0
  0
LINE
  5
17C
100
AcDbEntity
  8
0
  6
CONTINUOUS
 62
               7
100
AcDbLine
 10
163.55000305175793
 20
30.849990844726392
 30
0.0
 11
171.45002746582048
 21
30.849990844726392
 31
0.0
  0
LINE
  5
17D
100
AcDbEntity
  8
0
  6
CONTINUOUS
 62
               7
100
AcDbLine
 10
163.55000305175793
 20
28.749984741210767
 30
0.0
 11
171.45002746582048
 21
28.749984741210767
 31
0.0
  0
LINE
  5
17E
100
AcDbEntity
  8
0
  6
CONTINUOUS
 62
               7
100
AcDbLine
 10
171.05000305175793
 20
23.749984741210767
 30
0.0
 11
178.95002746582048
 21
23.749984741210767
 31
0.0
  0
LINE
  5
17F
100
AcDbEntity
  8
0
  6
CONTINUOUS
 62
               7
100
AcDbLine
 10
171.05000305175793
 20
25.849990844726392
 30
0.0
 11
178.95002746582048
 21
25.849990844726392
 31
0.0
  0
ARC
  5
180
100
AcDbEntity
  8
0
  6
CONTINUOUS
 62
               7
100
AcDbCircle
 10
171.05000305175793
 20
24.799987792968579
 30
0.0
 40
1.0499999523162842
100
AcDbArc
 50
90.000002504478161
 51
270.00000068324533
  0
ARC
  5
181
100
AcDbEntity
  8
0
  6
CONTINUOUS
 62
               7
100
AcDbCircle
 10
171.45002746582048
 20
29.799987792968579
 30
0.0
 40
1.0499999523162842
100
AcDbArc
 50
269.99999749552182
 51
90.000002504478161
  0
ARC
  5
182
100
AcDbEntity
  8
0
  6
CONTINUOUS
 62
               7
100
AcDbCircle
 10
171.05000305175793
 20
34.799987792968579
 30
0.0
 40
1.0499999523162842
100
AcDbArc
 50
90.000002504478161
 51
270.00000068324533
  0
ARC
  5
183
100
AcDbEntity
  8
0
  6
CONTINUOUS
 62
               7
100
AcDbCircle
 10
171.45002746582048
 20
39.799987792968579
 30
0.0
 40
1.0499999523162842
100
AcDbArc
 50
269.99999749552182
 51
90.000002504478161
  0
ARC
  5
184
100
AcDbEntity
  8
0
  6
CONTINUOUS
 62
               7
100
AcDbCircle
 10
171.05000305175793
 20
44.799987792968579
 30
0.0
 40
1.0499999523162842
100
AcDbArc
 50
90.000002504478161
 51
270.00000068324533
  0
ARC
  5
185
100
AcDbEntity
  8
0
  6
CONTINUOUS
 62
               7
100
AcDbCircle
 10
178.95002746582048
 20
44.799987792968579
 30
0.0
 40
1.0499999523162842
100
AcDbArc
 50
269.99999749552182
 51
90.000002504478161
  0
ARC
  5
186
100
AcDbEntity
  8
0
  6
CONTINUOUS
 62
               7
100
AcDbCircle
 10
163.55000305175793
 20
39.799987792968579
 30
0.0
 40
1.0499999523162842
100
AcDbArc
 50
90.000002504478161
 51
270.00000068324533
  0
ARC
  5
187
100
AcDbEntity
  8
0
  6
CONTINUOUS
 62
               7
100
AcDbCircle
 10
163.55000305175793
 20
29.799987792968579
 30
0.0
 40
1.0499999523162842
100
AcDbArc
 50
90.000002504478161
 51
270.00000068324533
  0
ARC
  5
188
100
AcDbEntity
  8
0
  6
CONTINUOUS
 62
               7
100
AcDbCircle
 10
178.95002746582048
 20
34.799987792968579
 30
0.0
 40
1.0499999523162842
100
AcDbArc
 50
269.99999749552182
 51
90.000002504478161
  0
ARC
  5
189
100
AcDbEntity
  8
0
  6
CONTINUOUS
 62
               7
100
AcDbCircle
 10
178.95002746582048
 20
24.799987792968579
 30
0.0
 40
1.0499999523162842
100
AcDbArc
 50
269.99999749552182
 51
90.000002504478161
  0
LINE
  5
18A
100
AcDbEntity
  8
0
  6
CONTINUOUS
 62
               7
100
AcDbLine
 10
186.05000305175798
 20
43.749984741210824
 30
0.0
 11
193.95002746582043
 21
43.749984741210824
 31
0.0
  0
LINE
  5
18B
100
AcDbEntity
  8
0
  6
CONTINUOUS
 62
               7
100
AcDbLine
 10
186.05000305175798
 20
45.849990844726392
 30
0.0
 11
193.95002746582043
 21
45.849990844726392
 31
0.0
  0
LINE
  5
18C
100
AcDbEntity
  8
0
  6
CONTINUOUS
 62
               7
100
AcDbLine
 10
178.55000305175793
 20
38.749984741210824
 30
0.0
 11
186.45002746582045
 21
38.749984741210824
 31
0.0
  0
LINE
  5
18D
100
AcDbEntity
  8
0
  6
CONTINUOUS
 62
               7
100
AcDbLine
 10
178.55000305175793
 20
40.849990844726392
 30
0.0
 11
186.45002746582045
 21
40.849990844726392
 31
0.0
  0
LINE
  5
18E
100
AcDbEntity
  8
0
  6
CONTINUOUS
 62
               7
100
AcDbLine
 10
186.05000305175798
 20
33.749984741210824
 30
0.0
 11
193.95002746582043
 21
33.749984741210824
 31
0.0
  0
LINE
  5
18F
100
AcDbEntity
  8
0
  6
CONTINUOUS
 62
               7
100
AcDbLine
 10
186.05000305175798
 20
35.849990844726392
 30
0.0
 11
193.95002746582043
 21
35.849990844726392
 31
0.0
  0
LINE
  5
190
100
AcDbEntity
  8
0
  6
CONTINUOUS
 62
               7
100
AcDbLine
 10
178.55000305175793
 20
30.849990844726392
 30
0.0
 11
186.45002746582045
 21
30.849990844726392
 31
0.0
  0
LINE
  5
191
100
AcDbEntity
  8
0
  6
CONTINUOUS
 62
               7
100
AcDbLine
 10
178.55000305175793
 20
28.749984741210767
 30
0.0
 11
186.45002746582045
 21
28.749984741210767
 31
0.0
  0
LINE
  5
192
100
AcDbEntity
  8
0
  6
CONTINUOUS
 62
               7
100
AcDbLine
 10
186.05000305175798
 20
23.749984741210767
 30
0.0
 11
193.95002746582043
 21
23.749984741210767
 31
0.0
  0
LINE
  5
193
100
AcDbEntity
  8
0
  6
CONTINUOUS
 62
               7
100
AcDbLine
 10
186.05000305175798
 20
25.849990844726392
 30
0.0
 11
193.95002746582043
 21
25.849990844726392
 31
0.0
  0
ARC
  5
194
100
AcDbEntity
  8
0
  6
CONTINUOUS
 62
               7
100
AcDbCircle
 10
186.05000305175798
 20
24.799987792968579
 30
0.0
 40
1.0499999523162842
100
AcDbArc
 50
90.000002504478161
 51
270.00000068324533
  0
ARC
  5
195
100
AcDbEntity
  8
0
  6
CONTINUOUS
 62
               7
100
AcDbCircle
 10
186.45002746582045
 20
29.799987792968579
 30
0.0
 40
1.0499999523162842
100
AcDbArc
 50
269.99999749552182
 51
90.000002504478161
  0
ARC
  5
196
100
AcDbEntity
  8
0
  6
CONTINUOUS
 62
               7
100
AcDbCircle
 10
186.05000305175798
 20
34.799987792968579
 30
0.0
 40
1.0499999523162842
100
AcDbArc
 50
90.000002504478161
 51
270.00000068324533
  0
ARC
  5
197
100
AcDbEntity
  8
0
  6
CONTINUOUS
 62
               7
100
AcDbCircle
 10
186.45002746582045
 20
39.799987792968579
 30
0.0
 40
1.0499999523162842
100
AcDbArc
 50
269.99999749552182
 51
90.000002504478161
  0
ARC
  5
198
100
AcDbEntity
  8
0
  6
CONTINUOUS
 62
               7
100
AcDbCircle
 10
186.05000305175798
 20
44.799987792968579
 30
0.0
 40
1.0499999523162842
100
AcDbArc
 50
90.000002504478161
 51
270.00000068324533
  0
ARC
  5
199
100
AcDbEntity
  8
0
  6
CONTINUOUS
 62
               7
100
AcDbCircle
 10
193.95002746582043
 20
44.799987792968579
 30
0.0
 40
1.0499999523162842
100
AcDbArc
 50
269.99999749552182
 51
90.000002504478161
  0
ARC
  5
19A
100
AcDbEntity
  8
0
  6
CONTINUOUS
 62
               7
100
AcDbCircle
 10
178.55000305175793
 20
39.799987792968579
 30
0.0
 40
1.0499999523162842
100
AcDbArc
 50
90.000002504478161
 51
270.00000068324533
  0
ARC
  5
19B
100
AcDbEntity
  8
0
  6
CONTINUOUS
 62
               7
100
AcDbCircle
 10
178.55000305175793
 20
29.799987792968579
 30
0.0
 40
1.0499999523162842
100
AcDbArc
 50
90.000002504478161
 51
270.00000068324533
  0
ARC
  5
19C
100
AcDbEntity
  8
0
  6
CONTINUOUS
 62
               7
100
AcDbCircle
 10
193.95002746582043
 20
34.799987792968579
 30
0.0
 40
1.0499999523162842
100
AcDbArc
 50
269.99999749552182
 51
90.000002504478161
  0
ARC
  5
19D
100
AcDbEntity
  8
0
  6
CONTINUOUS
 62
               7
100
AcDbCircle
 10
193.95002746582043
 20
24.799987792968579
 30
0.0
 40
1.0499999523162842
100
AcDbArc
 50
269.99999749552182
 51
90.000002504478161
  0
LINE
  5
19E
100
AcDbEntity
  8
0
  6
CONTINUOUS
 62
               7
100
AcDbLine
 10
148.55000305175793
 20
28.749984741210767
 30
0.0
 11
156.45002746582048
 21
28.749984741210767
 31
0.0
  0
LINE
  5
19F
100
AcDbEntity
  8
0
  6
CONTINUOUS
 62
               7
100
AcDbLine
 10
148.55000305175793
 20
30.849990844726392
 30
0.0
 11
156.45002746582048
 21
30.849990844726392
 31
0.0
  0
LINE
  5
1A0
100
AcDbEntity
  8
0
  6
CONTINUOUS
 62
               7
100
AcDbLine
 10
148.55000305175793
 20
40.849990844726392
 30
0.0
 11
156.45002746582048
 21
40.849990844726392
 31
0.0
  0
LINE
  5
1A1
100
AcDbEntity
  8
0
  6
CONTINUOUS
 62
               7
100
AcDbLine
 10
148.55000305175793
 20
38.749984741210824
 30
0.0
 11
156.45002746582048
 21
38.749984741210824
 31
0.0
  0
LINE
  5
1A2
100
AcDbEntity
  8
0
  6
CONTINUOUS
 62
               7
100
AcDbLine
 10
96.050003051757926
 20
25.849990844726392
 30
0.0
 11
103.95002746582048
 21
25.849990844726392
 31
0.0
  0
LINE
  5
1A3
100
AcDbEntity
  8
0
  6
CONTINUOUS
 62
               7
100
AcDbLine
 10
96.050003051757926
 20
23.749984741210767
 30
0.0
 11
103.95002746582048
 21
23.749984741210767
 31
0.0
  0
LINE
  5
1A4
100
AcDbEntity
  8
0
  6
CONTINUOUS
 62
               7
100
AcDbLine
 10
111.05000305175793
 20
25.849990844726392
 30
0.0
 11
118.95002746582048
 21
25.849990844726392
 31
0.0
  0
LINE
  5
1A5
100
AcDbEntity
  8
0
  6
CONTINUOUS
 62
               7
100
AcDbLine
 10
111.05000305175793
 20
23.749984741210767
 30
0.0
 11
118.95002746582048
 21
23.749984741210767
 31
0.0
  0
LINE
  5
1A6
100
AcDbEntity
  8
0
  6
CONTINUOUS
 62
               7
100
AcDbLine
 10
126.05000305175793
 20
23.749984741210767
 30
0.0
 11
133.95002746582048
 21
23.749984741210767
 31
0.0
  0
LINE
  5
1A7
100
AcDbEntity
  8
0
  6
CONTINUOUS
 62
               7
100
AcDbLine
 10
126.05000305175793
 20
25.849990844726392
 30
0.0
 11
133.95002746582048
 21
25.849990844726392
 31
0.0
  0
LINE
  5
1A8
100
AcDbEntity
  8
0
  6
CONTINUOUS
 62
               7
100
AcDbLine
 10
141.05000305175793
 20
23.749984741210767
 30
0.0
 11
148.95001220703136
 21
23.749984741210767
 31
0.0
  0
LINE
  5
1A9
100
AcDbEntity
  8
0
  6
CONTINUOUS
 62
               7
100
AcDbLine
 10
141.05000305175793
 20
25.849990844726392
 30
0.0
 11
148.95001220703136
 21
25.849990844726392
 31
0.0
  0
LINE
  5
1AA
100
AcDbEntity
  8
0
  6
CONTINUOUS
 62
               7
100
AcDbLine
 10
133.55000305175793
 20
30.617828369140454
 30
0.0
 11
141.45002746582048
 21
30.617828369140454
 31
0.0
  0
LINE
  5
1AB
100
AcDbEntity
  8
0
  6
CONTINUOUS
 62
               7
100
AcDbLine
 10
133.55000305175793
 20
28.517837524413892
 30
0.0
 11
141.45002746582048
 21
28.517837524413892
 31
0.0
  0
LINE
  5
1AC
100
AcDbEntity
  8
0
  6
CONTINUOUS
 62
               7
100
AcDbLine
 10
118.55000305175793
 20
28.749984741210767
 30
0.0
 11
126.45002746582048
 21
28.749984741210767
 31
0.0
  0
LINE
  5
1AD
100
AcDbEntity
  8
0
  6
CONTINUOUS
 62
               7
100
AcDbLine
 10
118.55000305175793
 20
30.849990844726392
 30
0.0
 11
126.45002746582048
 21
30.849990844726392
 31
0.0
  0
LINE
  5
1AE
100
AcDbEntity
  8
0
  6
CONTINUOUS
 62
               7
100
AcDbLine
 10
103.55000305175793
 20
28.749984741210767
 30
0.0
 11
111.45002746582048
 21
28.749984741210767
 31
0.0
  0
LINE
  5
1AF
100
AcDbEntity
  8
0
  6
CONTINUOUS
 62
               7
100
AcDbLine
 10
103.55000305175793
 20
30.849990844726392
 30
0.0
 11
111.45002746582048
 21
30.849990844726392
 31
0.0
  0
LINE
  5
1B0
100
AcDbEntity
  8
0
  6
CONTINUOUS
 62
               7
100
AcDbLine
 10
96.050003051757926
 20
35.849990844726392
 30
0.0
 11
103.95002746582048
 21
35.849990844726392
 31
0.0
  0
LINE
  5
1B1
100
AcDbEntity
  8
0
  6
CONTINUOUS
 62
               7
100
AcDbLine
 10
96.050003051757926
 20
33.749984741210824
 30
0.0
 11
103.95002746582048
 21
33.749984741210824
 31
0.0
  0
LINE
  5
1B2
100
AcDbEntity
  8
0
  6
CONTINUOUS
 62
               7
100
AcDbLine
 10
111.05000305175793
 20
35.849990844726392
 30
0.0
 11
118.95002746582048
 21
35.849990844726392
 31
0.0
  0
LINE
  5
1B3
100
AcDbEntity
  8
0
  6
CONTINUOUS
 62
               7
100
AcDbLine
 10
111.05000305175793
 20
33.749984741210824
 30
0.0
 11
118.95002746582048
 21
33.749984741210824
 31
0.0
  0
LINE
  5
1B4
100
AcDbEntity
  8
0
  6
CONTINUOUS
 62
               7
100
AcDbLine
 10
126.05000305175793
 20
33.749984741210824
 30
0.0
 11
133.95002746582048
 21
33.749984741210824
 31
0.0
  0
LINE
  5
1B5
100
AcDbEntity
  8
0
  6
CONTINUOUS
 62
               7
100
AcDbLine
 10
126.05000305175793
 20
35.849990844726392
 30
0.0
 11
133.95002746582048
 21
35.849990844726392
 31
0.0
  0
LINE
  5
1B6
100
AcDbEntity
  8
0
  6
CONTINUOUS
 62
               7
100
AcDbLine
 10
140.95082092285168
 20
35.849990844726392
 30
0.0
 11
148.85081481933616
 21
35.849990844726392
 31
0.0
  0
LINE
  5
1B7
100
AcDbEntity
  8
0
  6
CONTINUOUS
 62
               7
100
AcDbLine
 10
140.95082092285168
 20
33.749984741210824
 30
0.0
 11
148.85081481933616
 21
33.749984741210824
 31
0.0
  0
LINE
  5
1B8
100
AcDbEntity
  8
0
  6
CONTINUOUS
 62
               7
100
AcDbLine
 10
133.55000305175793
 20
38.749984741210824
 30
0.0
 11
141.45002746582048
 21
38.749984741210824
 31
0.0
  0
LINE
  5
1B9
100
AcDbEntity
  8
0
  6
CONTINUOUS
 62
               7
100
AcDbLine
 10
133.55000305175793
 20
40.849990844726392
 30
0.0
 11
141.45002746582048
 21
40.849990844726392
 31
0.0
  0
LINE
  5
1BA
100
AcDbEntity
  8
0
  6
CONTINUOUS
 62
               7
100
AcDbLine
 10
118.55000305175793
 20
40.849990844726392
 30
0.0
 11
126.45002746582048
 21
40.849990844726392
 31
0.0
  0
LINE
  5
1BB
100
AcDbEntity
  8
0
  6
CONTINUOUS
 62
               7
100
AcDbLine
 10
118.55000305175793
 20
38.749984741210824
 30
0.0
 11
126.45002746582048
 21
38.749984741210824
 31
0.0
  0
LINE
  5
1BC
100
AcDbEntity
  8
0
  6
CONTINUOUS
 62
               7
100
AcDbLine
 10
103.55000305175793
 20
40.849990844726392
 30
0.0
 11
111.45002746582048
 21
40.849990844726392
 31
0.0
  0
LINE
  5
1BD
100
AcDbEntity
  8
0
  6
CONTINUOUS
 62
               7
100
AcDbLine
 10
103.55000305175793
 20
38.749984741210824
 30
0.0
 11
111.45002746582048
 21
38.749984741210824
 31
0.0
  0
LINE
  5
1BE
100
AcDbEntity
  8
0
  6
CONTINUOUS
 62
               7
100
AcDbLine
 10
96.050003051757926
 20
43.749984741210824
 30
0.0
 11
103.95002746582048
 21
43.749984741210824
 31
0.0
  0
LINE
  5
1BF
100
AcDbEntity
  8
0
  6
CONTINUOUS
 62
               7
100
AcDbLine
 10
96.050003051757926
 20
45.849990844726392
 30
0.0
 11
103.95002746582048
 21
45.849990844726392
 31
0.0
  0
LINE
  5
1C0
100
AcDbEntity
  8
0
  6
CONTINUOUS
 62
               7
100
AcDbLine
 10
111.05000305175793
 20
45.849990844726392
 30
0.0
 11
118.95002746582048
 21
45.849990844726392
 31
0.0
  0
LINE
  5
1C1
100
AcDbEntity
  8
0
  6
CONTINUOUS
 62
               7
100
AcDbLine
 10
111.05000305175793
 20
43.749984741210824
 30
0.0
 11
118.95002746582048
 21
43.749984741210824
 31
0.0
  0
LINE
  5
1C2
100
AcDbEntity
  8
0
  6
CONTINUOUS
 62
               7
100
AcDbLine
 10
126.05000305175793
 20
43.749984741210824
 30
0.0
 11
133.95002746582048
 21
43.749984741210824
 31
0.0
  0
LINE
  5
1C3
100
AcDbEntity
  8
0
  6
CONTINUOUS
 62
               7
100
AcDbLine
 10
126.05000305175793
 20
45.849990844726392
 30
0.0
 11
133.95002746582048
 21
45.849990844726392
 31
0.0
  0
LINE
  5
1C4
100
AcDbEntity
  8
0
  6
CONTINUOUS
 62
               7
100
AcDbLine
 10
141.05000305175793
 20
45.849990844726392
 30
0.0
 11
148.95001220703136
 21
45.849990844726392
 31
0.0
  0
LINE
  5
1C5
100
AcDbEntity
  8
0
  6
CONTINUOUS
 62
               7
100
AcDbLine
 10
141.05000305175793
 20
43.749984741210824
 30
0.0
 11
148.95001220703136
 21
43.749984741210824
 31
0.0
  0
ARC
  5
1C6
100
AcDbEntity
  8
0
  6
CONTINUOUS
 62
               7
100
AcDbCircle
 10
96.050003051757926
 20
24.799987792968579
 30
0.0
 40
1.0499999523162842
100
AcDbArc
 50
90.000002504478161
 51
270.00000068324533
  0
ARC
  5
1C7
100
AcDbEntity
  8
0
  6
CONTINUOUS
 62
               7
100
AcDbCircle
 10
103.95002746582048
 20
24.799987792968579
 30
0.0
 40
1.0499999523162842
100
AcDbArc
 50
269.99999749552182
 51
90.000002504478161
  0
ARC
  5
1C8
100
AcDbEntity
  8
0
  6
CONTINUOUS
 62
               7
100
AcDbCircle
 10
111.05000305175793
 20
24.799987792968579
 30
0.0
 40
1.0499999523162842
100
AcDbArc
 50
90.000002504478161
 51
270.00000068324533
  0
ARC
  5
1C9
100
AcDbEntity
  8
0
  6
CONTINUOUS
 62
               7
100
AcDbCircle
 10
118.95002746582048
 20
24.799987792968579
 30
0.0
 40
1.0499999523162842
100
AcDbArc
 50
269.99999749552182
 51
90.000002504478161
  0
ARC
  5
1CA
100
AcDbEntity
  8
0
  6
CONTINUOUS
 62
               7
100
AcDbCircle
 10
126.05000305175793
 20
24.799987792968579
 30
0.0
 40
1.0499999523162842
100
AcDbArc
 50
90.000002504478161
 51
270.00000068324533
  0
ARC
  5
1CB
100
AcDbEntity
  8
0
  6
CONTINUOUS
 62
               7
100
AcDbCircle
 10
133.95002746582048
 20
24.799987792968579
 30
0.0
 40
1.0499999523162842
100
AcDbArc
 50
269.99999749552182
 51
90.000002504478161
  0
ARC
  5
1CC
100
AcDbEntity
  8
0
  6
CONTINUOUS
 62
               7
100
AcDbCircle
 10
141.05000305175793
 20
24.799987792968579
 30
0.0
 40
1.0499999523162842
100
AcDbArc
 50
90.000002504478161
 51
270.00000068324533
  0
ARC
  5
1CD
100
AcDbEntity
  8
0
  6
CONTINUOUS
 62
               7
100
AcDbCircle
 10
148.95001220703136
 20
24.799987792968579
 30
0.0
 40
1.0499999523162842
100
AcDbArc
 50
269.99999749552182
 51
90.000002504478161
  0
ARC
  5
1CE
100
AcDbEntity
  8
0
  6
CONTINUOUS
 62
               7
100
AcDbCircle
 10
141.45002746582048
 20
29.567840576171761
 30
0.0
 40
1.0499999523162842
100
AcDbArc
 50
269.99999749552182
 51
90.000002504478161
  0
ARC
  5
1CF
100
AcDbEntity
  8
0
  6
CONTINUOUS
 62
               7
100
AcDbCircle
 10
133.55000305175793
 20
29.567840576171761
 30
0.0
 40
1.0499999523162842
100
AcDbArc
 50
90.000002504478161
 51
270.00000068324533
  0
ARC
  5
1D0
100
AcDbEntity
  8
0
  6
CONTINUOUS
 62
               7
100
AcDbCircle
 10
126.45002746582048
 20
29.799987792968579
 30
0.0
 40
1.0499999523162842
100
AcDbArc
 50
269.99999749552182
 51
90.000002504478161
  0
ARC
  5
1D1
100
AcDbEntity
  8
0
  6
CONTINUOUS
 62
               7
100
AcDbCircle
 10
118.55000305175793
 20
29.799987792968579
 30
0.0
 40
1.0499999523162842
100
AcDbArc
 50
90.000002504478161
 51
270.00000068324533
  0
ARC
  5
1D2
100
AcDbEntity
  8
0
  6
CONTINUOUS
 62
               7
100
AcDbCircle
 10
103.55000305175793
 20
29.799987792968579
 30
0.0
 40
1.0499999523162842
100
AcDbArc
 50
90.000002504478161
 51
270.00000068324533
  0
ARC
  5
1D3
100
AcDbEntity
  8
0
  6
CONTINUOUS
 62
               7
100
AcDbCircle
 10
111.45002746582048
 20
29.799987792968579
 30
0.0
 40
1.0499999523162842
100
AcDbArc
 50
269.99999749552182
 51
90.000002504478161
  0
ARC
  5
1D4
100
AcDbEntity
  8
0
  6
CONTINUOUS
 62
               7
100
AcDbCircle
 10
103.95002746582048
 20
34.799987792968579
 30
0.0
 40
1.0499999523162842
100
AcDbArc
 50
269.99999749552182
 51
90.000002504478161
  0
ARC
  5
1D5
100
AcDbEntity
  8
0
  6
CONTINUOUS
 62
               7
100
AcDbCircle
 10
96.050003051757926
 20
34.799987792968579
 30
0.0
 40
1.0499999523162842
100
AcDbArc
 50
90.000002504478161
 51
270.00000068324533
  0
ARC
  5
1D6
100
AcDbEntity
  8
0
  6
CONTINUOUS
 62
               7
100
AcDbCircle
 10
111.05000305175793
 20
34.799987792968579
 30
0.0
 40
1.0499999523162842
100
AcDbArc
 50
90.000002504478161
 51
270.00000068324533
  0
ARC
  5
1D7
100
AcDbEntity
  8
0
  6
CONTINUOUS
 62
               7
100
AcDbCircle
 10
118.95002746582048
 20
34.799987792968579
 30
0.0
 40
1.0499999523162842
100
AcDbArc
 50
269.99999749552182
 51
90.000002504478161
  0
ARC
  5
1D8
100
AcDbEntity
  8
0
  6
CONTINUOUS
 62
               7
100
AcDbCircle
 10
126.05000305175793
 20
34.799987792968579
 30
0.0
 40
1.0499999523162842
100
AcDbArc
 50
90.000002504478161
 51
270.00000068324533
  0
ARC
  5
1D9
100
AcDbEntity
  8
0
  6
CONTINUOUS
 62
               7
100
AcDbCircle
 10
133.95002746582048
 20
34.799987792968579
 30
0.0
 40
1.0499999523162842
100
AcDbArc
 50
269.99999749552182
 51
90.000002504478161
  0
ARC
  5
1DA
100
AcDbEntity
  8
0
  6
CONTINUOUS
 62
               7
100
AcDbCircle
 10
140.95082092285168
 20
34.799987792968579
 30
0.0
 40
1.0499999523162842
100
AcDbArc
 50
90.000002504478161
 51
270.00000068324533
  0
ARC
  5
1DB
100
AcDbEntity
  8
0
  6
CONTINUOUS
 62
               7
100
AcDbCircle
 10
148.85081481933616
 20
34.799987792968579
 30
0.0
 40
1.0499999523162842
100
AcDbArc
 50
269.99999749552182
 51
90.000002504478161
  0
ARC
  5
1DC
100
AcDbEntity
  8
0
  6
CONTINUOUS
 62
               7
100
AcDbCircle
 10
133.55000305175793
 20
39.799987792968579
 30
0.0
 40
1.0499999523162842
100
AcDbArc
 50
90.000002504478161
 51
270.00000068324533
  0
ARC
  5
1DD
100
AcDbEntity
  8
0
  6
CONTINUOUS
 62
               7
100
AcDbCircle
 10
141.45002746582048
 20
39.799987792968579
 30
0.0
 40
1.0499999523162842
100
AcDbArc
 50
269.99999749552182
 51
90.000002504478161
  0
ARC
  5
1DE
100
AcDbEntity
  8
0
  6
CONTINUOUS
 62
               7
100
AcDbCircle
 10
118.55000305175793
 20
39.799987792968579
 30
0.0
 40
1.0499999523162842
100
AcDbArc
 50
90.000002504478161
 51
270.00000068324533
  0
ARC
  5
1DF
100
AcDbEntity
  8
0
  6
CONTINUOUS
 62
               7
100
AcDbCircle
 10
126.45002746582048
 20
39.799987792968579
 30
0.0
 40
1.0499999523162842
100
AcDbArc
 50
269.99999749552182
 51
90.000002504478161
  0
ARC
  5
1E0
100
AcDbEntity
  8
0
  6
CONTINUOUS
 62
               7
100
AcDbCircle
 10
103.55000305175793
 20
39.799987792968579
 30
0.0
 40
1.0499999523162842
100
AcDbArc
 50
90.000002504478161
 51
270.00000068324533
  0
ARC
  5
1E1
100
AcDbEntity
  8
0
  6
CONTINUOUS
 62
               7
100
AcDbCircle
 10
111.45002746582048
 20
39.799987792968579
 30
0.0
 40
1.0499999523162842
100
AcDbArc
 50
269.99999749552182
 51
90.000002504478161
  0
ARC
  5
1E2
100
AcDbEntity
  8
0
  6
CONTINUOUS
 62
               7
100
AcDbCircle
 10
103.95002746582048
 20
44.799987792968579
 30
0.0
 40
1.0499999523162842
100
AcDbArc
 50
269.99999749552182
 51
90.000002504478161
  0
ARC
  5
1E3
100
AcDbEntity
  8
0
  6
CONTINUOUS
 62
               7
100
AcDbCircle
 10
96.050003051757926
 20
44.799987792968579
 30
0.0
 40
1.0499999523162842
100
AcDbArc
 50
90.000002504478161
 51
270.00000068324533
  0
ARC
  5
1E4
100
AcDbEntity
  8
0
  6
CONTINUOUS
 62
               7
100
AcDbCircle
 10
111.05000305175793
 20
44.799987792968579
 30
0.0
 40
1.0499999523162842
100
AcDbArc
 50
90.000002504478161
 51
270.00000068324533
  0
ARC
  5
1E5
100
AcDbEntity
  8
0
  6
CONTINUOUS
 62
               7
100
AcDbCircle
 10
118.95002746582048
 20
44.799987792968579
 30
0.0
 40
1.0499999523162842
100
AcDbArc
 50
269.99999749552182
 51
90.000002504478161
  0
ARC
  5
1E6
100
AcDbEntity
  8
0
  6
CONTINUOUS
 62
               7
100
AcDbCircle
 10
126.05000305175793
 20
44.799987792968579
 30
0.0
 40
1.0499999523162842
100
AcDbArc
 50
90.000002504478161
 51
270.00000068324533
  0
ARC
  5
1E7
100
AcDbEntity
  8
0
  6
CONTINUOUS
 62
               7
100
AcDbCircle
 10
133.95002746582048
 20
44.799987792968579
 30
0.0
 40
1.0499999523162842
100
AcDbArc
 50
269.99999749552182
 51
90.000002504478161
  0
ARC
  5
1E8
100
AcDbEntity
  8
0
  6
CONTINUOUS
 62
               7
100
AcDbCircle
 10
141.05000305175793
 20
44.799987792968579
 30
0.0
 40
1.0499999523162842
100
AcDbArc
 50
90.000002504478161
 51
270.00000068324533
  0
ARC
  5
1E9
100
AcDbEntity
  8
0
  6
CONTINUOUS
 62
               7
100
AcDbCircle
 10
148.95001220703136
 20
44.799987792968579
 30
0.0
 40
1.0499999523162842
100
AcDbArc
 50
269.99999749552182
 51
90.000002504478161
  0
LINE
  5
1EA
100
AcDbEntity
  8
0
  6
CONTINUOUS
 62
               7
100
AcDbLine
 10
72.010947921571756
 20
293.50247419880509
 30
0.0
 11
69.599999849699941
 21
293.50247419880509
 31
0.0
  0
LINE
  5
1EB
100
AcDbEntity
  8
0
  6
CONTINUOUS
 62
               7
100
AcDbLine
 10
75.450005962865362
 20
295.12409238845117
 30
0.0
 11
75.450005962865362
 21
293.50250465131626
 31
0.0
  0
LINE
  5
1EC
100
AcDbEntity
  8
0
  6
CONTINUOUS
 62
               7
100
AcDbLine
 10
84.000024263762384
 20
293.00247419880515
 30
0.0
 11
84.000024263762384
 21
293.50247419880509
 31
0.0
  0
LINE
  5
1ED
100
AcDbEntity
  8
0
  6
CONTINUOUS
 62
               7
100
AcDbLine
 10
69.599999849699941
 20
293.00247419880515
 30
0.0
 11
69.599999849699941
 21
293.50247419880509
 31
0.0
  0
ARC
  5
1EE
100
AcDbEntity
  8
0
  6
CONTINUOUS
 62
               7
100
AcDbCircle
 10
77.050012056731191
 20
303.2524741988052
 30
0.0
 40
1.7499999999999998
100
AcDbArc
 50
0.0
 51
180.0
  0
LINE
  5
1EF
100
AcDbEntity
  8
0
  6
CONTINUOUS
 62
               7
100
AcDbLine
 10
75.300012056731134
 20
303.2524741988052
 30
0.0
 11
75.300012056731134
 21
298.04276258431349
 31
0.0
  0
LINE
  5
1F0
100
AcDbEntity
  8
0
  6
CONTINUOUS
 62
               7
100
AcDbLine
 10
78.800012056731191
 20
303.2524741988052
 30
0.0
 11
78.800012056731134
 21
293.50247419880509
 31
0.0
  0
LINE
  5
1F1
100
AcDbEntity
  8
0
  6
CONTINUOUS
 62
               7
100
AcDbLine
 10
84.000024263762384
 20
293.50247419880509
 30
0.0
 11
81.589076213890507
 21
293.50247419880509
 31
0.0
  0
LINE
  5
1F2
100
AcDbEntity
  8
0
  6
CONTINUOUS
 62
               7
100
AcDbLine
 10
75.300012056731134
 20
294.96221240319068
 30
0.0
 11
75.300012056731134
 21
293.50247419880509
 31
0.0
  0
LINE
  5
1F3
100
AcDbEntity
  8
0
  6
CONTINUOUS
 62
               7
100
AcDbLine
 10
80.010947929571444
 20
293.50247419880509
 30
0.0
 11
73.589076205890819
 21
293.50247419880509
 31
0.0
  0
LINE
  5
1F4
100
AcDbEntity
  8
0
  6
CONTINUOUS
 62
               7
100
AcDbLine
 10
70.099999853999691
 20
293.00250471638327
 30
0.0
 11
65.800012056731134
 21
293.00250471638327
 31
0.0
  0
ARC
  5
1F5
100
AcDbEntity
  8
0
  6
CONTINUOUS
 62
               7
100
AcDbCircle
 10
70.800012061731081
 20
288.00250471138332
 30
0.0
 40
1.5000000014999999
100
AcDbArc
 50
117.81866648709736
 51
180.00000500895632
  0
CIRCLE
  5
1F6
100
AcDbEntity
  8
0
  6
CONTINUOUS
 62
               7
100
AcDbCircle
 10
72.800012063731288
 20
280.50250470388335
 30
0.0
 40
0.8
  0
CIRCLE
  5
1F7
100
AcDbEntity
  8
0
  6
CONTINUOUS
 62
               2
100
AcDbCircle
 10
72.800012063731288
 20
280.50250470388335
 30
0.0
 40
1.0
  0
CIRCLE
  5
1F8
100
AcDbEntity
  8
0
  6
CONTINUOUS
 62
               7
100
AcDbCircle
 10
80.800012071730976
 20
280.50250470388335
 30
0.0
 40
0.8
  0
CIRCLE
  5
1F9
100
AcDbEntity
  8
0
  6
CONTINUOUS
 62
               2
100
AcDbCircle
 10
80.800012071730976
 20
280.50250470388335
 30
0.0
 40
1.0
  0
LINE
  5
1FA
100
AcDbEntity
  8
0
  6
CONTINUOUS
 62
               7
100
AcDbLine
 10
82.800012073731182
 20
282.5025046403162
 30
0.0
 11
70.800012061731081
 21
282.5025046403162
 31
0.0
  0
LINE
  5
1FB
100
AcDbEntity
  8
0
  6
CONTINUOUS
 62
               7
100
AcDbLine
 10
95.500024293462332
 20
174.0024740798047
 30
0.0
 11
65.800012056731134
 21
174.0024740798047
 31
0.0
  0
LINE
  5
1FC
100
AcDbEntity
  8
0
  6
CONTINUOUS
 62
               7
100
AcDbLine
 10
95.500024293462332
 20
174.0024740798047
 30
0.0
 11
95.500024293462332
 21
171.55221772969821
 31
0.0
  0
LINE
  5
1FD
100
AcDbEntity
  8
0
  6
CONTINUOUS
 62
               7
100
AcDbLine
 10
79.8000120707311
 20
174.0024740798047
 30
0.0
 11
79.8000120707311
 21
170.00247407580463
 31
0.0
  0
LINE
  5
1FE
100
AcDbEntity
  8
0
  6
CONTINUOUS
 62
               7
100
AcDbLine
 10
84.800012075731047
 20
174.0024740798047
 30
0.0
 11
84.800012075731047
 21
170.00247407580463
 31
0.0
  0
LINE
  5
1FF
100
AcDbEntity
  8
0
  6
CONTINUOUS
 62
               7
100
AcDbLine
 10
85.300012076231155
 20
170.00247407580463
 30
0.0
 11
84.800012075731047
 21
170.00247407580463
 31
0.0
  0
LINE
  5
200
100
AcDbEntity
  8
0
  6
CONTINUOUS
 62
               7
100
AcDbLine
 10
85.300012076231155
 20
174.0024740798047
 30
0.0
 11
85.300012076231155
 21
170.00247407580463
 31
0.0
  0
LINE
  5
201
100
AcDbEntity
  8
0
  6
CONTINUOUS
 62
               7
100
AcDbLine
 10
79.300012070231332
 20
174.0024740798047
 30
0.0
 11
79.300012070231332
 21
170.00247407580463
 31
0.0
  0
LINE
  5
202
100
AcDbEntity
  8
0
  6
CONTINUOUS
 62
               7
100
AcDbLine
 10
79.8000120707311
 20
170.00247407580463
 30
0.0
 11
79.300012070231332
 21
170.00247407580463
 31
0.0
  0
ARC
  5
203
100
AcDbEntity
  8
0
  6
CONTINUOUS
 62
               7
100
AcDbCircle
 10
92.499993772884011
 20
171.36044526856892
 30
0.0
 40
3.0000000029999998
100
AcDbArc
 50
288.22598846548567
 51
0.0
  0
ARC
  5
204
100
AcDbEntity
  8
0
  6
CONTINUOUS
 62
               7
100
AcDbCircle
 10
77.800012068731235
 20
187.0024740928049
 30
0.0
 40
25.000000025000002
100
AcDbArc
 50
251.5915175313136
 51
309.41994593172478
  0
ARC
  5
205
100
AcDbEntity
  8
0
  6
CONTINUOUS
 62
               7
100
AcDbCircle
 10
68.800012059730875
 20
169.87222505223693
 30
0.0
 40
3.0000000029999998
100
AcDbArc
 50
180.00000500895632
 51
258.96028396548365
  0
ARC
  5
206
100
AcDbEntity
  8
0
  6
CONTINUOUS
 62
               7
100
AcDbCircle
 10
71.800012062731014
 20
168.9747335962613
 30
0.0
 40
6.0000000059999996
100
AcDbArc
 50
180.00000500895632
 51
251.59152071903708
  0
ARC
  5
207
100
AcDbEntity
  8
0
  6
CONTINUOUS
 62
               7
100
AcDbCircle
 10
77.800012068731235
 20
216.00247412180519
 30
0.0
 40
50.000000050000004
100
AcDbArc
 50
258.96028760794934
 51
288.22598846548567
  0
ARC
  5
208
100
AcDbEntity
  8
0
  6
CONTINUOUS
 62
               7
100
AcDbCircle
 10
90.499993770884203
 20
171.55221772969821
 30
0.0
 40
5.0000000050000004
100
AcDbArc
 50
309.41994593172478
 51
0.0
  0
LINE
  5
209
100
AcDbEntity
  8
0
  6
CONTINUOUS
 62
               7
100
AcDbLine
 10
62.800012053731052
 20
256.47244364472709
 30
0.0
 11
65.800012056731134
 21
256.47244364472709
 31
0.0
  0
LINE
  5
20A
100
AcDbEntity
  8
0
  6
CONTINUOUS
 62
               7
100
AcDbLine
 10
20.200012010730916
 20
209.47243237102523
 30
0.0
 11
62.800036487483567
 21
256.472442700616
 31
0.0
  0
LINE
  5
20B
100
AcDbEntity
  8
0
  6
CONTINUOUS
 62
               7
100
AcDbLine
 10
83.500024281462231
 20
293.50250465131626
 30
0.0
 11
83.500024281462231
 21
283.00250464081626
 31
0.0
  0
LINE
  5
20C
100
AcDbEntity
  8
0
  6
CONTINUOUS
 62
               7
100
AcDbLine
 10
70.099999853999691
 20
293.50250465131626
 30
0.0
 11
70.099999853999691
 21
283.00250464081626
 31
0.0
  0
LINE
  5
20D
100
AcDbEntity
  8
0
  6
CONTINUOUS
 62
               7
100
AcDbLine
 10
99.300012090231121
 20
272.00250469538327
 30
0.0
 11
87.700005975115346
 21
272.00250469538327
 31
0.0
  0
LINE
  5
20E
100
AcDbEntity
  8
0
  6
CONTINUOUS
 62
               2
100
AcDbLine
 10
76.800012067730961
 20
306.08795388065158
 30
0.0
 11
76.800012067730961
 21
292.3815586746905
 31
0.0
  0
LINE
  5
20F
100
AcDbEntity
  8
0
  6
CONTINUOUS
 62
               7
100
AcDbLine
 10
87.700005975115346
 20
272.00250469538327
 30
0.0
 11
87.700005975115346
 21
230.00250465338345
 31
0.0
  0
LINE
  5
210
100
AcDbEntity
  8
0
  6
CONTINUOUS
 62
               7
100
AcDbLine
 10
93.128442259840654
 20
370.07013166857581
 30
0.0
 11
93.128442259840654
 21
293.7454246390011
 31
0.0
  0
LINE
  5
211
100
AcDbEntity
  8
0
  6
CONTINUOUS
 62
               7
100
AcDbLine
 10
98.300012089231188
 20
371.00244368122691
 30
0.0
 11
65.800012056731134
 21
371.00244368122691
 31
0.0
  0
LINE
  5
212
100
AcDbEntity
  8
0
  6
CONTINUOUS
 62
               7
100
AcDbLine
 10
98.300012089231188
 20
371.00244368122691
 30
0.0
 11
98.300012089231188
 21
293.00244368122685
 31
0.0
  0
LINE
  5
213
100
AcDbEntity
  8
0
  6
CONTINUOUS
 62
               7
100
AcDbLine
 10
83.500024281462231
 20
283.00250464081626
 30
0.0
 11
70.099999853999691
 21
283.00250464081626
 31
0.0
  0
LINE
  5
214
100
AcDbEntity
  8
0
  6
CONTINUOUS
 62
               7
100
AcDbLine
 10
94.200005981615334
 20
293.00250471638327
 30
0.0
 11
94.200005981615334
 21
272.00250469538327
 31
0.0
  0
LINE
  5
215
100
AcDbEntity
  8
0
  6
CONTINUOUS
 62
               7
100
AcDbLine
 10
84.30001207523128
 20
288.00250471138332
 30
0.0
 11
84.30001207523128
 21
284.00250470738325
 31
0.0
  0
LINE
  5
216
100
AcDbEntity
  8
0
  6
CONTINUOUS
 62
               7
100
AcDbLine
 10
75.450005962865362
 20
303.96133278808242
 30
0.0
 11
75.450005962865362
 21
297.88091705131524
 31
0.0
  0
LINE
  5
217
100
AcDbEntity
  8
0
  6
CONTINUOUS
 62
               7
100
AcDbLine
 10
99.300012090231121
 20
230.00250465338345
 30
0.0
 11
87.700005975115346
 21
230.00250465338345
 31
0.0
  0
LINE
  5
218
100
AcDbEntity
  8
0
  6
CONTINUOUS
 62
               7
100
AcDbLine
 10
91.664514035720515
 20
293.00250471638327
 30
0.0
 11
91.664514035720515
 21
272.00250469538327
 31
0.0
  0
LINE
  5
219
100
AcDbEntity
  8
0
  6
CONTINUOUS
 62
               7
100
AcDbLine
 10
88.746423212490072
 20
293.00250471638327
 30
0.0
 11
88.746423212490072
 21
272.00250469538327
 31
0.0
  0
LINE
  5
21A
100
AcDbEntity
  8
0
  6
CONTINUOUS
 62
               7
100
AcDbLine
 10
69.30001206023104
 20
288.00250471138332
 30
0.0
 11
69.30001206023104
 21
284.00250470738325
 31
0.0
  0
LINE
  5
21B
100
AcDbEntity
  8
0
  6
CONTINUOUS
 62
               7
100
AcDbLine
 10
78.15001817259656
 20
304.61353501488162
 30
0.0
 11
78.15001817259656
 21
293.50250465131626
 31
0.0
  0
LINE
  5
21C
100
AcDbEntity
  8
0
  6
CONTINUOUS
 62
               7
100
AcDbLine
 10
98.300012089231188
 20
293.00250471638327
 30
0.0
 11
83.500024281462231
 21
293.00250471638327
 31
0.0
  0
LINE
  5
21D
100
AcDbEntity
  8
0
  6
CONTINUOUS
 62
               7
100
AcDbLine
 10
99.300012090231121
 20
272.00250469538327
 30
0.0
 11
99.300012090231121
 21
230.00250465338345
 31
0.0
  0
ARC
  5
21E
100
AcDbEntity
  8
0
  6
CONTINUOUS
 62
               7
100
AcDbCircle
 10
82.800012073731182
 20
284.00250470738325
 30
0.0
 40
1.5000000014999999
100
AcDbArc
 50
270.0
 51
359.99999749552194
  0
ARC
  5
21F
100
AcDbEntity
  8
0
  6
CONTINUOUS
 62
               7
100
AcDbCircle
 10
70.800012061731081
 20
284.00250470738325
 30
0.0
 40
1.5000000014999999
100
AcDbArc
 50
180.00000865142201
 51
270.0
  0
ARC
  5
220
100
AcDbEntity
  8
0
  6
CONTINUOUS
 62
               7
100
AcDbCircle
 10
82.800012073731182
 20
288.00250471138332
 30
0.0
 40
1.5000000014999999
100
AcDbArc
 50
359.99999749552194
 51
62.181333512918997
  0
CIRCLE
  5
221
100
AcDbEntity
  8
0
  6
CONTINUOUS
 62
               7
100
AcDbCircle
 10
87.800012078731129
 20
296.50250471988323
 30
0.0
 40
2.0750000497587155
  0
CIRCLE
  5
222
100
AcDbEntity
  8
0
  6
CONTINUOUS
 62
               7
100
AcDbCircle
 10
87.800012078731129
 20
296.50250471988323
 30
0.0
 40
2.1500000975174318
  0
CIRCLE
  5
223
100
AcDbEntity
  8
0
  6
CONTINUOUS
 62
               7
100
AcDbCircle
 10
73.800012064730822
 20
296.50250471988323
 30
0.0
 40
2.0750000497587155
  0
CIRCLE
  5
224
100
AcDbEntity
  8
0
  6
CONTINUOUS
 62
               7
100
AcDbCircle
 10
73.800012064730822
 20
296.50250471988323
 30
0.0
 40
2.1500000975174318
  0
CIRCLE
  5
225
100
AcDbEntity
  8
0
  6
CONTINUOUS
 62
               7
100
AcDbCircle
 10
80.800012071730976
 20
291.50250464931611
 30
0.0
 40
2.0750000497587155
  0
CIRCLE
  5
226
100
AcDbEntity
  8
0
  6
CONTINUOUS
 62
               7
100
AcDbCircle
 10
80.800012071730976
 20
291.50250464931611
 30
0.0
 40
2.1500000975174318
  0
CIRCLE
  5
227
100
AcDbEntity
  8
0
  6
CONTINUOUS
 62
               7
100
AcDbCircle
 10
72.800012063731288
 20
291.50250464931611
 30
0.0
 40
2.0750000497587155
  0
CIRCLE
  5
228
100
AcDbEntity
  8
0
  6
CONTINUOUS
 62
               7
100
AcDbCircle
 10
72.800012063731288
 20
291.50250464931611
 30
0.0
 40
2.1500000975174318
  0
LINE
  5
229
100
AcDbEntity
  8
0
  6
CONTINUOUS
 62
               7
100
AcDbLine
 10
20.750016016713175
 20
211.97244264655265
 30
0.0
 11
22.487256253571672
 21
211.97244264655265
 31
0.0
  0
LINE
  5
22A
100
AcDbEntity
  8
0
  6
CONTINUOUS
 62
               7
100
AcDbLine
 10
20.750020520335397
 20
211.97243914191827
 30
0.0
 11
21.250019492192905
 21
212.47243621717527
 31
0.0
  0
LINE
  5
22B
100
AcDbEntity
  8
0
  6
CONTINUOUS
 62
               7
100
AcDbLine
 10
20.750015063038973
 20
211.97244360022705
 30
0.0
 11
20.750015063038973
 21
210.07360951459188
 31
0.0
  0
LINE
  5
22C
100
AcDbEntity
  8
0
  6
CONTINUOUS
 62
               7
100
AcDbLine
 10
21.250016017213284
 20
212.47244360072696
 30
0.0
 11
22.94470409490458
 21
212.47244360072696
 31
0.0
  0
LINE
  5
22D
100
AcDbEntity
  8
0
  6
CONTINUOUS
 62
               2
100
AcDbLine
 10
68.24515937637085
 20
248.50250467188332
 30
0.0
 11
60.859363482934668
 21
248.50250467188332
 31
0.0
  0
LINE
  5
22E
100
AcDbEntity
  8
0
  6
CONTINUOUS
 62
               2
100
AcDbLine
 10
68.24515937637085
 20
218.50247412430519
 30
0.0
 11
60.859363482934668
 21
218.50247412430519
 31
0.0
  0
LINE
  5
22F
100
AcDbEntity
  8
0
  6
CONTINUOUS
 62
               7
100
AcDbLine
 10
79.000024276962449
 20
282.5025046403162
 30
0.0
 11
79.000024276962449
 21
174.0024740798047
 31
0.0
  0
LINE
  5
230
100
AcDbEntity
  8
0
  6
CONTINUOUS
 62
               7
100
AcDbLine
 10
75.600030377077985
 20
282.5025046403162
 30
0.0
 11
75.600030377077985
 21
174.0024740798047
 31
0.0
  0
LINE
  5
231
100
AcDbEntity
  8
0
  6
CONTINUOUS
 62
               7
100
AcDbLine
 10
91.664514035720515
 20
230.00250465338345
 30
0.0
 11
91.664514035720515
 21
174.0024740798047
 31
0.0
  0
LINE
  5
232
100
AcDbEntity
  8
0
  6
CONTINUOUS
 62
               7
100
AcDbLine
 10
65.800012056731134
 20
371.00244368122691
 30
0.0
 11
65.800012056731134
 21
168.9747335962613
 31
0.0
  0
LINE
  5
233
100
AcDbEntity
  8
0
  6
CONTINUOUS
 62
               7
100
AcDbLine
 10
86.800012077731253
 20
293.00250471638327
 30
0.0
 11
86.800012077731253
 21
174.0024740798047
 31
0.0
  0
LINE
  5
234
100
AcDbEntity
  8
0
  6
CONTINUOUS
 62
               7
100
AcDbLine
 10
94.200005981615334
 20
230.00250465338345
 30
0.0
 11
94.200005981615334
 21
174.0024740798047
 31
0.0
  0
LINE
  5
235
100
AcDbEntity
  8
0
  6
CONTINUOUS
 62
               7
100
AcDbLine
 10
88.746423212490072
 20
230.00250465338345
 30
0.0
 11
88.746423212490072
 21
174.0024740798047
 31
0.0
  0
LINE
  5
236
100
AcDbEntity
  8
0
  6
CONTINUOUS
 62
               7
100
AcDbLine
 10
20.200012010730916
 20
206.4999812494531
 30
0.0
 11
20.200012010730916
 21
209.47244359772702
 31
0.0
  0
LINE
  5
237
100
AcDbEntity
  8
0
  6
CONTINUOUS
 62
               7
100
AcDbLine
 10
20.200012010730916
 20
206.4999812494531
 30
0.0
 11
65.800012056731134
 21
206.4999812494531
 31
0.0
  0
CIRCLE
  5
238
100
AcDbEntity
  8
0
  6
CONTINUOUS
 62
               7
100
AcDbCircle
 10
50.000030468977855
 20
56.999981689452966
 30
0.0
 40
1.4999999999999998
  0
CIRCLE
  5
239
100
AcDbEntity
  8
0
  6
CONTINUOUS
 62
               2
100
AcDbCircle
 10
50.000030468977855
 20
56.999981689452966
 30
0.0
 40
2.0
  0
LINE
  5
23A
100
AcDbEntity
  8
0
  6
CONTINUOUS
 62
               2
100
AcDbLine
 10
54.868380581629026
 20
56.999981689452966
 30
0.0
 11
45.23175736966607
 21
56.999981689452966
 31
0.0
  0
LINE
  5
23B
100
AcDbEntity
  8
0
  6
CONTINUOUS
 62
               2
100
AcDbLine
 10
50.000030468977855
 20
52.131631576801681
 30
0.0
 11
50.000030468977855
 21
61.768254788764636
 31
0.0
  0
LINE
  5
23C
100
AcDbEntity
  8
0
  6
CONTINUOUS
 62
               7
100
AcDbLine
 10
47.85003657249348
 20
60.999981689452966
 30
0.0
 11
52.150024365462173
 21
60.999981689452966
 31
0.0
  0
LINE
  5
23D
100
AcDbEntity
  8
0
  6
CONTINUOUS
 62
               7
100
AcDbLine
 10
325.50000015999882
 20
13.299981689452864
 30
0.0
 11
309.83167320955738
 21
13.299981689452864
 31
0.0
  0
LINE
  5
23E
100
AcDbEntity
  8
0
  6
CONTINUOUS
 62
               7
100
AcDbLine
 10
325.50000015999882
 20
25.999981689452795
 30
0.0
 11
309.76168166542288
 21
25.999981689452795
 31
0.0
  0
LINE
  5
23F
100
AcDbEntity
  8
0
  6
CONTINUOUS
 62
               7
100
AcDbLine
 10
328.00000015999882
 20
14.149981689452886
 30
0.0
 11
326.50000015999871
 21
14.149981689452886
 31
0.0
  0
LINE
  5
240
100
AcDbEntity
  8
0
  6
CONTINUOUS
 62
               7
100
AcDbLine
 10
328.00000015999882
 20
25.149981689452886
 30
0.0
 11
326.50000015999871
 21
25.149981689452886
 31
0.0
  0
LINE
  5
241
100
AcDbEntity
  8
0
  6
CONTINUOUS
 62
               7
100
AcDbLine
 10
328.00000015999882
 20
14.149981689452886
 30
0.0
 11
328.00000015999882
 21
25.149981689452886
 31
0.0
  0
LINE
  5
242
100
AcDbEntity
  8
0
  6
CONTINUOUS
 62
               7
100
AcDbLine
 10
326.50000015999871
 20
14.149981689452886
 30
0.0
 11
325.50000015999882
 21
13.299981689452864
 31
0.0
  0
LINE
  5
243
100
AcDbEntity
  8
0
  6
CONTINUOUS
 62
               7
100
AcDbLine
 10
325.50000015999882
 20
25.999981689452795
 30
0.0
 11
326.50000015999871
 21
25.149981689452886
 31
0.0
  0
LINE
  5
244
100
AcDbEntity
  8
0
  6
CONTINUOUS
 62
               7
100
AcDbLine
 10
326.50000015999871
 20
14.149981689452886
 30
0.0
 11
326.50000015999871
 21
25.149981689452886
 31
0.0
  0
LINE
  5
245
100
AcDbEntity
  8
0
  6
CONTINUOUS
 62
               7
100
AcDbLine
 10
325.50000015999882
 20
25.999981689452795
 30
0.0
 11
325.50000015999882
 21
13.299981689452864
 31
0.0
  0
LINE
  5
246
100
AcDbEntity
  8
0
  6
CONTINUOUS
 62
               2
100
AcDbLine
 10
333.00000015999882
 20
19.649981689452886
 30
0.0
 11
306.44319941532274
 21
19.649981689452886
 31
0.0
  0
LINE
  5
247
100
AcDbEntity
  8
0
  6
CONTINUOUS
 62
               7
100
AcDbLine
 10
0.0000153387892965
 20
165.99998124945313
 30
0.0
 11
0.0000153387892965
 21
162.99998168945291
 31
0.0
  0
ARC
  5
248
100
AcDbEntity
  8
0
  6
CONTINUOUS
 62
               7
100
AcDbCircle
 10
26.12133544234996
 20
203.49998124945307
 30
0.0
 40
1.4999999999999998
100
AcDbArc
 50
90.0
 51
94.639163110140728
  0
LINE
  5
249
100
AcDbEntity
  8
0
  6
CONTINUOUS
 62
               7
100
AcDbLine
 10
20.000015098789049
 20
165.99998124945313
 30
0.0
 11
0.0000153387892965
 21
165.99998124945313
 31
0.0
  0
LINE
  5
24A
100
AcDbEntity
  8
0
  6
CONTINUOUS
 62
               7
100
AcDbLine
 10
60.000015098789106
 20
55.999981689452909
 30
0.0
 11
300.88340759277344
 21
55.999981689452909
 31
0.0
  0
LINE
  5
24B
100
AcDbEntity
  8
0
  6
CONTINUOUS
 62
               7
100
AcDbLine
 10
60.000015098789106
 20
172.99998124945304
 30
0.0
 11
60.000015098789106
 21
162.99998124945301
 31
0.0
  0
LINE
  5
24C
100
AcDbEntity
  8
0
  6
CONTINUOUS
 62
               7
100
AcDbLine
 10
20.000015098789049
 20
172.99998124945304
 30
0.0
 11
20.000015098789049
 21
162.99998124945301
 31
0.0
  0
LINE
  5
24D
100
AcDbEntity
  8
0
  6
CONTINUOUS
 62
               7
100
AcDbLine
 10
0.0000152587891762
 20
3.1999816894529545
 30
0.0
 11
0.0000152587891762
 21
162.99998124945301
 31
0.0
  0
LINE
  5
24E
100
AcDbEntity
  8
0
  6
CONTINUOUS
 62
               7
100
AcDbLine
 10
60.000015098789106
 20
52.999981689452909
 30
0.0
 11
60.000015098789106
 21
162.99998124945301
 31
0.0
  0
LINE
  5
24F
100
AcDbEntity
  8
0
  6
CONTINUOUS
 62
               7
100
AcDbLine
 10
32.150009026673672
 20
162.99998124945301
 30
0.0
 11
32.150009026673672
 21
52.999981689452909
 31
0.0
  0
LINE
  5
250
100
AcDbEntity
  8
0
  6
CONTINUOUS
 62
               7
100
AcDbLine
 10
27.850021250904888
 20
162.99998124945301
 30
0.0
 11
27.850021250904888
 21
52.999981689452909
 31
0.0
  0
LINE
  5
251
100
AcDbEntity
  8
0
  6
CONTINUOUS
 62
               7
100
AcDbLine
 10
12.150009106673565
 20
162.99998124945301
 30
0.0
 11
12.150009106673565
 21
52.999981689452909
 31
0.0
  0
LINE
  5
252
100
AcDbEntity
  8
0
  6
CONTINUOUS
 62
               7
100
AcDbLine
 10
7.850021330904724
 20
162.99998124945301
 30
0.0
 11
7.850021330904724
 21
52.999981689452909
 31
0.0
  0
LINE
  5
253
100
AcDbEntity
  8
0
  6
CONTINUOUS
 62
               7
100
AcDbLine
 10
52.150039495651527
 20
162.99998124945301
 30
0.0
 11
52.150039495651527
 21
52.999981689452909
 31
0.0
  0
LINE
  5
254
100
AcDbEntity
  8
0
  6
CONTINUOUS
 62
               7
100
AcDbLine
 10
47.850021219504697
 20
162.99998124945301
 30
0.0
 11
47.850021219504697
 21
52.999981689452909
 31
0.0
  0
LINE
  5
255
100
AcDbEntity
  8
0
  6
CONTINUOUS
 62
               2
100
AcDbLine
 10
17.000000000000171
 20
-4.7200511326361152
 30
0.0
 11
17.000000000000171
 21
7.9540182852038583
 31
0.0
  0
LINE
  5
256
100
AcDbEntity
  8
0
  6
CONTINUOUS
 62
               7
100
AcDbLine
 10
-51.499969482421761
 20
51.499981689452909
 30
0.0
 11
0.0000152587891762
 21
51.499981689452909
 31
0.0
  0
LINE
  5
257
100
AcDbEntity
  8
0
  6
CONTINUOUS
 62
               7
100
AcDbLine
 10
-51.499969482421761
 20
51.499981689452909
 30
0.0
 11
-51.499969482421761
 21
18.999981689452909
 31
0.0
  0
LINE
  5
258
100
AcDbEntity
  8
0
  6
CONTINUOUS
 62
               7
100
AcDbLine
 10
0.0000152587891762
 20
18.999981689452909
 30
0.0
 11
-51.499969482421761
 21
18.999981689452909
 31
0.0
  0
LINE
  5
259
100
AcDbEntity
  8
0
  6
CONTINUOUS
 62
               7
100
AcDbLine
 10
289.8000106811524
 20
41.59998474121079
 30
0.0
 11
289.8000106811524
 21
31.199983215331883
 31
0.0
  0
LINE
  5
25A
100
AcDbEntity
  8
0
  6
CONTINUOUS
 62
               7
100
AcDbLine
 10
292.20001220703148
 20
41.59998474121079
 30
0.0
 11
292.20001220703148
 21
31.199983215331883
 31
0.0
  0
LINE
  5
25B
100
AcDbEntity
  8
0
  6
CONTINUOUS
 62
               7
100
AcDbLine
 10
289.8000106811524
 20
41.59998474121079
 30
0.0
 11
292.20001220703148
 21
41.59998474121079
 31
0.0
  0
LINE
  5
25C
100
AcDbEntity
  8
0
  6
CONTINUOUS
 62
               7
100
AcDbLine
 10
289.8000106811524
 20
31.199983215331883
 30
0.0
 11
292.20001220703148
 21
31.199983215331883
 31
0.0
  0
LINE
  5
25D
100
AcDbEntity
  8
0
  6
CONTINUOUS
 62
               7
100
AcDbLine
 10
0.0000152587891762
 20
3.1999816894529545
 30
0.0
 11
298.00001525878912
 21
3.1999816894529545
 31
0.0
  0
LINE
  5
25E
100
AcDbEntity
  8
0
  6
CONTINUOUS
 62
               7
100
AcDbLine
 10
304.58219887812277
 20
5.1999816894529545
 30
0.0
 11
298.00001525878912
 21
5.1999816894529545
 31
0.0
  0
LINE
  5
25F
100
AcDbEntity
  8
0
  6
CONTINUOUS
 62
               7
100
AcDbLine
 10
298.00001525878912
 20
5.1999816894529545
 30
0.0
 11
298.00001525878912
 21
3.1999816894529545
 31
0.0
  0
LINE
  5
260
100
AcDbEntity
  8
0
  6
CONTINUOUS
 62
               2
100
AcDbLine
 10
-6.89812391270641
 20
107.99998146945296
 30
0.0
 11
2.3989968485239501
 21
107.99998146945296
 31
0.0
  0
LINE
  5
261
100
AcDbEntity
  8
0
  6
CONTINUOUS
 62
               7
100
AcDbLine
 10
-5.5000074386596225
 20
104.49998146945296
 30
0.0
 11
-1.8000076293946563
 21
104.49998146945296
 31
0.0
  0
LINE
  5
262
100
AcDbEntity
  8
0
  6
CONTINUOUS
 62
               7
100
AcDbLine
 10
-5.5000073963552722
 20
104.4999818864747
 30
0.0
 11
-5.8000075155645163
 21
105.01959752130728
 31
0.0
  0
LINE
  5
263
100
AcDbEntity
  8
0
  6
CONTINUOUS
 62
               7
100
AcDbLine
 10
-5.5000074386596225
 20
111.49998146945296
 30
0.0
 11
-5.5000074386596225
 21
104.49998146945296
 31
0.0
  0
LINE
  5
264
100
AcDbEntity
  8
0
  6
CONTINUOUS
 62
               7
100
AcDbLine
 10
-5.8000076293945995
 20
110.98036629611312
 30
0.0
 11
-5.8000076293945995
 21
105.01959759646712
 31
0.0
  0
LINE
  5
265
100
AcDbEntity
  8
0
  6
CONTINUOUS
 62
               7
100
AcDbLine
 10
-5.5000076020066899
 20
111.49998137806375
 30
0.0
 11
-5.8000075900857837
 21
110.98036626347266
 31
0.0
  0
LINE
  5
266
100
AcDbEntity
  8
0
  6
CONTINUOUS
 62
               7
100
AcDbLine
 10
-5.5000074386596225
 20
111.49998146945296
 30
0.0
 11
-1.8000076293946563
 21
111.49998146945296
 31
0.0
  0
LINE
  5
267
100
AcDbEntity
  8
0
  6
CONTINUOUS
 62
               7
100
AcDbLine
 10
-5.1000076293946108
 20
114.08186050406806
 30
0.0
 11
-5.1000076293946108
 21
123.49998146945302
 31
0.0
  0
LINE
  5
268
100
AcDbEntity
  8
0
  6
CONTINUOUS
 62
               7
100
AcDbLine
 10
-5.1000076293946108
 20
123.49998146945302
 30
0.0
 11
-0.0000076293945881
 21
123.49998146945302
 31
0.0
  0
LINE
  5
269
100
AcDbEntity
  8
0
  6
CONTINUOUS
 62
               7
100
AcDbLine
 10
-1.8000076293946563
 20
102.99998146945296
 30
0.0
 11
-0.0000076293945881
 21
102.99998146945296
 31
0.0
  0
LINE
  5
26A
100
AcDbEntity
  8
0
  6
CONTINUOUS
 62
               7
100
AcDbLine
 10
-1.8000076293946563
 20
102.99998146945296
 30
0.0
 11
-1.8000076293946563
 21
123.49998146945302
 31
0.0
  0
LINE
  5
26B
100
AcDbEntity
  8
0
  6
CONTINUOUS
 62
               7
100
AcDbLine
 10
-1.8000076598606256
 20
113.49998146945302
 30
0.0
 11
-5.1000076717814977
 21
114.08186051154206
 31
0.0
  0
LINE
  5
26C
100
AcDbEntity
  8
0
  6
CONTINUOUS
 62
               7
100
AcDbLine
 10
-5.1000076293946108
 20
121.49998146945308
 30
0.0
 11
-1.8000076293946563
 21
121.49998146945308
 31
0.0
  0
LINE
  5
26D
100
AcDbEntity
  8
0
  6
CONTINUOUS
 62
               7
100
AcDbLine
 10
-5.1000076293946108
 20
116.49998146945308
 30
0.0
 11
-1.8000076293946563
 21
116.49998146945308
 31
0.0
  0
LINE
  5
26E
100
AcDbEntity
  8
0
  6
CONTINUOUS
 62
               7
100
AcDbLine
 10
-3.4000076293945085
 20
116.49998146945308
 30
0.0
 11
-3.4000076293945085
 21
121.49998146945308
 31
0.0
  0
LINE
  5
26F
100
AcDbEntity
  8
0
  6
CONTINUOUS
 62
               2
100
AcDbLine
 10
5.4507410645967411
 20
56.999981689452966
 30
0.0
 11
14.774486899547696
 21
56.999981689452966
 31
0.0
  0
LINE
  5
270
100
AcDbEntity
  8
0
  6
CONTINUOUS
 62
               2
100
AcDbLine
 10
34.868350112651285
 20
56.999981689452966
 30
0.0
 11
25.231726900688386
 21
56.999981689452966
 31
0.0
  0
LINE
  5
271
100
AcDbEntity
  8
0
  6
CONTINUOUS
 62
               7
100
AcDbLine
 10
7.850006103515625
 20
60.999981689452966
 30
0.0
 11
12.149993896484546
 21
60.999981689452966
 31
0.0
  0
LINE
  5
272
100
AcDbEntity
  8
0
  6
CONTINUOUS
 62
               7
100
AcDbLine
 10
27.850006103515625
 20
60.999981689452966
 30
0.0
 11
32.149993896484546
 21
60.999981689452966
 31
0.0
  0
CIRCLE
  5
273
100
AcDbEntity
  8
0
  6
CONTINUOUS
 62
               2
100
AcDbCircle
 10
10.0
 20
56.999981689452966
 30
0.0
 40
2.0
  0
CIRCLE
  5
274
100
AcDbEntity
  8
0
  6
CONTINUOUS
 62
               7
100
AcDbCircle
 10
10.0
 20
56.999981689452966
 30
0.0
 40
1.4999999999999998
  0
CIRCLE
  5
275
100
AcDbEntity
  8
0
  6
CONTINUOUS
 62
               7
100
AcDbCircle
 10
30.0
 20
56.999981689452966
 30
0.0
 40
1.4999999999999998
  0
CIRCLE
  5
276
100
AcDbEntity
  8
0
  6
CONTINUOUS
 62
               2
100
AcDbCircle
 10
30.0
 20
56.999981689452966
 30
0.0
 40
2.0
  0
LINE
  5
277
100
AcDbEntity
  8
0
  6
CONTINUOUS
 62
               7
100
AcDbLine
 10
21.000015098789163
 20
205.99998124945301
 30
0.0
 11
21.000015098789163
 21
172.99998124945304
 31
0.0
  0
LINE
  5
278
100
AcDbEntity
  8
0
  6
CONTINUOUS
 62
               7
100
AcDbLine
 10
59.000015098789049
 20
205.99998124945301
 30
0.0
 11
59.000015098789049
 21
172.99998124945304
 31
0.0
  0
ARC
  5
279
100
AcDbEntity
  8
0
  6
CONTINUOUS
 62
               7
100
AcDbCircle
 10
22.129669029453112
 20
179.99998124945307
 30
0.0
 40
6.3296561241149902
100
AcDbArc
 50
160.85729336935006
 51
199.14270298818428
  0
ARC
  5
27A
100
AcDbEntity
  8
0
  6
CONTINUOUS
 62
               7
100
AcDbCircle
 10
22.129669029453112
 20
187.99998124945304
 30
0.0
 40
6.3296561241149902
100
AcDbArc
 50
160.85729336935006
 51
199.14270298818428
  0
ARC
  5
27B
100
AcDbEntity
  8
0
  6
CONTINUOUS
 62
               7
100
AcDbCircle
 10
53.8703611681251
 20
180.99998124945301
 30
0.0
 40
6.3296561241149902
100
AcDbArc
 50
340.85729006794099
 51
19.142706516964399
  0
ARC
  5
27C
100
AcDbEntity
  8
0
  6
CONTINUOUS
 62
               7
100
AcDbCircle
 10
53.8703611681251
 20
194.99998124945307
 30
0.0
 40
6.3296561241149902
100
AcDbArc
 50
340.85729006794099
 51
19.142706516964399
  0
ARC
  5
27D
100
AcDbEntity
  8
0
  6
CONTINUOUS
 62
               7
100
AcDbCircle
 10
51.500015098789049
 20
201.9999812494531
 30
0.0
 40
2.4000000953674316
100
AcDbArc
 50
331.17621921195268
 51
163.04248945089057
  0
ARC
  5
27E
100
AcDbEntity
  8
0
  6
CONTINUOUS
 62
               7
100
AcDbCircle
 10
28.500015098789163
 20
201.9999812494531
 30
0.0
 40
2.4000000953674316
100
AcDbArc
 50
16.957513850518463
 51
208.82378579700367
  0
ARC
  5
27F
100
AcDbEntity
  8
0
  6
CONTINUOUS
 62
               7
100
AcDbCircle
 10
56.000015098789163
 20
175.99998124945301
 30
0.0
 40
2.9999999999999996
100
AcDbArc
 50
269.99999749552182
 51
0.0
  0
ARC
  5
280
100
AcDbEntity
  8
0
  6
CONTINUOUS
 62
               7
100
AcDbCircle
 10
50.792907554843907
 20
200.39997514593747
 30
0.0
 40
2.2999999523162842
100
AcDbArc
 50
45.00000125223908
 51
90.000002504478161
  0
ARC
  5
281
100
AcDbEntity
  8
0
  6
CONTINUOUS
 62
               7
100
AcDbCircle
 10
24.500015098789163
 20
193.99580034124995
 30
0.0
 40
3.4999999999999996
100
AcDbArc
 50
135.00000034162267
 51
180.00000500895632
  0
ARC
  5
282
100
AcDbEntity
  8
0
  6
CONTINUOUS
 62
               7
100
AcDbCircle
 10
55.50001509878922
 20
193.99580034124995
 30
0.0
 40
3.4999999999999996
100
AcDbArc
 50
0.0000000000000509
 51
45.00000125223908
  0
ARC
  5
283
100
AcDbEntity
  8
0
  6
CONTINUOUS
 62
               7
100
AcDbCircle
 10
29.207122642734475
 20
200.39997514593747
 30
0.0
 40
2.2999999523162842
100
AcDbArc
 50
90.000002504478161
 51
135.00000034162267
  0
ARC
  5
284
100
AcDbEntity
  8
0
  6
CONTINUOUS
 62
               7
100
AcDbCircle
 10
24.000015098789049
 20
175.99998124945301
 30
0.0
 40
2.9999999999999996
100
AcDbArc
 50
179.99999134857799
 51
270.00000068324533
  0
ARC
  5
285
100
AcDbEntity
  8
0
  6
CONTINUOUS
 62
               7
100
AcDbCircle
 10
53.00001509878922
 20
203.49998124945301
 30
0.0
 40
1.4999999999999998
100
AcDbArc
 50
45.00000125223908
 51
90.000002504478161
  0
ARC
  5
286
100
AcDbEntity
  8
0
  6
CONTINUOUS
 62
               7
100
AcDbCircle
 10
58.500015098789163
 20
205.99998124945301
 30
0.0
 40
0.5
100
AcDbArc
 50
7.4208451464152363
 51
90.000002504478161
  0
ARC
  5
287
100
AcDbEntity
  8
0
  6
CONTINUOUS
 62
               7
100
AcDbCircle
 10
54.500015098789163
 20
205.99998124945301
 30
0.0
 40
0.5
100
AcDbArc
 50
90.000002504478161
 51
180.00000500895632
  0
ARC
  5
288
100
AcDbEntity
  8
0
  6
CONTINUOUS
 62
               7
100
AcDbCircle
 10
25.500015098789163
 20
205.99998124945301
 30
0.0
 40
0.5
100
AcDbArc
 50
0.0
 51
90.000002504478161
  0
ARC
  5
289
100
AcDbEntity
  8
0
  6
CONTINUOUS
 62
               7
100
AcDbCircle
 10
21.500015098789049
 20
205.99998124945301
 30
0.0
 40
0.5
100
AcDbArc
 50
89.999995674288996
 51
172.57915473989922
  0
ARC
  5
28A
100
AcDbEntity
  8
0
  6
CONTINUOUS
 62
               7
100
AcDbCircle
 10
301.94667053222668
 20
49.999981689453023
 30
0.0
 40
2.9999999999999996
100
AcDbArc
 50
18.575665919617233
 51
90.000002504478161
  0
ARC
  5
28B
100
AcDbEntity
  8
0
  6
CONTINUOUS
 62
               7
100
AcDbCircle
 10
304.58219909667974
 20
10.199963378906034
 30
0.0
 40
5.0
100
AcDbArc
 50
269.99999749552182
 51
354.62440334723948
  0
ARC
  5
28C
100
AcDbEntity
  8
0
  6
CONTINUOUS
 62
               7
100
AcDbCircle
 10
300.88340759277344
 20
52.999981689452909
 30
0.0
 40
2.9999999999999996
100
AcDbArc
 50
20.455793309426426
 51
90.000002504478161
  0
ARC
  5
28D
100
AcDbEntity
  8
0
  6
CONTINUOUS
 62
               7
100
AcDbCircle
 10
210.00001525878912
 20
19.099987792968648
 30
0.0
 40
100.0
100
AcDbArc
 50
354.62440334723948
 51
20.455793309426426
  0
ARC
  5
28E
100
AcDbEntity
  8
0
  6
CONTINUOUS
 62
               7
100
AcDbCircle
 10
300.11418151855474
 20
49.999981689453023
 30
0.0
 40
2.9999999999999996
100
AcDbArc
 50
4.8539097921627041
 51
90.000002504478161
  0
ARC
  5
28F
100
AcDbEntity
  8
0
  6
CONTINUOUS
 62
               7
100
AcDbCircle
 10
300.11418151855474
 20
8.199963378906034
 30
0.0
 40
2.9999999999999996
100
AcDbArc
 50
269.99999749552182
 51
355.14609020783729
  0
ARC
  5
290
100
AcDbEntity
  8
0
  6
CONTINUOUS
 62
               7
100
AcDbCircle
 10
54.000015258789063
 20
29.099987792968648
 30
0.0
 40
250.0
100
AcDbArc
 50
355.14609020783729
 51
4.8539097921627041
  0
LINE
  5
291
100
AcDbEntity
  8
0
  6
CONTINUOUS
 62
               7
100
AcDbLine
 10
280.50001525878912
 20
61.999981689452966
 30
0.0
 11
280.50001525878912
 21
55.999981689452909
 31
0.0
  0
LINE
  5
292
100
AcDbEntity
  8
0
  6
CONTINUOUS
 62
               7
100
AcDbLine
 10
238.50001525878915
 20
61.999981689452966
 30
0.0
 11
238.50001525878915
 21
55.999981689452909
 31
0.0
  0
LINE
  5
293
100
AcDbEntity
  8
0
  6
CONTINUOUS
 62
               7
100
AcDbLine
 10
238.50001525878915
 20
61.999981689452966
 30
0.0
 11
280.50001525878912
 21
61.999981689452966
 31
0.0
  0
LINE
  5
294
100
AcDbEntity
  8
0
  6
CONTINUOUS
 62
               7
100
AcDbLine
 10
16.150008995273538
 20
177.92435869085935
 30
0.0
 11
16.150008995273538
 21
182.07563432562495
 31
0.0
  0
LINE
  5
295
100
AcDbEntity
  8
0
  6
CONTINUOUS
 62
               7
100
AcDbLine
 10
16.150018755294354
 20
177.92436303496257
 30
0.0
 11
17.000012901534092
 21
177.84999818332025
 31
0.0
  0
LINE
  5
296
100
AcDbEntity
  8
0
  6
CONTINUOUS
 62
               7
100
AcDbLine
 10
16.15001667147601
 20
182.07562190949588
 30
0.0
 11
17.000026018440849
 21
182.14998809102923
 31
0.0
  0
LINE
  5
297
100
AcDbEntity
  8
0
  6
CONTINUOUS
 62
               7
100
AcDbLine
 10
16.150008995273538
 20
185.92435869085932
 30
0.0
 11
16.150008995273538
 21
190.07563432562492
 31
0.0
  0
LINE
  5
298
100
AcDbEntity
  8
0
  6
CONTINUOUS
 62
               7
100
AcDbLine
 10
16.15001311456183
 20
185.92434952452905
 30
0.0
 11
17.000022461526555
 21
185.84998334299567
 31
0.0
  0
LINE
  5
299
100
AcDbEntity
  8
0
  6
CONTINUOUS
 62
               7
100
AcDbLine
 10
16.150019652426408
 20
190.07563880051262
 30
0.0
 11
17.000013798665918
 21
190.15000365215485
 31
0.0
  0
LINE
  5
29A
100
AcDbEntity
  8
0
  6
CONTINUOUS
 62
               7
100
AcDbLine
 10
59.850021202304731
 20
183.07560380804685
 30
0.0
 11
59.850021202304731
 21
178.92435869085929
 31
0.0
  0
LINE
  5
29B
100
AcDbEntity
  8
0
  6
CONTINUOUS
 62
               7
100
AcDbLine
 10
59.850021039448336
 20
183.07562785776295
 30
0.0
 11
59.000026893208826
 21
183.14999270940518
 31
0.0
  0
LINE
  5
29C
100
AcDbEntity
  8
0
  6
CONTINUOUS
 62
               7
100
AcDbLine
 10
59.85000763537812
 20
178.9243679123939
 30
0.0
 11
59.00001348913861
 21
178.85000306075167
 31
0.0
  0
LINE
  5
29D
100
AcDbEntity
  8
0
  6
CONTINUOUS
 62
               7
100
AcDbLine
 10
59.850021202304731
 20
197.07563432562495
 30
0.0
 11
59.850021202304731
 21
192.92435869085935
 31
0.0
  0
LINE
  5
29E
100
AcDbEntity
  8
0
  6
CONTINUOUS
 62
               7
100
AcDbLine
 10
59.850016298238813
 20
197.07561908275662
 30
0.0
 11
59.000022151999303
 21
197.14998393439885
 31
0.0
  0
LINE
  5
29F
100
AcDbEntity
  8
0
  6
CONTINUOUS
 62
               7
100
AcDbLine
 10
59.850012376587642
 20
192.92435913738757
 30
0.0
 11
59.000018230348132
 21
192.84999428574534
 31
0.0
  0
LINE
  5
2A0
100
AcDbEntity
  8
0
  6
CONTINUOUS
 62
               7
100
AcDbLine
 10
17.000015098789163
 20
190.69999345648426
 30
0.0
 11
17.000015098789163
 21
177.29996904242185
 31
0.0
  0
LINE
  5
2A1
100
AcDbEntity
  8
0
  6
CONTINUOUS
 62
               7
100
AcDbLine
 10
21.000015098789163
 20
177.29996904242185
 30
0.0
 11
17.000015098789163
 21
177.29996904242185
 31
0.0
  0
LINE
  5
2A2
100
AcDbEntity
  8
0
  6
CONTINUOUS
 62
               7
100
AcDbLine
 10
21.000015098789163
 20
190.69999345648426
 30
0.0
 11
17.000015098789163
 21
190.69999345648426
 31
0.0
  0
LINE
  5
2A3
100
AcDbEntity
  8
0
  6
CONTINUOUS
 62
               7
100
AcDbLine
 10
22.025139533076299
 20
196.47068690160779
 30
0.0
 11
27.580765723909394
 21
202.02631309244097
 31
0.0
  0
LINE
  5
2A4
100
AcDbEntity
  8
0
  6
CONTINUOUS
 62
               7
100
AcDbLine
 10
57.974876667573199
 20
196.47066532242175
 30
0.0
 11
52.419239687146955
 21
202.02630230284797
 31
0.0
  0
LINE
  5
2A5
100
AcDbEntity
  8
0
  6
CONTINUOUS
 62
               7
100
AcDbLine
 10
26.000015098789163
 20
205.99998124945301
 30
0.0
 11
26.000015098789163
 21
200.44556246732068
 31
0.0
  0
LINE
  5
2A6
100
AcDbEntity
  8
0
  6
CONTINUOUS
 62
               7
100
AcDbLine
 10
50.792907554843907
 20
202.69996293890614
 30
0.0
 11
29.207122642734475
 21
202.69996293890614
 31
0.0
  0
LINE
  5
2A7
100
AcDbEntity
  8
0
  6
CONTINUOUS
 62
               7
100
AcDbLine
 10
54.060660475429586
 20
204.56062665226327
 30
0.0
 11
54.000015098789049
 21
204.62127202890372
 31
0.0
  0
LINE
  5
2A8
100
AcDbEntity
  8
0
  6
CONTINUOUS
 62
               7
100
AcDbLine
 10
53.00001509878922
 20
204.99998124945307
 30
0.0
 11
26.12133544234996
 21
204.99998124945307
 31
0.0
  0
LINE
  5
2A9
100
AcDbEntity
  8
0
  6
CONTINUOUS
 62
               7
100
AcDbLine
 10
54.000015098789049
 20
205.99998124945301
 30
0.0
 11
54.000015098789049
 21
200.44552689120576
 31
0.0
  0
LINE
  5
2AA
100
AcDbEntity
  8
0
  6
CONTINUOUS
 62
               2
100
AcDbLine
 10
259.50001525878912
 20
67.692101660283242
 30
0.0
 11
259.50001525878912
 21
52.258029425344262
 31
0.0
  0
LINE
  5
2AB
100
AcDbEntity
  8
0
  6
CONTINUOUS
 62
               7
100
AcDbLine
 10
0.0
 20
162.99998168945291
 30
0.0
 11
60.000015098789106
 21
162.99998168945291
 31
0.0
  0
LINE
  5
2AC
100
AcDbEntity
  8
0
  6
CONTINUOUS
 62
               2
100
AcDbLine
 10
10.0
 20
61.549240624856395
 30
0.0
 11
10.0
 21
52.225494789905269
 31
0.0
  0
LINE
  5
2AD
100
AcDbEntity
  8
0
  6
CONTINUOUS
 62
               2
100
AcDbLine
 10
23.500015098789163
 20
207.55516782993294
 30
0.0
 11
23.500015098789163
 21
199.72590288031242
 31
0.0
  0
LINE
  5
2AE
100
AcDbEntity
  8
0
  6
CONTINUOUS
 62
               2
100
AcDbLine
 10
56.500015098789049
 20
207.55516782993294
 30
0.0
 11
56.500015098789049
 21
199.72590288031242
 31
0.0
  0
LINE
  5
2AF
100
AcDbEntity
  8
0
  6
CONTINUOUS
 62
               2
100
AcDbLine
 10
30.0
 20
52.131631576801681
 30
0.0
 11
30.0
 21
61.768254788764636
 31
0.0
  0
LINE
  5
2B0
100
AcDbEntity
  8
0
  6
CONTINUOUS
 62
               7
100
AcDbLine
 10
285.00001525878912
 20
52.999981689452909
 30
0.0
 11
285.00001525878912
 21
55.999981689452909
 31
0.0
  0
LINE
  5
2B1
100
AcDbEntity
  8
0
  6
CONTINUOUS
 62
               7
100
AcDbLine
 10
0.0
 20
52.999981689452909
 30
0.0
 11
301.94667053222668
 21
52.999981689452909
 31
0.0
  0
LINE
  5
2B2
100
AcDbEntity
  8
0
  6
CONTINUOUS
 62
               7
100
AcDbLine
 10
277.00001525878912
 20
0.0
 30
0.0
 11
289.00001525878906
 21
0.0
 31
0.0
  0
LINE
  5
2B3
100
AcDbEntity
  8
0
  6
CONTINUOUS
 62
               7
100
AcDbLine
 10
18.40001509878914
 20
172.99998124945304
 30
0.0
 11
60.000015098789106
 21
172.99998124945304
 31
0.0
  0
LINE
  5
2B4
100
AcDbEntity
  8
0
  6
CONTINUOUS
 62
               7
100
AcDbLine
 10
289.00001525878906
 20
0.0
 30
0.0
 11
289.00001525878906
 21
3.1999816894529545
 31
0.0
  0
LINE
  5
2B5
100
AcDbEntity
  8
0
  6
CONTINUOUS
 62
               7
100
AcDbLine
 10
277.00001525878912
 20
0.0
 30
0.0
 11
277.00001525878912
 21
3.1999816894529545
 31
0.0
  0
LINE
  5
2B6
100
AcDbEntity
  8
0
  6
CONTINUOUS
 62
               7
100
AcDbLine
 10
11.0
 20
0.0
 30
0.0
 11
11.0
 21
3.1999816894529545
 31
0.0
  0
LINE
  5
2B7
100
AcDbEntity
  8
0
  6
CONTINUOUS
 62
               7
100
AcDbLine
 10
23.0
 20
0.0
 30
0.0
 11
23.0
 21
3.1999816894529545
 31
0.0
  0
LINE
  5
2B8
100
AcDbEntity
  8
0
  6
CONTINUOUS
 62
               7
100
AcDbLine
 10
300.00001525878912
 20
5.199963378906034
 30
0.0
 11
300.00001525878912
 21
55.999981689452909
 31
0.0
  0
LINE
  5
2B9
100
AcDbEntity
  8
0
  6
CONTINUOUS
 62
               7
100
AcDbLine
 10
11.0
 20
0.0
 30
0.0
 11
23.0
 21
0.0
 31
0.0
  0
LINE
  5
2BA
100
AcDbEntity
  8
0
  6
CONTINUOUS
 62
               7
100
AcDbLine
 10
4.93935508700946
 20
10.739327621188806
 30
0.0
 11
7.0606754305691197
 21
12.860647964748352
 31
0.0
  0
LINE
  5
2BB
100
AcDbEntity
  8
0
  6
CONTINUOUS
 62
               7
100
AcDbLine
 10
4.93935508700946
 20
12.860647964748352
 30
0.0
 11
7.0606754305691197
 21
10.739327621188806
 31
0.0
  0
LINE
  5
2BC
100
AcDbEntity
  8
0
  6
CONTINUOUS
 62
               7
100
AcDbLine
 10
147.43935508700986
 20
10.739327621188806
 30
0.0
 11
149.56067543056952
 21
12.860647964748352
 31
0.0
  0
LINE
  5
2BD
100
AcDbEntity
  8
0
  6
CONTINUOUS
 62
               7
100
AcDbLine
 10
147.43935508700986
 20
12.860647964748352
 30
0.0
 11
149.56067543056952
 21
10.739327621188806
 31
0.0
  0
LINE
  5
2BE
100
AcDbEntity
  8
0
  6
CONTINUOUS
 62
               7
100
AcDbLine
 10
289.9393550870098
 20
10.739327621188806
 30
0.0
 11
292.06067543056946
 21
12.860647964748352
 31
0.0
  0
LINE
  5
2BF
100
AcDbEntity
  8
0
  6
CONTINUOUS
 62
               7
100
AcDbLine
 10
289.9393550870098
 20
12.860647964748352
 30
0.0
 11
292.06067543056946
 21
10.739327621188806
 31
0.0
  0
LINE
  5
2C0
100
AcDbEntity
  8
0
  6
CONTINUOUS
 62
               7
100
AcDbLine
 10
72.739351892951049
 20
295.44184454810346
 30
0.0
 11
74.860672236510709
 21
297.56316489166301
 31
0.0
  0
LINE
  5
2C1
100
AcDbEntity
  8
0
  6
CONTINUOUS
 62
               7
100
AcDbLine
 10
72.739351892951049
 20
297.56316489166301
 30
0.0
 11
74.860672236510709
 21
295.44184454810346
 31
0.0
  0
LINE
  5
2C2
100
AcDbEntity
  8
0
  6
CONTINUOUS
 62
               7
100
AcDbLine
 10
86.739351906951356
 20
295.44184454810346
 30
0.0
 11
88.860672250511016
 21
297.56316489166301
 31
0.0
  0
LINE
  5
2C3
100
AcDbEntity
  8
0
  6
CONTINUOUS
 62
               7
100
AcDbLine
 10
86.739351906951356
 20
297.56316489166301
 30
0.0
 11
88.860672250511016
 21
295.44184454810346
 31
0.0
  0
LINE
  5
2C4
100
AcDbEntity
  8
0
  6
CONTINUOUS
 62
               7
100
AcDbLine
 10
79.739351899951203
 20
290.44184447753634
 30
0.0
 11
81.860672243510862
 21
292.56316482109588
 31
0.0
  0
LINE
  5
2C5
100
AcDbEntity
  8
0
  6
CONTINUOUS
 62
               7
100
AcDbLine
 10
79.739351899951203
 20
292.56316482109588
 30
0.0
 11
81.860672243510862
 21
290.44184447753634
 31
0.0
  0
LINE
  5
2C6
100
AcDbEntity
  8
0
  6
CONTINUOUS
 62
               7
100
AcDbLine
 10
71.739351891951515
 20
290.44184447753634
 30
0.0
 11
73.860672235511174
 21
292.56316482109588
 31
0.0
  0
LINE
  5
2C7
100
AcDbEntity
  8
0
  6
CONTINUOUS
 62
               7
100
AcDbLine
 10
71.739351891951515
 20
292.56316482109588
 30
0.0
 11
73.860672235511174
 21
290.44184447753634
 31
0.0
  0
ENDBLK
  5
2C8
100
AcDbEntity
  8
0
100
AcDbBlockEnd
  0
BLOCK
  5
2C9
100
AcDbEntity
  8
0
100
AcDbBlockBegin
  2
DTRB-AL3-3
 70
               0
 10
0.0
 20
0.0
 30
0.0
  3
DTRB-AL3-3
  1

  0
LINE
  5
2CA
100
AcDbEntity
  8
0
  6
CONTINUOUS
 62
               2
100
AcDbLine
 10
187.66662597656239
 20
-40.00001509878922
 30
0.0
 11
-181.31774902343761
 21
-40.00001509878922
 31
0.0
  0
LINE
  5
2CB
100
AcDbEntity
  8
0
  6
CONTINUOUS
 62
               7
100
AcDbLine
 10
181.17431640624989
 20
-26.170013267734475
 30
0.0
 11
105.54644775390614
 21
-26.170013267734475
 31
0.0
  0
LINE
  5
2CC
100
AcDbEntity
  8
0
  6
CONTINUOUS
 62
               7
100
AcDbLine
 10
182.49999999999989
 20
-59.000015098789163
 30
0.0
 11
104.49999999999989
 21
-59.000015098789163
 31
0.0
  0
LINE
  5
2CD
100
AcDbEntity
  8
0
  6
CONTINUOUS
 62
               7
100
AcDbLine
 10
181.35473632812477
 20
-53.830016929843907
 30
0.0
 11
105.36614990234364
 21
-53.830016929843907
 31
0.0
  0
LINE
  5
2CE
100
AcDbEntity
  8
0
  6
CONTINUOUS
 62
               7
100
AcDbLine
 10
-19.000000000000227
 20
51.499969642421661
 30
0.0
 11
-19.000000000000227
 21
0.0
 31
0.0
  0
LINE
  5
2CF
100
AcDbEntity
  8
0
  6
CONTINUOUS
 62
               7
100
AcDbLine
 10
23.499999999999773
 20
51.499969642421661
 30
0.0
 11
23.499999999999773
 21
0.0000001599998996
 31
0.0
  0
LINE
  5
2D0
100
AcDbEntity
  8
0
  6
CONTINUOUS
 62
               2
100
AcDbLine
 10
0.0
 20
54.265974619629901
 30
0.0
 11
0.0
 21
-313.06275826309115
 31
0.0
  0
LINE
  5
2D1
100
AcDbEntity
  8
0
  6
CONTINUOUS
 62
               7
100
AcDbLine
 10
18.499999999999773
 20
49.499969642421661
 30
0.0
 11
18.499999999999773
 21
0.0000001599998996
 31
0.0
  0
LINE
  5
2D2
100
AcDbEntity
  8
0
  6
CONTINUOUS
 62
               7
100
AcDbLine
 10
182.49999999999989
 20
-18.400015035455908
 30
0.0
 11
104.49993873151016
 21
-18.400015035455908
 31
0.0
  0
LINE
  5
2D3
100
AcDbEntity
  8
0
  6
CONTINUOUS
 62
               7
100
AcDbLine
 10
-14.000000000000227
 20
49.499969642421661
 30
0.0
 11
-14.000000000000227
 21
0.0
 31
0.0
  0
LINE
  5
2D4
100
AcDbEntity
  8
0
  6
CONTINUOUS
 62
               7
100
AcDbLine
 10
80.407879374400636
 20
-19.800010500952226
 30
0.0
 11
83.500000020999778
 21
-19.800010500952226
 31
0.0
  0
ARC
  5
2D5
100
AcDbEntity
  8
0
  6
CONTINUOUS
 62
               7
100
AcDbCircle
 10
78.500000012999749
 20
-20.400007452894897
 30
0.0
 40
2.0
100
AcDbArc
 50
0.0
 51
90.0
  0
ARC
  5
2D6
100
AcDbEntity
  8
0
  6
CONTINUOUS
 62
               7
100
AcDbCircle
 10
78.500000012999749
 20
-26.600007452894829
 30
0.0
 40
2.0
100
AcDbArc
 50
270.0
 51
0.0
  0
LINE
  5
2D7
100
AcDbEntity
  8
0
  6
CONTINUOUS
 62
               7
100
AcDbLine
 10
69.418120958473537
 20
-18.400007441283265
 30
0.0
 11
69.418120958473537
 21
-28.600007429362336
 31
0.0
  0
LINE
  5
2D8
100
AcDbEntity
  8
0
  6
CONTINUOUS
 62
               7
100
AcDbLine
 10
70.000000012999635
 20
-18.400007441283265
 30
0.0
 11
70.000000012999635
 21
-28.600007452894829
 31
0.0
  0
LINE
  5
2D9
100
AcDbEntity
  8
0
  6
CONTINUOUS
 62
               7
100
AcDbLine
 10
60.000000012999635
 20
-18.400007441283265
 30
0.0
 11
60.000000012999635
 21
-28.600007452894829
 31
0.0
  0
LINE
  5
2DA
100
AcDbEntity
  8
0
  6
CONTINUOUS
 62
               7
100
AcDbLine
 10
66.999999993088522
 20
-26.000007452894806
 30
0.0
 11
61.999999993088522
 21
-26.000007452894806
 31
0.0
  0
LINE
  5
2DB
100
AcDbEntity
  8
0
  6
CONTINUOUS
 62
               7
100
AcDbLine
 10
61.999999993088522
 20
-26.000007452894806
 30
0.0
 11
61.999999993088522
 21
-28.600007429362336
 31
0.0
  0
LINE
  5
2DC
100
AcDbEntity
  8
0
  6
CONTINUOUS
 62
               7
100
AcDbLine
 10
66.999999993088522
 20
-26.000007452894806
 30
0.0
 11
66.999999993088522
 21
-28.600007429362336
 31
0.0
  0
LINE
  5
2DD
100
AcDbEntity
  8
0
  6
CONTINUOUS
 62
               7
100
AcDbLine
 10
70.000000012999635
 20
-26.000007452894806
 30
0.0
 11
69.418120958473537
 21
-26.000007452894806
 31
0.0
  0
LINE
  5
2DE
100
AcDbEntity
  8
0
  6
CONTINUOUS
 62
               7
100
AcDbLine
 10
66.999999993088522
 20
-21.000007452894806
 30
0.0
 11
61.999999993088522
 21
-21.000007452894806
 31
0.0
  0
LINE
  5
2DF
100
AcDbEntity
  8
0
  6
CONTINUOUS
 62
               7
100
AcDbLine
 10
61.999999993088522
 20
-18.400007441283265
 30
0.0
 11
61.999999993088522
 21
-21.000007452894806
 31
0.0
  0
LINE
  5
2E0
100
AcDbEntity
  8
0
  6
CONTINUOUS
 62
               7
100
AcDbLine
 10
66.999999993088522
 20
-18.400007441283265
 30
0.0
 11
66.999999993088522
 21
-21.000007452894806
 31
0.0
  0
LINE
  5
2E1
100
AcDbEntity
  8
0
  6
CONTINUOUS
 62
               7
100
AcDbLine
 10
70.000000012999635
 20
-21.000007452894806
 30
0.0
 11
69.418120958473537
 21
-21.000007452894806
 31
0.0
  0
LINE
  5
2E2
100
AcDbEntity
  8
0
  6
CONTINUOUS
 62
               7
100
AcDbLine
 10
78.500000012999749
 20
-18.40000745289484
 30
0.0
 11
59.999999993088522
 21
-18.40000745289484
 31
0.0
  0
LINE
  5
2E3
100
AcDbEntity
  8
0
  6
CONTINUOUS
 62
               7
100
AcDbLine
 10
78.500000012999749
 20
-28.600007452894829
 30
0.0
 11
60.000000012999635
 21
-28.600007452894829
 31
0.0
  0
LINE
  5
2E4
100
AcDbEntity
  8
0
  6
CONTINUOUS
 62
               7
100
AcDbLine
 10
100.10000008000009
 20
5.1000000000000227
 30
0.0
 11
89.900000080000041
 21
5.1000000000000227
 31
0.0
  0
LINE
  5
2E5
100
AcDbEntity
  8
0
  6
CONTINUOUS
 62
               7
100
AcDbLine
 10
100.10000008000009
 20
1.8000000000000114
 30
0.0
 11
89.900000080000041
 21
1.8000000000000114
 31
0.0
  0
LINE
  5
2E6
100
AcDbEntity
  8
0
  6
CONTINUOUS
 62
               7
100
AcDbLine
 10
91.500000080000063
 20
5.500015128054315
 30
0.0
 11
91.500000080000063
 21
5.1000000000000227
 31
0.0
  0
LINE
  5
2E7
100
AcDbEntity
  8
0
  6
CONTINUOUS
 62
               7
100
AcDbLine
 10
98.500000080000063
 20
5.500015128054315
 30
0.0
 11
98.500000080000063
 21
5.1000000000000227
 31
0.0
  0
LINE
  5
2E8
100
AcDbEntity
  8
0
  6
CONTINUOUS
 62
               7
100
AcDbLine
 10
98.499999988610853
 20
5.5000152914013825
 30
0.0
 11
97.980384874019819
 21
5.8000152794804762
 31
0.0
  0
LINE
  5
2E9
100
AcDbEntity
  8
0
  6
CONTINUOUS
 62
               7
100
AcDbLine
 10
97.98038490666022
 20
5.800015318789292
 30
0.0
 11
92.019616207014224
 21
5.800015318789292
 31
0.0
  0
LINE
  5
2EA
100
AcDbEntity
  8
0
  6
CONTINUOUS
 62
               7
100
AcDbLine
 10
98.500000080000063
 20
5.500015128054315
 30
0.0
 11
91.500000080000063
 21
5.500015128054315
 31
0.0
  0
LINE
  5
2EB
100
AcDbEntity
  8
0
  6
CONTINUOUS
 62
               7
100
AcDbLine
 10
91.500000497021801
 20
5.5000150857499079
 30
0.0
 11
92.019616131854377
 21
5.8000152049592089
 31
0.0
  0
LINE
  5
2EC
100
AcDbEntity
  8
0
  6
CONTINUOUS
 62
               2
100
AcDbLine
 10
95.000000080000063
 20
6.8981316021010457
 30
0.0
 11
95.000000080000063
 21
-2.3989891591293144
 31
0.0
  0
LINE
  5
2ED
100
AcDbEntity
  8
0
  6
CONTINUOUS
 62
               7
100
AcDbLine
 10
89.900000080000041
 20
5.1000000000000227
 30
0.0
 11
89.900000080000041
 21
0.0
 31
0.0
  0
LINE
  5
2EE
100
AcDbEntity
  8
0
  6
CONTINUOUS
 62
               7
100
AcDbLine
 10
100.10000008000009
 20
5.1000000000000227
 30
0.0
 11
100.10000008000009
 21
0.0
 31
0.0
  0
CIRCLE
  5
2EF
100
AcDbEntity
  8
0
  6
CONTINUOUS
 62
               7
100
AcDbCircle
 10
-40.0
 20
-6.0000149676550336
 30
0.0
 40
3.1500000953674316
  0
CIRCLE
  5
2F0
100
AcDbEntity
  8
0
  6
CONTINUOUS
 62
               7
100
AcDbCircle
 10
-40.0
 20
-6.0000149676550336
 30
0.0
 40
3.0350000858306885
  0
CIRCLE
  5
2F1
100
AcDbEntity
  8
0
  6
CONTINUOUS
 62
               7
100
AcDbCircle
 10
40.0
 20
-6.0000149676550336
 30
0.0
 40
3.0350000858306885
  0
CIRCLE
  5
2F2
100
AcDbEntity
  8
0
  6
CONTINUOUS
 62
               7
100
AcDbCircle
 10
40.0
 20
-6.0000149676550336
 30
0.0
 40
3.1500000953674316
  0
CIRCLE
  5
2F3
100
AcDbEntity
  8
0
  6
CONTINUOUS
 62
               7
100
AcDbCircle
 10
40.0
 20
-291.20002730582064
 30
0.0
 40
3.1500000953674316
  0
CIRCLE
  5
2F4
100
AcDbEntity
  8
0
  6
CONTINUOUS
 62
               7
100
AcDbCircle
 10
40.0
 20
-291.20002730582064
 30
0.0
 40
3.0350000858306885
  0
CIRCLE
  5
2F5
100
AcDbEntity
  8
0
  6
CONTINUOUS
 62
               7
100
AcDbCircle
 10
-40.0
 20
-291.20002730582064
 30
0.0
 40
3.1500000953674316
  0
CIRCLE
  5
2F6
100
AcDbEntity
  8
0
  6
CONTINUOUS
 62
               7
100
AcDbCircle
 10
-40.0
 20
-291.20002730582064
 30
0.0
 40
3.0350000858306885
  0
LINE
  5
2F7
100
AcDbEntity
  8
0
  6
CONTINUOUS
 62
               7
100
AcDbLine
 10
106.29998697395342
 20
-9.0362760701263483
 30
0.0
 11
106.29998697395342
 21
-2.9637357869232233
 31
0.0
  0
ARC
  5
2F8
100
AcDbEntity
  8
0
  6
CONTINUOUS
 62
               7
100
AcDbCircle
 10
98.917601720046946
 20
-6.0000211873139051
 30
0.0
 40
7.982419490814209
100
AcDbArc
 50
337.64346078089295
 51
22.356542861572724
  0
LINE
  5
2F9
100
AcDbEntity
  8
0
  6
CONTINUOUS
 62
               7
100
AcDbLine
 10
106.30001368997273
 20
-9.0362756811819054
 30
0.0
 11
104.9999868763706
 21
-9.1500132893197588
 31
0.0
  0
LINE
  5
2FA
100
AcDbEntity
  8
0
  6
CONTINUOUS
 62
               7
100
AcDbLine
 10
106.2999791343309
 20
-2.9637491968323957
 30
0.0
 11
105.00001312362929
 21
-2.8500169082590219
 31
0.0
  0
LINE
  5
2FB
100
AcDbEntity
  8
0
  6
CONTINUOUS
 62
               7
100
AcDbLine
 10
106.29998697395342
 20
-151.53627607012669
 30
0.0
 11
106.29998697395342
 21
-145.46373578692356
 31
0.0
  0
ARC
  5
2FC
100
AcDbEntity
  8
0
  6
CONTINUOUS
 62
               7
100
AcDbCircle
 10
98.917601720046946
 20
-148.50002118731425
 30
0.0
 40
7.982419490814209
100
AcDbArc
 50
337.64346078089295
 51
22.356542861572724
  0
LINE
  5
2FD
100
AcDbEntity
  8
0
  6
CONTINUOUS
 62
               7
100
AcDbLine
 10
106.30001368997284
 20
-151.53627568118225
 30
0.0
 11
104.99998687637071
 21
-151.6500132893201
 31
0.0
  0
LINE
  5
2FE
100
AcDbEntity
  8
0
  6
CONTINUOUS
 62
               7
100
AcDbLine
 10
106.29997913433101
 20
-145.46374919683274
 30
0.0
 11
105.0000131236294
 21
-145.35001690825936
 31
0.0
  0
LINE
  5
2FF
100
AcDbEntity
  8
0
  6
CONTINUOUS
 62
               7
100
AcDbLine
 10
106.29998697395342
 20
-294.03627607012663
 30
0.0
 11
106.29998697395342
 21
-287.96373578692351
 31
0.0
  0
ARC
  5
300
100
AcDbEntity
  8
0
  6
CONTINUOUS
 62
               7
100
AcDbCircle
 10
98.917601720046946
 20
-291.00002118731425
 30
0.0
 40
7.982419490814209
100
AcDbArc
 50
337.64346078089295
 51
22.356542861572724
  0
LINE
  5
301
100
AcDbEntity
  8
0
  6
CONTINUOUS
 62
               7
100
AcDbLine
 10
106.30001368997284
 20
-294.03627568118225
 30
0.0
 11
104.99998687637071
 21
-294.15001328932004
 31
0.0
  0
LINE
  5
302
100
AcDbEntity
  8
0
  6
CONTINUOUS
 62
               7
100
AcDbLine
 10
106.29997913433101
 20
-287.96374919683274
 30
0.0
 11
105.0000131236294
 21
-287.85001690825936
 31
0.0
  0
LINE
  5
303
100
AcDbEntity
  8
0
  6
CONTINUOUS
 62
               7
100
AcDbLine
 10
-106.29997913433095
 20
-2.9637491968323957
 30
0.0
 11
-105.00001312362934
 21
-2.8500169082590219
 31
0.0
  0
LINE
  5
304
100
AcDbEntity
  8
0
  6
CONTINUOUS
 62
               7
100
AcDbLine
 10
-106.30001368997279
 20
-9.0362756811819054
 30
0.0
 11
-104.99998687637077
 21
-9.1500132893197588
 31
0.0
  0
ARC
  5
305
100
AcDbEntity
  8
0
  6
CONTINUOUS
 62
               7
100
AcDbCircle
 10
-98.917601720047116
 20
-6.0000211873139051
 30
0.0
 40
7.982419490814209
100
AcDbArc
 50
157.64345713842727
 51
202.35653921910705
  0
LINE
  5
306
100
AcDbEntity
  8
0
  6
CONTINUOUS
 62
               7
100
AcDbLine
 10
-106.29998697395354
 20
-9.0362760701263483
 30
0.0
 11
-106.29998697395354
 21
-2.9637357869232233
 31
0.0
  0
LINE
  5
307
100
AcDbEntity
  8
0
  6
CONTINUOUS
 62
               7
100
AcDbLine
 10
-106.29997913433107
 20
-145.46374919683274
 30
0.0
 11
-105.00001312362946
 21
-145.35001690825936
 31
0.0
  0
LINE
  5
308
100
AcDbEntity
  8
0
  6
CONTINUOUS
 62
               7
100
AcDbLine
 10
-106.3000136899729
 20
-151.53627568118225
 30
0.0
 11
-104.99998687637083
 21
-151.6500132893201
 31
0.0
  0
ARC
  5
309
100
AcDbEntity
  8
0
  6
CONTINUOUS
 62
               7
100
AcDbCircle
 10
-98.917601720047116
 20
-148.50002118731425
 30
0.0
 40
7.982419490814209
100
AcDbArc
 50
157.64345713842727
 51
202.35653921910705
  0
LINE
  5
30A
100
AcDbEntity
  8
0
  6
CONTINUOUS
 62
               7
100
AcDbLine
 10
-106.29998697395354
 20
-151.53627607012669
 30
0.0
 11
-106.29998697395354
 21
-145.46373578692356
 31
0.0
  0
LINE
  5
30B
100
AcDbEntity
  8
0
  6
CONTINUOUS
 62
               7
100
AcDbLine
 10
-106.29997913433107
 20
-287.96374919683274
 30
0.0
 11
-105.00001312362946
 21
-287.85001690825936
 31
0.0
  0
LINE
  5
30C
100
AcDbEntity
  8
0
  6
CONTINUOUS
 62
               7
100
AcDbLine
 10
-106.3000136899729
 20
-294.03627568118225
 30
0.0
 11
-104.99998687637083
 21
-294.15001328932004
 31
0.0
  0
ARC
  5
30D
100
AcDbEntity
  8
0
  6
CONTINUOUS
 62
               7
100
AcDbCircle
 10
-98.917601720047116
 20
-291.00002118731425
 30
0.0
 40
7.982419490814209
100
AcDbArc
 50
157.64345713842727
 51
202.35653921910705
  0
LINE
  5
30E
100
AcDbEntity
  8
0
  6
CONTINUOUS
 62
               7
100
AcDbLine
 10
-106.29998697395354
 20
-294.03627607012663
 30
0.0
 11
-106.29998697395354
 21
-287.96373578692351
 31
0.0
  0
ARC
  5
30F
100
AcDbEntity
  8
0
  6
CONTINUOUS
 62
               7
100
AcDbCircle
 10
75.500000043333102
 20
-56.500015153789263
 30
0.0
 40
2.7500000091666661
100
AcDbArc
 50
264.78409073216426
 51
213.0558071618525
  0
LINE
  5
310
100
AcDbEntity
  8
0
  6
CONTINUOUS
 62
               7
100
AcDbLine
 10
74.056623170038733
 20
-56.500006464422199
 30
0.0
 11
74.778303290099075
 21
-57.749992073601447
 31
0.0
  0
LINE
  5
311
100
AcDbEntity
  8
0
  6
CONTINUOUS
 62
               7
100
AcDbLine
 10
74.778359479791447
 20
-55.250032352816675
 30
0.0
 11
74.056680865272369
 21
-56.500018908336074
 31
0.0
  0
LINE
  5
312
100
AcDbEntity
  8
0
  6
CONTINUOUS
 62
               7
100
AcDbLine
 10
76.221690848998605
 20
-55.250025140877028
 30
0.0
 11
74.778331469187378
 21
-55.250026094541852
 31
0.0
  0
LINE
  5
313
100
AcDbEntity
  8
0
  6
CONTINUOUS
 62
               7
100
AcDbLine
 10
76.943384074956498
 20
-56.49999879207212
 30
0.0
 11
76.221704428066346
 21
-55.250012838769294
 31
0.0
  0
LINE
  5
314
100
AcDbEntity
  8
0
  6
CONTINUOUS
 62
               7
100
AcDbLine
 10
76.221676884683916
 20
-57.749992304460363
 30
0.0
 11
76.943354724924689
 21
-56.500005318786293
 31
0.0
  0
LINE
  5
315
100
AcDbEntity
  8
0
  6
CONTINUOUS
 62
               7
100
AcDbLine
 10
76.221679733238716
 20
-57.750015157955886
 30
0.0
 11
74.778320353427489
 21
-57.750015157955886
 31
0.0
  0
LINE
  5
316
100
AcDbEntity
  8
0
  6
CONTINUOUS
 62
               7
100
AcDbLine
 10
75.250000009166456
 20
-58.500018218213768
 30
0.0
 11
75.250000009166456
 21
-61.000018226547127
 31
0.0
  0
LINE
  5
317
100
AcDbEntity
  8
0
  6
CONTINUOUS
 62
               7
100
AcDbLine
 10
69.749999990833089
 20
-61.000018226547127
 30
0.0
 11
69.749999990833089
 21
-58.500018218213768
 31
0.0
  0
LINE
  5
318
100
AcDbEntity
  8
0
  6
CONTINUOUS
 62
               7
100
AcDbLine
 10
70.250055014695704
 20
-58.000042386399798
 30
0.0
 11
69.750042723241677
 21
-58.500052781202612
 31
0.0
  0
LINE
  5
319
100
AcDbEntity
  8
0
  6
CONTINUOUS
 62
               7
100
AcDbLine
 10
75.250000009166456
 20
-58.500018218213768
 30
0.0
 11
69.749999990833089
 21
-58.500018218213768
 31
0.0
  0
LINE
  5
31A
100
AcDbEntity
  8
0
  6
CONTINUOUS
 62
               7
100
AcDbLine
 10
75.250026700158514
 20
-58.500020360692247
 30
0.0
 11
74.750035987932506
 21
-58.00003154503554
 31
0.0
  0
LINE
  5
31B
100
AcDbEntity
  8
0
  6
CONTINUOUS
 62
               7
100
AcDbLine
 10
74.750000007499693
 20
-58.000018216547119
 30
0.0
 11
70.249999992499852
 21
-58.000018216547119
 31
0.0
  0
LINE
  5
31C
100
AcDbEntity
  8
0
  6
CONTINUOUS
 62
               7
100
AcDbLine
 10
63.99999998008866
 20
-57.700018226547058
 30
0.0
 11
63.99999998008866
 21
-61.000018226547127
 31
0.0
  0
LINE
  5
31D
100
AcDbEntity
  8
0
  6
CONTINUOUS
 62
               7
100
AcDbLine
 10
66.999999980088546
 20
-61.000018196081044
 30
0.0
 11
66.418120937999561
 21
-57.700018184160058
 31
0.0
  0
LINE
  5
31E
100
AcDbEntity
  8
0
  6
CONTINUOUS
 62
               7
100
AcDbLine
 10
77.49999998008866
 20
-61.000018226547127
 30
0.0
 11
77.49999998008866
 21
-62.800018226547081
 31
0.0
  0
LINE
  5
31F
100
AcDbEntity
  8
0
  6
CONTINUOUS
 62
               2
100
AcDbLine
 10
72.499999999999773
 20
-56.494443159055947
 30
0.0
 11
72.499999999999773
 21
-66.007398186550688
 31
0.0
  0
CIRCLE
  5
320
100
AcDbEntity
  8
0
  6
CONTINUOUS
 62
               7
100
AcDbCircle
 10
49.499999956666443
 20
-56.500015153789263
 30
0.0
 40
2.7500000091666661
  0
LINE
  5
321
100
AcDbEntity
  8
0
  6
CONTINUOUS
 62
               7
100
AcDbLine
 10
48.056623083372187
 20
-56.500006464422199
 30
0.0
 11
48.778303203432415
 21
-57.749992073601447
 31
0.0
  0
LINE
  5
322
100
AcDbEntity
  8
0
  6
CONTINUOUS
 62
               7
100
AcDbLine
 10
48.778359393124902
 20
-55.250032352816675
 30
0.0
 11
48.05668077860571
 21
-56.500018908336074
 31
0.0
  0
LINE
  5
323
100
AcDbEntity
  8
0
  6
CONTINUOUS
 62
               7
100
AcDbLine
 10
50.221690762331946
 20
-55.250025140877028
 30
0.0
 11
48.778331382520719
 21
-55.250026094541852
 31
0.0
  0
LINE
  5
324
100
AcDbEntity
  8
0
  6
CONTINUOUS
 62
               7
100
AcDbLine
 10
50.943383988289838
 20
-56.49999879207212
 30
0.0
 11
50.221704341399686
 21
-55.250012838769294
 31
0.0
  0
LINE
  5
325
100
AcDbEntity
  8
0
  6
CONTINUOUS
 62
               7
100
AcDbLine
 10
50.22167679801737
 20
-57.749992304460363
 30
0.0
 11
50.943354638258143
 21
-56.500005318786293
 31
0.0
  0
LINE
  5
326
100
AcDbEntity
  8
0
  6
CONTINUOUS
 62
               7
100
AcDbLine
 10
50.221679646572056
 20
-57.750015157955886
 30
0.0
 11
48.778320266760829
 21
-57.750015157955886
 31
0.0
  0
LINE
  5
327
100
AcDbEntity
  8
0
  6
CONTINUOUS
 62
               7
100
AcDbLine
 10
58.99999998008866
 20
-57.700018226547058
 30
0.0
 11
58.99999998008866
 21
-61.000018226547127
 31
0.0
  0
LINE
  5
328
100
AcDbEntity
  8
0
  6
CONTINUOUS
 62
               7
100
AcDbLine
 10
56.999999980088546
 20
-57.700018226547058
 30
0.0
 11
56.999999980088546
 21
-62.800018226547081
 31
0.0
  0
LINE
  5
329
100
AcDbEntity
  8
0
  6
CONTINUOUS
 62
               7
100
AcDbLine
 10
55.250000009166456
 20
-60.300018218213722
 30
0.0
 11
55.250000009166456
 21
-62.800018226547081
 31
0.0
  0
LINE
  5
32A
100
AcDbEntity
  8
0
  6
CONTINUOUS
 62
               7
100
AcDbLine
 10
49.749999990833089
 20
-62.800018226547081
 30
0.0
 11
49.749999990833089
 21
-60.300018218213722
 31
0.0
  0
LINE
  5
32B
100
AcDbEntity
  8
0
  6
CONTINUOUS
 62
               7
100
AcDbLine
 10
50.250055014695704
 20
-59.800042386399753
 30
0.0
 11
49.750042723241677
 21
-60.300052781202567
 31
0.0
  0
LINE
  5
32C
100
AcDbEntity
  8
0
  6
CONTINUOUS
 62
               7
100
AcDbLine
 10
55.250000009166456
 20
-60.300018218213722
 30
0.0
 11
49.749999990833089
 21
-60.300018218213722
 31
0.0
  0
LINE
  5
32D
100
AcDbEntity
  8
0
  6
CONTINUOUS
 62
               7
100
AcDbLine
 10
54.750000007499693
 20
-59.800018216547073
 30
0.0
 11
50.249999992499852
 21
-59.800018216547073
 31
0.0
  0
LINE
  5
32E
100
AcDbEntity
  8
0
  6
CONTINUOUS
 62
               7
100
AcDbLine
 10
55.250026700158514
 20
-60.300020360692201
 30
0.0
 11
54.750035987932506
 21
-59.800031545035495
 31
0.0
  0
LINE
  5
32F
100
AcDbEntity
  8
0
  6
CONTINUOUS
 62
               2
100
AcDbLine
 10
52.499999999999773
 20
-58.820609850902997
 30
0.0
 11
52.499999999999773
 21
-67.807398186550699
 31
0.0
  0
LINE
  5
330
100
AcDbEntity
  8
0
  6
CONTINUOUS
 62
               7
100
AcDbLine
 10
66.418120945473561
 20
-57.700018226547058
 30
0.0
 11
56.999999980088546
 21
-57.700018226547058
 31
0.0
  0
LINE
  5
331
100
AcDbEntity
  8
0
  6
CONTINUOUS
 62
               7
100
AcDbLine
 10
77.49999998008866
 20
-61.000018226547127
 30
0.0
 11
56.999999980088546
 21
-61.000018226547127
 31
0.0
  0
LINE
  5
332
100
AcDbEntity
  8
0
  6
CONTINUOUS
 62
               7
100
AcDbLine
 10
63.99999998008866
 20
-59.400018226547047
 30
0.0
 11
58.99999998008866
 21
-59.400018226547047
 31
0.0
  0
LINE
  5
333
100
AcDbEntity
  8
0
  6
CONTINUOUS
 62
               7
100
AcDbLine
 10
40.89999999999975
 20
-65.800018236547032
 30
0.0
 11
83.500000069999828
 21
-65.800018236547032
 31
0.0
  0
LINE
  5
334
100
AcDbEntity
  8
0
  6
CONTINUOUS
 62
               7
100
AcDbLine
 10
44.499999939999725
 20
-62.800018226547081
 30
0.0
 11
80.50000005999982
 21
-62.800018226547081
 31
0.0
  0
ARC
  5
335
100
AcDbEntity
  8
0
  6
CONTINUOUS
 62
               7
100
AcDbCircle
 10
37.399999999999636
 20
-71.300018236547089
 30
0.0
 40
1.0
100
AcDbArc
 50
90.0
 51
180.0
  0
LINE
  5
336
100
AcDbEntity
  8
0
  6
CONTINUOUS
 62
               2
100
AcDbLine
 10
43.186247525045019
 20
-77.800018236547032
 30
0.0
 11
34.806153939269961
 21
-77.800018236547032
 31
0.0
  0
ARC
  5
337
100
AcDbEntity
  8
0
  6
CONTINUOUS
 62
               7
100
AcDbCircle
 10
40.89999999999975
 20
-69.800018236547089
 30
0.0
 40
3.5000000000000004
100
AcDbArc
 50
90.0
 51
180.0
  0
ARC
  5
338
100
AcDbEntity
  8
0
  6
CONTINUOUS
 62
               7
100
AcDbCircle
 10
44.39999999999975
 20
-89.069452069124964
 30
0.0
 40
3.5000000000000004
100
AcDbArc
 50
180.00000000000006
 51
225.03144276458423
  0
LINE
  5
339
100
AcDbEntity
  8
0
  6
CONTINUOUS
 62
               7
100
AcDbLine
 10
40.049999994257746
 20
-89.876081294347728
 30
0.0
 11
40.89999999999975
 21
-89.950446658630028
 31
0.0
  0
LINE
  5
33A
100
AcDbEntity
  8
0
  6
CONTINUOUS
 62
               7
100
AcDbLine
 10
40.049999971928742
 20
-89.876081454035102
 30
0.0
 11
40.049999971928742
 21
-89.195235453792407
 31
0.0
  0
ARC
  5
33B
100
AcDbEntity
  8
0
  6
CONTINUOUS
 62
               7
100
AcDbCircle
 10
46.029655833783181
 20
-87.800446736094159
 30
0.0
 40
6.3296561241149902
100
AcDbArc
 50
192.18528551792392
 51
199.14270731389522
  0
ARC
  5
33C
100
AcDbEntity
  8
0
  6
CONTINUOUS
 62
               7
100
AcDbCircle
 10
40.89999999999975
 20
-85.800018236547032
 30
0.0
 40
3.5000000000000004
100
AcDbArc
 50
180.0
 51
270.0
  0
ARC
  5
33D
100
AcDbEntity
  8
0
  6
CONTINUOUS
 62
               7
100
AcDbCircle
 10
37.399999999999636
 20
-84.300018236547032
 30
0.0
 40
1.0
100
AcDbArc
 50
180.0
 51
270.0
  0
LINE
  5
33E
100
AcDbEntity
  8
0
  6
CONTINUOUS
 62
               7
100
AcDbLine
 10
36.39999999999975
 20
-71.300018236547089
 30
0.0
 11
36.39999999999975
 21
-84.300018236547032
 31
0.0
  0
LINE
  5
33F
100
AcDbEntity
  8
0
  6
CONTINUOUS
 62
               7
100
AcDbLine
 10
37.399999999999636
 20
-85.800018236547032
 30
0.0
 11
37.399999999999636
 21
-69.800018236547089
 31
0.0
  0
LINE
  5
340
100
AcDbEntity
  8
0
  6
CONTINUOUS
 62
               7
100
AcDbLine
 10
48.099710538158547
 20
-97.712137563010742
 30
0.0
 11
41.926484799077571
 21
-91.545683591177635
 31
0.0
  0
LINE
  5
341
100
AcDbEntity
  8
0
  6
CONTINUOUS
 62
               7
100
AcDbLine
 10
40.89999999999975
 20
-65.800018236547032
 30
0.0
 11
40.89999999999975
 21
-89.950446658630028
 31
0.0
  0
LINE
  5
342
100
AcDbEntity
  8
0
  6
CONTINUOUS
 62
               7
100
AcDbLine
 10
105.92436544174609
 20
-17.550005560533464
 30
0.0
 11
105.85000007746385
 21
-18.400005566275354
 31
0.0
  0
LINE
  5
343
100
AcDbEntity
  8
0
  6
CONTINUOUS
 62
               7
100
AcDbLine
 10
110.07563455825391
 20
-17.55000556053335
 30
0.0
 11
110.14999992253604
 21
-18.400005566275354
 31
0.0
  0
LINE
  5
344
100
AcDbEntity
  8
0
  6
CONTINUOUS
 62
               7
100
AcDbLine
 10
110.07563471794128
 20
-17.550005538204061
 30
0.0
 11
105.9243652820586
 21
-17.550005538204232
 31
0.0
  0
ARC
  5
345
100
AcDbEntity
  8
0
  6
CONTINUOUS
 62
               7
100
AcDbCircle
 10
108.00000000000011
 20
-23.529661400058728
 30
0.0
 40
6.3296561241149902
100
AcDbArc
 50
70.857292686107982
 51
109.14270913513137
  0
LINE
  5
346
100
AcDbEntity
  8
0
  6
CONTINUOUS
 62
               7
100
AcDbLine
 10
44.499999981999849
 20
-62.800018226547081
 30
0.0
 11
44.499999981999849
 21
-19.800010500952226
 31
0.0
  0
LINE
  5
347
100
AcDbEntity
  8
0
  6
CONTINUOUS
 62
               7
100
AcDbLine
 10
80.500000017999582
 20
-62.800018226547081
 30
0.0
 11
80.500000017999582
 21
-19.800010500952226
 31
0.0
  0
LINE
  5
348
100
AcDbEntity
  8
0
  6
CONTINUOUS
 62
               7
100
AcDbLine
 10
48.085788448034805
 20
-97.714231469304252
 30
0.0
 11
44.52513642646602
 21
-94.153579447735694
 31
0.0
  0
LINE
  5
349
100
AcDbEntity
  8
0
  6
CONTINUOUS
 62
               7
100
AcDbLine
 10
101.42153176139379
 20
-15.9999998400001
 30
0.0
 11
85.0
 21
-15.9999998400001
 31
0.0
  0
LINE
  5
34A
100
AcDbEntity
  8
0
  6
CONTINUOUS
 62
               7
100
AcDbLine
 10
-105.00000000000006
 20
-303.09638956679652
 30
0.0
 11
-105.00000000000006
 21
-59.000015098789163
 31
0.0
  0
LINE
  5
34B
100
AcDbEntity
  8
0
  6
CONTINUOUS
 62
               7
100
AcDbLine
 10
85.0
 20
-21.000015098789333
 30
0.0
 11
85.0
 21
0.0
 31
0.0
  0
LINE
  5
34C
100
AcDbEntity
  8
0
  6
CONTINUOUS
 62
               7
100
AcDbLine
 10
85.0
 20
-19.9999998400001
 30
0.0
 11
94.499999999999886
 21
-19.9999998400001
 31
0.0
  0
LINE
  5
34D
100
AcDbEntity
  8
0
  6
CONTINUOUS
 62
               7
100
AcDbLine
 10
41.499999978999767
 20
-21.000015098789333
 30
0.0
 11
-171.17529296875
 21
-21.000015098789333
 31
0.0
  0
LINE
  5
34E
100
AcDbEntity
  8
0
  6
CONTINUOUS
 62
               7
100
AcDbLine
 10
41.499999978999767
 20
-26.600005943515725
 30
0.0
 11
-164.50000000000011
 21
-26.600005943515725
 31
0.0
  0
LINE
  5
34F
100
AcDbEntity
  8
0
  6
CONTINUOUS
 62
               7
100
AcDbLine
 10
41.499999978999767
 20
-28.800018150546975
 30
0.0
 11
-164.50000000000011
 21
-28.800018150546975
 31
0.0
  0
LINE
  5
350
100
AcDbEntity
  8
0
  6
CONTINUOUS
 62
               7
100
AcDbLine
 10
41.499999978999767
 20
-51.200012047031407
 30
0.0
 11
-164.50000000000011
 21
-51.200012047031407
 31
0.0
  0
LINE
  5
351
100
AcDbEntity
  8
0
  6
CONTINUOUS
 62
               7
100
AcDbLine
 10
41.499999978999767
 20
-53.400008995273538
 30
0.0
 11
-164.50000000000011
 21
-53.400008995273538
 31
0.0
  0
LINE
  5
352
100
AcDbEntity
  8
0
  6
CONTINUOUS
 62
               7
100
AcDbLine
 10
83.500000020999778
 20
-60.00001509878922
 30
0.0
 11
105.0
 21
-60.00001509878922
 31
0.0
  0
LINE
  5
353
100
AcDbEntity
  8
0
  6
CONTINUOUS
 62
               7
100
AcDbLine
 10
41.499999978999767
 20
-59.000015098789163
 30
0.0
 11
-171.17529296875
 21
-59.000015098789163
 31
0.0
  0
ARC
  5
354
100
AcDbEntity
  8
0
  6
CONTINUOUS
 62
               7
100
AcDbCircle
 10
104.50000016000013
 20
-0.5
 30
0.0
 40
0.5
100
AcDbArc
 50
0.0
 51
90.0
  0
LINE
  5
355
100
AcDbEntity
  8
0
  6
CONTINUOUS
 62
               2
100
AcDbLine
 10
62.499999999999773
 20
-14.40000745289484
 30
0.0
 11
62.499999999999773
 21
-103.30001057945248
 31
0.0
  0
LINE
  5
356
100
AcDbEntity
  8
0
  6
CONTINUOUS
 62
               7
100
AcDbLine
 10
82.350000040265627
 20
-85.72437596246283
 30
0.0
 11
81.500000014770535
 21
-85.650010596452603
 31
0.0
  0
LINE
  5
357
100
AcDbEntity
  8
0
  6
CONTINUOUS
 62
               7
100
AcDbLine
 10
82.350000040265513
 20
-89.87564517544206
 30
0.0
 11
81.500000014770421
 21
-89.950010541452286
 31
0.0
  0
LINE
  5
358
100
AcDbEntity
  8
0
  6
CONTINUOUS
 62
               7
100
AcDbLine
 10
82.35000004369158
 20
-89.875645288969338
 30
0.0
 11
82.350000043691693
 21
-85.724375848935551
 31
0.0
  0
ARC
  5
359
100
AcDbEntity
  8
0
  6
CONTINUOUS
 62
               7
100
AcDbCircle
 10
76.37034417585744
 20
-87.800010568952075
 30
0.0
 40
6.3296561304446461
100
AcDbArc
 50
340.85729268610248
 51
19.14270913512587
  0
LINE
  5
35A
100
AcDbEntity
  8
0
  6
CONTINUOUS
 62
               7
100
AcDbLine
 10
82.350000040265627
 20
-71.724375948462921
 30
0.0
 11
81.500000014770535
 21
-71.650010582452296
 31
0.0
  0
LINE
  5
35B
100
AcDbEntity
  8
0
  6
CONTINUOUS
 62
               7
100
AcDbLine
 10
82.350000040265513
 20
-75.875645161442094
 30
0.0
 11
81.500000014770421
 21
-75.950010527452378
 31
0.0
  0
LINE
  5
35C
100
AcDbEntity
  8
0
  6
CONTINUOUS
 62
               7
100
AcDbLine
 10
82.35000004369158
 20
-75.875645274969429
 30
0.0
 11
82.350000043691693
 21
-71.724375834935586
 31
0.0
  0
ARC
  5
35D
100
AcDbEntity
  8
0
  6
CONTINUOUS
 62
               7
100
AcDbCircle
 10
76.37034417585744
 20
-73.800010554952109
 30
0.0
 40
6.3296561304446461
100
AcDbArc
 50
340.85729268610248
 51
19.14270913512587
  0
LINE
  5
35E
100
AcDbEntity
  8
0
  6
CONTINUOUS
 62
               7
100
AcDbLine
 10
76.221687688243833
 20
-24.750007454144679
 30
0.0
 11
74.778314125894894
 21
-24.750007454144679
 31
0.0
  0
LINE
  5
35F
100
AcDbEntity
  8
0
  6
CONTINUOUS
 62
               7
100
AcDbLine
 10
76.221684151595923
 20
-24.750000793492745
 30
0.0
 11
76.943366162467328
 21
-23.500006584049629
 31
0.0
  0
LINE
  5
360
100
AcDbEntity
  8
0
  6
CONTINUOUS
 62
               7
100
AcDbLine
 10
76.943365673649851
 20
-23.500007285588026
 30
0.0
 11
76.221682332955993
 21
-22.250014934428236
 31
0.0
  0
LINE
  5
361
100
AcDbEntity
  8
0
  6
CONTINUOUS
 62
               7
100
AcDbLine
 10
76.221685551043947
 20
-22.250021279922294
 30
0.0
 11
74.778313299997308
 21
-22.250022233595701
 31
0.0
  0
LINE
  5
362
100
AcDbEntity
  8
0
  6
CONTINUOUS
 62
               7
100
AcDbLine
 10
74.77831686393381
 20
-22.250015166047319
 30
0.0
 11
74.056634108581989
 21
-23.500008893714039
 31
0.0
  0
LINE
  5
363
100
AcDbEntity
  8
0
  6
CONTINUOUS
 62
               7
100
AcDbLine
 10
74.056634145563748
 20
-23.500007737471151
 30
0.0
 11
74.778318525674649
 21
-24.750000725268592
 31
0.0
  0
CIRCLE
  5
364
100
AcDbEntity
  8
0
  6
CONTINUOUS
 62
               7
100
AcDbCircle
 10
75.500000012999635
 20
-23.500007452894806
 30
0.0
 40
2.7500000027499998
  0
LINE
  5
365
100
AcDbEntity
  8
0
  6
CONTINUOUS
 62
               7
100
AcDbLine
 10
50.22168766224388
 20
-24.750007454144679
 30
0.0
 11
48.778314099894942
 21
-24.750007454144679
 31
0.0
  0
LINE
  5
366
100
AcDbEntity
  8
0
  6
CONTINUOUS
 62
               7
100
AcDbLine
 10
50.221684125596084
 20
-24.750000793492745
 30
0.0
 11
50.943366136467148
 21
-23.500006584049629
 31
0.0
  0
LINE
  5
367
100
AcDbEntity
  8
0
  6
CONTINUOUS
 62
               7
100
AcDbLine
 10
50.943365647649898
 20
-23.500007285588026
 30
0.0
 11
50.221682306955813
 21
-22.250014934428236
 31
0.0
  0
LINE
  5
368
100
AcDbEntity
  8
0
  6
CONTINUOUS
 62
               7
100
AcDbLine
 10
50.221685525043881
 20
-22.250021279922294
 30
0.0
 11
48.778313273997242
 21
-22.250022233595701
 31
0.0
  0
LINE
  5
369
100
AcDbEntity
  8
0
  6
CONTINUOUS
 62
               7
100
AcDbLine
 10
48.778316837933744
 20
-22.250015166047319
 30
0.0
 11
48.056634082582036
 21
-23.500008893714039
 31
0.0
  0
LINE
  5
36A
100
AcDbEntity
  8
0
  6
CONTINUOUS
 62
               7
100
AcDbLine
 10
48.056634119563796
 20
-23.500007737471151
 30
0.0
 11
48.778318499674697
 21
-24.750000725268592
 31
0.0
  0
CIRCLE
  5
36B
100
AcDbEntity
  8
0
  6
CONTINUOUS
 62
               7
100
AcDbCircle
 10
49.499999986999796
 20
-23.500007452894806
 30
0.0
 40
2.7500000027499998
  0
ARC
  5
36C
100
AcDbEntity
  8
0
  6
CONTINUOUS
 62
               7
100
AcDbCircle
 10
43.999999981499741
 20
-98.800010579952641
 30
0.0
 40
0.5000000005
100
AcDbArc
 50
179.99999749552182
 51
270.0
  0
ARC
  5
36D
100
AcDbEntity
  8
0
  6
CONTINUOUS
 62
               7
100
AcDbCircle
 10
47.999999999499778
 20
-98.800010579952641
 30
0.0
 40
0.5000000005
100
AcDbArc
 50
270.0
 51
0.0000025044781673
  0
ARC
  5
36E
100
AcDbEntity
  8
0
  6
CONTINUOUS
 62
               7
100
AcDbCircle
 10
77.000000000499881
 20
-98.800010579952641
 30
0.0
 40
0.5000000005
100
AcDbArc
 50
179.99999749552182
 51
270.0
  0
ARC
  5
36F
100
AcDbEntity
  8
0
  6
CONTINUOUS
 62
               7
100
AcDbCircle
 10
81.000000018499691
 20
-98.800010579952641
 30
0.0
 40
0.5000000005
100
AcDbArc
 50
270.0
 51
0.0000025044781673
  0
ARC
  5
370
100
AcDbEntity
  8
0
  6
CONTINUOUS
 62
               7
100
AcDbCircle
 10
75.500000012999635
 20
-96.300010577452269
 30
0.0
 40
2.0000000020000002
100
AcDbArc
 50
270.0
 51
315.00000125223909
  0
ARC
  5
371
100
AcDbEntity
  8
0
  6
CONTINUOUS
 62
               7
100
AcDbCircle
 10
49.499999986999796
 20
-96.300010577452269
 30
0.0
 40
2.0000000020000002
100
AcDbArc
 50
224.99999874776091
 51
270.0
  0
ARC
  5
372
100
AcDbEntity
  8
0
  6
CONTINUOUS
 62
               7
100
AcDbCircle
 10
78.000000015499609
 20
-91.678703199784309
 30
0.0
 40
3.5000000034999998
100
AcDbArc
 50
315.00000125223909
 51
0.0000025044781673
  0
LINE
  5
373
100
AcDbEntity
  8
0
  6
CONTINUOUS
 62
               2
100
AcDbLine
 10
78.750000016249828
 20
-100.99358358019282
 30
0.0
 11
78.750000016249828
 21
-91.678703199784309
 31
0.0
  0
LINE
  5
374
100
AcDbEntity
  8
0
  6
CONTINUOUS
 62
               2
100
AcDbLine
 10
46.249999983749717
 20
-100.91628255472506
 30
0.0
 11
46.249999983749717
 21
-91.678703199784309
 31
0.0
  0
LINE
  5
375
100
AcDbEntity
  8
0
  6
CONTINUOUS
 62
               7
100
AcDbLine
 10
47.999999999499778
 20
-99.300010580452408
 30
0.0
 11
43.999999981499741
 21
-99.300010580452408
 31
0.0
  0
LINE
  5
376
100
AcDbEntity
  8
0
  6
CONTINUOUS
 62
               7
100
AcDbLine
 10
81.500000018999685
 20
-98.800010579952641
 30
0.0
 11
81.500000018999685
 21
-91.678703199784309
 31
0.0
  0
LINE
  5
377
100
AcDbEntity
  8
0
  6
CONTINUOUS
 62
               7
100
AcDbLine
 10
43.49999998099986
 20
-98.800010579952641
 30
0.0
 11
43.49999998099986
 21
-93.117472693571415
 31
0.0
  0
LINE
  5
378
100
AcDbEntity
  8
0
  6
CONTINUOUS
 62
               7
100
AcDbLine
 10
48.499999999999659
 20
-98.800010579952641
 30
0.0
 11
48.499999999999659
 21
-98.23650349931097
 31
0.0
  0
LINE
  5
379
100
AcDbEntity
  8
0
  6
CONTINUOUS
 62
               7
100
AcDbLine
 10
76.499999999999773
 20
-98.800010579952641
 30
0.0
 11
76.499999999999773
 21
-98.300010579452476
 31
0.0
  0
LINE
  5
37A
100
AcDbEntity
  8
0
  6
CONTINUOUS
 62
               7
100
AcDbLine
 10
81.000000018499691
 20
-99.300010580452408
 30
0.0
 11
77.000000000499881
 21
-99.300010580452408
 31
0.0
  0
LINE
  5
37B
100
AcDbEntity
  8
0
  6
CONTINUOUS
 62
               7
100
AcDbLine
 10
76.91421155196474
 20
-97.714231469304252
 30
0.0
 11
80.474863573533526
 21
-94.153579447735694
 31
0.0
  0
LINE
  5
37C
100
AcDbEntity
  8
0
  6
CONTINUOUS
 62
               7
100
AcDbLine
 10
75.500000012999635
 20
-98.300010579452476
 30
0.0
 11
49.499999986999796
 21
-98.300010579452476
 31
0.0
  0
LINE
  5
37D
100
AcDbEntity
  8
0
  6
CONTINUOUS
 62
               7
100
AcDbLine
 10
81.500000018999685
 20
-91.678703199784309
 30
0.0
 11
81.500000018999685
 21
-65.800010546952421
 31
0.0
  0
LINE
  5
37E
100
AcDbEntity
  8
0
  6
CONTINUOUS
 62
               7
100
AcDbLine
 10
41.499999978999767
 20
-19.800010500952226
 30
0.0
 11
60.000000012999635
 21
-19.800010500952226
 31
0.0
  0
LINE
  5
37F
100
AcDbEntity
  8
0
  6
CONTINUOUS
 62
               7
100
AcDbLine
 10
41.499999978999767
 20
-65.800010546952421
 30
0.0
 11
41.499999978999767
 21
-19.800010500952226
 31
0.0
  0
LINE
  5
380
100
AcDbEntity
  8
0
  6
CONTINUOUS
 62
               7
100
AcDbLine
 10
83.500000020999778
 20
-65.800010546952421
 30
0.0
 11
83.500000020999778
 21
-19.800010500952226
 31
0.0
  0
ARC
  5
381
100
AcDbEntity
  8
0
  6
CONTINUOUS
 62
               7
100
AcDbCircle
 10
0.0
 20
609.99998490121072
 30
0.0
 40
920.0
100
AcDbArc
 50
272.76310112686076
 51
276.49788211075821
  0
LINE
  5
382
100
AcDbEntity
  8
0
  6
CONTINUOUS
 62
               7
100
AcDbLine
 10
31.649999999999864
 20
-325.49999999999892
 30
0.0
 11
31.649999999999864
 21
-307.07907477819998
 31
0.0
  0
LINE
  5
383
100
AcDbEntity
  8
0
  6
CONTINUOUS
 62
               7
100
AcDbLine
 10
44.349999999999795
 20
-325.49999999999892
 30
0.0
 11
44.349999999999795
 21
-306.43387917200988
 31
0.0
  0
LINE
  5
384
100
AcDbEntity
  8
0
  6
CONTINUOUS
 62
               7
100
AcDbLine
 10
32.5
 20
-327.99999999999892
 30
0.0
 11
32.5
 21
-326.49999999999881
 31
0.0
  0
LINE
  5
385
100
AcDbEntity
  8
0
  6
CONTINUOUS
 62
               7
100
AcDbLine
 10
43.499999999999886
 20
-327.99999999999892
 30
0.0
 11
43.499999999999886
 21
-326.49999999999881
 31
0.0
  0
LINE
  5
386
100
AcDbEntity
  8
0
  6
CONTINUOUS
 62
               7
100
AcDbLine
 10
32.5
 20
-327.99999999999892
 30
0.0
 11
43.499999999999886
 21
-327.99999999999892
 31
0.0
  0
LINE
  5
387
100
AcDbEntity
  8
0
  6
CONTINUOUS
 62
               7
100
AcDbLine
 10
32.5
 20
-326.49999999999881
 30
0.0
 11
31.649999999999864
 21
-325.49999999999892
 31
0.0
  0
LINE
  5
388
100
AcDbEntity
  8
0
  6
CONTINUOUS
 62
               7
100
AcDbLine
 10
44.349999999999795
 20
-325.49999999999892
 30
0.0
 11
43.499999999999886
 21
-326.49999999999881
 31
0.0
  0
LINE
  5
389
100
AcDbEntity
  8
0
  6
CONTINUOUS
 62
               7
100
AcDbLine
 10
32.5
 20
-326.49999999999881
 30
0.0
 11
43.499999999999886
 21
-326.49999999999881
 31
0.0
  0
LINE
  5
38A
100
AcDbEntity
  8
0
  6
CONTINUOUS
 62
               7
100
AcDbLine
 10
44.349999999999795
 20
-325.49999999999892
 30
0.0
 11
31.649999999999864
 21
-325.49999999999892
 31
0.0
  0
LINE
  5
38B
100
AcDbEntity
  8
0
  6
CONTINUOUS
 62
               2
100
AcDbLine
 10
37.999999999999886
 20
-331.04079720780658
 30
0.0
 11
37.999999999999886
 21
-301.71344877829603
 31
0.0
  0
LINE
  5
38C
100
AcDbEntity
  8
0
  6
CONTINUOUS
 62
               7
100
AcDbLine
 10
-31.06066017178
 20
-7.0606751394348066
 30
0.0
 11
-28.939339828220341
 21
-4.9393547958752606
 31
0.0
  0
LINE
  5
38D
100
AcDbEntity
  8
0
  6
CONTINUOUS
 62
               7
100
AcDbLine
 10
-31.06066017178
 20
-4.9393547958752606
 30
0.0
 11
-28.939339828220341
 21
-7.0606751394348066
 31
0.0
  0
LINE
  5
38E
100
AcDbEntity
  8
0
  6
CONTINUOUS
 62
               7
100
AcDbLine
 10
28.93933982822
 20
-7.0606751394348066
 30
0.0
 11
31.060660171779659
 21
-4.9393547958752606
 31
0.0
  0
LINE
  5
38F
100
AcDbEntity
  8
0
  6
CONTINUOUS
 62
               7
100
AcDbLine
 10
28.93933982822
 20
-4.9393547958752606
 30
0.0
 11
31.060660171779659
 21
-7.0606751394348066
 31
0.0
  0
CIRCLE
  5
390
100
AcDbEntity
  8
0
  6
CONTINUOUS
 62
               7
100
AcDbCircle
 10
-30.000000000000227
 20
-6.0000149676550336
 30
0.0
 40
2.1499999999999999
  0
CIRCLE
  5
391
100
AcDbEntity
  8
0
  6
CONTINUOUS
 62
               7
100
AcDbCircle
 10
29.999999999999773
 20
-6.0000149676550336
 30
0.0
 40
2.1499999999999999
  0
CIRCLE
  5
392
100
AcDbEntity
  8
0
  6
CONTINUOUS
 62
               7
100
AcDbCircle
 10
29.999999999999773
 20
-6.0000149676550336
 30
0.0
 40
2.5
  0
CIRCLE
  5
393
100
AcDbEntity
  8
0
  6
CONTINUOUS
 62
               7
100
AcDbCircle
 10
-30.000000000000227
 20
-6.0000149676550336
 30
0.0
 40
2.5
  0
LINE
  5
394
100
AcDbEntity
  8
0
  6
CONTINUOUS
 62
               7
100
AcDbLine
 10
-35.0
 20
-60.00001509878922
 30
0.0
 11
-35.0
 21
-300.20002730582047
 31
0.0
  0
LINE
  5
395
100
AcDbEntity
  8
0
  6
CONTINUOUS
 62
               7
100
AcDbLine
 10
-25.0
 20
-60.00001509878922
 30
0.0
 11
-25.0
 21
-300.20002730582047
 31
0.0
  0
LINE
  5
396
100
AcDbEntity
  8
0
  6
CONTINUOUS
 62
               7
100
AcDbLine
 10
-19.500000000000114
 20
-60.00001509878922
 30
0.0
 11
-19.500000000000114
 21
-238.50001509878925
 31
0.0
  0
LINE
  5
397
100
AcDbEntity
  8
0
  6
CONTINUOUS
 62
               7
100
AcDbLine
 10
-13.500000000000227
 20
-60.00001509878922
 30
0.0
 11
-13.500000000000227
 21
-238.50001509878925
 31
0.0
  0
LINE
  5
398
100
AcDbEntity
  8
0
  6
CONTINUOUS
 62
               7
100
AcDbLine
 10
13.499999999999886
 20
-60.00001509878922
 30
0.0
 11
13.499999999999886
 21
-238.50001509878925
 31
0.0
  0
LINE
  5
399
100
AcDbEntity
  8
0
  6
CONTINUOUS
 62
               7
100
AcDbLine
 10
19.499999999999886
 20
-60.00001509878922
 30
0.0
 11
19.499999999999886
 21
-238.50001509878925
 31
0.0
  0
LINE
  5
39A
100
AcDbEntity
  8
0
  6
CONTINUOUS
 62
               7
100
AcDbLine
 10
25.0
 20
-60.00001509878922
 30
0.0
 11
25.0
 21
-300.20002730582047
 31
0.0
  0
LINE
  5
39B
100
AcDbEntity
  8
0
  6
CONTINUOUS
 62
               7
100
AcDbLine
 10
35.0
 20
-60.00001509878922
 30
0.0
 11
35.0
 21
-300.20002730582047
 31
0.0
  0
LINE
  5
39C
100
AcDbEntity
  8
0
  6
CONTINUOUS
 62
               7
100
AcDbLine
 10
105.00000016000013
 20
0.0
 30
0.0
 11
105.00000016000013
 21
-16.124304048245449
 31
0.0
  0
LINE
  5
39D
100
AcDbEntity
  8
0
  6
CONTINUOUS
 62
               7
100
AcDbLine
 10
105.0
 20
0.0
 30
0.0
 11
-105.00000000000006
 21
0.0
 31
0.0
  0
LINE
  5
39E
100
AcDbEntity
  8
0
  6
CONTINUOUS
 62
               7
100
AcDbLine
 10
-105.00000000000006
 20
-19.9999998400001
 30
0.0
 11
41.499999978999767
 21
-19.9999998400001
 31
0.0
  0
LINE
  5
39F
100
AcDbEntity
  8
0
  6
CONTINUOUS
 62
               7
100
AcDbLine
 10
94.499999999999886
 20
-17.000024635532327
 30
0.0
 11
105.14999992253593
 21
-17.000024635532327
 31
0.0
  0
LINE
  5
3A0
100
AcDbEntity
  8
0
  6
CONTINUOUS
 62
               7
100
AcDbLine
 10
105.0
 20
-17.000024635532327
 30
0.0
 11
105.0
 21
-18.400015035455908
 31
0.0
  0
ARC
  5
3A1
100
AcDbEntity
  8
0
  6
CONTINUOUS
 62
               7
100
AcDbCircle
 10
109.49999999999989
 20
-24.000024635532327
 30
0.0
 40
6.3499999999999996
100
AcDbArc
 50
61.871355243484089
 51
84.698108691995031
  0
ARC
  5
3A2
100
AcDbEntity
  8
0
  6
CONTINUOUS
 62
               7
100
AcDbCircle
 10
103.00000000000011
 20
-22.129680473545193
 30
0.0
 40
6.3296561241149902
100
AcDbArc
 50
70.857292686105737
 51
109.14270913512912
  0
LINE
  5
3A3
100
AcDbEntity
  8
0
  6
CONTINUOUS
 62
               7
100
AcDbLine
 10
105.07563471794128
 20
-16.150024611690469
 30
0.0
 11
100.9243652820586
 21
-16.150024611690583
 31
0.0
  0
LINE
  5
3A4
100
AcDbEntity
  8
0
  6
CONTINUOUS
 62
               7
100
AcDbLine
 10
105.07563455825368
 20
-16.150024634019758
 30
0.0
 11
105.14999992253593
 21
-17.000024639761591
 31
0.0
  0
LINE
  5
3A5
100
AcDbEntity
  8
0
  6
CONTINUOUS
 62
               7
100
AcDbLine
 10
100.92436544174575
 20
-16.150024634019758
 30
0.0
 11
100.85000007746351
 21
-17.000024639761591
 31
0.0
  0
LINE
  5
3A6
100
AcDbEntity
  8
0
  6
CONTINUOUS
 62
               7
100
AcDbLine
 10
94.499999999999886
 20
-21.000024635532498
 30
0.0
 11
94.499999999999886
 21
-17.000024635532327
 31
0.0
  0
LINE
  5
3A7
100
AcDbEntity
  8
0
  6
CONTINUOUS
 62
               7
100
AcDbLine
 10
105.91561493994709
 20
-17.650024254062771
 30
0.0
 11
105.0
 21
-17.650024254062771
 31
0.0
  0
ARC
  5
3A8
100
AcDbEntity
  8
0
  6
CONTINUOUS
 62
               7
100
AcDbCircle
 10
-104.50000000400001
 20
-19.499999844000286
 30
0.0
 40
0.4999999959999998
100
AcDbArc
 50
179.99999749552182
 51
270.0
  0
ARC
  5
3A9
100
AcDbEntity
  8
0
  6
CONTINUOUS
 62
               7
100
AcDbCircle
 10
-85.500000156000169
 20
-19.499999844000286
 30
0.0
 40
0.4999999959999998
100
AcDbArc
 50
270.0
 51
0.0000025044781673
  0
ARC
  5
3AA
100
AcDbEntity
  8
0
  6
CONTINUOUS
 62
               7
100
AcDbCircle
 10
-85.500000156000169
 20
-0.5000001560001692
 30
0.0
 40
0.4999999959999998
100
AcDbArc
 50
359.99999749552182
 51
90.0
  0
ARC
  5
3AB
100
AcDbEntity
  8
0
  6
CONTINUOUS
 62
               7
100
AcDbCircle
 10
-104.50000000400001
 20
-0.5000001560001692
 30
0.0
 40
0.4999999959999998
100
AcDbArc
 50
90.0
 51
180.00000250447818
  0
ARC
  5
3AC
100
AcDbEntity
  8
0
  6
CONTINUOUS
 62
               7
100
AcDbCircle
 10
85.499999996000042
 20
-0.5000001560001692
 30
0.0
 40
0.4999999959999998
100
AcDbArc
 50
90.0
 51
180.00000250447818
  0
LINE
  5
3AD
100
AcDbEntity
  8
0
  6
CONTINUOUS
 62
               7
100
AcDbLine
 10
-85.0
 20
-19.9999998400001
 30
0.0
 11
-85.0
 21
0.0
 31
0.0
  0
LINE
  5
3AE
100
AcDbEntity
  8
0
  6
CONTINUOUS
 62
               7
100
AcDbLine
 10
49.800003051757699
 20
-290.00002272818375
 30
0.0
 11
60.199996948242074
 21
-290.00002272818375
 31
0.0
  0
LINE
  5
3AF
100
AcDbEntity
  8
0
  6
CONTINUOUS
 62
               7
100
AcDbLine
 10
49.800003051757699
 20
-292.40002425406271
 30
0.0
 11
60.199996948242074
 21
-292.40002425406271
 31
0.0
  0
LINE
  5
3B0
100
AcDbEntity
  8
0
  6
CONTINUOUS
 62
               7
100
AcDbLine
 10
-60.199999332428092
 20
-292.40002425406271
 30
0.0
 11
-60.199999332428092
 21
-290.00002272818375
 31
0.0
  0
LINE
  5
3B1
100
AcDbEntity
  8
0
  6
CONTINUOUS
 62
               7
100
AcDbLine
 10
60.199996948242074
 20
-292.40002425406271
 30
0.0
 11
60.199996948242074
 21
-290.00002272818375
 31
0.0
  0
LINE
  5
3B2
100
AcDbEntity
  8
0
  6
CONTINUOUS
 62
               7
100
AcDbLine
 10
-49.799999237060433
 20
-292.40002425406271
 30
0.0
 11
-49.799999237060433
 21
-290.00002272818375
 31
0.0
  0
LINE
  5
3B3
100
AcDbEntity
  8
0
  6
CONTINUOUS
 62
               7
100
AcDbLine
 10
49.800003051757699
 20
-292.40002425406271
 30
0.0
 11
49.800003051757699
 21
-290.00002272818375
 31
0.0
  0
LINE
  5
3B4
100
AcDbEntity
  8
0
  6
CONTINUOUS
 62
               7
100
AcDbLine
 10
-60.199999332428092
 20
-290.00002272818375
 30
0.0
 11
-49.799999237060433
 21
-290.00002272818375
 31
0.0
  0
LINE
  5
3B5
100
AcDbEntity
  8
0
  6
CONTINUOUS
 62
               7
100
AcDbLine
 10
-60.199999332428092
 20
-292.40002425406271
 30
0.0
 11
-49.799999237060433
 21
-292.40002425406271
 31
0.0
  0
LINE
  5
3B6
100
AcDbEntity
  8
0
  6
CONTINUOUS
 62
               2
100
AcDbLine
 10
-137.50000000000023
 20
-12.677133681425062
 30
0.0
 11
-137.50000000000023
 21
-66.791279276665534
 31
0.0
  0
LINE
  5
3B7
100
AcDbEntity
  8
0
  6
CONTINUOUS
 62
               7
100
AcDbLine
 10
-15.778312325477714
 20
-247.75001509878916
 30
0.0
 11
-17.22168588638317
 21
-247.75001509878916
 31
0.0
  0
LINE
  5
3B8
100
AcDbEntity
  8
0
  6
CONTINUOUS
 62
               7
100
AcDbLine
 10
-15.778315862125396
 20
-247.75000843813712
 30
0.0
 11
-15.056633851976017
 21
-246.50001422994424
 31
0.0
  0
LINE
  5
3B9
100
AcDbEntity
  8
0
  6
CONTINUOUS
 62
               7
100
AcDbLine
 10
-15.05663434079338
 20
-246.50001493148221
 30
0.0
 11
-15.778317680765667
 21
-245.25002258157261
 31
0.0
  0
LINE
  5
3BA
100
AcDbEntity
  8
0
  6
CONTINUOUS
 62
               7
100
AcDbLine
 10
-15.778314462677827
 20
-245.25002892706712
 30
0.0
 11
-17.221686712280984
 21
-245.25002988074053
 31
0.0
  0
LINE
  5
3BB
100
AcDbEntity
  8
0
  6
CONTINUOUS
 62
               7
100
AcDbLine
 10
-17.221683148344482
 20
-245.25002281319192
 30
0.0
 11
-17.94336590297462
 21
-246.50001653960859
 31
0.0
  0
LINE
  5
3BC
100
AcDbEntity
  8
0
  6
CONTINUOUS
 62
               7
100
AcDbLine
 10
-17.943365865992746
 20
-246.50001538336571
 30
0.0
 11
-17.221681486603643
 21
-247.75000836991327
 31
0.0
  0
CIRCLE
  5
3BD
100
AcDbEntity
  8
0
  6
CONTINUOUS
 62
               7
100
AcDbCircle
 10
-16.500000000000114
 20
-246.50001509878916
 30
0.0
 40
2.75
  0
LINE
  5
3BE
100
AcDbEntity
  8
0
  6
CONTINUOUS
 62
               7
100
AcDbLine
 10
17.221687674522173
 20
-247.75001509878916
 30
0.0
 11
15.778314113616716
 21
-247.75001509878916
 31
0.0
  0
LINE
  5
3BF
100
AcDbEntity
  8
0
  6
CONTINUOUS
 62
               7
100
AcDbLine
 10
17.221684137874377
 20
-247.75000843813712
 30
0.0
 11
17.94336614802387
 21
-246.50001422994424
 31
0.0
  0
LINE
  5
3C0
100
AcDbEntity
  8
0
  6
CONTINUOUS
 62
               7
100
AcDbLine
 10
17.943365659206506
 20
-246.50001493148221
 30
0.0
 11
17.221682319234333
 21
-245.25002258157261
 31
0.0
  0
LINE
  5
3C1
100
AcDbEntity
  8
0
  6
CONTINUOUS
 62
               7
100
AcDbLine
 10
17.221685537322173
 20
-245.25002892706712
 30
0.0
 11
15.778313287718902
 21
-245.25002988074053
 31
0.0
  0
LINE
  5
3C2
100
AcDbEntity
  8
0
  6
CONTINUOUS
 62
               7
100
AcDbLine
 10
15.778316851655404
 20
-245.25002281319192
 30
0.0
 11
15.056634097025494
 21
-246.50001653960859
 31
0.0
  0
LINE
  5
3C3
100
AcDbEntity
  8
0
  6
CONTINUOUS
 62
               7
100
AcDbLine
 10
15.056634134007254
 20
-246.50001538336571
 30
0.0
 11
15.778318513396357
 21
-247.75000836991327
 31
0.0
  0
CIRCLE
  5
3C4
100
AcDbEntity
  8
0
  6
CONTINUOUS
 62
               7
100
AcDbCircle
 10
16.499999999999773
 20
-246.50001509878916
 30
0.0
 40
2.75
  0
LINE
  5
3C5
100
AcDbEntity
  8
0
  6
CONTINUOUS
 62
               7
100
AcDbLine
 10
17.221687674522173
 20
-273.75001509878922
 30
0.0
 11
15.778314113616716
 21
-273.75001509878922
 31
0.0
  0
LINE
  5
3C6
100
AcDbEntity
  8
0
  6
CONTINUOUS
 62
               7
100
AcDbLine
 10
17.221684137874377
 20
-273.75000843813717
 30
0.0
 11
17.94336614802387
 21
-272.50001422994427
 31
0.0
  0
LINE
  5
3C7
100
AcDbEntity
  8
0
  6
CONTINUOUS
 62
               7
100
AcDbLine
 10
17.943365659206506
 20
-272.50001493148238
 30
0.0
 11
17.221682319234333
 21
-271.25002258157275
 31
0.0
  0
LINE
  5
3C8
100
AcDbEntity
  8
0
  6
CONTINUOUS
 62
               7
100
AcDbLine
 10
17.221685537322173
 20
-271.25002892706715
 30
0.0
 11
15.778313287718902
 21
-271.2500298807405
 31
0.0
  0
LINE
  5
3C9
100
AcDbEntity
  8
0
  6
CONTINUOUS
 62
               7
100
AcDbLine
 10
15.778316851655404
 20
-271.25002281319195
 30
0.0
 11
15.056634097025494
 21
-272.50001653960857
 31
0.0
  0
LINE
  5
3CA
100
AcDbEntity
  8
0
  6
CONTINUOUS
 62
               7
100
AcDbLine
 10
15.056634134007254
 20
-272.50001538336568
 30
0.0
 11
15.778318513396357
 21
-273.75000836991325
 31
0.0
  0
CIRCLE
  5
3CB
100
AcDbEntity
  8
0
  6
CONTINUOUS
 62
               7
100
AcDbCircle
 10
16.499999999999773
 20
-272.50001509878922
 30
0.0
 40
2.75
  0
LINE
  5
3CC
100
AcDbEntity
  8
0
  6
CONTINUOUS
 62
               7
100
AcDbLine
 10
-15.778312325477714
 20
-273.75001509878922
 30
0.0
 11
-17.22168588638317
 21
-273.75001509878922
 31
0.0
  0
LINE
  5
3CD
100
AcDbEntity
  8
0
  6
CONTINUOUS
 62
               7
100
AcDbLine
 10
-15.778315862125396
 20
-273.75000843813717
 30
0.0
 11
-15.056633851976017
 21
-272.50001422994427
 31
0.0
  0
LINE
  5
3CE
100
AcDbEntity
  8
0
  6
CONTINUOUS
 62
               7
100
AcDbLine
 10
-15.05663434079338
 20
-272.50001493148238
 30
0.0
 11
-15.778317680765667
 21
-271.25002258157275
 31
0.0
  0
LINE
  5
3CF
100
AcDbEntity
  8
0
  6
CONTINUOUS
 62
               7
100
AcDbLine
 10
-15.778314462677827
 20
-271.25002892706715
 30
0.0
 11
-17.221686712280984
 21
-271.2500298807405
 31
0.0
  0
LINE
  5
3D0
100
AcDbEntity
  8
0
  6
CONTINUOUS
 62
               7
100
AcDbLine
 10
-17.221683148344482
 20
-271.25002281319195
 30
0.0
 11
-17.94336590297462
 21
-272.50001653960857
 31
0.0
  0
LINE
  5
3D1
100
AcDbEntity
  8
0
  6
CONTINUOUS
 62
               7
100
AcDbLine
 10
-17.943365865992746
 20
-272.50001538336568
 30
0.0
 11
-17.221681486603643
 21
-273.75000836991325
 31
0.0
  0
CIRCLE
  5
3D2
100
AcDbEntity
  8
0
  6
CONTINUOUS
 62
               7
100
AcDbCircle
 10
-16.500000000000114
 20
-272.50001509878922
 30
0.0
 40
2.75
  0
LINE
  5
3D3
100
AcDbEntity
  8
0
  6
CONTINUOUS
 62
               7
100
AcDbLine
 10
105.92436539558605
 20
-59.850015119204841
 30
0.0
 11
105.85000002964989
 21
-59.000015094559842
 31
0.0
  0
LINE
  5
3D4
100
AcDbEntity
  8
0
  6
CONTINUOUS
 62
               7
100
AcDbLine
 10
110.07563460441361
 20
-59.850015119205125
 30
0.0
 11
110.14999997034977
 21
-59.000015094560013
 31
0.0
  0
LINE
  5
3D5
100
AcDbEntity
  8
0
  6
CONTINUOUS
 62
               7
100
AcDbLine
 10
110.07563471794128
 20
-59.850015122631191
 30
0.0
 11
105.9243652820586
 21
-59.850015122631021
 31
0.0
  0
ARC
  5
3D6
100
AcDbEntity
  8
0
  6
CONTINUOUS
 62
               7
100
AcDbCircle
 10
108.00000000000011
 20
-53.870359260776524
 30
0.0
 40
6.3296561241149902
100
AcDbArc
 50
250.85729086486964
 51
289.14270731389303
  0
ARC
  5
3D7
100
AcDbEntity
  8
0
  6
CONTINUOUS
 62
               7
100
AcDbCircle
 10
-171.17529296875
 20
-57.000015098789163
 30
0.0
 40
2.0
100
AcDbArc
 50
202.13136085930475
 51
270.00000250447806
  0
ARC
  5
3D8
100
AcDbEntity
  8
0
  6
CONTINUOUS
 62
               7
100
AcDbCircle
 10
-171.17529296875
 20
-23.00001509878922
 30
0.0
 40
2.0
100
AcDbArc
 50
89.999991348577993
 51
157.86863048927324
  0
ARC
  5
3D9
100
AcDbEntity
  8
0
  6
CONTINUOUS
 62
               7
100
AcDbCircle
 10
-167.45202636718761
 20
-23.00001509878922
 30
0.0
 40
2.0
100
AcDbArc
 50
89.999991348577993
 51
170.84680953499787
  0
ARC
  5
3DA
100
AcDbEntity
  8
0
  6
CONTINUOUS
 62
               7
100
AcDbCircle
 10
-167.45202636718761
 20
-57.000015098789163
 30
0.0
 40
2.0
100
AcDbArc
 50
189.15318181358012
 51
270.00000250447806
  0
ARC
  5
3DB
100
AcDbEntity
  8
0
  6
CONTINUOUS
 62
               7
100
AcDbCircle
 10
-129.37500000000006
 20
-40.00001509878922
 30
0.0
 40
47.125
100
AcDbArc
 50
157.86864096192809
 51
202.13136085930475
  0
ARC
  5
3DC
100
AcDbEntity
  8
0
  6
CONTINUOUS
 62
               7
100
AcDbCircle
 10
-61.9447021484375
 20
-40.00001509878922
 30
0.0
 40
108.86813354492186
100
AcDbArc
 50
170.84681317746356
 51
189.15318181358012
  0
ARC
  5
3DD
100
AcDbEntity
  8
0
  6
CONTINUOUS
 62
               7
100
AcDbCircle
 10
-16.500000000000114
 20
-282.00001509878922
 30
0.0
 40
2.9999999999999996
100
AcDbArc
 50
179.99999749552182
 51
0.0000025044781673
  0
ARC
  5
3DE
100
AcDbEntity
  8
0
  6
CONTINUOUS
 62
               7
100
AcDbCircle
 10
16.499999999999773
 20
-282.00001509878922
 30
0.0
 40
2.9999999999999996
100
AcDbArc
 50
179.99999749552182
 51
0.0000025044781673
  0
CIRCLE
  5
3DF
100
AcDbEntity
  8
0
  6
CONTINUOUS
 62
               7
100
AcDbCircle
 10
16.499999999999773
 20
-246.50001509878916
 30
0.0
 40
1.7499999999999998
  0
CIRCLE
  5
3E0
100
AcDbEntity
  8
0
  6
CONTINUOUS
 62
               7
100
AcDbCircle
 10
16.499999999999773
 20
-246.50001509878916
 30
0.0
 40
3.25
  0
CIRCLE
  5
3E1
100
AcDbEntity
  8
0
  6
CONTINUOUS
 62
               7
100
AcDbCircle
 10
16.499999999999773
 20
-272.50001509878922
 30
0.0
 40
3.25
  0
CIRCLE
  5
3E2
100
AcDbEntity
  8
0
  6
CONTINUOUS
 62
               7
100
AcDbCircle
 10
16.499999999999773
 20
-272.50001509878922
 30
0.0
 40
1.7499999999999998
  0
CIRCLE
  5
3E3
100
AcDbEntity
  8
0
  6
CONTINUOUS
 62
               7
100
AcDbCircle
 10
-16.500000000000114
 20
-272.50001509878922
 30
0.0
 40
1.7499999999999998
  0
CIRCLE
  5
3E4
100
AcDbEntity
  8
0
  6
CONTINUOUS
 62
               7
100
AcDbCircle
 10
-16.500000000000114
 20
-272.50001509878922
 30
0.0
 40
3.25
  0
CIRCLE
  5
3E5
100
AcDbEntity
  8
0
  6
CONTINUOUS
 62
               2
100
AcDbCircle
 10
21.999999999999886
 20
-277.50001509878922
 30
0.0
 40
1.4999999999999998
  0
CIRCLE
  5
3E6
100
AcDbEntity
  8
0
  6
CONTINUOUS
 62
               7
100
AcDbCircle
 10
21.999999999999886
 20
-277.50001509878922
 30
0.0
 40
1.25
  0
CIRCLE
  5
3E7
100
AcDbEntity
  8
0
  6
CONTINUOUS
 62
               7
100
AcDbCircle
 10
-22.000000000000114
 20
-277.50001509878922
 30
0.0
 40
1.25
  0
CIRCLE
  5
3E8
100
AcDbEntity
  8
0
  6
CONTINUOUS
 62
               2
100
AcDbCircle
 10
-22.000000000000114
 20
-277.50001509878922
 30
0.0
 40
1.4999999999999998
  0
CIRCLE
  5
3E9
100
AcDbEntity
  8
0
  6
CONTINUOUS
 62
               2
100
AcDbCircle
 10
-22.000000000000114
 20
-241.50001509878916
 30
0.0
 40
1.4999999999999998
  0
CIRCLE
  5
3EA
100
AcDbEntity
  8
0
  6
CONTINUOUS
 62
               7
100
AcDbCircle
 10
-22.000000000000114
 20
-241.50001509878916
 30
0.0
 40
1.25
  0
ARC
  5
3EB
100
AcDbEntity
  8
0
  6
CONTINUOUS
 62
               7
100
AcDbCircle
 10
-22.000000000000114
 20
-241.50001509878916
 30
0.0
 40
2.9999999999999996
100
AcDbArc
 50
89.999991348577993
 51
180.00000068324533
  0
ARC
  5
3EC
100
AcDbEntity
  8
0
  6
CONTINUOUS
 62
               7
100
AcDbCircle
 10
-22.000000000000114
 20
-277.50001509878922
 30
0.0
 40
2.9999999999999996
100
AcDbArc
 50
179.99999749552182
 51
270.0
  0
ARC
  5
3ED
100
AcDbEntity
  8
0
  6
CONTINUOUS
 62
               7
100
AcDbCircle
 10
21.999999999999886
 20
-277.50001509878922
 30
0.0
 40
2.9999999999999996
100
AcDbArc
 50
270.0
 51
0.0000025044781673
  0
ARC
  5
3EE
100
AcDbEntity
  8
0
  6
CONTINUOUS
 62
               7
100
AcDbCircle
 10
21.999999999999886
 20
-241.50001509878916
 30
0.0
 40
2.9999999999999996
100
AcDbArc
 50
0.0000025044781673
 51
90.000005008956336
  0
CIRCLE
  5
3EF
100
AcDbEntity
  8
0
  6
CONTINUOUS
 62
               7
100
AcDbCircle
 10
21.999999999999886
 20
-241.50001509878916
 30
0.0
 40
1.25
  0
CIRCLE
  5
3F0
100
AcDbEntity
  8
0
  6
CONTINUOUS
 62
               2
100
AcDbCircle
 10
21.999999999999886
 20
-241.50001509878916
 30
0.0
 40
1.4999999999999998
  0
CIRCLE
  5
3F1
100
AcDbEntity
  8
0
  6
CONTINUOUS
 62
               7
100
AcDbCircle
 10
-16.500000000000114
 20
-246.50001509878916
 30
0.0
 40
3.25
  0
CIRCLE
  5
3F2
100
AcDbEntity
  8
0
  6
CONTINUOUS
 62
               7
100
AcDbCircle
 10
-16.500000000000114
 20
-246.50001509878916
 30
0.0
 40
1.7499999999999998
  0
ARC
  5
3F3
100
AcDbEntity
  8
0
  6
CONTINUOUS
 62
               7
100
AcDbCircle
 10
0.0
 20
-169.06358321402359
 30
0.0
 40
135.72679138183594
100
AcDbArc
 50
255.0562291149291
 51
284.94377088507088
  0
ARC
  5
3F4
100
AcDbEntity
  8
0
  6
CONTINUOUS
 62
               7
100
AcDbCircle
 10
103.99999999999977
 20
-301.99205001089859
 30
0.0
 40
1.0
100
AcDbArc
 50
271.98128483929463
 51
0.0000025044781673
  0
ARC
  5
3F5
100
AcDbEntity
  8
0
  6
CONTINUOUS
 62
               7
100
AcDbCircle
 10
-104.0
 20
-301.99205001089859
 30
0.0
 40
1.0
100
AcDbArc
 50
179.99999749552182
 51
268.01871516070537
  0
ARC
  5
3F6
100
AcDbEntity
  8
0
  6
CONTINUOUS
 62
               7
100
AcDbCircle
 10
0.0
 20
2704.3327485730847
 30
0.0
 40
3009.123046875
100
AcDbArc
 50
268.01871516070537
 51
271.98128484826367
  0
ARC
  5
3F7
100
AcDbEntity
  8
0
  6
CONTINUOUS
 62
               7
100
AcDbCircle
 10
103.99999999999977
 20
-303.00001509878922
 30
0.0
 40
1.0
100
AcDbArc
 50
270.0
 51
0.0000025044781673
  0
ARC
  5
3F8
100
AcDbEntity
  8
0
  6
CONTINUOUS
 62
               7
100
AcDbCircle
 10
103.99999999999977
 20
-303.09638961050791
 30
0.0
 40
1.0
100
AcDbArc
 50
276.49788211075821
 51
0.0000025044781673
  0
ARC
  5
3F9
100
AcDbEntity
  8
0
  6
CONTINUOUS
 62
               7
100
AcDbCircle
 10
-104.0
 20
-303.09638961050791
 30
0.0
 40
1.0
100
AcDbArc
 50
179.99999749552182
 51
263.50211788924179
  0
ARC
  5
3FA
100
AcDbEntity
  8
0
  6
CONTINUOUS
 62
               7
100
AcDbCircle
 10
0.0
 20
609.99998490121072
 30
0.0
 40
920.0
100
AcDbArc
 50
263.50211788924179
 51
271.97148838100151
  0
LINE
  5
3FB
100
AcDbEntity
  8
0
  6
CONTINUOUS
 62
               2
100
AcDbLine
 10
37.694308743115812
 20
-59.500015098789163
 30
0.0
 11
-37.822453857322557
 21
-59.500015098789163
 31
0.0
  0
LINE
  5
3FC
100
AcDbEntity
  8
0
  6
CONTINUOUS
 62
               2
100
AcDbLine
 10
38.460976383729303
 20
-259.50001509878922
 30
0.0
 11
-38.972455318242851
 21
-259.50001509878922
 31
0.0
  0
LINE
  5
3FD
100
AcDbEntity
  8
0
  6
CONTINUOUS
 62
               7
100
AcDbLine
 10
104.49999999999989
 20
-26.600005943515725
 30
0.0
 11
83.500000020999778
 21
-26.600005943515725
 31
0.0
  0
LINE
  5
3FE
100
AcDbEntity
  8
0
  6
CONTINUOUS
 62
               7
100
AcDbLine
 10
104.49999999999989
 20
-28.800018150546975
 30
0.0
 11
83.500000020999778
 21
-28.800018150546975
 31
0.0
  0
LINE
  5
3FF
100
AcDbEntity
  8
0
  6
CONTINUOUS
 62
               7
100
AcDbLine
 10
104.49999999999989
 20
-51.200012047031407
 30
0.0
 11
83.500000020999778
 21
-51.200012047031407
 31
0.0
  0
LINE
  5
400
100
AcDbEntity
  8
0
  6
CONTINUOUS
 62
               7
100
AcDbLine
 10
104.49999999999989
 20
-53.400008995273538
 30
0.0
 11
83.500000020999778
 21
-53.400008995273538
 31
0.0
  0
LINE
  5
401
100
AcDbEntity
  8
0
  6
CONTINUOUS
 62
               7
100
AcDbLine
 10
104.49999999999989
 20
-59.000015098789163
 30
0.0
 11
83.500000020999778
 21
-59.000015098789163
 31
0.0
  0
LINE
  5
402
100
AcDbEntity
  8
0
  6
CONTINUOUS
 62
               7
100
AcDbLine
 10
104.49999999999989
 20
-21.000015098789333
 30
0.0
 11
83.500000020999778
 21
-21.000015098789333
 31
0.0
  0
LINE
  5
403
100
AcDbEntity
  8
0
  6
CONTINUOUS
 62
               7
100
AcDbLine
 10
-164.50000000000011
 20
-59.000015098789163
 30
0.0
 11
-164.50000000000011
 21
-21.000015098789333
 31
0.0
  0
LINE
  5
404
100
AcDbEntity
  8
0
  6
CONTINUOUS
 62
               7
100
AcDbLine
 10
104.49999999999989
 20
-59.000015098789163
 30
0.0
 11
104.49999999999989
 21
-18.400015035455908
 31
0.0
  0
LINE
  5
405
100
AcDbEntity
  8
0
  6
CONTINUOUS
 62
               7
100
AcDbLine
 10
25.0
 20
0.0
 30
0.0
 11
25.0
 21
-19.9999998400001
 31
0.0
  0
LINE
  5
406
100
AcDbEntity
  8
0
  6
CONTINUOUS
 62
               7
100
AcDbLine
 10
-25.0
 20
0.0
 30
0.0
 11
-25.0
 21
-19.9999998400001
 31
0.0
  0
LINE
  5
407
100
AcDbEntity
  8
0
  6
CONTINUOUS
 62
               7
100
AcDbLine
 10
19.499999999999886
 20
-280.50001509878922
 30
0.0
 11
19.499999999999886
 21
-282.00001509878922
 31
0.0
  0
LINE
  5
408
100
AcDbEntity
  8
0
  6
CONTINUOUS
 62
               7
100
AcDbLine
 10
13.499999999999886
 20
-280.50001509878922
 30
0.0
 11
13.499999999999886
 21
-282.00001509878922
 31
0.0
  0
LINE
  5
409
100
AcDbEntity
  8
0
  6
CONTINUOUS
 62
               7
100
AcDbLine
 10
-19.500000000000114
 20
-280.50001509878922
 30
0.0
 11
-19.500000000000114
 21
-282.00001509878922
 31
0.0
  0
LINE
  5
40A
100
AcDbEntity
  8
0
  6
CONTINUOUS
 62
               7
100
AcDbLine
 10
-13.500000000000227
 20
-280.50001509878922
 30
0.0
 11
-13.500000000000227
 21
-282.00001509878922
 31
0.0
  0
LINE
  5
40B
100
AcDbEntity
  8
0
  6
CONTINUOUS
 62
               2
100
AcDbLine
 10
24.499999999999886
 20
-277.50001509878922
 30
0.0
 11
19.499999999999886
 21
-277.50001509878922
 31
0.0
  0
LINE
  5
40C
100
AcDbEntity
  8
0
  6
CONTINUOUS
 62
               2
100
AcDbLine
 10
21.999999999999886
 20
-275.00001509878922
 30
0.0
 11
21.999999999999886
 21
-280.00001509878922
 31
0.0
  0
LINE
  5
40D
100
AcDbEntity
  8
0
  6
CONTINUOUS
 62
               2
100
AcDbLine
 10
-22.000000000000114
 20
-275.00001509878922
 30
0.0
 11
-22.000000000000114
 21
-280.00001509878922
 31
0.0
  0
LINE
  5
40E
100
AcDbEntity
  8
0
  6
CONTINUOUS
 62
               2
100
AcDbLine
 10
-19.500000000000114
 20
-277.50001509878922
 30
0.0
 11
-24.500000000000114
 21
-277.50001509878922
 31
0.0
  0
LINE
  5
40F
100
AcDbEntity
  8
0
  6
CONTINUOUS
 62
               2
100
AcDbLine
 10
-22.000000000000114
 20
-239.00001509878916
 30
0.0
 11
-22.000000000000114
 21
-244.00001509878916
 31
0.0
  0
LINE
  5
410
100
AcDbEntity
  8
0
  6
CONTINUOUS
 62
               2
100
AcDbLine
 10
-19.500000000000114
 20
-241.50001509878916
 30
0.0
 11
-24.500000000000114
 21
-241.50001509878916
 31
0.0
  0
LINE
  5
411
100
AcDbEntity
  8
0
  6
CONTINUOUS
 62
               2
100
AcDbLine
 10
21.999999999999886
 20
-239.00001509878916
 30
0.0
 11
21.999999999999886
 21
-244.00001509878916
 31
0.0
  0
LINE
  5
412
100
AcDbEntity
  8
0
  6
CONTINUOUS
 62
               2
100
AcDbLine
 10
24.499999999999886
 20
-241.50001509878916
 30
0.0
 11
19.499999999999886
 21
-241.50001509878916
 31
0.0
  0
LINE
  5
413
100
AcDbEntity
  8
0
  6
CONTINUOUS
 62
               7
100
AcDbLine
 10
21.999999999999886
 20
-280.50001509878922
 30
0.0
 11
-22.000000000000114
 21
-280.50001509878922
 31
0.0
  0
LINE
  5
414
100
AcDbEntity
  8
0
  6
CONTINUOUS
 62
               7
100
AcDbLine
 10
21.999999999999886
 20
-238.50001509878925
 30
0.0
 11
-22.000000000000114
 21
-238.50001509878925
 31
0.0
  0
LINE
  5
415
100
AcDbEntity
  8
0
  6
CONTINUOUS
 62
               7
100
AcDbLine
 10
-35.0
 20
0.0
 30
0.0
 11
-35.0
 21
-19.9999998400001
 31
0.0
  0
LINE
  5
416
100
AcDbEntity
  8
0
  6
CONTINUOUS
 62
               7
100
AcDbLine
 10
35.0
 20
0.0
 30
0.0
 11
35.0
 21
-19.9999998400001
 31
0.0
  0
LINE
  5
417
100
AcDbEntity
  8
0
  6
CONTINUOUS
 62
               7
100
AcDbLine
 10
105.0
 20
-59.000015098789163
 30
0.0
 11
105.0
 21
-303.00001509878922
 31
0.0
  0
LINE
  5
418
100
AcDbEntity
  8
0
  6
CONTINUOUS
 62
               7
100
AcDbLine
 10
-105.00000000000006
 20
-60.00001509878922
 30
0.0
 11
41.499999978999767
 21
-60.00001509878922
 31
0.0
  0
LINE
  5
419
100
AcDbEntity
  8
0
  6
CONTINUOUS
 62
               7
100
AcDbLine
 10
-105.00000000000006
 20
-300.20002730582047
 30
0.0
 11
105.0
 21
-300.20002730582047
 31
0.0
  0
LINE
  5
41A
100
AcDbEntity
  8
0
  6
CONTINUOUS
 62
               7
100
AcDbLine
 10
-105.00000000000006
 20
0.0000001599998996
 30
0.0
 11
-105.00000000000006
 21
-21.000015098789333
 31
0.0
  0
SPLINE
  5
41B
100
AcDbEntity
  8
0
  6
CONTINUOUS
 62
               7
100
AcDbSpline
210
0.0
220
0.0
230
1.0
 70
               0
 71
               3
 72
               0
 73
               0
 74
               3
 44
0.000001
 12
-0.9941629446599518
 22
-0.1078890145707779
 32
0.0
 13
-0.9999789424324793
 23
0.0064895833163824
 33
0.0
 11
44.349999999999795
 21
-306.43387917200982
 31
0.0
 11
39.579992163618385
 21
-306.84770192408286
 31
0.0
 11
31.649999999999899
 21
-307.07907477820004
 31
0.0
  0
ARC
  5
41C
100
AcDbEntity
  8
0
  6
CONTINUOUS
 62
               7
100
AcDbCircle
 10
162.49999999999989
 20
-18.400015035455908
 30
0.0
 40
3.5000000000000004
100
AcDbArc
 50
90.0
 51
180.0
  0
ARC
  5
41D
100
AcDbEntity
  8
0
  6
CONTINUOUS
 62
               7
100
AcDbCircle
 10
163.99999999999989
 20
-14.900015035455908
 30
0.0
 40
1.0
100
AcDbArc
 50
90.0
 51
180.0
  0
ARC
  5
41E
100
AcDbEntity
  8
0
  6
CONTINUOUS
 62
               7
100
AcDbCircle
 10
176.99999999999989
 20
-14.900015035455908
 30
0.0
 40
1.0
100
AcDbArc
 50
0.0
 51
90.0
  0
LINE
  5
41F
100
AcDbEntity
  8
0
  6
CONTINUOUS
 62
               7
100
AcDbLine
 10
162.49999999999989
 20
-14.900015035455908
 30
0.0
 11
178.49999999999977
 21
-14.900015035455908
 31
0.0
  0
LINE
  5
420
100
AcDbEntity
  8
0
  6
CONTINUOUS
 62
               7
100
AcDbLine
 10
176.99999999999989
 20
-13.900015035455908
 30
0.0
 11
163.99999999999989
 21
-13.900015035455908
 31
0.0
  0
ARC
  5
421
100
AcDbEntity
  8
0
  6
CONTINUOUS
 62
               7
100
AcDbCircle
 10
178.49999999999977
 20
-18.400015035455908
 30
0.0
 40
3.5000000000000004
100
AcDbArc
 50
0.0
 51
90.0
  0
LINE
  5
422
100
AcDbEntity
  8
0
  6
CONTINUOUS
 62
               2
100
AcDbLine
 10
170.49999999999989
 20
-20.149822651398949
 30
0.0
 11
170.49999999999989
 21
-11.263104867932839
 31
0.0
  0
LINE
  5
423
100
AcDbEntity
  8
0
  6
CONTINUOUS
 62
               7
100
AcDbLine
 10
182.49999999999989
 20
-59.000015098789163
 30
0.0
 11
182.49999999999989
 21
-18.400015035455908
 31
0.0
  0
LINE
  5
424
100
AcDbEntity
  8
0
  6
CONTINUOUS
 62
               7
100
AcDbLine
 10
23.499999999999773
 20
51.499969642421661
 30
0.0
 11
-19.000000000000227
 21
51.499969642421661
 31
0.0
  0
LINE
  5
425
100
AcDbEntity
  8
0
  6
CONTINUOUS
 62
               7
100
AcDbLine
 10
-41.060660171779773
 20
-7.0606751394348066
 30
0.0
 11
-38.939339828220113
 21
-4.9393547958752606
 31
0.0
  0
LINE
  5
426
100
AcDbEntity
  8
0
  6
CONTINUOUS
 62
               7
100
AcDbLine
 10
-41.060660171779773
 20
-4.9393547958752606
 30
0.0
 11
-38.939339828220113
 21
-7.0606751394348066
 31
0.0
  0
LINE
  5
427
100
AcDbEntity
  8
0
  6
CONTINUOUS
 62
               7
100
AcDbLine
 10
38.939339828220227
 20
-7.0606751394348066
 30
0.0
 11
41.060660171779887
 21
-4.9393547958752606
 31
0.0
  0
LINE
  5
428
100
AcDbEntity
  8
0
  6
CONTINUOUS
 62
               7
100
AcDbLine
 10
38.939339828220227
 20
-4.9393547958752606
 30
0.0
 11
41.060660171779887
 21
-7.0606751394348066
 31
0.0
  0
LINE
  5
429
100
AcDbEntity
  8
0
  6
CONTINUOUS
 62
               7
100
AcDbLine
 10
-41.060660171779773
 20
-292.26068747760041
 30
0.0
 11
-38.939339828220113
 21
-290.13936713404087
 31
0.0
  0
LINE
  5
42A
100
AcDbEntity
  8
0
  6
CONTINUOUS
 62
               7
100
AcDbLine
 10
-41.060660171779773
 20
-290.13936713404087
 30
0.0
 11
-38.939339828220113
 21
-292.26068747760041
 31
0.0
  0
LINE
  5
42B
100
AcDbEntity
  8
0
  6
CONTINUOUS
 62
               7
100
AcDbLine
 10
38.939339828220227
 20
-292.26068747760041
 30
0.0
 11
41.060660171779887
 21
-290.13936713404087
 31
0.0
  0
LINE
  5
42C
100
AcDbEntity
  8
0
  6
CONTINUOUS
 62
               7
100
AcDbLine
 10
38.939339828220227
 20
-290.13936713404087
 30
0.0
 11
41.060660171779887
 21
-292.26068747760041
 31
0.0
  0
ENDBLK
  5
42D
100
AcDbEntity
  8
0
100
AcDbBlockEnd
  0
BLOCK
  5
22
100
AcDbEntity
  8
0
  6
ByBlock
 62
               0
100
AcDbBlockBegin
  2
_OPEN30
 70
               2
 10
0.0
 20
0.0
 30
0.0
  3
_OPEN30
  1

  0
LINE
  5
23
100
AcDbEntity
  8
0
  6
ByBlock
 62
               0
100
AcDbLine
 10
-1.0
 20
0.267949
 30
0.0
 11
0.0
 21
0.0
 31
0.0
  0
LINE
  5
24
100
AcDbEntity
  8
0
  6
ByBlock
 62
               0
100
AcDbLine
 10
0.0
 20
0.0
 30
0.0
 11
-1.0
 21
-0.267949
 31
0.0
  0
LINE
  5
25
100
AcDbEntity
  8
0
  6
ByBlock
 62
               0
100
AcDbLine
 10
0.0
 20
0.0
 30
0.0
 11
-1.0
 21
0.0
 31
0.0
  0
ENDBLK
  5
26
100
AcDbEntity
  8
0
  6
ByBlock
 62
               0
100
AcDbBlockEnd
  0
BLOCK
  5
432
100
AcDbEntity
  8
0
  6
ByBlock
 62
               0
100
AcDbBlockBegin
  2
*D4
 70
               1
 10
0.0
 20
0.0
 30
0.0
  3
*D4
  1

  0
LINE
  5
433
100
AcDbEntity
  8
0
  6
CONTINUOUS
 62
               2
100
AcDbLine
 10
161.60248099627626
 20
487.48962438255705
 30
0.0
 11
361.60248099627648
 21
487.48962438255705
 31
0.0
  0
LINE
  5
434
100
AcDbEntity
  8
0
  6
CONTINUOUS
 62
               2
100
AcDbLine
 10
161.60248099627626
 20
377.32288396507658
 30
0.0
 11
161.60248099627626
 21
488.98962438255705
 31
0.0
  0
LINE
  5
435
100
AcDbEntity
  8
0
  6
CONTINUOUS
 62
               2
100
AcDbLine
 10
361.60248099627648
 20
377.32288396507658
 30
0.0
 11
361.60248099627648
 21
488.98962438255705
 31
0.0
  0
INSERT
  5
436
100
AcDbEntity
  8
0
  6
CONTINUOUS
 62
               2
100
AcDbBlockReference
  2
_OPEN30
 10
161.60248099627626
 20
487.48962438255705
 30
0.0
 41
8.3100000000000005
 42
8.3100000000000005
 43
8.3100000000000005
 50
180.0
  0
INSERT
  5
437
100
AcDbEntity
  8
0
  6
CONTINUOUS
 62
               2
100
AcDbBlockReference
  2
_OPEN30
 10
361.60248099627648
 20
487.48962438255705
 30
0.0
 41
8.3100000000000005
 42
8.3100000000000005
 43
8.3100000000000005
  0
MTEXT
  5
439
100
AcDbEntity
  8
0
  6
CONTINUOUS
 62
               2
100
AcDbMText
 10
264.83514701190126
 20
494.48962438255705
 30
0.0
 40
12.0
 41
0.0
 71
               5
 72
               1
  1
\A1;X-STROKE(200）
  7
MX_DIMTXSTY_2
  0
POINT
  5
43A
100
AcDbEntity
  8
DEFPOINTS
  6
CONTINUOUS
 62
               0
100
AcDbPoint
 10
161.60248099627626
 20
375.82288396507658
 30
0.0
  0
POINT
  5
43B
100
AcDbEntity
  8
DEFPOINTS
  6
CONTINUOUS
 62
               0
100
AcDbPoint
 10
361.60248099627648
 20
375.82288396507658
 30
0.0
  0
POINT
  5
43C
100
AcDbEntity
  8
DEFPOINTS
  6
CONTINUOUS
 62
               0
100
AcDbPoint
 10
361.60248099627648
 20
487.48962438255705
 30
0.0
  0
ENDBLK
  5
43D
100
AcDbEntity
  8
0
  6
ByBlock
 62
               0
100
AcDbBlockEnd
  0
BLOCK
  5
441
100
AcDbEntity
  8
0
  6
ByBlock
 62
               0
100
AcDbBlockBegin
  2
*D5
 70
               1
 10
0.0
 20
0.0
 30
0.0
  3
*D5
  1

  0
LINE
  5
442
100
AcDbEntity
  8
0
  6
CONTINUOUS
 62
               2
100
AcDbLine
 10
100.09700645161291
 20
135.59281854289418
 30
0.0
 11
100.09700645161291
 21
335.59281854289418
 31
0.0
  0
LINE
  5
443
100
AcDbEntity
  8
0
  6
CONTINUOUS
 62
               2
100
AcDbLine
 10
298.5000063295426
 20
135.59281854289418
 30
0.0
 11
98.597006451612913
 21
135.59281854289418
 31
0.0
  0
LINE
  5
444
100
AcDbEntity
  8
0
  6
CONTINUOUS
 62
               2
100
AcDbLine
 10
298.5000063295426
 20
335.59281854289418
 30
0.0
 11
98.597006451612913
 21
335.59281854289418
 31
0.0
  0
INSERT
  5
445
100
AcDbEntity
  8
0
  6
CONTINUOUS
 62
               2
100
AcDbBlockReference
  2
_OPEN30
 10
100.09700645161291
 20
135.59281854289418
 30
0.0
 41
8.3100000000000005
 42
8.3100000000000005
 43
8.3100000000000005
 50
270.0
  0
INSERT
  5
446
100
AcDbEntity
  8
0
  6
CONTINUOUS
 62
               2
100
AcDbBlockReference
  2
_OPEN30
 10
100.09700645161291
 20
335.59281854289418
 30
0.0
 41
8.3100000000000005
 42
8.3100000000000005
 43
8.3100000000000005
 50
90.0
  0
MTEXT
  5
447
100
AcDbEntity
  8
0
  6
CONTINUOUS
 62
               2
100
AcDbMText
 10
93.097006451612913
 20
233.9213631595934
 30
0.0
 40
12.0
 41
0.0
 71
               5
 72
               1
  1
\A1;Y-STROKE(200）
  7
MX_DIMTXSTY_2
 11
0.0000000000000001
 21
1.0
 31
0.0
  0
POINT
  5
448
100
AcDbEntity
  8
DEFPOINTS
  6
CONTINUOUS
 62
               0
100
AcDbPoint
 10
300.0000063295426
 20
135.59281854289418
 30
0.0
  0
POINT
  5
449
100
AcDbEntity
  8
DEFPOINTS
  6
CONTINUOUS
 62
               0
100
AcDbPoint
 10
300.0000063295426
 20
335.59281854289418
 30
0.0
  0
POINT
  5
44A
100
AcDbEntity
  8
DEFPOINTS
  6
CONTINUOUS
 62
               0
100
AcDbPoint
 10
100.09700645161291
 20
335.59281854289418
 30
0.0
  0
ENDBLK
  5
44B
100
AcDbEntity
  8
0
  6
ByBlock
 62
               0
100
AcDbBlockEnd
  0
BLOCK
  5
44F
100
AcDbEntity
  8
0
  6
ByBlock
 62
               0
100
AcDbBlockBegin
  2
*D6
 70
               1
 10
0.0
 20
0.0
 30
0.0
  3
*D6
  1

  0
LINE
  5
450
100
AcDbEntity
  8
0
  6
CONTINUOUS
 62
               2
100
AcDbLine
 10
98.790833683939013
 20
-220.06887440647196
 30
0.0
 11
98.790833683939013
 21
-170.06887440647196
 31
0.0
  0
LINE
  5
451
100
AcDbEntity
  8
0
  6
CONTINUOUS
 62
               2
100
AcDbLine
 10
98.790833683939013
 20
-170.06887440647196
 30
0.0
 11
98.790833683939013
 21
-11.2754021164329
 31
0.0
  0
LINE
  5
452
100
AcDbEntity
  8
0
  6
CONTINUOUS
 62
               2
100
AcDbLine
 10
337.75988885972026
 20
-220.06887440647196
 30
0.0
 11
97.290833683939013
 21
-220.06887440647196
 31
0.0
  0
LINE
  5
453
100
AcDbEntity
  8
0
  6
CONTINUOUS
 62
               2
100
AcDbLine
 10
337.75988885972026
 20
-170.06887440647196
 30
0.0
 11
97.290833683939013
 21
-170.06887440647196
 31
0.0
  0
INSERT
  5
454
100
AcDbEntity
  8
0
  6
CONTINUOUS
 62
               2
100
AcDbBlockReference
  2
_OPEN30
 10
98.790833683939013
 20
-220.06887440647196
 30
0.0
 41
8.3100000000000005
 42
8.3100000000000005
 43
8.3100000000000005
 50
270.0
  0
INSERT
  5
455
100
AcDbEntity
  8
0
  6
CONTINUOUS
 62
               2
100
AcDbBlockReference
  2
_OPEN30
 10
98.790833683939013
 20
-170.06887440647196
 30
0.0
 41
8.3100000000000005
 42
8.3100000000000005
 43
8.3100000000000005
 50
90.0
  0
MTEXT
  5
456
100
AcDbEntity
  8
0
  6
CONTINUOUS
 62
               2
100
AcDbMText
 10
91.790833683939013
 20
-83.2754021164329
 30
0.0
 40
12.0
 41
0.0
 71
               5
 72
               1
  1
\A1;Z-STROKE(50)
  7
MX_DIMTXSTY_2
 11
0.0000000000000001
 21
1.0
 31
0.0
  0
POINT
  5
457
100
AcDbEntity
  8
DEFPOINTS
  6
CONTINUOUS
 62
               0
100
AcDbPoint
 10
339.25988885972026
 20
-220.06887440647196
 30
0.0
  0
POINT
  5
458
100
AcDbEntity
  8
DEFPOINTS
  6
CONTINUOUS
 62
               0
100
AcDbPoint
 10
339.25988885972026
 20
-170.06887440647196
 30
0.0
  0
POINT
  5
459
100
AcDbEntity
  8
DEFPOINTS
  6
CONTINUOUS
 62
               0
100
AcDbPoint
 10
98.790833683939013
 20
-170.06887440647196
 30
0.0
  0
ENDBLK
  5
45A
100
AcDbEntity
  8
0
  6
ByBlock
 62
               0
100
AcDbBlockEnd
  0
ENDSEC
  0
SECTION
  2
ENTITIES
  0
INSERT
  5
42E
100
AcDbEntity
  8
0
  6
ByBlock
100
AcDbBlockReference
  2
DTRB-AL3-3
 10
299.10248099627665
 20
395.09283364168334
 30
0.0
  0
INSERT
  5
42F
100
AcDbEntity
  8
0
  6
ByBlock
100
AcDbBlockReference
  2
DTRB-AL3-2
 10
-402.46894757515201
 20
-421.07131804569912
 30
0.0
  0
INSERT
  5
430
100
AcDbEntity
  8
0
  6
ByBlock
100
AcDbBlockReference
  2
DTRB-AL3-1
 10
299.10248099627665
 20
-421.07133635624615
 30
0.0
  0
DIMENSION
  5
43E
100
AcDbEntity
  8
0
  6
CONTINUOUS
 62
               2
100
AcDbDimension
  2
*D4
 10
361.60248099627648
 20
487.48962438255705
 30
0.0
 11
264.83514701190126
 21
487.48962438255705
 31
0.0
 70
             128
  1
X-STROKE(200）
  3
MXDIMSTYLE
100
AcDbAlignedDimension
 13
161.60248099627626
 23
375.82288396507658
 33
0.0
 14
361.60248099627648
 24
375.82288396507658
 34
0.0
100
AcDbRotatedDimension
1001
ACAD
1000
DSTYLE
1002
{
1070
              41
1040
8.3100000000000005
1070
             140
1040
12.0
1070
             340
1005
438
1002
}
  0
MTEXT
  5
43F
100
AcDbEntity
  8
0
  6
CONTINUOUS
 62
               7
100
AcDbMText
 10
-678.5
 20
459.5
 30
0.0
 40
18.0
 41
0.0
 71
               4
 72
               1
  1
\A1;DTRB-ALL3
  0
DIMENSION
  5
44C
100
AcDbEntity
  8
0
  6
CONTINUOUS
 62
               2
100
AcDbDimension
  2
*D5
 10
100.09700645161291
 20
335.59281854289418
 30
0.0
 11
100.09700645161291
 21
233.9213631595934
 31
0.0
 70
             128
  1
Y-STROKE(200）
  3
MXDIMSTYLE
100
AcDbAlignedDimension
 13
300.0000063295426
 23
135.59281854289418
 33
0.0
 14
300.0000063295426
 24
335.59281854289418
 34
0.0
 50
90.0
100
AcDbRotatedDimension
1001
ACAD
1000
DSTYLE
1002
{
1070
              41
1040
8.3100000000000005
1070
             140
1040
12.0
1070
             340
1005
438
1002
}
  0
MTEXT
  5
44D
100
AcDbEntity
  8
0
  6
CONTINUOUS
 62
               7
100
AcDbMText
 10
-741.38679245283015
 20
562.0
 30
0.0
 40
18.0
 41
0.0
 71
               4
 72
               1
  1
\W1.038;\A1;CELL MASTER
  0
DIMENSION
  5
45B
100
AcDbEntity
  8
0
  6
CONTINUOUS
 62
               2
100
AcDbDimension
  2
*D6
 10
98.790833683939013
 20
-170.06887440647196
 30
0.0
 11
98.790833683939013
 21
-83.2754021164329
 31
0.0
 70
             128
  1
Z-STROKE(50)
  3
MXDIMSTYLE
100
AcDbAlignedDimension
 13
339.25988885972026
 23
-220.06887440647196
 33
0.0
 14
339.25988885972026
 24
-170.06887440647196
 34
0.0
 50
90.0
100
AcDbRotatedDimension
1001
ACAD
1000
DSTYLE
1002
{
1070
              41
1040
8.3100000000000005
1070
             140
1040
12.0
1070
             340
1005
438
1002
}
  0
LINE
  5
45C
100
AcDbEntity
  8
0
  6
CONTINUOUS
 62
               7
100
AcDbLine
 10
-820.5
 20
-574.5
 30
0.0
 11
820.5
 21
-574.5
 31
0.0
  0
LINE
  5
45D
100
AcDbEntity
  8
0
  6
CONTINUOUS
 62
               7
100
AcDbLine
 10
-820.5
 20
574.5
 30
0.0
 11
-820.5
 21
-574.5
 31
0.0
  0
LINE
  5
45E
100
AcDbEntity
  8
0
  6
CONTINUOUS
 62
               7
100
AcDbLine
 10
820.5
 20
574.5
 30
0.0
 11
820.5
 21
-574.5
 31
0.0
  0
LINE
  5
45F
100
AcDbEntity
  8
0
  6
CONTINUOUS
 62
               7
100
AcDbLine
 10
-820.5
 20
574.5
 30
0.0
 11
820.5
 21
574.5
 31
0.0
  0
LINE
  5
460
100
AcDbEntity
  8
0
  6
CONTINUOUS
 62
               7
100
AcDbLine
 10
-820.5
 20
524.5
 30
0.0
 11
-470.5
 21
524.5
 31
0.0
  0
LINE
  5
461
100
AcDbEntity
  8
0
  6
CONTINUOUS
 62
               7
100
AcDbLine
 10
470.5
 20
-524.5
 30
0.0
 11
820.5
 21
-524.5
 31
0.0
  0
LINE
  5
462
100
AcDbEntity
  8
0
  6
CONTINUOUS
 62
               7
100
AcDbLine
 10
470.5
 20
574.5
 30
0.0
 11
470.5
 21
524.5
 31
0.0
  0
LINE
  5
463
100
AcDbEntity
  8
0
  6
CONTINUOUS
 62
               7
100
AcDbLine
 10
-470.5
 20
574.5
 30
0.0
 11
-470.5
 21
524.5
 31
0.0
  0
LINE
  5
464
100
AcDbEntity
  8
0
  6
CONTINUOUS
 62
               7
100
AcDbLine
 10
470.5
 20
-524.5
 30
0.0
 11
470.5
 21
-574.5
 31
0.0
  0
LINE
  5
465
100
AcDbEntity
  8
0
  6
CONTINUOUS
 62
               7
100
AcDbLine
 10
470.5
 20
524.5
 30
0.0
 11
820.5
 21
524.5
 31
0.0
  0
MTEXT
  5
466
100
AcDbEntity
  8
0
  6
CONTINUOUS
 62
               7
100
AcDbMText
 10
-786.35000000234697
 20
484.5
 30
0.0
 40
18.0
 41
0.0
 71
               4
 72
               1
  1
\W1.050;\A1;MODEL:DTRB-AL3
  0
MTEXT
  5
467
100
AcDbEntity
  8
0
  6
CONTINUOUS
 62
               7
100
AcDbMText
 10
487.66954021788825
 20
-549.5
 30
0.0
 40
25.0
 41
0.0
 71
               4
 72
               1
  1
\W1.121;\A1;KOGANEI CORP.
  0
MTEXT
  5
468
100
AcDbEntity
  8
0
  6
CONTINUOUS
 62
               7
100
AcDbMText
 10
577.43442619106395
 20
549.5
 30
0.0
 40
18.0
 41
0.0
 71
               4
 72
               1
  1
\W1.311;\A1;Ver. 1.0
  0
MTEXT
  5
469
100
AcDbEntity
  8
0
  6
CONTINUOUS
 62
               7
100
AcDbMText
 10
-714.5
 20
537.0
 30
0.0
 40
18.0
 41
0.0
 71
               4
 72
               1
  1
\A1;DTRB-AL3
  0
ENDSEC
  0
SECTION
  2
OBJECTS
  0
DICTIONARY
  5
19
100
AcDbDictionary
  3
ACAD_GROUP
350
1A
  3
ACAD_MLINESTYLE
350
1B
  0
DICTIONARY
  5
1A
102
{ACAD_REACTORS
330
19
102
}
100
AcDbDictionary
  0
DICTIONARY
  5
1B
102
{ACAD_REACTORS
330
19
102
}
100
AcDbDictionary
  3
STANDARD
350
1C
  0
MLINESTYLE
  5
1C
102
{ACAD_REACTORS
330
1B
102
}
100
AcDbMlineStyle
  2
Standard
 70
               0
  3

 62
               0
 51
90.0
 52
90.0
 71
               2
 49
0.5
 62
             256
  6
ByLayer
 49
-0.5
 62
             256
  6
ByLayer
  0
ENDSEC
  0
EOF
