  0
SECTION
  2
HEADER
  9
$ACADVER
  1
AC1012
  9
$DWGCODEPAGE
  3
dos932
  9
$INSBASE
 10
0.0
 20
0.0
 30
0.0
  9
$EXTMIN
 10
-564.5
 20
-400.5
 30
0.0
  9
$EXTMAX
 10
581.5
 20
402.375
 30
0.0
  9
$LIMMIN
 10
-599.50000000000011
 20
-415.50000000000006
  9
$LIMMAX
 10
589.50000000000011
 20
425.50000000000006
  9
$ORTHOMODE
 70
               0
  9
$REGENMODE
 70
               1
  9
$FILLMODE
 70
               1
  9
$QTEXTMODE
 70
               0
  9
$MIRRTEXT
 70
               1
  9
$DRAGMODE
 70
               2
  9
$LTSCALE
 40
1.0
  9
$OSMODE
 70
               0
  9
$ATTMODE
 70
               1
  9
$TEXTSIZE
 40
3.2000000476837158
  9
$TRACEWID
 40
0.05
  9
$TEXTSTYLE
  7
MX_NOTE_STANDARD
  9
$CLAYER
  8
0
  9
$CELTYPE
  6
CONTINUOUS
  9
$CECOLOR
 62
             256
  9
$CELTSCALE
 40
1.0
  9
$DELOBJ
 70
               1
  9
$DISPSILH
 70
               0
  9
$DIMSCALE
 40
1.0
  9
$DIMASZ
 40
2.5
  9
$DIMEXO
 40
1.5
  9
$DIMDLI
 40
3.75
  9
$DIMRND
 40
0.0
  9
$DIMDLE
 40
0.0
  9
$DIMEXE
 40
1.5
  9
$DIMTP
 40
0.0
  9
$DIMTM
 40
0.0
  9
$DIMTXT
 40
3.2000000476837158
  9
$DIMCEN
 40
2.5
  9
$DIMTSZ
 40
0.0
  9
$DIMTOL
 70
               0
  9
$DIMLIM
 70
               0
  9
$DIMTIH
 70
               0
  9
$DIMTOH
 70
               0
  9
$DIMSE1
 70
               0
  9
$DIMSE2
 70
               0
  9
$DIMTAD
 70
               1
  9
$DIMZIN
 70
               8
  9
$DIMBLK
  1

  9
$DIMASO
 70
               1
  9
$DIMSHO
 70
               1
  9
$DIMPOST
  1

  9
$DIMAPOST
  1

  9
$DIMALT
 70
               0
  9
$DIMALTD
 70
               4
  9
$DIMALTF
 40
0.03937007874016
  9
$DIMLFAC
 40
1.0
  9
$DIMTOFL
 70
               1
  9
$DIMTVP
 40
0.0
  9
$DIMTIX
 70
               0
  9
$DIMSOXD
 70
               0
  9
$DIMSAH
 70
               1
  9
$DIMBLK1
  1
_OPEN30
  9
$DIMBLK2
  1
_OPEN30
  9
$DIMSTYLE
  2
MXDIMSTYLE
  9
$DIMCLRD
 70
               0
  9
$DIMCLRE
 70
               0
  9
$DIMCLRT
 70
               0
  9
$DIMTFAC
 40
1.0
  9
$DIMGAP
 40
1.0
  9
$DIMJUST
 70
               0
  9
$DIMSD1
 70
               0
  9
$DIMSD2
 70
               0
  9
$DIMTOLJ
 70
               0
  9
$DIMTZIN
 70
               0
  9
$DIMALTZ
 70
               0
  9
$DIMALTTZ
 70
               0
  9
$DIMFIT
 70
               3
  9
$DIMUPT
 70
               1
  9
$DIMUNIT
 70
               2
  9
$DIMDEC
 70
               2
  9
$DIMTDEC
 70
               2
  9
$DIMALTU
 70
               2
  9
$DIMALTTD
 70
               4
  9
$DIMTXSTY
  7
MX_NOTE_STANDARD
  9
$DIMAUNIT
 70
               0
  9
$LUNITS
 70
               2
  9
$LUPREC
 70
               4
  9
$SKETCHINC
 40
0.1
  9
$FILLETRAD
 40
0.0
  9
$AUNITS
 70
               0
  9
$AUPREC
 70
               0
  9
$MENU
  1
acad
  9
$ELEVATION
 40
0.0
  9
$PELEVATION
 40
0.0
  9
$THICKNESS
 40
0.0
  9
$LIMCHECK
 70
               0
  9
$BLIPMODE
 70
               1
  9
$CHAMFERA
 40
0.0
  9
$CHAMFERB
 40
0.0
  9
$CHAMFERC
 40
0.0
  9
$CHAMFERD
 40
0.0
  9
$SKPOLY
 70
               0
  9
$TDCREATE
 40
2453916.737175926
  9
$TDUPDATE
 40
2453916.737175926
  9
$TDINDWG
 40
0.0000000000
  9
$TDUSRTIMER
 40
0.0000000000
  9
$USRTIMER
 70
               1
  9
$ANGBASE
 50
0.0
  9
$ANGDIR
 70
               0
  9
$PDMODE
 70
               0
  9
$PDSIZE
 40
0.0
  9
$PLINEWID
 40
0.0
  9
$COORDS
 70
               1
  9
$SPLFRAME
 70
               0
  9
$SPLINETYPE
 70
               6
  9
$SPLINESEGS
 70
               8
  9
$ATTDIA
 70
               0
  9
$ATTREQ
 70
               1
  9
$HANDLING
 70
               1
  9
$HANDSEED
  5
362
  9
$SURFTAB1
 70
               6
  9
$SURFTAB2
 70
               6
  9
$SURFTYPE
 70
               6
  9
$SURFU
 70
               6
  9
$SURFV
 70
               6
  9
$UCSNAME
  2

  9
$UCSORG
 10
0.0
 20
0.0
 30
0.0
  9
$UCSXDIR
 10
1.0
 20
0.0
 30
0.0
  9
$UCSYDIR
 10
0.0
 20
1.0
 30
0.0
  9
$PUCSNAME
  2

  9
$PUCSORG
 10
0.0
 20
0.0
 30
0.0
  9
$PUCSXDIR
 10
1.0
 20
0.0
 30
0.0
  9
$PUCSYDIR
 10
0.0
 20
1.0
 30
0.0
  9
$USERI1
 70
               0
  9
$USERI2
 70
               0
  9
$USERI3
 70
               0
  9
$USERI4
 70
               0
  9
$USERI5
 70
               0
  9
$USERR1
 40
0.0
  9
$USERR2
 40
0.0
  9
$USERR3
 40
0.0
  9
$USERR4
 40
0.0
  9
$USERR5
 40
0.0
  9
$WORLDVIEW
 70
               1
  9
$SHADEDGE
 70
               3
  9
$SHADEDIF
 70
              70
  9
$TILEMODE
 70
               1
  9
$MAXACTVP
 70
              16
  9
$PINSBASE
 10
0.0
 20
0.0
 30
0.0
  9
$PLIMCHECK
 70
               0
  9
$PEXTMIN
 10
1.0000000000000000E+20
 20
1.0000000000000000E+20
 30
1.0000000000000000E+20
  9
$PEXTMAX
 10
-1.0000000000000000E+20
 20
-1.0000000000000000E+20
 30
-1.0000000000000000E+20
  9
$PLIMMIN
 10
0.0
 20
0.0
  9
$PLIMMAX
 10
12.0
 20
9.0
  9
$UNITMODE
 70
               0
  9
$VISRETAIN
 70
               0
  9
$PLINEGEN
 70
               1
  9
$PSLTSCALE
 70
               0
  9
$TREEDEPTH
 70
            3020
  9
$PICKSTYLE
 70
               1
  9
$CMLSTYLE
  2
Standard
  9
$CMLJUST
 70
               0
  9
$CMLSCALE
 40
1.0
  9
$SAVEIMAGES
 70
               0
  0
ENDSEC
  0
SECTION
  2
CLASSES
  0
CLASS
  1
LWPOLYLINE
  2
AcDbPolyline
  3
"AutoCAD"
 90
    32768
280
               0
281
               1
  0
CLASS
  1
IMAGE
  2
AcDbRasterImage
  3
ISM
 90
    32895
280
               0
281
               1
  0
CLASS
  1
OLE2FRAME
  2
AcDbOle2Frame
  3
""
 90
    32768
280
               0
281
               1
  0
CLASS
  1
HATCH
  2
AcDbHatch
  3
"ACAD_SEDONA"
 90
    32768
280
               0
281
               1
  0
CLASS
  1
DICTIONARYVAR
  2
AcDbDictionaryVar
  3
"AutoCAD"
 90
    32768
280
               0
281
               0
  0
CLASS
  1
RASTERVARIABLES
  2
AcDbRasterVariables
  3
ISM
 90
    32768
280
               0
281
               0
  0
CLASS
  1
IMAGEDEF
  2
AcDbRasterImageDef
  3
ISM
 90
    32768
280
               0
281
               0
  0
CLASS
  1
IMAGEDEF_REACTOR
  2
AcDbRasterImageDefReactor
  3
ISM
 90
    32769
280
               0
281
               0
  0
CLASS
  1
IDBUFFER
  2
AcDbIdBuffer
  3
"Acad"
 90
    32768
280
               0
281
               0
  0
CLASS
  1
SPATIAL_FILTER
  2
AcDbSpatialFilter
  3
"Acad"
 90
    32768
280
               0
281
               0
  0
CLASS
  1
XRECORD
  2
AcDbXrecord
  3
"<Built In>"
 90
    32768
280
               0
281
               0
  0
CLASS
  1
SORTENTSTABLE
  2
AcDbSortentsTable
  3
"AutoCAD"
 90
    32768
280
               0
281
               0
  0
CLASS
  1
LAYER_INDEX
  2
AcDbLayerIndex
  3
"Acad"
 90
    32768
280
               0
281
               0
  0
CLASS
  1
SPATIAL_INDEX
  2
AcDbSpatialIndex
  3
"Acad"
 90
    32768
280
               0
281
               0
  0
CLASS
  1
OBJECT_PTR
  2
CAseDLPNTableRecord
  3
"ASE-LPNTableRecord"
 90
    32769
280
               0
281
               0
  0
CLASS
  1
LAYOUT
  2
AcDbLayout
  3
"AutoCAD 2000"
 90
    32768
280
               0
281
               0
  0
CLASS
  1
PLOTSETTINGS
  2
AcDbPlotSettings
  3
"AutoCAD 2000"
 90
    32768
280
               0
281
               0
  0
CLASS
  1
ACDBDICTIONARYWDFLT
  2
AcDbDictionaryWithDefault
  3
"AutoCAD 2000"
 90
    32768
280
               0
281
               0
  0
CLASS
  1
ACDBPLACEHOLDER
  2
AcDbPlaceHolder
  3
"AutoCAD 2000"
 90
    32768
280
               0
281
               0
  0
ENDSEC
  0
SECTION
  2
TABLES
  0
TABLE
  2
VPORT
  5
7
100
AcDbSymbolTable
 70
               1
  0
VPORT
  5
15
100
AcDbSymbolTableRecord
100
AcDbViewportTableRecord
  2
*ACTIVE
 70
               0
 10
0.0
 20
0.0
 11
1.0
 21
1.0
 12
-5.0
 22
5.0
 13
0.0
 23
0.0
 14
1.0
 24
1.0
 15
0.0
 25
0.0
 16
0.0
 26
0.0
 36
1.0
 17
0.0
 27
0.0
 37
0.0
 40
849.41000000000008
 41
1.7320508075688772
 42
50.0
 43
0.0
 44
0.0
 50
0.0
 51
0.0
 71
               0
 72
             100
 73
               1
 74
               1
 75
               0
 76
               0
 77
               0
 78
               0
  0
ENDTAB
  0
TABLE
  2
LTYPE
  5
4
100
AcDbSymbolTable
 70
               4
  0
LTYPE
  5
11
100
AcDbSymbolTableRecord
100
AcDbLinetypeTableRecord
  2
BYBLOCK
 70
              64
  3

 72
              65
 73
               0
 40
0.0
  0
LTYPE
  5
12
100
AcDbSymbolTableRecord
100
AcDbLinetypeTableRecord
  2
BYLAYER
 70
              64
  3

 72
              65
 73
               0
 40
0.0
  0
LTYPE
  5
13
100
AcDbSymbolTableRecord
100
AcDbLinetypeTableRecord
  2
CONTINUOUS
 70
              64
  3
Solid line
 72
              65
 73
               0
 40
0.0
  0
LTYPE
  5
28
100
AcDbSymbolTableRecord
100
AcDbLinetypeTableRecord
  2
DASHED
 70
              64
  3
Dashed __ __ __ __ __ __ __ __ __ __ __ __ __ _
 72
              65
 73
               2
 40
19.049999999999997
 49
12.699999999999999
 74
               0
 49
-6.3499999999999996
 74
               0
  0
ENDTAB
  0
TABLE
  2
LAYER
  5
2
100
AcDbSymbolTable
 70
               2
  0
LAYER
  5
14
100
AcDbSymbolTableRecord
100
AcDbLayerTableRecord
  2
0
 70
               0
 62
               7
  6
CONTINUOUS
  0
LAYER
  5
1D
100
AcDbSymbolTableRecord
100
AcDbLayerTableRecord
  2
DEFPOINTS
 70
               0
 62
               7
  6
CONTINUOUS
  0
ENDTAB
  0
TABLE
  2
STYLE
  5
3
100
AcDbSymbolTable
 70
               2
  0
STYLE
  5
17
100
AcDbSymbolTableRecord
100
AcDbTextStyleTableRecord
  2
MX_NOTE_STANDARD
 70
               0
 40
0.0
 41
1.0
 50
0.0
 71
               0
 42
3.2000000476837158
  3
txt.shx
  4
extfont.shx
  0
STYLE
  5
33D
100
AcDbSymbolTableRecord
100
AcDbTextStyleTableRecord
  2
MX_DIMTXSTY_2
 70
               0
 40
0.0
 41
1.05
 50
0.0
 71
               0
 42
3.2000000476837158
  3
txt.shx
  4
extfont.shx
  0
ENDTAB
  0
TABLE
  2
VIEW
  5
5
100
AcDbSymbolTable
 70
               0
  0
ENDTAB
  0
TABLE
  2
UCS
  5
6
100
AcDbSymbolTable
 70
               0
  0
ENDTAB
  0
TABLE
  2
APPID
  5
8
100
AcDbSymbolTable
 70
               1
  0
APPID
  5
16
100
AcDbSymbolTableRecord
100
AcDbRegAppTableRecord
  2
ACAD
 70
               0
  0
ENDTAB
  0
TABLE
  2
DIMSTYLE
  5
9
100
AcDbSymbolTable
 70
               1
  0
DIMSTYLE
105
18
100
AcDbSymbolTableRecord
100
AcDbDimStyleTableRecord
  2
MXDIMSTYLE
 70
               0
  3

  4

  5

  6
_OPEN30
  7
_OPEN30
 40
1.0
 41
2.5
 42
1.5
 43
3.75
 44
1.5
 45
0.0
 46
0.0
 47
0.0
 48
0.0
 71
               0
 72
               0
 73
               0
 74
               0
 75
               0
 76
               0
 77
               1
 78
               8
140
3.2000000476837158
141
2.5
142
0.0
143
0.03937007874016
144
1.0
145
0.0
146
1.0
147
1.0
170
               0
171
               4
172
               1
173
               1
174
               0
175
               0
176
               0
177
               0
178
               0
270
               2
271
               2
272
               2
273
               2
274
               4
275
               0
280
               0
281
               0
282
               0
283
               0
284
               0
285
               0
286
               0
287
               3
288
               1
340
17
  0
ENDTAB
  0
TABLE
  2
BLOCK_RECORD
  5
1
100
AcDbSymbolTable
 70
               6
  0
BLOCK_RECORD
  5
A
100
AcDbSymbolTableRecord
100
AcDbBlockTableRecord
  2
*MODEL_SPACE
  0
BLOCK_RECORD
  5
B
100
AcDbSymbolTableRecord
100
AcDbBlockTableRecord
  2
*PAPER_SPACE
  0
BLOCK_RECORD
  5
1E
100
AcDbSymbolTableRecord
100
AcDbBlockTableRecord
  2
DTRB-AL2-1
  0
BLOCK_RECORD
  5
1F
100
AcDbSymbolTableRecord
100
AcDbBlockTableRecord
  2
DTRB-AL2-2
  0
BLOCK_RECORD
  5
20
100
AcDbSymbolTableRecord
100
AcDbBlockTableRecord
  2
DTRB-AL2-3
  0
BLOCK_RECORD
  5
21
100
AcDbSymbolTableRecord
100
AcDbBlockTableRecord
  2
_OPEN30
  0
BLOCK_RECORD
  5
336
100
AcDbSymbolTableRecord
100
AcDbBlockTableRecord
  2
*D4
  0
BLOCK_RECORD
  5
344
100
AcDbSymbolTableRecord
100
AcDbBlockTableRecord
  2
*D5
  0
ENDTAB
  0
ENDSEC
  0
SECTION
  2
BLOCKS
  0
BLOCK
  5
D
100
AcDbEntity
  8
0
100
AcDbBlockBegin
  2
*MODEL_SPACE
 70
               0
 10
0.0
 20
0.0
 30
0.0
  3
*MODEL_SPACE
  1

  0
ENDBLK
  5
E
100
AcDbEntity
  8
0
100
AcDbBlockEnd
  0
BLOCK
  5
F
100
AcDbEntity
 67
               1
  8
0
100
AcDbBlockBegin
  2
*PAPER_SPACE
 70
               0
 10
0.0
 20
0.0
 30
0.0
  3
*PAPER_SPACE
  1

  0
ENDBLK
  5
10
100
AcDbEntity
 67
               1
  8
0
100
AcDbBlockEnd
  0
BLOCK
  5
27
100
AcDbEntity
  8
0
100
AcDbBlockBegin
  2
DTRB-AL2-1
 70
               0
 10
0.0
 20
0.0
 30
0.0
  3
DTRB-AL2-1
  1

  0
LINE
  5
29
100
AcDbEntity
  8
0
  6
DASHED
 62
               7
100
AcDbLine
 10
-90.999984741211165
 20
53.000000439999923
 30
0.0
 11
-98.999984741211165
 21
53.000000439999923
 31
0.0
  0
LINE
  5
2A
100
AcDbEntity
  8
0
  6
CONTINUOUS
 62
               7
100
AcDbLine
 10
37.000015258789205
 20
19.95000043999994
 30
0.0
 11
37.000015258789205
 21
19.350000439999917
 31
0.0
  0
LINE
  5
2B
100
AcDbEntity
  8
0
  6
CONTINUOUS
 62
               7
100
AcDbLine
 10
32.508203171690781
 20
19.350000439999917
 30
0.0
 11
37.000015258789205
 21
19.350000439999917
 31
0.0
  0
LINE
  5
2C
100
AcDbEntity
  8
0
  6
CONTINUOUS
 62
               7
100
AcDbLine
 10
32.508203171690781
 20
19.95000043999994
 30
0.0
 11
37.000015258789205
 21
19.95000043999994
 31
0.0
  0
CIRCLE
  5
2D
100
AcDbEntity
  8
0
  6
CONTINUOUS
 62
               7
100
AcDbCircle
 10
38.000015258789233
 20
19.650000439999928
 30
0.0
 40
6.5
  0
CIRCLE
  5
2E
100
AcDbEntity
  8
0
  6
CONTINUOUS
 62
               7
100
AcDbCircle
 10
38.000015258789233
 20
19.650000439999928
 30
0.0
 40
5.5
  0
CIRCLE
  5
2F
100
AcDbEntity
  8
0
  6
CONTINUOUS
 62
               7
100
AcDbCircle
 10
38.000015258789233
 20
19.650000439999928
 30
0.0
 40
6.3499999999999996
  0
CIRCLE
  5
30
100
AcDbEntity
  8
0
  6
CONTINUOUS
 62
               7
100
AcDbCircle
 10
38.000015258789347
 20
19.650000439999815
 30
0.0
 40
10.0
  0
CIRCLE
  5
31
100
AcDbEntity
  8
0
  6
CONTINUOUS
 62
               7
100
AcDbCircle
 10
177.50001525878798
 20
189.00000044000015
 30
0.0
 40
1.7499999999999998
  0
LINE
  5
32
100
AcDbEntity
  8
0
  6
CONTINUOUS
 62
               2
100
AcDbLine
 10
-16.499984741210909
 20
52.90396778306075
 30
0.0
 11
-16.499984741210909
 21
64.019237045972346
 31
0.0
  0
LINE
  5
33
100
AcDbEntity
  8
0
  6
CONTINUOUS
 62
               2
100
AcDbLine
 10
16.500015258788977
 20
52.90396778306075
 30
0.0
 11
16.500015258788977
 21
64.019237045972346
 31
0.0
  0
LINE
  5
34
100
AcDbEntity
  8
0
  6
CONTINUOUS
 62
               7
100
AcDbLine
 10
-13.999984741210909
 20
58.000000439999923
 30
0.0
 11
14.000015258788977
 21
58.000000439999923
 31
0.0
  0
LINE
  5
35
100
AcDbEntity
  8
0
  6
CONTINUOUS
 62
               7
100
AcDbLine
 10
19.000015258788977
 20
58.000000439999923
 30
0.0
 11
25.000015258789091
 21
58.000000439999923
 31
0.0
  0
LINE
  5
36
100
AcDbEntity
  8
0
  6
CONTINUOUS
 62
               7
100
AcDbLine
 10
-24.999984741210909
 20
58.000000439999923
 30
0.0
 11
-18.999984741210909
 21
58.000000439999923
 31
0.0
  0
LINE
  5
37
100
AcDbEntity
  8
0
  6
CONTINUOUS
 62
               7
100
AcDbLine
 10
-13.999984741210909
 20
58.000000439999923
 30
0.0
 11
-13.999984741210909
 21
56.000000439999866
 31
0.0
  0
LINE
  5
38
100
AcDbEntity
  8
0
  6
CONTINUOUS
 62
               7
100
AcDbLine
 10
-18.999984741210909
 20
58.000000439999923
 30
0.0
 11
-18.999984741210909
 21
56.000000439999866
 31
0.0
  0
LINE
  5
39
100
AcDbEntity
  8
0
  6
CONTINUOUS
 62
               7
100
AcDbLine
 10
-29.291793823242273
 20
54.850006543515605
 30
0.0
 11
-32.075607299804773
 21
54.850006543515605
 31
0.0
  0
ARC
  5
3A
100
AcDbEntity
  8
0
  6
CONTINUOUS
 62
               7
100
AcDbCircle
 10
-29.999984741210909
 20
48.870331250546769
 30
0.0
 40
6.3296561241149902
100
AcDbArc
 50
77.07456800075721
 51
109.14270913512811
  0
LINE
  5
3B
100
AcDbEntity
  8
0
  6
CONTINUOUS
 62
               7
100
AcDbLine
 10
-32.075622840932709
 20
54.850002896953839
 30
0.0
 11
-32.142448539816286
 21
54.086181661316061
 31
0.0
  0
LINE
  5
3C
100
AcDbEntity
  8
0
  6
CONTINUOUS
 62
               7
100
AcDbLine
 10
-24.999975274395268
 20
55.999989951135859
 30
0.0
 11
-36.196083626584453
 21
53.000001734651107
 31
0.0
  0
LINE
  5
3D
100
AcDbEntity
  8
0
  6
CONTINUOUS
 62
               7
100
AcDbLine
 10
-101.99998474121122
 20
173.00000044000012
 30
0.0
 11
-104.99998474121122
 21
170.00000044000009
 31
0.0
  0
LINE
  5
3E
100
AcDbEntity
  8
0
  6
CONTINUOUS
 62
               7
100
AcDbLine
 10
102.00001525878912
 20
173.00000044000012
 30
0.0
 11
105.00001525878912
 21
170.00000044000009
 31
0.0
  0
LINE
  5
3F
100
AcDbEntity
  8
0
  6
CONTINUOUS
 62
               2
100
AcDbLine
 10
62.500015258789119
 20
182.8000004400001
 30
0.0
 11
62.500015258789119
 21
213.59433685800801
 31
0.0
  0
ARC
  5
40
100
AcDbEntity
  8
0
  6
CONTINUOUS
 62
               7
100
AcDbCircle
 10
-98.917587280273608
 20
11.799982129453042
 30
0.0
 40
7.9824194908142081
100
AcDbArc
 50
157.64345713842727
 51
202.35653921910705
  0
LINE
  5
41
100
AcDbEntity
  8
0
  6
CONTINUOUS
 62
               7
100
AcDbLine
 10
-106.29997253418009
 20
8.763727246640542
 30
0.0
 11
-106.29997253418009
 21
14.836267529843667
 31
0.0
  0
LINE
  5
42
100
AcDbEntity
  8
0
  6
CONTINUOUS
 62
               7
100
AcDbLine
 10
-106.29999925019939
 20
8.7637276355850418
 30
0.0
 11
-104.99997243659732
 21
8.6499900274471884
 31
0.0
  0
LINE
  5
43
100
AcDbEntity
  8
0
  6
CONTINUOUS
 62
               7
100
AcDbLine
 10
-106.29996469455756
 20
14.836254119934551
 30
0.0
 11
-104.99999868385595
 21
14.949986408507925
 31
0.0
  0
ARC
  5
44
100
AcDbEntity
  8
0
  6
CONTINUOUS
 62
               7
100
AcDbCircle
 10
98.917556762695369
 20
11.799988209126809
 30
0.0
 40
7.9824194908142081
100
AcDbArc
 50
337.64346066720742
 51
22.356539332792593
  0
LINE
  5
45
100
AcDbEntity
  8
0
  6
CONTINUOUS
 62
               7
100
AcDbLine
 10
106.30000305175787
 20
8.7637333263144228
 30
0.0
 11
106.30000305175787
 21
14.836273609517548
 31
0.0
  0
LINE
  5
46
100
AcDbEntity
  8
0
  6
CONTINUOUS
 62
               7
100
AcDbLine
 10
106.29998754014383
 20
14.83626773541954
 30
0.0
 11
105.00002152944222
 21
14.950000023992914
 31
0.0
  0
LINE
  5
47
100
AcDbEntity
  8
0
  6
CONTINUOUS
 62
               7
100
AcDbLine
 10
106.30002209578566
 20
8.7637261794477013
 30
0.0
 11
105.00005608508405
 21
8.6499938908743275
 31
0.0
  0
CIRCLE
  5
48
100
AcDbEntity
  8
0
  6
CONTINUOUS
 62
               7
100
AcDbCircle
 10
-35.999984741211023
 20
19.300000439999849
 30
0.0
 40
2.1000000000000001
  0
CIRCLE
  5
49
100
AcDbEntity
  8
0
  6
CONTINUOUS
 62
               7
100
AcDbCircle
 10
-45.999984741210795
 20
19.300000439999849
 30
0.0
 40
2.1000000000000001
  0
LINE
  5
4A
100
AcDbEntity
  8
0
  6
CONTINUOUS
 62
               7
100
AcDbLine
 10
-56.499984741210909
 20
11.300000439999963
 30
0.0
 11
-89.499984741211051
 21
11.300000439999963
 31
0.0
  0
LINE
  5
4B
100
AcDbEntity
  8
0
  6
CONTINUOUS
 62
               7
100
AcDbLine
 10
-89.499984741211051
 20
27.300000439999906
 30
0.0
 11
-89.499984741211051
 21
11.300000439999963
 31
0.0
  0
LINE
  5
4C
100
AcDbEntity
  8
0
  6
CONTINUOUS
 62
               7
100
AcDbLine
 10
-56.499984741210909
 20
27.300000439999906
 30
0.0
 11
-89.499984741211051
 21
27.300000439999906
 31
0.0
  0
LINE
  5
4D
100
AcDbEntity
  8
0
  6
CONTINUOUS
 62
               7
100
AcDbLine
 10
-56.499984741210909
 20
27.300000439999906
 30
0.0
 11
-56.499984741210909
 21
11.300000439999963
 31
0.0
  0
LINE
  5
4E
100
AcDbEntity
  8
0
  6
CONTINUOUS
 62
               7
100
AcDbLine
 10
48.000015258789119
 20
24.150000439999928
 30
0.0
 11
48.000015258789119
 21
11.650000439999928
 31
0.0
  0
LINE
  5
4F
100
AcDbEntity
  8
0
  6
CONTINUOUS
 62
               7
100
AcDbLine
 10
82.000015258789233
 20
11.650000439999928
 30
0.0
 11
48.000015258789119
 21
11.650000439999928
 31
0.0
  0
LINE
  5
50
100
AcDbEntity
  8
0
  6
CONTINUOUS
 62
               7
100
AcDbLine
 10
82.000015258789233
 20
24.150000439999928
 30
0.0
 11
82.000015258789233
 21
11.650000439999928
 31
0.0
  0
LINE
  5
51
100
AcDbEntity
  8
0
  6
CONTINUOUS
 62
               7
100
AcDbLine
 10
82.000015258789233
 20
24.150000439999928
 30
0.0
 11
48.000015258789119
 21
24.150000439999928
 31
0.0
  0
LINE
  5
52
100
AcDbEntity
  8
0
  6
CONTINUOUS
 62
               7
100
AcDbLine
 10
-80.000009179115352
 20
3.1999821294530193
 30
0.0
 11
-103.40000915527366
 21
3.1999821294530193
 31
0.0
  0
LINE
  5
53
100
AcDbEntity
  8
0
  6
CONTINUOUS
 62
               7
100
AcDbLine
 10
80.000039696693477
 20
4.799982129453042
 30
0.0
 11
80.000039696693477
 21
3.1999821294530193
 31
0.0
  0
LINE
  5
54
100
AcDbEntity
  8
0
  6
CONTINUOUS
 62
               7
100
AcDbLine
 10
-80.000009179115352
 20
4.799982129453042
 30
0.0
 11
-80.000009179115352
 21
3.1999821294530193
 31
0.0
  0
LINE
  5
55
100
AcDbEntity
  8
0
  6
CONTINUOUS
 62
               7
100
AcDbLine
 10
-103.39998159408589
 20
5.1999821294530193
 30
0.0
 11
-103.39998159408589
 21
4.799982129453042
 31
0.0
  0
LINE
  5
56
100
AcDbEntity
  8
0
  6
CONTINUOUS
 62
               7
100
AcDbLine
 10
-103.29998159408598
 20
5.1999821294530193
 30
0.0
 11
-103.29998159408598
 21
4.799982129453042
 31
0.0
  0
LINE
  5
57
100
AcDbEntity
  8
0
  6
CONTINUOUS
 62
               7
100
AcDbLine
 10
-100.49998164176952
 20
5.1999821294530193
 30
0.0
 11
-100.49998164176952
 21
4.799982129453042
 31
0.0
  0
LINE
  5
58
100
AcDbEntity
  8
0
  6
CONTINUOUS
 62
               7
100
AcDbLine
 10
-89.499981880188045
 20
5.1999821294530193
 30
0.0
 11
-89.499981880188045
 21
4.799982129453042
 31
0.0
  0
LINE
  5
59
100
AcDbEntity
  8
0
  6
CONTINUOUS
 62
               7
100
AcDbLine
 10
103.40001831054707
 20
5.1999821294530193
 30
0.0
 11
103.40001831054707
 21
4.799982129453042
 31
0.0
  0
LINE
  5
5A
100
AcDbEntity
  8
0
  6
CONTINUOUS
 62
               7
100
AcDbLine
 10
103.30001831054705
 20
5.1999821294530193
 30
0.0
 11
103.30001831054705
 21
4.799982129453042
 31
0.0
  0
LINE
  5
5B
100
AcDbEntity
  8
0
  6
CONTINUOUS
 62
               7
100
AcDbLine
 10
100.50001525878912
 20
5.1999821294530193
 30
0.0
 11
100.50001525878912
 21
4.799982129453042
 31
0.0
  0
LINE
  5
5C
100
AcDbEntity
  8
0
  6
CONTINUOUS
 62
               7
100
AcDbLine
 10
89.500015258789233
 20
5.1999821294530193
 30
0.0
 11
89.500015258789233
 21
4.799982129453042
 31
0.0
  0
LINE
  5
5D
100
AcDbEntity
  8
0
  6
CONTINUOUS
 62
               7
100
AcDbLine
 10
103.40001831054707
 20
4.799982129453042
 30
0.0
 11
-103.39998159408589
 21
4.799982129453042
 31
0.0
  0
ARC
  5
5E
100
AcDbEntity
  8
0
  6
CONTINUOUS
 62
               7
100
AcDbCircle
 10
-103.40000915527366
 20
6.7999882329686443
 30
0.0
 40
1.6000000238418579
100
AcDbArc
 50
179.99999499104368
 51
269.99999749552182
  0
ARC
  5
5F
100
AcDbEntity
  8
0
  6
CONTINUOUS
 62
               7
100
AcDbCircle
 10
103.40003967285151
 20
6.7999882329686443
 30
0.0
 40
1.6000000238418579
100
AcDbArc
 50
269.99999749552182
 51
0.0000000000001018
  0
LINE
  5
60
100
AcDbEntity
  8
0
  6
CONTINUOUS
 62
               7
100
AcDbLine
 10
105.00001525878912
 20
170.00000044000009
 30
0.0
 11
105.00001525878912
 21
4.7999882329686443
 31
0.0
  0
LINE
  5
61
100
AcDbEntity
  8
0
  6
CONTINUOUS
 62
               7
100
AcDbLine
 10
103.40003967285151
 20
5.1999821294530193
 30
0.0
 11
-103.40000915527366
 21
5.1999821294530193
 31
0.0
  0
LINE
  5
62
100
AcDbEntity
  8
0
  6
CONTINUOUS
 62
               2
100
AcDbLine
 10
-87.999984741211108
 20
-4.2377008441295629
 30
0.0
 11
-87.999984741211108
 21
6.7533862717010607
 31
0.0
  0
LINE
  5
63
100
AcDbEntity
  8
0
  6
CONTINUOUS
 62
               2
100
AcDbLine
 10
88.000015258789119
 20
-4.5347572098260116
 30
0.0
 11
88.000015258789119
 21
7.3474990584757052
 31
0.0
  0
LINE
  5
64
100
AcDbEntity
  8
0
  6
CONTINUOUS
 62
               2
100
AcDbLine
 10
-137.49998474121134
 20
207.09879640592399
 30
0.0
 11
-137.49998474121134
 21
163.00000044000012
 31
0.0
  0
LINE
  5
65
100
AcDbEntity
  8
0
  6
CONTINUOUS
 62
               7
100
AcDbLine
 10
104.50001525878901
 20
186.20000044000011
 30
0.0
 11
-164.49998474121139
 21
186.20000044000011
 31
0.0
  0
LINE
  5
66
100
AcDbEntity
  8
0
  6
CONTINUOUS
 62
               7
100
AcDbLine
 10
104.50001525878901
 20
182.8000004400001
 30
0.0
 11
-164.49998474121139
 21
182.8000004400001
 31
0.0
  0
LINE
  5
67
100
AcDbEntity
  8
0
  6
CONTINUOUS
 62
               7
100
AcDbLine
 10
41.500030517578182
 20
194.8999943364845
 30
0.0
 11
83.500000000000057
 21
194.8999943364845
 31
0.0
  0
LINE
  5
68
100
AcDbEntity
  8
0
  6
CONTINUOUS
 62
               7
100
AcDbLine
 10
41.500030517578182
 20
206.50000044000006
 30
0.0
 11
41.500030517578182
 21
194.8999943364845
 31
0.0
  0
LINE
  5
69
100
AcDbEntity
  8
0
  6
CONTINUOUS
 62
               7
100
AcDbLine
 10
41.500030517578182
 20
206.50000044000006
 30
0.0
 11
83.500000000000057
 21
206.50000044000006
 31
0.0
  0
LINE
  5
6A
100
AcDbEntity
  8
0
  6
CONTINUOUS
 62
               2
100
AcDbLine
 10
49.500030517578182
 20
208.05358930718756
 30
0.0
 11
49.500030517578182
 21
199.69204755914072
 31
0.0
  0
LINE
  5
6B
100
AcDbEntity
  8
0
  6
CONTINUOUS
 62
               2
100
AcDbLine
 10
75.499999999999943
 20
208.61413618218762
 30
0.0
 11
75.499999999999943
 21
199.87890669000006
 31
0.0
  0
LINE
  5
6C
100
AcDbEntity
  8
0
  6
CONTINUOUS
 62
               7
100
AcDbLine
 10
83.500000000000057
 20
206.50000044000006
 30
0.0
 11
83.500000000000057
 21
194.8999943364845
 31
0.0
  0
LINE
  5
6D
100
AcDbEntity
  8
0
  6
CONTINUOUS
 62
               7
100
AcDbLine
 10
-57.749985694885339
 20
160.00003095757825
 30
0.0
 11
-62.249972343444909
 21
160.00003095757825
 31
0.0
  0
LINE
  5
6E
100
AcDbEntity
  8
0
  6
CONTINUOUS
 62
               7
100
AcDbLine
 10
-57.249984741211023
 20
160.50003095757822
 30
0.0
 11
-57.249984741211023
 21
163.00003095757822
 31
0.0
  0
LINE
  5
6F
100
AcDbEntity
  8
0
  6
CONTINUOUS
 62
               7
100
AcDbLine
 10
-57.249990198507447
 20
160.50003541588691
 30
0.0
 11
-57.749989169865188
 21
160.00003834112991
 31
0.0
  0
LINE
  5
70
100
AcDbEntity
  8
0
  6
CONTINUOUS
 62
               7
100
AcDbLine
 10
-57.249985694885225
 20
160.50003191125253
 30
0.0
 11
-62.749984741210909
 21
160.50003191125253
 31
0.0
  0
LINE
  5
71
100
AcDbEntity
  8
0
  6
CONTINUOUS
 62
               7
100
AcDbLine
 10
-62.749984741210909
 20
163.00003095757822
 30
0.0
 11
-62.749984741210909
 21
160.50003095757822
 31
0.0
  0
LINE
  5
72
100
AcDbEntity
  8
0
  6
CONTINUOUS
 62
               7
100
AcDbLine
 10
-62.249979132445645
 20
160.00003850971962
 30
0.0
 11
-62.749978145949825
 21
160.50003562662332
 31
0.0
  0
LINE
  5
73
100
AcDbEntity
  8
0
  6
CONTINUOUS
 62
               7
100
AcDbLine
 10
32.250014305114775
 20
160.00003095757825
 30
0.0
 11
27.750027656555091
 21
160.00003095757825
 31
0.0
  0
LINE
  5
74
100
AcDbEntity
  8
0
  6
CONTINUOUS
 62
               7
100
AcDbLine
 10
32.750015258788977
 20
160.50003095757822
 30
0.0
 11
32.750015258788977
 21
163.00003095757822
 31
0.0
  0
LINE
  5
75
100
AcDbEntity
  8
0
  6
CONTINUOUS
 62
               7
100
AcDbLine
 10
32.750009801492553
 20
160.50003541588691
 30
0.0
 11
32.250010830134926
 21
160.00003834112991
 31
0.0
  0
LINE
  5
76
100
AcDbEntity
  8
0
  6
CONTINUOUS
 62
               7
100
AcDbLine
 10
32.750014305114775
 20
160.50003191125253
 30
0.0
 11
27.250015258789091
 21
160.50003191125253
 31
0.0
  0
LINE
  5
77
100
AcDbEntity
  8
0
  6
CONTINUOUS
 62
               7
100
AcDbLine
 10
27.250015258789091
 20
163.00003095757822
 30
0.0
 11
27.250015258789091
 21
160.50003095757822
 31
0.0
  0
LINE
  5
78
100
AcDbEntity
  8
0
  6
CONTINUOUS
 62
               7
100
AcDbLine
 10
27.750020867554468
 20
160.00003850971962
 30
0.0
 11
27.250021854050061
 21
160.50003562662332
 31
0.0
  0
CIRCLE
  5
79
100
AcDbEntity
  8
0
  6
CONTINUOUS
 62
               7
100
AcDbCircle
 10
108.00001525878912
 20
181.00000044000009
 30
0.0
 40
2.1500000953674316
  0
CIRCLE
  5
7A
100
AcDbEntity
  8
0
  6
CONTINUOUS
 62
               7
100
AcDbCircle
 10
108.00001525878912
 20
181.00000044000009
 30
0.0
 40
2.0750000476837158
  0
CIRCLE
  5
7B
100
AcDbEntity
  8
0
  6
CONTINUOUS
 62
               7
100
AcDbCircle
 10
108.00001525878912
 20
195.00000044000006
 30
0.0
 40
2.1500000953674316
  0
CIRCLE
  5
7C
100
AcDbEntity
  8
0
  6
CONTINUOUS
 62
               7
100
AcDbCircle
 10
108.00001525878912
 20
195.00000044000006
 30
0.0
 40
2.0750000476837158
  0
ARC
  5
7D
100
AcDbEntity
  8
0
  6
CONTINUOUS
 62
               7
100
AcDbCircle
 10
-166.95024108886764
 20
197.69998212945316
 30
0.0
 40
5.0
100
AcDbArc
 50
90.000002504478161
 51
140.58004632746963
  0
ARC
  5
7E
100
AcDbEntity
  8
0
  6
CONTINUOUS
 62
               7
100
AcDbCircle
 10
-122.49998474121122
 20
185.00000044000009
 30
0.0
 40
50.0
100
AcDbArc
 50
161.77401403899248
 51
191.03970806633964
  0
ARC
  5
7F
100
AcDbEntity
  8
0
  6
CONTINUOUS
 62
               7
100
AcDbCircle
 10
-169.52775573730514
 20
179.00000044000012
 30
0.0
 40
5.9999999999999991
100
AcDbArc
 50
198.4084749552519
 51
269.99999749552182
  0
ARC
  5
80
100
AcDbEntity
  8
0
  6
CONTINUOUS
 62
               7
100
AcDbCircle
 10
-168.63023376464889
 20
176.00000044000009
 30
0.0
 40
2.9999999999999996
100
AcDbArc
 50
191.03971170880533
 51
269.99999749552182
  0
ARC
  5
81
100
AcDbEntity
  8
0
  6
CONTINUOUS
 62
               7
100
AcDbCircle
 10
-151.49998474121134
 20
185.00000044000009
 30
0.0
 40
25.0
100
AcDbArc
 50
140.58004632746963
 51
198.40848497316458
  0
ARC
  5
82
100
AcDbEntity
  8
0
  6
CONTINUOUS
 62
               7
100
AcDbCircle
 10
-167.14201354980514
 20
199.69998212945322
 30
0.0
 40
2.9999999999999996
100
AcDbArc
 50
90.000002504478161
 51
161.77401403899248
  0
ARC
  5
83
100
AcDbEntity
  8
0
  6
CONTINUOUS
 62
               7
100
AcDbCircle
 10
50.000015258789119
 20
44.699982129453019
 30
0.0
 40
1.299999952316284
100
AcDbArc
 50
90.000002504478161
 51
180.00000500895632
  0
ARC
  5
84
100
AcDbEntity
  8
0
  6
CONTINUOUS
 62
               7
100
AcDbCircle
 10
50.000015258789119
 20
35.699982129453019
 30
0.0
 40
1.299999952316284
100
AcDbArc
 50
179.99999499104368
 51
269.99999749552182
  0
ARC
  5
85
100
AcDbEntity
  8
0
  6
CONTINUOUS
 62
               7
100
AcDbCircle
 10
80.000015258789119
 20
35.699982129453019
 30
0.0
 40
1.299999952316284
100
AcDbArc
 50
269.99999749552182
 51
0.0
  0
ARC
  5
86
100
AcDbEntity
  8
0
  6
CONTINUOUS
 62
               7
100
AcDbCircle
 10
80.000015258789119
 20
44.699982129453019
 30
0.0
 40
1.299999952316284
100
AcDbArc
 50
0.0
 51
90.000002504478161
  0
ARC
  5
87
100
AcDbEntity
  8
0
  6
CONTINUOUS
 62
               7
100
AcDbCircle
 10
-96.999984741211108
 20
34.199982129453133
 30
0.0
 40
1.299999952316284
100
AcDbArc
 50
179.99999499104368
 51
269.99999749552182
  0
ARC
  5
88
100
AcDbEntity
  8
0
  6
CONTINUOUS
 62
               7
100
AcDbCircle
 10
-48.999984741210909
 20
34.199982129453133
 30
0.0
 40
1.299999952316284
100
AcDbArc
 50
269.99999749552182
 51
0.0
  0
ARC
  5
89
100
AcDbEntity
  8
0
  6
CONTINUOUS
 62
               7
100
AcDbCircle
 10
-48.999984741210909
 20
46.199982129453076
 30
0.0
 40
1.299999952316284
100
AcDbArc
 50
0.0
 51
90.000002504478161
  0
ARC
  5
8A
100
AcDbEntity
  8
0
  6
CONTINUOUS
 62
               7
100
AcDbCircle
 10
-96.999984741211108
 20
46.199982129453076
 30
0.0
 40
1.299999952316284
100
AcDbArc
 50
90.000002504478161
 51
180.00000500895632
  0
ARC
  5
8B
100
AcDbEntity
  8
0
  6
CONTINUOUS
 62
               7
100
AcDbCircle
 10
50.000015258789119
 20
35.699982129453019
 30
0.0
 40
1.0
100
AcDbArc
 50
179.99999499104368
 51
269.99999749552182
  0
ARC
  5
8C
100
AcDbEntity
  8
0
  6
CONTINUOUS
 62
               7
100
AcDbCircle
 10
80.000015258789119
 20
35.699982129453019
 30
0.0
 40
1.0
100
AcDbArc
 50
269.99999749552182
 51
0.0
  0
ARC
  5
8D
100
AcDbEntity
  8
0
  6
CONTINUOUS
 62
               7
100
AcDbCircle
 10
-48.999984741210909
 20
46.199982129453076
 30
0.0
 40
1.0
100
AcDbArc
 50
0.0
 51
90.000002504478161
  0
ARC
  5
8E
100
AcDbEntity
  8
0
  6
CONTINUOUS
 62
               7
100
AcDbCircle
 10
-96.999984741211108
 20
34.199982129453133
 30
0.0
 40
1.0
100
AcDbArc
 50
179.99999499104368
 51
269.99999749552182
  0
ARC
  5
8F
100
AcDbEntity
  8
0
  6
CONTINUOUS
 62
               7
100
AcDbCircle
 10
-96.999984741211108
 20
46.199982129453076
 30
0.0
 40
1.0
100
AcDbArc
 50
90.000002504478161
 51
180.00000500895632
  0
ARC
  5
90
100
AcDbEntity
  8
0
  6
CONTINUOUS
 62
               7
100
AcDbCircle
 10
-48.999984741210909
 20
34.199982129453133
 30
0.0
 40
1.0
100
AcDbArc
 50
269.99999749552182
 51
0.0
  0
ARC
  5
91
100
AcDbEntity
  8
0
  6
CONTINUOUS
 62
               7
100
AcDbCircle
 10
80.000015258789119
 20
44.699982129453019
 30
0.0
 40
1.0
100
AcDbArc
 50
0.0
 51
90.000002504478161
  0
ARC
  5
92
100
AcDbEntity
  8
0
  6
CONTINUOUS
 62
               7
100
AcDbCircle
 10
50.000015258789119
 20
44.699982129453019
 30
0.0
 40
1.0
100
AcDbArc
 50
90.000002504478161
 51
180.00000500895632
  0
ARC
  5
93
100
AcDbEntity
  8
0
  6
CONTINUOUS
 62
               7
100
AcDbCircle
 10
0.0000152587890909
 20
372.41571088921864
 30
0.0
 40
321.4600830078125
100
AcDbArc
 50
263.53483796893175
 51
276.46516769591074
  0
CIRCLE
  5
94
100
AcDbEntity
  8
0
  6
CONTINUOUS
 62
               7
100
AcDbCircle
 10
-35.999984741211023
 20
19.331940137265519
 30
0.0
 40
2.7000000476837158
  0
CIRCLE
  5
95
100
AcDbEntity
  8
0
  6
CONTINUOUS
 62
               7
100
AcDbCircle
 10
-35.999984741211023
 20
19.331940137265519
 30
0.0
 40
3.2000000476837158
  0
CIRCLE
  5
96
100
AcDbEntity
  8
0
  6
CONTINUOUS
 62
               7
100
AcDbCircle
 10
-45.999984741211023
 20
19.299988232968644
 30
0.0
 40
3.2000000476837158
  0
CIRCLE
  5
97
100
AcDbEntity
  8
0
  6
CONTINUOUS
 62
               7
100
AcDbCircle
 10
-45.999984741211023
 20
19.299988232968644
 30
0.0
 40
2.7000000476837158
  0
ARC
  5
98
100
AcDbEntity
  8
0
  6
CONTINUOUS
 62
               7
100
AcDbCircle
 10
30.000015258789091
 20
48.870331250546769
 30
0.0
 40
6.3296561241149902
100
AcDbArc
 50
70.857290864871885
 51
102.92543199924279
  0
ARC
  5
99
100
AcDbEntity
  8
0
  6
CONTINUOUS
 62
               7
100
AcDbCircle
 10
103.40003967285151
 20
51.399994336484355
 30
0.0
 40
1.6000000238418579
100
AcDbArc
 50
0.0000000000000509
 51
90.000002504478161
  0
ARC
  5
9A
100
AcDbEntity
  8
0
  6
CONTINUOUS
 62
               7
100
AcDbCircle
 10
103.40003967285151
 20
4.7999882329686443
 30
0.0
 40
1.6000000238418579
100
AcDbArc
 50
269.99999749552182
 51
0.0000000000001018
  0
ARC
  5
9B
100
AcDbEntity
  8
0
  6
CONTINUOUS
 62
               7
100
AcDbCircle
 10
-103.40000915527366
 20
51.399994336484355
 30
0.0
 40
1.6000000238418579
100
AcDbArc
 50
90.000002504478161
 51
180.00000500895632
  0
ARC
  5
9C
100
AcDbEntity
  8
0
  6
CONTINUOUS
 62
               7
100
AcDbCircle
 10
-103.40000915527366
 20
4.7999882329686443
 30
0.0
 40
1.6000000238418579
100
AcDbArc
 50
179.99999499104368
 51
269.99999749552182
  0
LINE
  5
9D
100
AcDbEntity
  8
0
  6
CONTINUOUS
 62
               7
100
AcDbLine
 10
104.50001525878901
 20
194.00000044000006
 30
0.0
 11
-164.49998474121139
 21
194.00000044000006
 31
0.0
  0
LINE
  5
9E
100
AcDbEntity
  8
0
  6
CONTINUOUS
 62
               7
100
AcDbLine
 10
182.50001525878798
 20
173.00000044000012
 30
0.0
 11
-168.63023376464889
 21
173.00000044000012
 31
0.0
  0
LINE
  5
9F
100
AcDbEntity
  8
0
  6
CONTINUOUS
 62
               7
100
AcDbLine
 10
105.00001525878912
 20
163.00000044000012
 30
0.0
 11
-104.99998474121122
 21
163.00000044000012
 31
0.0
  0
LINE
  5
A0
100
AcDbEntity
  8
0
  6
CONTINUOUS
 62
               7
100
AcDbLine
 10
-168.49998474121145
 20
187.00000044000015
 30
0.0
 11
-168.49998474121145
 21
186.50000044000012
 31
0.0
  0
LINE
  5
A1
100
AcDbEntity
  8
0
  6
CONTINUOUS
 62
               7
100
AcDbLine
 10
-164.49998474121139
 20
186.50000044000012
 30
0.0
 11
-168.49998474121145
 21
186.50000044000012
 31
0.0
  0
LINE
  5
A2
100
AcDbEntity
  8
0
  6
CONTINUOUS
 62
               7
100
AcDbLine
 10
-164.49998474121139
 20
192.50000044000009
 30
0.0
 11
-168.49998474121145
 21
192.50000044000009
 31
0.0
  0
LINE
  5
A3
100
AcDbEntity
  8
0
  6
CONTINUOUS
 62
               7
100
AcDbLine
 10
-168.49998474121145
 20
192.50000044000009
 30
0.0
 11
-168.49998474121145
 21
192.00000044000015
 31
0.0
  0
LINE
  5
A4
100
AcDbEntity
  8
0
  6
CONTINUOUS
 62
               7
100
AcDbLine
 10
-164.49998474121139
 20
192.00000044000015
 30
0.0
 11
-168.49998474121145
 21
192.00000044000015
 31
0.0
  0
LINE
  5
A5
100
AcDbEntity
  8
0
  6
CONTINUOUS
 62
               7
100
AcDbLine
 10
-164.49998474121139
 20
187.00000044000015
 30
0.0
 11
-168.49998474121145
 21
187.00000044000015
 31
0.0
  0
LINE
  5
A6
100
AcDbEntity
  8
0
  6
CONTINUOUS
 62
               7
100
AcDbLine
 10
-164.49998474121139
 20
202.70001264703134
 30
0.0
 11
-166.95024108886764
 21
202.70001264703134
 31
0.0
  0
LINE
  5
A7
100
AcDbEntity
  8
0
  6
CONTINUOUS
 62
               7
100
AcDbLine
 10
41.500015258789006
 20
198.86450239312506
 30
0.0
 11
-164.49998474121139
 21
198.86450239312506
 31
0.0
  0
LINE
  5
A8
100
AcDbEntity
  8
0
  6
CONTINUOUS
 62
               7
100
AcDbLine
 10
104.50001525878901
 20
205.50000044000009
 30
0.0
 11
104.50001525878901
 21
173.00000044000012
 31
0.0
  0
LINE
  5
A9
100
AcDbEntity
  8
0
  6
CONTINUOUS
 62
               7
100
AcDbLine
 10
104.50001525878901
 20
195.94641157281256
 30
0.0
 11
83.500015258789119
 21
195.94641157281256
 31
0.0
  0
LINE
  5
AA
100
AcDbEntity
  8
0
  6
CONTINUOUS
 62
               7
100
AcDbLine
 10
104.50001525878901
 20
198.86450239312506
 30
0.0
 11
83.500015258789119
 21
198.86450239312506
 31
0.0
  0
LINE
  5
AB
100
AcDbEntity
  8
0
  6
CONTINUOUS
 62
               7
100
AcDbLine
 10
41.500015258789006
 20
201.39999433648444
 30
0.0
 11
-164.49998474121139
 21
201.39999433648444
 31
0.0
  0
LINE
  5
AC
100
AcDbEntity
  8
0
  6
CONTINUOUS
 62
               7
100
AcDbLine
 10
104.50001525878901
 20
201.39999433648444
 30
0.0
 11
83.500015258789119
 21
201.39999433648444
 31
0.0
  0
LINE
  5
AD
100
AcDbEntity
  8
0
  6
CONTINUOUS
 62
               7
100
AcDbLine
 10
-164.49998474121139
 20
202.70001264703134
 30
0.0
 11
-164.49998474121139
 21
173.00000044000012
 31
0.0
  0
LINE
  5
AE
100
AcDbEntity
  8
0
  6
CONTINUOUS
 62
               7
100
AcDbLine
 10
182.50001525878798
 20
205.50000044000009
 30
0.0
 11
104.50001525878901
 21
205.50000044000009
 31
0.0
  0
LINE
  5
AF
100
AcDbEntity
  8
0
  6
CONTINUOUS
 62
               7
100
AcDbLine
 10
182.50001525878798
 20
205.50000044000009
 30
0.0
 11
182.50001525878798
 21
173.00000044000012
 31
0.0
  0
LINE
  5
B0
100
AcDbEntity
  8
0
  6
CONTINUOUS
 62
               7
100
AcDbLine
 10
181.56764221191287
 20
200.32843061578131
 30
0.0
 11
105.24293518066412
 21
200.32843061578131
 31
0.0
  0
LINE
  5
B1
100
AcDbEntity
  8
0
  6
CONTINUOUS
 62
               7
100
AcDbLine
 10
41.500015258789006
 20
195.94641157281256
 30
0.0
 11
-164.49998474121139
 21
195.94641157281256
 31
0.0
  0
LINE
  5
B2
100
AcDbEntity
  8
0
  6
CONTINUOUS
 62
               7
100
AcDbLine
 10
48.700027465820256
 20
35.699982129453019
 30
0.0
 11
48.700027465820256
 21
44.699982129453019
 31
0.0
  0
LINE
  5
B3
100
AcDbEntity
  8
0
  6
CONTINUOUS
 62
               7
100
AcDbLine
 10
80.000015258789119
 20
34.399994336484269
 30
0.0
 11
50.000015258789119
 21
34.399994336484269
 31
0.0
  0
LINE
  5
B4
100
AcDbEntity
  8
0
  6
CONTINUOUS
 62
               7
100
AcDbLine
 10
81.300003051757869
 20
35.699982129453019
 30
0.0
 11
81.300003051757869
 21
44.699982129453019
 31
0.0
  0
LINE
  5
B5
100
AcDbEntity
  8
0
  6
CONTINUOUS
 62
               7
100
AcDbLine
 10
80.000015258789119
 20
45.999969922421769
 30
0.0
 11
50.000015258789119
 21
45.999969922421769
 31
0.0
  0
LINE
  5
B6
100
AcDbEntity
  8
0
  6
CONTINUOUS
 62
               7
100
AcDbLine
 10
-48.999984741210909
 20
32.899994336484269
 30
0.0
 11
-96.999984741211108
 21
32.899994336484269
 31
0.0
  0
LINE
  5
B7
100
AcDbEntity
  8
0
  6
CONTINUOUS
 62
               7
100
AcDbLine
 10
-47.699996948242159
 20
34.199982129453133
 30
0.0
 11
-47.699996948242159
 21
46.199982129453076
 31
0.0
  0
LINE
  5
B8
100
AcDbEntity
  8
0
  6
CONTINUOUS
 62
               7
100
AcDbLine
 10
-48.999984741210909
 20
47.499969922421769
 30
0.0
 11
-96.999984741211108
 21
47.499969922421769
 31
0.0
  0
LINE
  5
B9
100
AcDbEntity
  8
0
  6
CONTINUOUS
 62
               7
100
AcDbLine
 10
-98.299972534179972
 20
34.199982129453133
 30
0.0
 11
-98.299972534179972
 21
46.199982129453076
 31
0.0
  0
LINE
  5
BA
100
AcDbEntity
  8
0
  6
CONTINUOUS
 62
               7
100
AcDbLine
 10
80.000015258789119
 20
34.699982129453019
 30
0.0
 11
50.000015258789119
 21
34.699982129453019
 31
0.0
  0
LINE
  5
BB
100
AcDbEntity
  8
0
  6
CONTINUOUS
 62
               7
100
AcDbLine
 10
80.000015258789119
 20
45.699982129453019
 30
0.0
 11
50.000015258789119
 21
45.699982129453019
 31
0.0
  0
LINE
  5
BC
100
AcDbEntity
  8
0
  6
CONTINUOUS
 62
               7
100
AcDbLine
 10
81.000015258789119
 20
35.699982129453019
 30
0.0
 11
81.000015258789119
 21
44.699982129453019
 31
0.0
  0
LINE
  5
BD
100
AcDbEntity
  8
0
  6
CONTINUOUS
 62
               7
100
AcDbLine
 10
49.000015258789006
 20
35.699982129453019
 30
0.0
 11
49.000015258789006
 21
44.699982129453019
 31
0.0
  0
LINE
  5
BE
100
AcDbEntity
  8
0
  6
CONTINUOUS
 62
               7
100
AcDbLine
 10
-48.999984741210909
 20
47.199982129453019
 30
0.0
 11
-96.999984741211108
 21
47.199982129453019
 31
0.0
  0
LINE
  5
BF
100
AcDbEntity
  8
0
  6
CONTINUOUS
 62
               7
100
AcDbLine
 10
-48.999984741210909
 20
33.199982129453019
 30
0.0
 11
-96.999984741211108
 21
33.199982129453019
 31
0.0
  0
LINE
  5
C0
100
AcDbEntity
  8
0
  6
CONTINUOUS
 62
               7
100
AcDbLine
 10
-97.999984741211222
 20
34.199982129453133
 30
0.0
 11
-97.999984741211222
 21
46.199982129453076
 31
0.0
  0
LINE
  5
C1
100
AcDbEntity
  8
0
  6
CONTINUOUS
 62
               7
100
AcDbLine
 10
-47.999984741210909
 20
34.199982129453133
 30
0.0
 11
-47.999984741210909
 21
46.199982129453076
 31
0.0
  0
LINE
  5
C2
100
AcDbEntity
  8
0
  6
CONTINUOUS
 62
               7
100
AcDbLine
 10
25.000015258789091
 20
56.000000439999866
 30
0.0
 11
-24.999975274395268
 21
56.000000439999866
 31
0.0
  0
LINE
  5
C3
100
AcDbEntity
  8
0
  6
CONTINUOUS
 62
               7
100
AcDbLine
 10
25.000015258789091
 20
62.000000439999951
 30
0.0
 11
25.000015258789091
 21
58.000000439999923
 31
0.0
  0
LINE
  5
C4
100
AcDbEntity
  8
0
  6
CONTINUOUS
 62
               7
100
AcDbLine
 10
25.000015258789091
 20
62.000000439999951
 30
0.0
 11
-24.999984741210909
 21
62.000000439999951
 31
0.0
  0
LINE
  5
C5
100
AcDbEntity
  8
0
  6
CONTINUOUS
 62
               7
100
AcDbLine
 10
14.000015258788977
 20
58.000000439999923
 30
0.0
 11
14.000015258788977
 21
56.000000439999866
 31
0.0
  0
LINE
  5
C6
100
AcDbEntity
  8
0
  6
CONTINUOUS
 62
               7
100
AcDbLine
 10
19.000015258788977
 20
58.000000439999923
 30
0.0
 11
19.000015258788977
 21
56.000000439999866
 31
0.0
  0
LINE
  5
C7
100
AcDbEntity
  8
0
  6
CONTINUOUS
 62
               7
100
AcDbLine
 10
-24.999984741210909
 20
62.000000439999951
 30
0.0
 11
-24.999984741210909
 21
58.000000439999923
 31
0.0
  0
LINE
  5
C8
100
AcDbEntity
  8
0
  6
CONTINUOUS
 62
               7
100
AcDbLine
 10
29.291824340820341
 20
54.850006543515605
 30
0.0
 11
32.075637817382841
 21
54.850006543515605
 31
0.0
  0
LINE
  5
C9
100
AcDbEntity
  8
0
  6
CONTINUOUS
 62
               7
100
AcDbLine
 10
32.075653358510777
 20
54.850002896953839
 30
0.0
 11
32.142479057394354
 21
54.086181661316061
 31
0.0
  0
LINE
  5
CA
100
AcDbEntity
  8
0
  6
CONTINUOUS
 62
               7
100
AcDbLine
 10
92.849990844726619
 20
163.00000044000012
 30
0.0
 11
92.849990844726619
 21
53.000000439999923
 31
0.0
  0
LINE
  5
CB
100
AcDbEntity
  8
0
  6
CONTINUOUS
 62
               7
100
AcDbLine
 10
97.150039672851506
 20
163.00000044000012
 30
0.0
 11
97.150039672851506
 21
53.000000439999923
 31
0.0
  0
LINE
  5
CC
100
AcDbEntity
  8
0
  6
CONTINUOUS
 62
               7
100
AcDbLine
 10
-97.150009155273608
 20
163.00000044000012
 30
0.0
 11
-97.150009155273608
 21
53.000000439999923
 31
0.0
  0
LINE
  5
CD
100
AcDbEntity
  8
0
  6
CONTINUOUS
 62
               7
100
AcDbLine
 10
-92.849960327148722
 20
163.00000044000012
 30
0.0
 11
-92.849960327148722
 21
53.000000439999923
 31
0.0
  0
LINE
  5
CE
100
AcDbEntity
  8
0
  6
CONTINUOUS
 62
               2
100
AcDbLine
 10
30.000015258789091
 20
166.41605887934011
 30
0.0
 11
30.000015258789091
 21
158.63175042807609
 31
0.0
  0
LINE
  5
CF
100
AcDbEntity
  8
0
  6
CONTINUOUS
 62
               2
100
AcDbLine
 10
-59.999984741211023
 20
166.41605887934011
 30
0.0
 11
-59.999984741211023
 21
158.11876567644535
 31
0.0
  0
LINE
  5
D0
100
AcDbEntity
  8
0
  6
CONTINUOUS
 62
               7
100
AcDbLine
 10
-84.999984741211108
 20
163.00000044000012
 30
0.0
 11
-84.999984741211108
 21
53.000000439999923
 31
0.0
  0
LINE
  5
D1
100
AcDbEntity
  8
0
  6
CONTINUOUS
 62
               7
100
AcDbLine
 10
85.000015258789119
 20
163.00000044000012
 30
0.0
 11
85.000015258789119
 21
53.000000439999923
 31
0.0
  0
LINE
  5
D2
100
AcDbEntity
  8
0
  6
CONTINUOUS
 62
               7
100
AcDbLine
 10
105.00001525878912
 20
53.000000439999923
 30
0.0
 11
36.196121215820341
 21
53.000000439999923
 31
0.0
  0
LINE
  5
D3
100
AcDbEntity
  8
0
  6
CONTINUOUS
 62
               7
100
AcDbLine
 10
82.000015258789006
 20
0.0000004399998943
 30
0.0
 11
94.000015258789006
 21
0.0000004399998943
 31
0.0
  0
LINE
  5
D4
100
AcDbEntity
  8
0
  6
CONTINUOUS
 62
               7
100
AcDbLine
 10
82.000015258789006
 20
0.0000004399998943
 30
0.0
 11
82.000015258789006
 21
3.1999821294530193
 31
0.0
  0
LINE
  5
D5
100
AcDbEntity
  8
0
  6
CONTINUOUS
 62
               7
100
AcDbLine
 10
94.000015258789006
 20
0.0000004399998943
 30
0.0
 11
94.000015258789006
 21
3.1999821294530193
 31
0.0
  0
LINE
  5
D6
100
AcDbEntity
  8
0
  6
CONTINUOUS
 62
               7
100
AcDbLine
 10
25.000005791973336
 20
55.999989951135859
 30
0.0
 11
36.196114144162522
 21
53.000001734651107
 31
0.0
  0
LINE
  5
D7
100
AcDbEntity
  8
0
  6
CONTINUOUS
 62
               7
100
AcDbLine
 10
-104.99998474121122
 20
53.000000439999923
 30
0.0
 11
-36.196088458288358
 21
53.000000439999923
 31
0.0
  0
LINE
  5
D8
100
AcDbEntity
  8
0
  6
CONTINUOUS
 62
               2
100
AcDbLine
 10
0.0000152587890909
 20
67.851828681579065
 30
0.0
 11
0.0000152587890909
 21
-2.6515956293360432
 31
0.0
  0
LINE
  5
D9
100
AcDbEntity
  8
0
  6
CONTINUOUS
 62
               7
100
AcDbLine
 10
-104.99998474121122
 20
170.00000044000009
 30
0.0
 11
-104.99998474121122
 21
53.000000439999923
 31
0.0
  0
LINE
  5
DA
100
AcDbEntity
  8
0
  6
CONTINUOUS
 62
               7
100
AcDbLine
 10
103.40003967285151
 20
3.1999821294530193
 30
0.0
 11
80.000039696693477
 21
3.1999821294530193
 31
0.0
  0
LINE
  5
DB
100
AcDbEntity
  8
0
  6
CONTINUOUS
 62
               7
100
AcDbLine
 10
-81.999984741211051
 20
0.0000004399998943
 30
0.0
 11
-93.999984741211108
 21
0.0000004399998943
 31
0.0
  0
LINE
  5
DC
100
AcDbEntity
  8
0
  6
CONTINUOUS
 62
               7
100
AcDbLine
 10
-81.999984741211051
 20
0.0000004399998943
 30
0.0
 11
-81.999984741211051
 21
3.1999821294530193
 31
0.0
  0
LINE
  5
DD
100
AcDbEntity
  8
0
  6
CONTINUOUS
 62
               7
100
AcDbLine
 10
-93.999984741211108
 20
0.0000004399998943
 30
0.0
 11
-93.999984741211108
 21
3.1999821294530193
 31
0.0
  0
LINE
  5
DE
100
AcDbEntity
  8
0
  6
CONTINUOUS
 62
               7
100
AcDbLine
 10
-104.99998474121122
 20
4.7999882329686443
 30
0.0
 11
-104.99998474121122
 21
51.399994336484355
 31
0.0
  0
LINE
  5
DF
100
AcDbEntity
  8
0
  6
CONTINUOUS
 62
               7
100
AcDbLine
 10
106.93935508700929
 20
193.93934026822018
 30
0.0
 11
109.06067543056895
 21
196.06066061177984
 31
0.0
  0
LINE
  5
E0
100
AcDbEntity
  8
0
  6
CONTINUOUS
 62
               7
100
AcDbLine
 10
106.93935508700929
 20
196.06066061177984
 30
0.0
 11
109.06067543056895
 21
193.93934026822018
 31
0.0
  0
LINE
  5
E1
100
AcDbEntity
  8
0
  6
CONTINUOUS
 62
               7
100
AcDbLine
 10
106.93935508700929
 20
179.93934026822021
 30
0.0
 11
109.06067543056895
 21
182.06066061177987
 31
0.0
  0
LINE
  5
E2
100
AcDbEntity
  8
0
  6
CONTINUOUS
 62
               7
100
AcDbLine
 10
106.93935508700929
 20
182.06066061177987
 30
0.0
 11
109.06067543056895
 21
179.93934026822021
 31
0.0
  0
ENDBLK
  5
E3
100
AcDbEntity
  8
0
100
AcDbBlockEnd
  0
BLOCK
  5
E4
100
AcDbEntity
  8
0
100
AcDbBlockBegin
  2
DTRB-AL2-2
 70
               0
 10
0.0
 20
0.0
 30
0.0
  3
DTRB-AL2-2
  1

  0
LINE
  5
E5
100
AcDbEntity
  8
0
  6
CONTINUOUS
 62
               2
100
AcDbLine
 10
283.00001525878935
 20
-4.7200506926361641
 30
0.0
 11
283.00001525878935
 21
7.9540187252038095
 31
0.0
  0
LINE
  5
E6
100
AcDbEntity
  8
0
  6
CONTINUOUS
 62
               7
100
AcDbLine
 10
-3.4000000000000909
 20
143.99998190945317
 30
0.0
 11
-3.4000000000000909
 21
148.9999819094532
 31
0.0
  0
LINE
  5
E7
100
AcDbEntity
  8
0
  6
CONTINUOUS
 62
               7
100
AcDbLine
 10
-5.1000000000000796
 20
143.99998190945317
 30
0.0
 11
-1.8000000000000682
 21
143.99998190945317
 31
0.0
  0
LINE
  5
E8
100
AcDbEntity
  8
0
  6
CONTINUOUS
 62
               7
100
AcDbLine
 10
-5.1000000000000796
 20
148.9999819094532
 30
0.0
 11
-1.8000000000000682
 21
148.9999819094532
 31
0.0
  0
LINE
  5
E9
100
AcDbEntity
  8
0
  6
CONTINUOUS
 62
               7
100
AcDbLine
 10
-1.8000000304660944
 20
140.99998190945314
 30
0.0
 11
-5.1000000423870233
 21
141.58186095154213
 31
0.0
  0
LINE
  5
EA
100
AcDbEntity
  8
0
  6
CONTINUOUS
 62
               7
100
AcDbLine
 10
-1.8000000000000682
 20
130.49998190945311
 30
0.0
 11
-1.8000000000000682
 21
150.99998190945317
 31
0.0
  0
LINE
  5
EB
100
AcDbEntity
  8
0
  6
CONTINUOUS
 62
               7
100
AcDbLine
 10
-5.1000000000000796
 20
141.58186094406818
 30
0.0
 11
-5.1000000000000796
 21
150.99998190945317
 31
0.0
  0
LINE
  5
EC
100
AcDbEntity
  8
0
  6
CONTINUOUS
 62
               7
100
AcDbLine
 10
-5.4999998092652049
 20
138.99998190945311
 30
0.0
 11
-1.8000000000000682
 21
138.99998190945311
 31
0.0
  0
LINE
  5
ED
100
AcDbEntity
  8
0
  6
CONTINUOUS
 62
               7
100
AcDbLine
 10
-5.4999999726122724
 20
138.9999818180639
 30
0.0
 11
-5.7999999606913661
 21
138.48036670347281
 31
0.0
  0
LINE
  5
EE
100
AcDbEntity
  8
0
  6
CONTINUOUS
 62
               7
100
AcDbLine
 10
-5.8000000000001251
 20
138.48036673611327
 30
0.0
 11
-5.8000000000001251
 21
132.51959803646727
 31
0.0
  0
LINE
  5
EF
100
AcDbEntity
  8
0
  6
CONTINUOUS
 62
               7
100
AcDbLine
 10
-5.4999998092652049
 20
138.99998190945311
 30
0.0
 11
-5.4999998092652049
 21
131.99998190945311
 31
0.0
  0
LINE
  5
F0
100
AcDbEntity
  8
0
  6
CONTINUOUS
 62
               7
100
AcDbLine
 10
-5.4999997669608547
 20
131.99998232647485
 30
0.0
 11
-5.7999998861700419
 21
132.51959796130743
 31
0.0
  0
LINE
  5
F1
100
AcDbEntity
  8
0
  6
CONTINUOUS
 62
               7
100
AcDbLine
 10
-5.4999998092652049
 20
131.99998190945311
 30
0.0
 11
-1.8000000000000682
 21
131.99998190945311
 31
0.0
  0
LINE
  5
F2
100
AcDbEntity
  8
0
  6
CONTINUOUS
 62
               2
100
AcDbLine
 10
-6.8981162833119924
 20
135.49998190945311
 30
0.0
 11
2.3990044779185382
 21
135.49998190945311
 31
0.0
  0
LINE
  5
F3
100
AcDbEntity
  8
0
  6
CONTINUOUS
 62
               7
100
AcDbLine
 10
-5.1000000000000796
 20
150.99998190945317
 30
0.0
 11
0.0
 21
150.99998190945317
 31
0.0
  0
LINE
  5
F4
100
AcDbEntity
  8
0
  6
CONTINUOUS
 62
               7
100
AcDbLine
 10
-1.8000000000000682
 20
130.49998190945311
 30
0.0
 11
0.0
 21
130.49998190945311
 31
0.0
  0
LINE
  5
F5
100
AcDbEntity
  8
0
  6
CONTINUOUS
 62
               7
100
AcDbLine
 10
-49.499969482422671
 20
46.49998212945286
 30
0.0
 11
0.0000152587891193
 21
46.49998212945286
 31
0.0
  0
ARC
  5
F6
100
AcDbEntity
  8
0
  6
CONTINUOUS
 62
               7
100
AcDbCircle
 10
14.900015098789538
 20
178.49998779296877
 30
0.0
 40
1.0
100
AcDbArc
 50
180.0
 51
270.0
  0
LINE
  5
F7
100
AcDbEntity
  8
0
  6
CONTINUOUS
 62
               7
100
AcDbLine
 10
18.400015098789481
 20
177.29997948242192
 30
0.0
 11
18.400015098789481
 21
172.99998779296877
 31
0.0
  0
LINE
  5
F8
100
AcDbEntity
  8
0
  6
CONTINUOUS
 62
               7
100
AcDbLine
 10
18.900015098789481
 20
172.99998779296877
 30
0.0
 11
18.900015098789481
 21
177.29997948242192
 31
0.0
  0
ARC
  5
F9
100
AcDbEntity
  8
0
  6
CONTINUOUS
 62
               7
100
AcDbCircle
 10
18.400015098789481
 20
176.9999877929688
 30
0.0
 40
3.4999999999999996
100
AcDbArc
 50
180.0
 51
270.0
  0
LINE
  5
FA
100
AcDbEntity
  8
0
  6
CONTINUOUS
 62
               7
100
AcDbLine
 10
13.900015098789481
 20
191.4999877929688
 30
0.0
 11
13.900015098789481
 21
178.49998779296877
 31
0.0
  0
LINE
  5
FB
100
AcDbEntity
  8
0
  6
CONTINUOUS
 62
               7
100
AcDbLine
 10
17.550015097276969
 20
197.07562624770694
 30
0.0
 11
18.400015103018916
 21
197.14999161198921
 31
0.0
  0
LINE
  5
FC
100
AcDbEntity
  8
0
  6
CONTINUOUS
 62
               7
100
AcDbLine
 10
17.550015097276855
 20
192.92435713119934
 30
0.0
 11
18.400015103018632
 21
192.84999176691704
 31
0.0
  0
LINE
  5
FD
100
AcDbEntity
  8
0
  6
CONTINUOUS
 62
               7
100
AcDbLine
 10
17.55001507494768
 20
192.92435697151186
 30
0.0
 11
17.55001507494768
 21
197.07562640739445
 31
0.0
  0
ARC
  5
FE
100
AcDbEntity
  8
0
  6
CONTINUOUS
 62
               7
100
AcDbCircle
 10
23.529670936802233
 20
194.99999168945294
 30
0.0
 40
6.3296561241149902
100
AcDbArc
 50
160.85729086486964
 51
199.14270731389303
  0
ARC
  5
FF
100
AcDbEntity
  8
0
  6
CONTINUOUS
 62
               7
100
AcDbCircle
 10
18.400015098789481
 20
192.99998779296877
 30
0.0
 40
3.4999999999999996
100
AcDbArc
 50
107.58284247057495
 51
180.0
  0
ARC
  5
100
100
AcDbEntity
  8
0
  6
CONTINUOUS
 62
               7
100
AcDbCircle
 10
21.900015098789538
 20
196.26942162554664
 30
0.0
 40
2.9999999999999996
100
AcDbArc
 50
134.96855723541546
 51
180.0
  0
ARC
  5
101
100
AcDbEntity
  8
0
  6
CONTINUOUS
 62
               7
100
AcDbCircle
 10
21.900015098789538
 20
196.26942162554673
 30
0.0
 40
3.4999999999999996
100
AcDbArc
 50
134.9685572354158
 51
179.99999999999997
  0
LINE
  5
102
100
AcDbEntity
  8
0
  6
CONTINUOUS
 62
               7
100
AcDbLine
 10
18.900015098789481
 20
190.70000389648442
 30
0.0
 11
18.900015098789481
 21
196.26942162554664
 31
0.0
  0
LINE
  5
103
100
AcDbEntity
  8
0
  6
CONTINUOUS
 62
               7
100
AcDbLine
 10
21.004202979518141
 20
200.32162555577298
 30
0.0
 11
19.426499897867473
 21
198.7456531475994
 31
0.0
  0
LINE
  5
104
100
AcDbEntity
  8
0
  6
CONTINUOUS
 62
               7
100
AcDbLine
 10
21.004202979518141
 20
199.61490650126817
 30
0.0
 11
19.779859212284919
 21
198.39190578730609
 31
0.0
  0
ARC
  5
105
100
AcDbEntity
  8
0
  6
CONTINUOUS
 62
               7
100
AcDbCircle
 10
14.900015098789538
 20
191.4999877929688
 30
0.0
 40
1.0
100
AcDbArc
 50
90.0
 51
180.0
  0
LINE
  5
106
100
AcDbEntity
  8
0
  6
CONTINUOUS
 62
               7
100
AcDbLine
 10
14.900015098789538
 20
176.9999877929688
 30
0.0
 11
14.900015098789538
 21
192.99998779296877
 31
0.0
  0
LINE
  5
107
100
AcDbEntity
  8
0
  6
CONTINUOUS
 62
               7
100
AcDbLine
 10
18.400015098789481
 20
197.14999161198921
 30
0.0
 11
18.400015098789481
 21
190.70000389648442
 31
0.0
  0
LINE
  5
108
100
AcDbEntity
  8
0
  6
CONTINUOUS
 62
               7
100
AcDbLine
 10
60.000015098789618
 20
169.99998168945322
 30
0.0
 11
20.000015098789504
 21
169.99998168945322
 31
0.0
  0
CIRCLE
  5
109
100
AcDbEntity
  8
0
  6
CONTINUOUS
 62
               7
100
AcDbCircle
 10
6.0000152587891762
 20
11.799988232968531
 30
0.0
 40
3.0350000858306885
  0
CIRCLE
  5
10A
100
AcDbEntity
  8
0
  6
CONTINUOUS
 62
               7
100
AcDbCircle
 10
6.0000152587891762
 20
11.799988232968531
 30
0.0
 40
3.1500000953674316
  0
CIRCLE
  5
10B
100
AcDbEntity
  8
0
  6
CONTINUOUS
 62
               7
100
AcDbCircle
 10
20.000015258789119
 20
19.799988232968531
 30
0.0
 40
1.1499999999999999
  0
CIRCLE
  5
10C
100
AcDbEntity
  8
0
  6
CONTINUOUS
 62
               7
100
AcDbCircle
 10
20.000015258789119
 20
19.799988232968531
 30
0.0
 40
1.5
  0
CIRCLE
  5
10D
100
AcDbEntity
  8
0
  6
CONTINUOUS
 62
               7
100
AcDbCircle
 10
20.000015258789119
 20
19.799988232968531
 30
0.0
 40
3.0
  0
CIRCLE
  5
10E
100
AcDbEntity
  8
0
  6
CONTINUOUS
 62
               7
100
AcDbCircle
 10
60.000015258789119
 20
19.799988232968531
 30
0.0
 40
3.0
  0
CIRCLE
  5
10F
100
AcDbEntity
  8
0
  6
CONTINUOUS
 62
               7
100
AcDbCircle
 10
60.000015258789119
 20
19.799988232968531
 30
0.0
 40
1.5
  0
CIRCLE
  5
110
100
AcDbEntity
  8
0
  6
CONTINUOUS
 62
               7
100
AcDbCircle
 10
60.000015258789119
 20
19.799988232968531
 30
0.0
 40
1.1499999999999999
  0
ARC
  5
111
100
AcDbEntity
  8
0
  6
CONTINUOUS
 62
               7
100
AcDbCircle
 10
148.95001220703131
 20
44.799988232968531
 30
0.0
 40
1.0499999523162844
100
AcDbArc
 50
269.99999749552182
 51
90.000002504478161
  0
ARC
  5
112
100
AcDbEntity
  8
0
  6
CONTINUOUS
 62
               7
100
AcDbCircle
 10
141.05000305175787
 20
44.799988232968531
 30
0.0
 40
1.0499999523162844
100
AcDbArc
 50
90.000002504478161
 51
270.00000068324533
  0
ARC
  5
113
100
AcDbEntity
  8
0
  6
CONTINUOUS
 62
               7
100
AcDbCircle
 10
133.95002746582043
 20
44.799988232968531
 30
0.0
 40
1.0499999523162844
100
AcDbArc
 50
269.99999749552182
 51
90.000002504478161
  0
ARC
  5
114
100
AcDbEntity
  8
0
  6
CONTINUOUS
 62
               7
100
AcDbCircle
 10
126.05000305175787
 20
44.799988232968531
 30
0.0
 40
1.0499999523162844
100
AcDbArc
 50
90.000002504478161
 51
270.00000068324533
  0
ARC
  5
115
100
AcDbEntity
  8
0
  6
CONTINUOUS
 62
               7
100
AcDbCircle
 10
118.95002746582043
 20
44.799988232968531
 30
0.0
 40
1.0499999523162844
100
AcDbArc
 50
269.99999749552182
 51
90.000002504478161
  0
ARC
  5
116
100
AcDbEntity
  8
0
  6
CONTINUOUS
 62
               7
100
AcDbCircle
 10
111.05000305175787
 20
44.799988232968531
 30
0.0
 40
1.0499999523162844
100
AcDbArc
 50
90.000002504478161
 51
270.00000068324533
  0
ARC
  5
117
100
AcDbEntity
  8
0
  6
CONTINUOUS
 62
               7
100
AcDbCircle
 10
96.050003051757898
 20
44.799988232968531
 30
0.0
 40
1.0499999523162844
100
AcDbArc
 50
90.000002504478161
 51
270.00000068324533
  0
ARC
  5
118
100
AcDbEntity
  8
0
  6
CONTINUOUS
 62
               7
100
AcDbCircle
 10
103.95002746582043
 20
44.799988232968531
 30
0.0
 40
1.0499999523162844
100
AcDbArc
 50
269.99999749552182
 51
90.000002504478161
  0
ARC
  5
119
100
AcDbEntity
  8
0
  6
CONTINUOUS
 62
               7
100
AcDbCircle
 10
111.45002746582043
 20
39.799988232968531
 30
0.0
 40
1.0499999523162844
100
AcDbArc
 50
269.99999749552182
 51
90.000002504478161
  0
ARC
  5
11A
100
AcDbEntity
  8
0
  6
CONTINUOUS
 62
               7
100
AcDbCircle
 10
103.55000305175787
 20
39.799988232968531
 30
0.0
 40
1.0499999523162844
100
AcDbArc
 50
90.000002504478161
 51
270.00000068324533
  0
ARC
  5
11B
100
AcDbEntity
  8
0
  6
CONTINUOUS
 62
               7
100
AcDbCircle
 10
126.45002746582043
 20
39.799988232968531
 30
0.0
 40
1.0499999523162844
100
AcDbArc
 50
269.99999749552182
 51
90.000002504478161
  0
ARC
  5
11C
100
AcDbEntity
  8
0
  6
CONTINUOUS
 62
               7
100
AcDbCircle
 10
118.55000305175787
 20
39.799988232968531
 30
0.0
 40
1.0499999523162844
100
AcDbArc
 50
90.000002504478161
 51
270.00000068324533
  0
ARC
  5
11D
100
AcDbEntity
  8
0
  6
CONTINUOUS
 62
               7
100
AcDbCircle
 10
141.45002746582043
 20
39.799988232968531
 30
0.0
 40
1.0499999523162844
100
AcDbArc
 50
269.99999749552182
 51
90.000002504478161
  0
ARC
  5
11E
100
AcDbEntity
  8
0
  6
CONTINUOUS
 62
               7
100
AcDbCircle
 10
133.5500030517579
 20
39.799988232968531
 30
0.0
 40
1.0499999523162844
100
AcDbArc
 50
90.000002504478161
 51
270.00000068324533
  0
ARC
  5
11F
100
AcDbEntity
  8
0
  6
CONTINUOUS
 62
               7
100
AcDbCircle
 10
148.85081481933608
 20
34.799988232968531
 30
0.0
 40
1.0499999523162844
100
AcDbArc
 50
269.99999749552182
 51
90.000002504478161
  0
ARC
  5
120
100
AcDbEntity
  8
0
  6
CONTINUOUS
 62
               7
100
AcDbCircle
 10
140.95082092285162
 20
34.799988232968531
 30
0.0
 40
1.0499999523162844
100
AcDbArc
 50
90.000002504478161
 51
270.00000068324533
  0
ARC
  5
121
100
AcDbEntity
  8
0
  6
CONTINUOUS
 62
               7
100
AcDbCircle
 10
133.95002746582043
 20
34.799988232968531
 30
0.0
 40
1.0499999523162844
100
AcDbArc
 50
269.99999749552182
 51
90.000002504478161
  0
ARC
  5
122
100
AcDbEntity
  8
0
  6
CONTINUOUS
 62
               7
100
AcDbCircle
 10
126.05000305175787
 20
34.799988232968531
 30
0.0
 40
1.0499999523162844
100
AcDbArc
 50
90.000002504478161
 51
270.00000068324533
  0
ARC
  5
123
100
AcDbEntity
  8
0
  6
CONTINUOUS
 62
               7
100
AcDbCircle
 10
118.95002746582043
 20
34.799988232968531
 30
0.0
 40
1.0499999523162844
100
AcDbArc
 50
269.99999749552182
 51
90.000002504478161
  0
ARC
  5
124
100
AcDbEntity
  8
0
  6
CONTINUOUS
 62
               7
100
AcDbCircle
 10
111.05000305175787
 20
34.799988232968531
 30
0.0
 40
1.0499999523162844
100
AcDbArc
 50
90.000002504478161
 51
270.00000068324533
  0
ARC
  5
125
100
AcDbEntity
  8
0
  6
CONTINUOUS
 62
               7
100
AcDbCircle
 10
96.050003051757898
 20
34.799988232968531
 30
0.0
 40
1.0499999523162844
100
AcDbArc
 50
90.000002504478161
 51
270.00000068324533
  0
ARC
  5
126
100
AcDbEntity
  8
0
  6
CONTINUOUS
 62
               7
100
AcDbCircle
 10
103.95002746582043
 20
34.799988232968531
 30
0.0
 40
1.0499999523162844
100
AcDbArc
 50
269.99999749552182
 51
90.000002504478161
  0
ARC
  5
127
100
AcDbEntity
  8
0
  6
CONTINUOUS
 62
               7
100
AcDbCircle
 10
111.45002746582043
 20
29.799988232968531
 30
0.0
 40
1.0499999523162844
100
AcDbArc
 50
269.99999749552182
 51
90.000002504478161
  0
ARC
  5
128
100
AcDbEntity
  8
0
  6
CONTINUOUS
 62
               7
100
AcDbCircle
 10
103.55000305175787
 20
29.799988232968531
 30
0.0
 40
1.0499999523162844
100
AcDbArc
 50
90.000002504478161
 51
270.00000068324533
  0
ARC
  5
129
100
AcDbEntity
  8
0
  6
CONTINUOUS
 62
               7
100
AcDbCircle
 10
118.55000305175787
 20
29.799988232968531
 30
0.0
 40
1.0499999523162844
100
AcDbArc
 50
90.000002504478161
 51
270.00000068324533
  0
ARC
  5
12A
100
AcDbEntity
  8
0
  6
CONTINUOUS
 62
               7
100
AcDbCircle
 10
126.45002746582043
 20
29.799988232968531
 30
0.0
 40
1.0499999523162844
100
AcDbArc
 50
269.99999749552182
 51
90.000002504478161
  0
ARC
  5
12B
100
AcDbEntity
  8
0
  6
CONTINUOUS
 62
               7
100
AcDbCircle
 10
133.5500030517579
 20
29.567841016171712
 30
0.0
 40
1.0499999523162844
100
AcDbArc
 50
90.000002504478161
 51
270.00000068324533
  0
ARC
  5
12C
100
AcDbEntity
  8
0
  6
CONTINUOUS
 62
               7
100
AcDbCircle
 10
141.45002746582043
 20
29.567841016171712
 30
0.0
 40
1.0499999523162844
100
AcDbArc
 50
269.99999749552182
 51
90.000002504478161
  0
ARC
  5
12D
100
AcDbEntity
  8
0
  6
CONTINUOUS
 62
               7
100
AcDbCircle
 10
148.95001220703131
 20
24.799988232968531
 30
0.0
 40
1.0499999523162844
100
AcDbArc
 50
269.99999749552182
 51
90.000002504478161
  0
ARC
  5
12E
100
AcDbEntity
  8
0
  6
CONTINUOUS
 62
               7
100
AcDbCircle
 10
141.05000305175787
 20
24.799988232968531
 30
0.0
 40
1.0499999523162844
100
AcDbArc
 50
90.000002504478161
 51
270.00000068324533
  0
ARC
  5
12F
100
AcDbEntity
  8
0
  6
CONTINUOUS
 62
               7
100
AcDbCircle
 10
133.95002746582043
 20
24.799988232968531
 30
0.0
 40
1.0499999523162844
100
AcDbArc
 50
269.99999749552182
 51
90.000002504478161
  0
ARC
  5
130
100
AcDbEntity
  8
0
  6
CONTINUOUS
 62
               7
100
AcDbCircle
 10
126.05000305175787
 20
24.799988232968531
 30
0.0
 40
1.0499999523162844
100
AcDbArc
 50
90.000002504478161
 51
270.00000068324533
  0
ARC
  5
131
100
AcDbEntity
  8
0
  6
CONTINUOUS
 62
               7
100
AcDbCircle
 10
118.95002746582043
 20
24.799988232968531
 30
0.0
 40
1.0499999523162844
100
AcDbArc
 50
269.99999749552182
 51
90.000002504478161
  0
ARC
  5
132
100
AcDbEntity
  8
0
  6
CONTINUOUS
 62
               7
100
AcDbCircle
 10
111.05000305175787
 20
24.799988232968531
 30
0.0
 40
1.0499999523162844
100
AcDbArc
 50
90.000002504478161
 51
270.00000068324533
  0
ARC
  5
133
100
AcDbEntity
  8
0
  6
CONTINUOUS
 62
               7
100
AcDbCircle
 10
103.95002746582043
 20
24.799988232968531
 30
0.0
 40
1.0499999523162844
100
AcDbArc
 50
269.99999749552182
 51
90.000002504478161
  0
ARC
  5
134
100
AcDbEntity
  8
0
  6
CONTINUOUS
 62
               7
100
AcDbCircle
 10
96.050003051757898
 20
24.799988232968531
 30
0.0
 40
1.0499999523162844
100
AcDbArc
 50
90.000002504478161
 51
270.00000068324533
  0
LINE
  5
135
100
AcDbEntity
  8
0
  6
CONTINUOUS
 62
               7
100
AcDbLine
 10
141.05000305175787
 20
43.749985181210775
 30
0.0
 11
148.95001220703131
 21
43.749985181210775
 31
0.0
  0
LINE
  5
136
100
AcDbEntity
  8
0
  6
CONTINUOUS
 62
               7
100
AcDbLine
 10
141.05000305175787
 20
45.849991284726343
 30
0.0
 11
148.95001220703131
 21
45.849991284726343
 31
0.0
  0
LINE
  5
137
100
AcDbEntity
  8
0
  6
CONTINUOUS
 62
               7
100
AcDbLine
 10
126.05000305175787
 20
45.849991284726343
 30
0.0
 11
133.95002746582043
 21
45.849991284726343
 31
0.0
  0
LINE
  5
138
100
AcDbEntity
  8
0
  6
CONTINUOUS
 62
               7
100
AcDbLine
 10
126.05000305175787
 20
43.749985181210775
 30
0.0
 11
133.95002746582043
 21
43.749985181210775
 31
0.0
  0
LINE
  5
139
100
AcDbEntity
  8
0
  6
CONTINUOUS
 62
               7
100
AcDbLine
 10
111.05000305175787
 20
43.749985181210775
 30
0.0
 11
118.95002746582043
 21
43.749985181210775
 31
0.0
  0
LINE
  5
13A
100
AcDbEntity
  8
0
  6
CONTINUOUS
 62
               7
100
AcDbLine
 10
111.05000305175787
 20
45.849991284726343
 30
0.0
 11
118.95002746582043
 21
45.849991284726343
 31
0.0
  0
LINE
  5
13B
100
AcDbEntity
  8
0
  6
CONTINUOUS
 62
               7
100
AcDbLine
 10
96.050003051757898
 20
45.849991284726343
 30
0.0
 11
103.95002746582043
 21
45.849991284726343
 31
0.0
  0
LINE
  5
13C
100
AcDbEntity
  8
0
  6
CONTINUOUS
 62
               7
100
AcDbLine
 10
96.050003051757898
 20
43.749985181210775
 30
0.0
 11
103.95002746582043
 21
43.749985181210775
 31
0.0
  0
LINE
  5
13D
100
AcDbEntity
  8
0
  6
CONTINUOUS
 62
               7
100
AcDbLine
 10
103.55000305175787
 20
38.749985181210775
 30
0.0
 11
111.45002746582043
 21
38.749985181210775
 31
0.0
  0
LINE
  5
13E
100
AcDbEntity
  8
0
  6
CONTINUOUS
 62
               7
100
AcDbLine
 10
103.55000305175787
 20
40.849991284726343
 30
0.0
 11
111.45002746582043
 21
40.849991284726343
 31
0.0
  0
LINE
  5
13F
100
AcDbEntity
  8
0
  6
CONTINUOUS
 62
               7
100
AcDbLine
 10
118.55000305175787
 20
38.749985181210775
 30
0.0
 11
126.45002746582043
 21
38.749985181210775
 31
0.0
  0
LINE
  5
140
100
AcDbEntity
  8
0
  6
CONTINUOUS
 62
               7
100
AcDbLine
 10
118.55000305175787
 20
40.849991284726343
 30
0.0
 11
126.45002746582043
 21
40.849991284726343
 31
0.0
  0
LINE
  5
141
100
AcDbEntity
  8
0
  6
CONTINUOUS
 62
               7
100
AcDbLine
 10
133.5500030517579
 20
40.849991284726343
 30
0.0
 11
141.45002746582043
 21
40.849991284726343
 31
0.0
  0
LINE
  5
142
100
AcDbEntity
  8
0
  6
CONTINUOUS
 62
               7
100
AcDbLine
 10
133.5500030517579
 20
38.749985181210775
 30
0.0
 11
141.45002746582043
 21
38.749985181210775
 31
0.0
  0
LINE
  5
143
100
AcDbEntity
  8
0
  6
CONTINUOUS
 62
               7
100
AcDbLine
 10
140.95082092285162
 20
33.749985181210775
 30
0.0
 11
148.85081481933608
 21
33.749985181210775
 31
0.0
  0
LINE
  5
144
100
AcDbEntity
  8
0
  6
CONTINUOUS
 62
               7
100
AcDbLine
 10
140.95082092285162
 20
35.849991284726343
 30
0.0
 11
148.85081481933608
 21
35.849991284726343
 31
0.0
  0
LINE
  5
145
100
AcDbEntity
  8
0
  6
CONTINUOUS
 62
               7
100
AcDbLine
 10
126.05000305175787
 20
35.849991284726343
 30
0.0
 11
133.95002746582043
 21
35.849991284726343
 31
0.0
  0
LINE
  5
146
100
AcDbEntity
  8
0
  6
CONTINUOUS
 62
               7
100
AcDbLine
 10
126.05000305175787
 20
33.749985181210775
 30
0.0
 11
133.95002746582043
 21
33.749985181210775
 31
0.0
  0
LINE
  5
147
100
AcDbEntity
  8
0
  6
CONTINUOUS
 62
               7
100
AcDbLine
 10
111.05000305175787
 20
33.749985181210775
 30
0.0
 11
118.95002746582043
 21
33.749985181210775
 31
0.0
  0
LINE
  5
148
100
AcDbEntity
  8
0
  6
CONTINUOUS
 62
               7
100
AcDbLine
 10
111.05000305175787
 20
35.849991284726343
 30
0.0
 11
118.95002746582043
 21
35.849991284726343
 31
0.0
  0
LINE
  5
149
100
AcDbEntity
  8
0
  6
CONTINUOUS
 62
               7
100
AcDbLine
 10
96.050003051757898
 20
33.749985181210775
 30
0.0
 11
103.95002746582043
 21
33.749985181210775
 31
0.0
  0
LINE
  5
14A
100
AcDbEntity
  8
0
  6
CONTINUOUS
 62
               7
100
AcDbLine
 10
96.050003051757898
 20
35.849991284726343
 30
0.0
 11
103.95002746582043
 21
35.849991284726343
 31
0.0
  0
LINE
  5
14B
100
AcDbEntity
  8
0
  6
CONTINUOUS
 62
               7
100
AcDbLine
 10
103.55000305175787
 20
30.849991284726343
 30
0.0
 11
111.45002746582043
 21
30.849991284726343
 31
0.0
  0
LINE
  5
14C
100
AcDbEntity
  8
0
  6
CONTINUOUS
 62
               7
100
AcDbLine
 10
103.55000305175787
 20
28.749985181210775
 30
0.0
 11
111.45002746582043
 21
28.749985181210775
 31
0.0
  0
LINE
  5
14D
100
AcDbEntity
  8
0
  6
CONTINUOUS
 62
               7
100
AcDbLine
 10
118.55000305175787
 20
30.849991284726343
 30
0.0
 11
126.45002746582043
 21
30.849991284726343
 31
0.0
  0
LINE
  5
14E
100
AcDbEntity
  8
0
  6
CONTINUOUS
 62
               7
100
AcDbLine
 10
118.55000305175787
 20
28.749985181210775
 30
0.0
 11
126.45002746582043
 21
28.749985181210775
 31
0.0
  0
LINE
  5
14F
100
AcDbEntity
  8
0
  6
CONTINUOUS
 62
               7
100
AcDbLine
 10
133.5500030517579
 20
28.517837964413843
 30
0.0
 11
141.45002746582043
 21
28.517837964413843
 31
0.0
  0
LINE
  5
150
100
AcDbEntity
  8
0
  6
CONTINUOUS
 62
               7
100
AcDbLine
 10
133.5500030517579
 20
30.617828809140406
 30
0.0
 11
141.45002746582043
 21
30.617828809140406
 31
0.0
  0
LINE
  5
151
100
AcDbEntity
  8
0
  6
CONTINUOUS
 62
               7
100
AcDbLine
 10
141.05000305175787
 20
25.849991284726343
 30
0.0
 11
148.95001220703131
 21
25.849991284726343
 31
0.0
  0
LINE
  5
152
100
AcDbEntity
  8
0
  6
CONTINUOUS
 62
               7
100
AcDbLine
 10
141.05000305175787
 20
23.749985181210775
 30
0.0
 11
148.95001220703131
 21
23.749985181210775
 31
0.0
  0
LINE
  5
153
100
AcDbEntity
  8
0
  6
CONTINUOUS
 62
               7
100
AcDbLine
 10
126.05000305175787
 20
25.849991284726343
 30
0.0
 11
133.95002746582043
 21
25.849991284726343
 31
0.0
  0
LINE
  5
154
100
AcDbEntity
  8
0
  6
CONTINUOUS
 62
               7
100
AcDbLine
 10
126.05000305175787
 20
23.749985181210775
 30
0.0
 11
133.95002746582043
 21
23.749985181210775
 31
0.0
  0
LINE
  5
155
100
AcDbEntity
  8
0
  6
CONTINUOUS
 62
               7
100
AcDbLine
 10
111.05000305175787
 20
23.749985181210775
 30
0.0
 11
118.95002746582043
 21
23.749985181210775
 31
0.0
  0
LINE
  5
156
100
AcDbEntity
  8
0
  6
CONTINUOUS
 62
               7
100
AcDbLine
 10
111.05000305175787
 20
25.849991284726343
 30
0.0
 11
118.95002746582043
 21
25.849991284726343
 31
0.0
  0
LINE
  5
157
100
AcDbEntity
  8
0
  6
CONTINUOUS
 62
               7
100
AcDbLine
 10
96.050003051757898
 20
23.749985181210775
 30
0.0
 11
103.95002746582043
 21
23.749985181210775
 31
0.0
  0
LINE
  5
158
100
AcDbEntity
  8
0
  6
CONTINUOUS
 62
               7
100
AcDbLine
 10
96.050003051757898
 20
25.849991284726343
 30
0.0
 11
103.95002746582043
 21
25.849991284726343
 31
0.0
  0
LINE
  5
159
100
AcDbEntity
  8
0
  6
CONTINUOUS
 62
               7
100
AcDbLine
 10
148.55000305175787
 20
38.749985181210775
 30
0.0
 11
156.45002746582043
 21
38.749985181210775
 31
0.0
  0
LINE
  5
15A
100
AcDbEntity
  8
0
  6
CONTINUOUS
 62
               7
100
AcDbLine
 10
148.55000305175787
 20
40.849991284726343
 30
0.0
 11
156.45002746582043
 21
40.849991284726343
 31
0.0
  0
LINE
  5
15B
100
AcDbEntity
  8
0
  6
CONTINUOUS
 62
               7
100
AcDbLine
 10
148.55000305175787
 20
30.849991284726343
 30
0.0
 11
156.45002746582043
 21
30.849991284726343
 31
0.0
  0
LINE
  5
15C
100
AcDbEntity
  8
0
  6
CONTINUOUS
 62
               7
100
AcDbLine
 10
148.55000305175787
 20
28.749985181210775
 30
0.0
 11
156.45002746582043
 21
28.749985181210775
 31
0.0
  0
ARC
  5
15D
100
AcDbEntity
  8
0
  6
CONTINUOUS
 62
               7
100
AcDbCircle
 10
193.95002746582037
 20
24.799988232968531
 30
0.0
 40
1.0499999523162844
100
AcDbArc
 50
269.99999749552182
 51
90.000002504478161
  0
ARC
  5
15E
100
AcDbEntity
  8
0
  6
CONTINUOUS
 62
               7
100
AcDbCircle
 10
193.95002746582037
 20
34.799988232968531
 30
0.0
 40
1.0499999523162844
100
AcDbArc
 50
269.99999749552182
 51
90.000002504478161
  0
ARC
  5
15F
100
AcDbEntity
  8
0
  6
CONTINUOUS
 62
               7
100
AcDbCircle
 10
178.55000305175787
 20
29.799988232968531
 30
0.0
 40
1.0499999523162844
100
AcDbArc
 50
90.000002504478161
 51
270.00000068324533
  0
ARC
  5
160
100
AcDbEntity
  8
0
  6
CONTINUOUS
 62
               7
100
AcDbCircle
 10
178.55000305175787
 20
39.799988232968531
 30
0.0
 40
1.0499999523162844
100
AcDbArc
 50
90.000002504478161
 51
270.00000068324533
  0
ARC
  5
161
100
AcDbEntity
  8
0
  6
CONTINUOUS
 62
               7
100
AcDbCircle
 10
193.95002746582037
 20
44.799988232968531
 30
0.0
 40
1.0499999523162844
100
AcDbArc
 50
269.99999749552182
 51
90.000002504478161
  0
ARC
  5
162
100
AcDbEntity
  8
0
  6
CONTINUOUS
 62
               7
100
AcDbCircle
 10
186.05000305175793
 20
44.799988232968531
 30
0.0
 40
1.0499999523162844
100
AcDbArc
 50
90.000002504478161
 51
270.00000068324533
  0
ARC
  5
163
100
AcDbEntity
  8
0
  6
CONTINUOUS
 62
               7
100
AcDbCircle
 10
186.45002746582037
 20
39.799988232968531
 30
0.0
 40
1.0499999523162844
100
AcDbArc
 50
269.99999749552182
 51
90.000002504478161
  0
ARC
  5
164
100
AcDbEntity
  8
0
  6
CONTINUOUS
 62
               7
100
AcDbCircle
 10
186.05000305175793
 20
34.799988232968531
 30
0.0
 40
1.0499999523162844
100
AcDbArc
 50
90.000002504478161
 51
270.00000068324533
  0
ARC
  5
165
100
AcDbEntity
  8
0
  6
CONTINUOUS
 62
               7
100
AcDbCircle
 10
186.45002746582037
 20
29.799988232968531
 30
0.0
 40
1.0499999523162844
100
AcDbArc
 50
269.99999749552182
 51
90.000002504478161
  0
ARC
  5
166
100
AcDbEntity
  8
0
  6
CONTINUOUS
 62
               7
100
AcDbCircle
 10
186.05000305175793
 20
24.799988232968531
 30
0.0
 40
1.0499999523162844
100
AcDbArc
 50
90.000002504478161
 51
270.00000068324533
  0
LINE
  5
167
100
AcDbEntity
  8
0
  6
CONTINUOUS
 62
               7
100
AcDbLine
 10
186.05000305175793
 20
25.849991284726343
 30
0.0
 11
193.95002746582037
 21
25.849991284726343
 31
0.0
  0
LINE
  5
168
100
AcDbEntity
  8
0
  6
CONTINUOUS
 62
               7
100
AcDbLine
 10
186.05000305175793
 20
23.749985181210775
 30
0.0
 11
193.95002746582037
 21
23.749985181210775
 31
0.0
  0
LINE
  5
169
100
AcDbEntity
  8
0
  6
CONTINUOUS
 62
               7
100
AcDbLine
 10
178.55000305175787
 20
28.749985181210775
 30
0.0
 11
186.45002746582037
 21
28.749985181210775
 31
0.0
  0
LINE
  5
16A
100
AcDbEntity
  8
0
  6
CONTINUOUS
 62
               7
100
AcDbLine
 10
178.55000305175787
 20
30.849991284726343
 30
0.0
 11
186.45002746582037
 21
30.849991284726343
 31
0.0
  0
LINE
  5
16B
100
AcDbEntity
  8
0
  6
CONTINUOUS
 62
               7
100
AcDbLine
 10
186.05000305175793
 20
35.849991284726343
 30
0.0
 11
193.95002746582037
 21
35.849991284726343
 31
0.0
  0
LINE
  5
16C
100
AcDbEntity
  8
0
  6
CONTINUOUS
 62
               7
100
AcDbLine
 10
186.05000305175793
 20
33.749985181210775
 30
0.0
 11
193.95002746582037
 21
33.749985181210775
 31
0.0
  0
LINE
  5
16D
100
AcDbEntity
  8
0
  6
CONTINUOUS
 62
               7
100
AcDbLine
 10
178.55000305175787
 20
40.849991284726343
 30
0.0
 11
186.45002746582037
 21
40.849991284726343
 31
0.0
  0
LINE
  5
16E
100
AcDbEntity
  8
0
  6
CONTINUOUS
 62
               7
100
AcDbLine
 10
178.55000305175787
 20
38.749985181210775
 30
0.0
 11
186.45002746582037
 21
38.749985181210775
 31
0.0
  0
LINE
  5
16F
100
AcDbEntity
  8
0
  6
CONTINUOUS
 62
               7
100
AcDbLine
 10
186.05000305175793
 20
45.849991284726343
 30
0.0
 11
193.95002746582037
 21
45.849991284726343
 31
0.0
  0
LINE
  5
170
100
AcDbEntity
  8
0
  6
CONTINUOUS
 62
               7
100
AcDbLine
 10
186.05000305175793
 20
43.749985181210775
 30
0.0
 11
193.95002746582037
 21
43.749985181210775
 31
0.0
  0
ARC
  5
171
100
AcDbEntity
  8
0
  6
CONTINUOUS
 62
               7
100
AcDbCircle
 10
178.95002746582043
 20
24.799988232968531
 30
0.0
 40
1.0499999523162844
100
AcDbArc
 50
269.99999749552182
 51
90.000002504478161
  0
ARC
  5
172
100
AcDbEntity
  8
0
  6
CONTINUOUS
 62
               7
100
AcDbCircle
 10
178.95002746582043
 20
34.799988232968531
 30
0.0
 40
1.0499999523162844
100
AcDbArc
 50
269.99999749552182
 51
90.000002504478161
  0
ARC
  5
173
100
AcDbEntity
  8
0
  6
CONTINUOUS
 62
               7
100
AcDbCircle
 10
163.55000305175787
 20
29.799988232968531
 30
0.0
 40
1.0499999523162844
100
AcDbArc
 50
90.000002504478161
 51
270.00000068324533
  0
ARC
  5
174
100
AcDbEntity
  8
0
  6
CONTINUOUS
 62
               7
100
AcDbCircle
 10
163.55000305175787
 20
39.799988232968531
 30
0.0
 40
1.0499999523162844
100
AcDbArc
 50
90.000002504478161
 51
270.00000068324533
  0
ARC
  5
175
100
AcDbEntity
  8
0
  6
CONTINUOUS
 62
               7
100
AcDbCircle
 10
178.95002746582043
 20
44.799988232968531
 30
0.0
 40
1.0499999523162844
100
AcDbArc
 50
269.99999749552182
 51
90.000002504478161
  0
ARC
  5
176
100
AcDbEntity
  8
0
  6
CONTINUOUS
 62
               7
100
AcDbCircle
 10
171.05000305175787
 20
44.799988232968531
 30
0.0
 40
1.0499999523162844
100
AcDbArc
 50
90.000002504478161
 51
270.00000068324533
  0
ARC
  5
177
100
AcDbEntity
  8
0
  6
CONTINUOUS
 62
               7
100
AcDbCircle
 10
171.45002746582043
 20
39.799988232968531
 30
0.0
 40
1.0499999523162844
100
AcDbArc
 50
269.99999749552182
 51
90.000002504478161
  0
ARC
  5
178
100
AcDbEntity
  8
0
  6
CONTINUOUS
 62
               7
100
AcDbCircle
 10
171.05000305175787
 20
34.799988232968531
 30
0.0
 40
1.0499999523162844
100
AcDbArc
 50
90.000002504478161
 51
270.00000068324533
  0
ARC
  5
179
100
AcDbEntity
  8
0
  6
CONTINUOUS
 62
               7
100
AcDbCircle
 10
171.45002746582043
 20
29.799988232968531
 30
0.0
 40
1.0499999523162844
100
AcDbArc
 50
269.99999749552182
 51
90.000002504478161
  0
ARC
  5
17A
100
AcDbEntity
  8
0
  6
CONTINUOUS
 62
               7
100
AcDbCircle
 10
171.05000305175787
 20
24.799988232968531
 30
0.0
 40
1.0499999523162844
100
AcDbArc
 50
90.000002504478161
 51
270.00000068324533
  0
LINE
  5
17B
100
AcDbEntity
  8
0
  6
CONTINUOUS
 62
               7
100
AcDbLine
 10
171.05000305175787
 20
25.849991284726343
 30
0.0
 11
178.95002746582043
 21
25.849991284726343
 31
0.0
  0
LINE
  5
17C
100
AcDbEntity
  8
0
  6
CONTINUOUS
 62
               7
100
AcDbLine
 10
171.05000305175787
 20
23.749985181210775
 30
0.0
 11
178.95002746582043
 21
23.749985181210775
 31
0.0
  0
LINE
  5
17D
100
AcDbEntity
  8
0
  6
CONTINUOUS
 62
               7
100
AcDbLine
 10
163.55000305175787
 20
28.749985181210775
 30
0.0
 11
171.45002746582043
 21
28.749985181210775
 31
0.0
  0
LINE
  5
17E
100
AcDbEntity
  8
0
  6
CONTINUOUS
 62
               7
100
AcDbLine
 10
163.55000305175787
 20
30.849991284726343
 30
0.0
 11
171.45002746582043
 21
30.849991284726343
 31
0.0
  0
LINE
  5
17F
100
AcDbEntity
  8
0
  6
CONTINUOUS
 62
               7
100
AcDbLine
 10
171.05000305175787
 20
35.849991284726343
 30
0.0
 11
178.95002746582043
 21
35.849991284726343
 31
0.0
  0
LINE
  5
180
100
AcDbEntity
  8
0
  6
CONTINUOUS
 62
               7
100
AcDbLine
 10
171.05000305175787
 20
33.749985181210775
 30
0.0
 11
178.95002746582043
 21
33.749985181210775
 31
0.0
  0
LINE
  5
181
100
AcDbEntity
  8
0
  6
CONTINUOUS
 62
               7
100
AcDbLine
 10
163.55000305175787
 20
40.849991284726343
 30
0.0
 11
171.45002746582043
 21
40.849991284726343
 31
0.0
  0
LINE
  5
182
100
AcDbEntity
  8
0
  6
CONTINUOUS
 62
               7
100
AcDbLine
 10
163.55000305175787
 20
38.749985181210775
 30
0.0
 11
171.45002746582043
 21
38.749985181210775
 31
0.0
  0
LINE
  5
183
100
AcDbEntity
  8
0
  6
CONTINUOUS
 62
               7
100
AcDbLine
 10
171.05000305175787
 20
45.849991284726343
 30
0.0
 11
178.95002746582043
 21
45.849991284726343
 31
0.0
  0
LINE
  5
184
100
AcDbEntity
  8
0
  6
CONTINUOUS
 62
               7
100
AcDbLine
 10
171.05000305175787
 20
43.749985181210775
 30
0.0
 11
178.95002746582043
 21
43.749985181210775
 31
0.0
  0
ARC
  5
185
100
AcDbEntity
  8
0
  6
CONTINUOUS
 62
               7
100
AcDbCircle
 10
163.95002746582043
 20
24.799988232968531
 30
0.0
 40
1.0499999523162844
100
AcDbArc
 50
269.99999749552182
 51
90.000002504478161
  0
ARC
  5
186
100
AcDbEntity
  8
0
  6
CONTINUOUS
 62
               7
100
AcDbCircle
 10
163.95002746582043
 20
34.799988232968531
 30
0.0
 40
1.0499999523162844
100
AcDbArc
 50
269.99999749552182
 51
90.000002504478161
  0
ARC
  5
187
100
AcDbEntity
  8
0
  6
CONTINUOUS
 62
               7
100
AcDbCircle
 10
163.95002746582043
 20
44.799988232968531
 30
0.0
 40
1.0499999523162844
100
AcDbArc
 50
269.99999749552182
 51
90.000002504478161
  0
ARC
  5
188
100
AcDbEntity
  8
0
  6
CONTINUOUS
 62
               7
100
AcDbCircle
 10
156.05000305175787
 20
44.799988232968531
 30
0.0
 40
1.0499999523162844
100
AcDbArc
 50
90.000002504478161
 51
270.00000068324533
  0
ARC
  5
189
100
AcDbEntity
  8
0
  6
CONTINUOUS
 62
               7
100
AcDbCircle
 10
156.45002746582043
 20
39.799988232968531
 30
0.0
 40
1.0499999523162844
100
AcDbArc
 50
269.99999749552182
 51
90.000002504478161
  0
ARC
  5
18A
100
AcDbEntity
  8
0
  6
CONTINUOUS
 62
               7
100
AcDbCircle
 10
156.05000305175787
 20
34.799988232968531
 30
0.0
 40
1.0499999523162844
100
AcDbArc
 50
90.000002504478161
 51
270.00000068324533
  0
ARC
  5
18B
100
AcDbEntity
  8
0
  6
CONTINUOUS
 62
               7
100
AcDbCircle
 10
156.45002746582043
 20
29.799988232968531
 30
0.0
 40
1.0499999523162844
100
AcDbArc
 50
269.99999749552182
 51
90.000002504478161
  0
ARC
  5
18C
100
AcDbEntity
  8
0
  6
CONTINUOUS
 62
               7
100
AcDbCircle
 10
156.05000305175787
 20
24.799988232968531
 30
0.0
 40
1.0499999523162844
100
AcDbArc
 50
90.000002504478161
 51
270.00000068324533
  0
LINE
  5
18D
100
AcDbEntity
  8
0
  6
CONTINUOUS
 62
               7
100
AcDbLine
 10
156.05000305175787
 20
25.849991284726343
 30
0.0
 11
163.95002746582043
 21
25.849991284726343
 31
0.0
  0
LINE
  5
18E
100
AcDbEntity
  8
0
  6
CONTINUOUS
 62
               7
100
AcDbLine
 10
156.05000305175787
 20
23.749985181210775
 30
0.0
 11
163.95002746582043
 21
23.749985181210775
 31
0.0
  0
LINE
  5
18F
100
AcDbEntity
  8
0
  6
CONTINUOUS
 62
               7
100
AcDbLine
 10
156.05000305175787
 20
35.849991284726343
 30
0.0
 11
163.95002746582043
 21
35.849991284726343
 31
0.0
  0
LINE
  5
190
100
AcDbEntity
  8
0
  6
CONTINUOUS
 62
               7
100
AcDbLine
 10
156.05000305175787
 20
33.749985181210775
 30
0.0
 11
163.95002746582043
 21
33.749985181210775
 31
0.0
  0
LINE
  5
191
100
AcDbEntity
  8
0
  6
CONTINUOUS
 62
               7
100
AcDbLine
 10
156.05000305175787
 20
45.849991284726343
 30
0.0
 11
163.95002746582043
 21
45.849991284726343
 31
0.0
  0
LINE
  5
192
100
AcDbEntity
  8
0
  6
CONTINUOUS
 62
               7
100
AcDbLine
 10
156.05000305175787
 20
43.749985181210775
 30
0.0
 11
163.95002746582043
 21
43.749985181210775
 31
0.0
  0
ARC
  5
193
100
AcDbEntity
  8
0
  6
CONTINUOUS
 62
               7
100
AcDbCircle
 10
148.55000305175787
 20
39.799988232968531
 30
0.0
 40
1.0499999523162844
100
AcDbArc
 50
90.000002504478161
 51
270.00000068324533
  0
ARC
  5
194
100
AcDbEntity
  8
0
  6
CONTINUOUS
 62
               7
100
AcDbCircle
 10
148.55000305175787
 20
29.799988232968531
 30
0.0
 40
1.0499999523162844
100
AcDbArc
 50
90.000002504478161
 51
270.00000068324533
  0
CIRCLE
  5
195
100
AcDbEntity
  8
0
  6
CONTINUOUS
 62
               7
100
AcDbCircle
 10
148.50001525878957
 20
11.799988232968531
 30
0.0
 40
3.1500000953674316
  0
CIRCLE
  5
196
100
AcDbEntity
  8
0
  6
CONTINUOUS
 62
               7
100
AcDbCircle
 10
148.50001525878957
 20
11.799988232968531
 30
0.0
 40
3.0350000858306885
  0
CIRCLE
  5
197
100
AcDbEntity
  8
0
  6
CONTINUOUS
 62
               7
100
AcDbCircle
 10
291.00001525878952
 20
11.799988232968531
 30
0.0
 40
3.1500000953674316
  0
CIRCLE
  5
198
100
AcDbEntity
  8
0
  6
CONTINUOUS
 62
               7
100
AcDbCircle
 10
291.00001525878952
 20
11.799988232968531
 30
0.0
 40
3.0350000858306885
  0
CIRCLE
  5
199
100
AcDbEntity
  8
0
  6
CONTINUOUS
 62
               7
100
AcDbCircle
 10
50.000030468978309
 20
56.999982129452917
 30
0.0
 40
1.4999999999999998
  0
CIRCLE
  5
19A
100
AcDbEntity
  8
0
  6
CONTINUOUS
 62
               2
100
AcDbCircle
 10
50.000030468978309
 20
56.999982129452917
 30
0.0
 40
2.0
  0
LINE
  5
19B
100
AcDbEntity
  8
0
  6
CONTINUOUS
 62
               2
100
AcDbLine
 10
54.868380581629594
 20
56.999982129452917
 30
0.0
 11
45.231757369666639
 21
56.999982129452917
 31
0.0
  0
LINE
  5
19C
100
AcDbEntity
  8
0
  6
CONTINUOUS
 62
               2
100
AcDbLine
 10
50.000030468978309
 20
52.13163201680166
 30
0.0
 11
50.000030468978309
 21
61.768255228764531
 31
0.0
  0
LINE
  5
19D
100
AcDbEntity
  8
0
  6
CONTINUOUS
 62
               7
100
AcDbLine
 10
47.850036572493991
 20
60.999982129452889
 30
0.0
 11
52.150024365462741
 21
60.999982129452889
 31
0.0
  0
LINE
  5
19E
100
AcDbEntity
  8
0
  6
CONTINUOUS
 62
               7
100
AcDbLine
 10
325.50000015999893
 20
13.299982129452872
 30
0.0
 11
309.83167320955744
 21
13.299982129452872
 31
0.0
  0
LINE
  5
19F
100
AcDbEntity
  8
0
  6
CONTINUOUS
 62
               7
100
AcDbLine
 10
325.50000015999893
 20
25.999982129452746
 30
0.0
 11
309.761681665423
 21
25.999982129452746
 31
0.0
  0
LINE
  5
1A0
100
AcDbEntity
  8
0
  6
CONTINUOUS
 62
               7
100
AcDbLine
 10
328.00000015999893
 20
14.149982129452837
 30
0.0
 11
326.50000015999888
 21
14.149982129452837
 31
0.0
  0
LINE
  5
1A1
100
AcDbEntity
  8
0
  6
CONTINUOUS
 62
               7
100
AcDbLine
 10
328.00000015999893
 20
25.149982129452894
 30
0.0
 11
326.50000015999888
 21
25.149982129452894
 31
0.0
  0
LINE
  5
1A2
100
AcDbEntity
  8
0
  6
CONTINUOUS
 62
               7
100
AcDbLine
 10
328.00000015999893
 20
14.149982129452837
 30
0.0
 11
328.00000015999893
 21
25.149982129452894
 31
0.0
  0
LINE
  5
1A3
100
AcDbEntity
  8
0
  6
CONTINUOUS
 62
               7
100
AcDbLine
 10
326.50000015999888
 20
14.149982129452837
 30
0.0
 11
325.50000015999893
 21
13.299982129452872
 31
0.0
  0
LINE
  5
1A4
100
AcDbEntity
  8
0
  6
CONTINUOUS
 62
               7
100
AcDbLine
 10
325.50000015999893
 20
25.999982129452746
 30
0.0
 11
326.50000015999888
 21
25.149982129452894
 31
0.0
  0
LINE
  5
1A5
100
AcDbEntity
  8
0
  6
CONTINUOUS
 62
               7
100
AcDbLine
 10
326.50000015999888
 20
14.149982129452837
 30
0.0
 11
326.50000015999888
 21
25.149982129452894
 31
0.0
  0
LINE
  5
1A6
100
AcDbEntity
  8
0
  6
CONTINUOUS
 62
               7
100
AcDbLine
 10
325.50000015999893
 20
25.999982129452746
 30
0.0
 11
325.50000015999893
 21
13.299982129452872
 31
0.0
  0
LINE
  5
1A7
100
AcDbEntity
  8
0
  6
CONTINUOUS
 62
               2
100
AcDbLine
 10
333.00000015999893
 20
19.649982129452837
 30
0.0
 11
306.44319941532291
 21
19.649982129452837
 31
0.0
  0
LINE
  5
1A8
100
AcDbEntity
  8
0
  6
CONTINUOUS
 62
               7
100
AcDbLine
 10
0.0000153387891828
 20
165.99998168945325
 30
0.0
 11
0.0000153387891828
 21
162.99998212945309
 31
0.0
  0
ARC
  5
1A9
100
AcDbEntity
  8
0
  6
CONTINUOUS
 62
               7
100
AcDbCircle
 10
26.121335442350414
 20
203.49998168945316
 30
0.0
 40
1.4999999999999998
100
AcDbArc
 50
90.0
 51
94.639163110140728
  0
LINE
  5
1AA
100
AcDbEntity
  8
0
  6
CONTINUOUS
 62
               7
100
AcDbLine
 10
20.000015098789504
 20
165.99998168945325
 30
0.0
 11
0.0000153387891828
 21
165.99998168945325
 31
0.0
  0
LINE
  5
1AB
100
AcDbEntity
  8
0
  6
CONTINUOUS
 62
               7
100
AcDbLine
 10
60.000015098789618
 20
55.999982129452832
 30
0.0
 11
300.88340759277361
 21
55.999982129452832
 31
0.0
  0
LINE
  5
1AC
100
AcDbEntity
  8
0
  6
CONTINUOUS
 62
               7
100
AcDbLine
 10
60.000015098789618
 20
172.99998168945319
 30
0.0
 11
60.000015098789618
 21
162.99998168945319
 31
0.0
  0
LINE
  5
1AD
100
AcDbEntity
  8
0
  6
CONTINUOUS
 62
               7
100
AcDbLine
 10
20.000015098789504
 20
172.99998168945319
 30
0.0
 11
20.000015098789504
 21
162.99998168945319
 31
0.0
  0
LINE
  5
1AE
100
AcDbEntity
  8
0
  6
CONTINUOUS
 62
               7
100
AcDbLine
 10
0.0000152587891193
 20
3.1999821294529625
 30
0.0
 11
0.0000152587891193
 21
162.99998168945319
 31
0.0
  0
LINE
  5
1AF
100
AcDbEntity
  8
0
  6
CONTINUOUS
 62
               7
100
AcDbLine
 10
60.000015098789618
 20
52.999982129452889
 30
0.0
 11
60.000015098789618
 21
162.99998168945319
 31
0.0
  0
LINE
  5
1B0
100
AcDbEntity
  8
0
  6
CONTINUOUS
 62
               7
100
AcDbLine
 10
32.150009026674127
 20
162.99998168945319
 30
0.0
 11
32.150009026674127
 21
52.999982129452889
 31
0.0
  0
LINE
  5
1B1
100
AcDbEntity
  8
0
  6
CONTINUOUS
 62
               7
100
AcDbLine
 10
27.850021250905343
 20
162.99998168945319
 30
0.0
 11
27.850021250905343
 21
52.999982129452889
 31
0.0
  0
LINE
  5
1B2
100
AcDbEntity
  8
0
  6
CONTINUOUS
 62
               7
100
AcDbLine
 10
12.150009106673792
 20
162.99998168945319
 30
0.0
 11
12.150009106673792
 21
52.999982129452889
 31
0.0
  0
LINE
  5
1B3
100
AcDbEntity
  8
0
  6
CONTINUOUS
 62
               7
100
AcDbLine
 10
7.8500213309049514
 20
162.99998168945319
 30
0.0
 11
7.8500213309049514
 21
52.999982129452889
 31
0.0
  0
LINE
  5
1B4
100
AcDbEntity
  8
0
  6
CONTINUOUS
 62
               7
100
AcDbLine
 10
52.150039495651868
 20
162.99998168945319
 30
0.0
 11
52.150039495651868
 21
52.999982129452889
 31
0.0
  0
LINE
  5
1B5
100
AcDbEntity
  8
0
  6
CONTINUOUS
 62
               7
100
AcDbLine
 10
47.850021219505265
 20
162.99998168945319
 30
0.0
 11
47.850021219505265
 21
52.999982129452889
 31
0.0
  0
LINE
  5
1B6
100
AcDbEntity
  8
0
  6
CONTINUOUS
 62
               2
100
AcDbLine
 10
17.000000000000455
 20
-4.7200506926361641
 30
0.0
 11
17.000000000000455
 21
7.9540187252038095
 31
0.0
  0
LINE
  5
1B7
100
AcDbEntity
  8
0
  6
CONTINUOUS
 62
               7
100
AcDbLine
 10
-51.499969482422671
 20
51.499982129452889
 30
0.0
 11
0.0000152587891193
 21
51.499982129452889
 31
0.0
  0
LINE
  5
1B8
100
AcDbEntity
  8
0
  6
CONTINUOUS
 62
               7
100
AcDbLine
 10
-51.499969482422671
 20
51.499982129452889
 30
0.0
 11
-51.499969482422671
 21
18.99998212945286
 31
0.0
  0
LINE
  5
1B9
100
AcDbEntity
  8
0
  6
CONTINUOUS
 62
               7
100
AcDbLine
 10
0.0000152587891193
 20
18.99998212945286
 30
0.0
 11
-51.499969482422671
 21
18.99998212945286
 31
0.0
  0
LINE
  5
1BA
100
AcDbEntity
  8
0
  6
CONTINUOUS
 62
               7
100
AcDbLine
 10
289.80001068115251
 20
41.599985181210741
 30
0.0
 11
289.80001068115251
 21
31.199983655331835
 31
0.0
  0
LINE
  5
1BB
100
AcDbEntity
  8
0
  6
CONTINUOUS
 62
               7
100
AcDbLine
 10
292.20001220703153
 20
41.599985181210741
 30
0.0
 11
292.20001220703153
 21
31.199983655331835
 31
0.0
  0
LINE
  5
1BC
100
AcDbEntity
  8
0
  6
CONTINUOUS
 62
               7
100
AcDbLine
 10
289.80001068115251
 20
41.599985181210741
 30
0.0
 11
292.20001220703153
 21
41.599985181210741
 31
0.0
  0
LINE
  5
1BD
100
AcDbEntity
  8
0
  6
CONTINUOUS
 62
               7
100
AcDbLine
 10
289.80001068115251
 20
31.199983655331835
 30
0.0
 11
292.20001220703153
 21
31.199983655331835
 31
0.0
  0
LINE
  5
1BE
100
AcDbEntity
  8
0
  6
CONTINUOUS
 62
               7
100
AcDbLine
 10
0.0000152587891193
 20
3.1999821294529625
 30
0.0
 11
298.00001525878923
 21
3.1999821294529625
 31
0.0
  0
LINE
  5
1BF
100
AcDbEntity
  8
0
  6
CONTINUOUS
 62
               7
100
AcDbLine
 10
304.58219887812294
 20
5.1999821294529056
 30
0.0
 11
298.00001525878923
 21
5.1999821294529056
 31
0.0
  0
LINE
  5
1C0
100
AcDbEntity
  8
0
  6
CONTINUOUS
 62
               7
100
AcDbLine
 10
298.00001525878923
 20
5.1999821294529056
 30
0.0
 11
298.00001525878923
 21
3.1999821294529625
 31
0.0
  0
LINE
  5
1C1
100
AcDbEntity
  8
0
  6
CONTINUOUS
 62
               2
100
AcDbLine
 10
-6.8981238727066057
 20
107.999982129453
 30
0.0
 11
2.3989968885240387
 21
107.999982129453
 31
0.0
  0
LINE
  5
1C2
100
AcDbEntity
  8
0
  6
CONTINUOUS
 62
               7
100
AcDbLine
 10
-5.5000073986597613
 20
104.49998212945297
 30
0.0
 11
-1.8000075893945677
 21
104.49998212945297
 31
0.0
  0
LINE
  5
1C3
100
AcDbEntity
  8
0
  6
CONTINUOUS
 62
               7
100
AcDbLine
 10
-5.5000073563553542
 20
104.49998254647471
 30
0.0
 11
-5.8000074755645983
 21
105.01959818130732
 31
0.0
  0
LINE
  5
1C4
100
AcDbEntity
  8
0
  6
CONTINUOUS
 62
               7
100
AcDbLine
 10
-5.5000073986597613
 20
111.499982129453
 30
0.0
 11
-5.5000073986597613
 21
104.49998212945297
 31
0.0
  0
LINE
  5
1C5
100
AcDbEntity
  8
0
  6
CONTINUOUS
 62
               7
100
AcDbLine
 10
-5.8000075893946814
 20
110.98036695611316
 30
0.0
 11
-5.8000075893946814
 21
105.01959825646716
 31
0.0
  0
LINE
  5
1C6
100
AcDbEntity
  8
0
  6
CONTINUOUS
 62
               7
100
AcDbLine
 10
-5.5000075620067719
 20
111.49998203806379
 30
0.0
 11
-5.8000075500858657
 21
110.98036692347267
 31
0.0
  0
LINE
  5
1C7
100
AcDbEntity
  8
0
  6
CONTINUOUS
 62
               7
100
AcDbLine
 10
-5.5000073986597613
 20
111.499982129453
 30
0.0
 11
-1.8000075893945677
 21
111.499982129453
 31
0.0
  0
LINE
  5
1C8
100
AcDbEntity
  8
0
  6
CONTINUOUS
 62
               7
100
AcDbLine
 10
-5.1000075893946359
 20
114.08186116406807
 30
0.0
 11
-5.1000075893946359
 21
123.49998212945303
 31
0.0
  0
LINE
  5
1C9
100
AcDbEntity
  8
0
  6
CONTINUOUS
 62
               7
100
AcDbLine
 10
-5.1000075893946359
 20
123.49998212945303
 30
0.0
 11
-0.0000075893944995
 21
123.49998212945303
 31
0.0
  0
LINE
  5
1CA
100
AcDbEntity
  8
0
  6
CONTINUOUS
 62
               7
100
AcDbLine
 10
-1.8000075893945677
 20
102.99998212945303
 30
0.0
 11
-0.0000075893944995
 21
102.99998212945303
 31
0.0
  0
LINE
  5
1CB
100
AcDbEntity
  8
0
  6
CONTINUOUS
 62
               7
100
AcDbLine
 10
-1.8000075893945677
 20
102.99998212945303
 30
0.0
 11
-1.8000075893945677
 21
123.49998212945303
 31
0.0
  0
LINE
  5
1CC
100
AcDbEntity
  8
0
  6
CONTINUOUS
 62
               7
100
AcDbLine
 10
-1.8000076198605939
 20
113.49998212945303
 30
0.0
 11
-5.1000076317815228
 21
114.08186117154202
 31
0.0
  0
LINE
  5
1CD
100
AcDbEntity
  8
0
  6
CONTINUOUS
 62
               7
100
AcDbLine
 10
-5.1000075893946359
 20
121.49998212945309
 30
0.0
 11
-1.8000075893945677
 21
121.49998212945309
 31
0.0
  0
LINE
  5
1CE
100
AcDbEntity
  8
0
  6
CONTINUOUS
 62
               7
100
AcDbLine
 10
-5.1000075893946359
 20
116.49998212945306
 30
0.0
 11
-1.8000075893945677
 21
116.49998212945306
 31
0.0
  0
LINE
  5
1CF
100
AcDbEntity
  8
0
  6
CONTINUOUS
 62
               7
100
AcDbLine
 10
-3.4000075893945905
 20
116.49998212945306
 30
0.0
 11
-3.4000075893945905
 21
121.49998212945309
 31
0.0
  0
LINE
  5
1D0
100
AcDbEntity
  8
0
  6
CONTINUOUS
 62
               2
100
AcDbLine
 10
5.4507410645967411
 20
56.999982129452917
 30
0.0
 11
14.774486899547981
 21
56.999982129452917
 31
0.0
  0
LINE
  5
1D1
100
AcDbEntity
  8
0
  6
CONTINUOUS
 62
               2
100
AcDbLine
 10
34.868350112651797
 20
56.999982129452917
 30
0.0
 11
25.231726900688898
 21
56.999982129452917
 31
0.0
  0
LINE
  5
1D2
100
AcDbEntity
  8
0
  6
CONTINUOUS
 62
               7
100
AcDbLine
 10
7.8500061035158524
 20
60.999982129452889
 30
0.0
 11
12.149993896484659
 21
60.999982129452889
 31
0.0
  0
LINE
  5
1D3
100
AcDbEntity
  8
0
  6
CONTINUOUS
 62
               7
100
AcDbLine
 10
27.850006103516193
 20
60.999982129452889
 30
0.0
 11
32.149993896484943
 21
60.999982129452889
 31
0.0
  0
CIRCLE
  5
1D4
100
AcDbEntity
  8
0
  6
CONTINUOUS
 62
               2
100
AcDbCircle
 10
10.000000000000227
 20
56.999982129452917
 30
0.0
 40
2.0
  0
CIRCLE
  5
1D5
100
AcDbEntity
  8
0
  6
CONTINUOUS
 62
               7
100
AcDbCircle
 10
10.000000000000227
 20
56.999982129452917
 30
0.0
 40
1.4999999999999998
  0
CIRCLE
  5
1D6
100
AcDbEntity
  8
0
  6
CONTINUOUS
 62
               7
100
AcDbCircle
 10
30.000000000000568
 20
56.999982129452917
 30
0.0
 40
1.4999999999999998
  0
CIRCLE
  5
1D7
100
AcDbEntity
  8
0
  6
CONTINUOUS
 62
               2
100
AcDbCircle
 10
30.000000000000568
 20
56.999982129452917
 30
0.0
 40
2.0
  0
LINE
  5
1D8
100
AcDbEntity
  8
0
  6
CONTINUOUS
 62
               7
100
AcDbLine
 10
21.000015098789504
 20
205.99998168945316
 30
0.0
 11
21.000015098789504
 21
172.99998168945319
 31
0.0
  0
LINE
  5
1D9
100
AcDbEntity
  8
0
  6
CONTINUOUS
 62
               7
100
AcDbLine
 10
59.000015098789618
 20
205.99998168945316
 30
0.0
 11
59.000015098789618
 21
172.99998168945319
 31
0.0
  0
LINE
  5
1DA
100
AcDbEntity
  8
0
  6
CONTINUOUS
 62
               7
100
AcDbLine
 10
54.500015098789731
 20
206.49998168945319
 30
0.0
 11
58.500015098789618
 21
206.49998168945319
 31
0.0
  0
ARC
  5
1DB
100
AcDbEntity
  8
0
  6
CONTINUOUS
 62
               7
100
AcDbCircle
 10
22.12966902945368
 20
179.99998168945316
 30
0.0
 40
6.3296561241149902
100
AcDbArc
 50
160.85729336935006
 51
199.14270298818428
  0
ARC
  5
1DC
100
AcDbEntity
  8
0
  6
CONTINUOUS
 62
               7
100
AcDbCircle
 10
22.12966902945368
 20
187.99998168945319
 30
0.0
 40
6.3296561241149902
100
AcDbArc
 50
160.85729336935006
 51
199.14270298818428
  0
ARC
  5
1DD
100
AcDbEntity
  8
0
  6
CONTINUOUS
 62
               7
100
AcDbCircle
 10
53.870361168125669
 20
180.99998168945316
 30
0.0
 40
6.3296561241149902
100
AcDbArc
 50
340.85729006794099
 51
19.142706516964399
  0
ARC
  5
1DE
100
AcDbEntity
  8
0
  6
CONTINUOUS
 62
               7
100
AcDbCircle
 10
53.870361168125669
 20
194.99998168945316
 30
0.0
 40
6.3296561241149902
100
AcDbArc
 50
340.85729006794099
 51
19.142706516964399
  0
ARC
  5
1DF
100
AcDbEntity
  8
0
  6
CONTINUOUS
 62
               7
100
AcDbCircle
 10
51.500015098789618
 20
201.99998168945322
 30
0.0
 40
2.4000000953674316
100
AcDbArc
 50
331.17621921195268
 51
163.04248945089057
  0
ARC
  5
1E0
100
AcDbEntity
  8
0
  6
CONTINUOUS
 62
               7
100
AcDbCircle
 10
28.500015098789618
 20
201.99998168945322
 30
0.0
 40
2.4000000953674316
100
AcDbArc
 50
16.957513850518463
 51
208.82378579700367
  0
ARC
  5
1E1
100
AcDbEntity
  8
0
  6
CONTINUOUS
 62
               7
100
AcDbCircle
 10
56.000015098789618
 20
175.99998168945316
 30
0.0
 40
2.9999999999999996
100
AcDbArc
 50
269.99999749552182
 51
0.0
  0
ARC
  5
1E2
100
AcDbEntity
  8
0
  6
CONTINUOUS
 62
               7
100
AcDbCircle
 10
50.792907554844362
 20
200.39997558593757
 30
0.0
 40
2.2999999523162842
100
AcDbArc
 50
45.00000125223908
 51
90.000002504478161
  0
ARC
  5
1E3
100
AcDbEntity
  8
0
  6
CONTINUOUS
 62
               7
100
AcDbCircle
 10
24.500015098789618
 20
193.99580078125004
 30
0.0
 40
3.4999999999999996
100
AcDbArc
 50
135.00000034162267
 51
180.00000500895632
  0
ARC
  5
1E4
100
AcDbEntity
  8
0
  6
CONTINUOUS
 62
               7
100
AcDbCircle
 10
55.500015098789675
 20
193.99580078125004
 30
0.0
 40
3.4999999999999996
100
AcDbArc
 50
0.0000000000000509
 51
45.00000125223908
  0
ARC
  5
1E5
100
AcDbEntity
  8
0
  6
CONTINUOUS
 62
               7
100
AcDbCircle
 10
29.207122642735044
 20
200.39997558593757
 30
0.0
 40
2.2999999523162842
100
AcDbArc
 50
90.000002504478161
 51
135.00000034162267
  0
ARC
  5
1E6
100
AcDbEntity
  8
0
  6
CONTINUOUS
 62
               7
100
AcDbCircle
 10
24.000015098789618
 20
175.99998168945316
 30
0.0
 40
2.9999999999999996
100
AcDbArc
 50
179.99999134857799
 51
270.00000068324533
  0
ARC
  5
1E7
100
AcDbEntity
  8
0
  6
CONTINUOUS
 62
               7
100
AcDbCircle
 10
53.000015098789675
 20
203.49998168945316
 30
0.0
 40
1.4999999999999998
100
AcDbArc
 50
45.00000125223908
 51
90.000002504478161
  0
ARC
  5
1E8
100
AcDbEntity
  8
0
  6
CONTINUOUS
 62
               7
100
AcDbCircle
 10
58.500015098789618
 20
205.99998168945316
 30
0.0
 40
0.5
100
AcDbArc
 50
7.4208451464152363
 51
90.000002504478161
  0
ARC
  5
1E9
100
AcDbEntity
  8
0
  6
CONTINUOUS
 62
               7
100
AcDbCircle
 10
54.500015098789731
 20
205.99998168945316
 30
0.0
 40
0.5
100
AcDbArc
 50
90.000002504478161
 51
180.00000500895632
  0
ARC
  5
1EA
100
AcDbEntity
  8
0
  6
CONTINUOUS
 62
               7
100
AcDbCircle
 10
25.500015098789675
 20
205.99998168945316
 30
0.0
 40
0.5
100
AcDbArc
 50
0.0
 51
90.000002504478161
  0
ARC
  5
1EB
100
AcDbEntity
  8
0
  6
CONTINUOUS
 62
               7
100
AcDbCircle
 10
21.500015098789618
 20
205.99998168945316
 30
0.0
 40
0.5
100
AcDbArc
 50
89.999995674288996
 51
172.57915473989922
  0
ARC
  5
1EC
100
AcDbEntity
  8
0
  6
CONTINUOUS
 62
               7
100
AcDbCircle
 10
301.94667053222668
 20
49.999982129452974
 30
0.0
 40
2.9999999999999996
100
AcDbArc
 50
18.575665919617233
 51
90.000002504478161
  0
ARC
  5
1ED
100
AcDbEntity
  8
0
  6
CONTINUOUS
 62
               7
100
AcDbCircle
 10
304.58219909667986
 20
10.199963818905985
 30
0.0
 40
5.0
100
AcDbArc
 50
269.99999749552182
 51
354.62440334723948
  0
ARC
  5
1EE
100
AcDbEntity
  8
0
  6
CONTINUOUS
 62
               7
100
AcDbCircle
 10
300.88340759277361
 20
52.999982129452889
 30
0.0
 40
2.9999999999999996
100
AcDbArc
 50
20.455793309426426
 51
90.000002504478161
  0
ARC
  5
1EF
100
AcDbEntity
  8
0
  6
CONTINUOUS
 62
               7
100
AcDbCircle
 10
210.00001525878957
 20
19.099988232968485
 30
0.0
 40
100.0
100
AcDbArc
 50
354.62440334723948
 51
20.455793309426426
  0
ARC
  5
1F0
100
AcDbEntity
  8
0
  6
CONTINUOUS
 62
               7
100
AcDbCircle
 10
300.11418151855491
 20
49.999982129452974
 30
0.0
 40
2.9999999999999996
100
AcDbArc
 50
4.8539097921627041
 51
90.000002504478161
  0
ARC
  5
1F1
100
AcDbEntity
  8
0
  6
CONTINUOUS
 62
               7
100
AcDbCircle
 10
300.11418151855491
 20
8.1999638189059851
 30
0.0
 40
2.9999999999999996
100
AcDbArc
 50
269.99999749552182
 51
355.14609020783729
  0
ARC
  5
1F2
100
AcDbEntity
  8
0
  6
CONTINUOUS
 62
               7
100
AcDbCircle
 10
54.000015258789631
 20
29.099988232968485
 30
0.0
 40
250.0
100
AcDbArc
 50
355.14609020783729
 51
4.8539097921627041
  0
LINE
  5
1F3
100
AcDbEntity
  8
0
  6
CONTINUOUS
 62
               7
100
AcDbLine
 10
280.50001525878935
 20
61.999982129452917
 30
0.0
 11
280.50001525878935
 21
55.999982129452832
 31
0.0
  0
LINE
  5
1F4
100
AcDbEntity
  8
0
  6
CONTINUOUS
 62
               7
100
AcDbLine
 10
238.5000152587896
 20
61.999982129452917
 30
0.0
 11
238.5000152587896
 21
55.999982129452832
 31
0.0
  0
LINE
  5
1F5
100
AcDbEntity
  8
0
  6
CONTINUOUS
 62
               7
100
AcDbLine
 10
238.5000152587896
 20
61.999982129452917
 30
0.0
 11
280.50001525878935
 21
61.999982129452917
 31
0.0
  0
LINE
  5
1F6
100
AcDbEntity
  8
0
  6
CONTINUOUS
 62
               7
100
AcDbLine
 10
16.150008995273765
 20
177.92435913085947
 30
0.0
 11
16.150008995273765
 21
182.07563476562504
 31
0.0
  0
LINE
  5
1F7
100
AcDbEntity
  8
0
  6
CONTINUOUS
 62
               7
100
AcDbLine
 10
16.150018755294752
 20
177.92436347496266
 30
0.0
 11
17.000012901534433
 21
177.8499986233204
 31
0.0
  0
LINE
  5
1F8
100
AcDbEntity
  8
0
  6
CONTINUOUS
 62
               7
100
AcDbLine
 10
16.150016671476408
 20
182.07562234949603
 30
0.0
 11
17.00002601844119
 21
182.14998853102938
 31
0.0
  0
LINE
  5
1F9
100
AcDbEntity
  8
0
  6
CONTINUOUS
 62
               7
100
AcDbLine
 10
16.150008995273765
 20
185.92435913085941
 30
0.0
 11
16.150008995273765
 21
190.07563476562507
 31
0.0
  0
LINE
  5
1FA
100
AcDbEntity
  8
0
  6
CONTINUOUS
 62
               7
100
AcDbLine
 10
16.150013114562228
 20
185.92434996452917
 30
0.0
 11
17.00002246152701
 21
185.84998378299576
 31
0.0
  0
LINE
  5
1FB
100
AcDbEntity
  8
0
  6
CONTINUOUS
 62
               7
100
AcDbLine
 10
16.150019652426749
 20
190.07563924051271
 30
0.0
 11
17.000013798666373
 21
190.15000409215494
 31
0.0
  0
LINE
  5
1FC
100
AcDbEntity
  8
0
  6
CONTINUOUS
 62
               7
100
AcDbLine
 10
59.850021202305243
 20
183.07560424804694
 30
0.0
 11
59.850021202305243
 21
178.92435913085944
 31
0.0
  0
LINE
  5
1FD
100
AcDbEntity
  8
0
  6
CONTINUOUS
 62
               7
100
AcDbLine
 10
59.850021039448848
 20
183.07562829776305
 30
0.0
 11
59.000026893209281
 21
183.14999314940528
 31
0.0
  0
LINE
  5
1FE
100
AcDbEntity
  8
0
  6
CONTINUOUS
 62
               7
100
AcDbLine
 10
59.850007635378688
 20
178.924368352394
 30
0.0
 11
59.000013489139178
 21
178.85000350075177
 31
0.0
  0
LINE
  5
1FF
100
AcDbEntity
  8
0
  6
CONTINUOUS
 62
               7
100
AcDbLine
 10
59.850021202305243
 20
197.07563476562504
 30
0.0
 11
59.850021202305243
 21
192.92435913085947
 31
0.0
  0
LINE
  5
200
100
AcDbEntity
  8
0
  6
CONTINUOUS
 62
               7
100
AcDbLine
 10
59.850016298239325
 20
197.07561952275671
 30
0.0
 11
59.000022151999758
 21
197.14998437439894
 31
0.0
  0
LINE
  5
201
100
AcDbEntity
  8
0
  6
CONTINUOUS
 62
               7
100
AcDbLine
 10
59.850012376588211
 20
192.92435957738766
 30
0.0
 11
59.000018230348701
 21
192.84999472574543
 31
0.0
  0
LINE
  5
202
100
AcDbEntity
  8
0
  6
CONTINUOUS
 62
               7
100
AcDbLine
 10
17.000015098789504
 20
190.69999389648441
 30
0.0
 11
17.000015098789504
 21
177.29996948242197
 31
0.0
  0
LINE
  5
203
100
AcDbEntity
  8
0
  6
CONTINUOUS
 62
               7
100
AcDbLine
 10
21.000015098789504
 20
177.29996948242197
 30
0.0
 11
17.000015098789504
 21
177.29996948242197
 31
0.0
  0
LINE
  5
204
100
AcDbEntity
  8
0
  6
CONTINUOUS
 62
               7
100
AcDbLine
 10
21.000015098789504
 20
190.69999389648441
 30
0.0
 11
17.000015098789504
 21
190.69999389648441
 31
0.0
  0
LINE
  5
205
100
AcDbEntity
  8
0
  6
CONTINUOUS
 62
               7
100
AcDbLine
 10
22.025139533076754
 20
196.47068734160788
 30
0.0
 11
27.580765723909963
 21
202.02631353244112
 31
0.0
  0
LINE
  5
206
100
AcDbEntity
  8
0
  6
CONTINUOUS
 62
               7
100
AcDbLine
 10
57.974876667573767
 20
196.47066576242185
 30
0.0
 11
52.41923968714741
 21
202.02630274284806
 31
0.0
  0
LINE
  5
207
100
AcDbEntity
  8
0
  6
CONTINUOUS
 62
               2
100
AcDbLine
 10
23.500015098789618
 20
207.52763061523447
 30
0.0
 11
23.500015098789618
 21
200.01981811523441
 31
0.0
  0
LINE
  5
208
100
AcDbEntity
  8
0
  6
CONTINUOUS
 62
               7
100
AcDbLine
 10
26.000015098789618
 20
205.99998168945316
 30
0.0
 11
26.000015098789618
 21
200.44556290732072
 31
0.0
  0
LINE
  5
209
100
AcDbEntity
  8
0
  6
CONTINUOUS
 62
               7
100
AcDbLine
 10
50.792907554844362
 20
202.69996337890629
 30
0.0
 11
29.207122642735044
 21
202.69996337890629
 31
0.0
  0
LINE
  5
20A
100
AcDbEntity
  8
0
  6
CONTINUOUS
 62
               7
100
AcDbLine
 10
54.060660475430041
 20
204.56062709226342
 30
0.0
 11
54.000015098789618
 21
204.62127246890381
 31
0.0
  0
LINE
  5
20B
100
AcDbEntity
  8
0
  6
CONTINUOUS
 62
               7
100
AcDbLine
 10
53.000015098789675
 20
204.99998168945316
 30
0.0
 11
26.121335442350414
 21
204.99998168945316
 31
0.0
  0
LINE
  5
20C
100
AcDbEntity
  8
0
  6
CONTINUOUS
 62
               7
100
AcDbLine
 10
25.500015098789675
 20
206.49998168945319
 30
0.0
 11
21.500015098789618
 21
206.49998168945319
 31
0.0
  0
LINE
  5
20D
100
AcDbEntity
  8
0
  6
CONTINUOUS
 62
               2
100
AcDbLine
 10
56.500015098789618
 20
207.52763061523447
 30
0.0
 11
56.500015098789618
 21
200.01981811523441
 31
0.0
  0
LINE
  5
20E
100
AcDbEntity
  8
0
  6
CONTINUOUS
 62
               7
100
AcDbLine
 10
54.000015098789618
 20
205.99998168945316
 30
0.0
 11
54.000015098789618
 21
200.44552733120588
 31
0.0
  0
LINE
  5
20F
100
AcDbEntity
  8
0
  6
CONTINUOUS
 62
               2
100
AcDbLine
 10
259.50001525878946
 20
64.999982129452917
 30
0.0
 11
259.50001525878946
 21
52.258029865344156
 31
0.0
  0
LINE
  5
210
100
AcDbEntity
  8
0
  6
CONTINUOUS
 62
               7
100
AcDbLine
 10
0.0
 20
162.99998212945309
 30
0.0
 11
60.000015098789618
 21
162.99998212945309
 31
0.0
  0
LINE
  5
211
100
AcDbEntity
  8
0
  6
CONTINUOUS
 62
               2
100
AcDbLine
 10
10.000000000000227
 20
61.549241064856318
 30
0.0
 11
10.000000000000227
 21
52.225495229905221
 31
0.0
  0
LINE
  5
212
100
AcDbEntity
  8
0
  6
CONTINUOUS
 62
               2
100
AcDbLine
 10
30.000000000000568
 20
52.13163201680166
 30
0.0
 11
30.000000000000568
 21
61.768255228764531
 31
0.0
  0
LINE
  5
213
100
AcDbEntity
  8
0
  6
CONTINUOUS
 62
               7
100
AcDbLine
 10
285.00001525878929
 20
52.999982129452889
 30
0.0
 11
285.00001525878929
 21
55.999982129452832
 31
0.0
  0
LINE
  5
214
100
AcDbEntity
  8
0
  6
CONTINUOUS
 62
               7
100
AcDbLine
 10
0.0
 20
52.999982129452889
 30
0.0
 11
301.94667053222668
 21
52.999982129452889
 31
0.0
  0
LINE
  5
215
100
AcDbEntity
  8
0
  6
CONTINUOUS
 62
               7
100
AcDbLine
 10
277.0000152587894
 20
0.0000004399998943
 30
0.0
 11
289.00001525878929
 21
0.0000004399998943
 31
0.0
  0
LINE
  5
216
100
AcDbEntity
  8
0
  6
CONTINUOUS
 62
               7
100
AcDbLine
 10
18.400015098789481
 20
172.99998168945319
 30
0.0
 11
60.000015098789618
 21
172.99998168945319
 31
0.0
  0
LINE
  5
217
100
AcDbEntity
  8
0
  6
CONTINUOUS
 62
               7
100
AcDbLine
 10
289.00001525878929
 20
0.0000004399998943
 30
0.0
 11
289.00001525878929
 21
3.1999821294529625
 31
0.0
  0
LINE
  5
218
100
AcDbEntity
  8
0
  6
CONTINUOUS
 62
               7
100
AcDbLine
 10
277.0000152587894
 20
0.0000004399998943
 30
0.0
 11
277.0000152587894
 21
3.1999821294529625
 31
0.0
  0
LINE
  5
219
100
AcDbEntity
  8
0
  6
CONTINUOUS
 62
               7
100
AcDbLine
 10
11.000000000000227
 20
0.0000004399998943
 30
0.0
 11
11.000000000000227
 21
3.1999821294529625
 31
0.0
  0
LINE
  5
21A
100
AcDbEntity
  8
0
  6
CONTINUOUS
 62
               7
100
AcDbLine
 10
23.000000000000512
 20
0.0000004399998943
 30
0.0
 11
23.000000000000512
 21
3.1999821294529625
 31
0.0
  0
LINE
  5
21B
100
AcDbEntity
  8
0
  6
CONTINUOUS
 62
               7
100
AcDbLine
 10
300.00001525878923
 20
5.1999638189059851
 30
0.0
 11
300.00001525878923
 21
55.999982129452832
 31
0.0
  0
LINE
  5
21C
100
AcDbEntity
  8
0
  6
CONTINUOUS
 62
               7
100
AcDbLine
 10
11.000000000000227
 20
0.0000004399998943
 30
0.0
 11
23.000000000000512
 21
0.0000004399998943
 31
0.0
  0
LINE
  5
21D
100
AcDbEntity
  8
0
  6
CONTINUOUS
 62
               7
100
AcDbLine
 10
289.93935508700969
 20
10.739328061188644
 30
0.0
 11
292.06067543056935
 21
12.860648404748304
 31
0.0
  0
LINE
  5
21E
100
AcDbEntity
  8
0
  6
CONTINUOUS
 62
               7
100
AcDbLine
 10
289.93935508700969
 20
12.860648404748304
 30
0.0
 11
292.06067543056935
 21
10.739328061188644
 31
0.0
  0
LINE
  5
21F
100
AcDbEntity
  8
0
  6
CONTINUOUS
 62
               7
100
AcDbLine
 10
147.43935508700974
 20
10.739328061188644
 30
0.0
 11
149.5606754305694
 21
12.860648404748304
 31
0.0
  0
LINE
  5
220
100
AcDbEntity
  8
0
  6
CONTINUOUS
 62
               7
100
AcDbLine
 10
147.43935508700974
 20
12.860648404748304
 30
0.0
 11
149.5606754305694
 21
10.739328061188644
 31
0.0
  0
LINE
  5
221
100
AcDbEntity
  8
0
  6
CONTINUOUS
 62
               7
100
AcDbLine
 10
4.9393550870093463
 20
10.739328061188644
 30
0.0
 11
7.060675430569006
 21
12.860648404748304
 31
0.0
  0
LINE
  5
222
100
AcDbEntity
  8
0
  6
CONTINUOUS
 62
               7
100
AcDbLine
 10
4.9393550870093463
 20
12.860648404748304
 30
0.0
 11
7.060675430569006
 21
10.739328061188644
 31
0.0
  0
ENDBLK
  5
223
100
AcDbEntity
  8
0
100
AcDbBlockEnd
  0
BLOCK
  5
224
100
AcDbEntity
  8
0
100
AcDbBlockBegin
  2
DTRB-AL2-3
 70
               0
 10
0.0
 20
0.0
 30
0.0
  3
DTRB-AL2-3
  1

  0
CIRCLE
  5
225
100
AcDbEntity
  8
0
  6
CONTINUOUS
 62
               7
100
AcDbCircle
 10
-39.999999999999972
 20
-6.0000149676551473
 30
0.0
 40
3.0350000858306885
  0
CIRCLE
  5
226
100
AcDbEntity
  8
0
  6
CONTINUOUS
 62
               7
100
AcDbCircle
 10
-39.999999999999972
 20
-6.0000149676551473
 30
0.0
 40
3.1500000953674316
  0
CIRCLE
  5
227
100
AcDbEntity
  8
0
  6
CONTINUOUS
 62
               7
100
AcDbCircle
 10
40.0
 20
-6.0000149676551473
 30
0.0
 40
3.1500000953674316
  0
CIRCLE
  5
228
100
AcDbEntity
  8
0
  6
CONTINUOUS
 62
               7
100
AcDbCircle
 10
40.0
 20
-6.0000149676551473
 30
0.0
 40
3.0350000858306885
  0
CIRCLE
  5
229
100
AcDbEntity
  8
0
  6
CONTINUOUS
 62
               7
100
AcDbCircle
 10
40.0
 20
-291.20002730582075
 30
0.0
 40
3.0350000858306885
  0
CIRCLE
  5
22A
100
AcDbEntity
  8
0
  6
CONTINUOUS
 62
               7
100
AcDbCircle
 10
40.0
 20
-291.20002730582075
 30
0.0
 40
3.1500000953674316
  0
CIRCLE
  5
22B
100
AcDbEntity
  8
0
  6
CONTINUOUS
 62
               7
100
AcDbCircle
 10
-39.999999999999972
 20
-291.20002730582075
 30
0.0
 40
3.0350000858306885
  0
CIRCLE
  5
22C
100
AcDbEntity
  8
0
  6
CONTINUOUS
 62
               7
100
AcDbCircle
 10
-39.999999999999972
 20
-291.20002730582075
 30
0.0
 40
3.1500000953674316
  0
LINE
  5
22D
100
AcDbEntity
  8
0
  6
CONTINUOUS
 62
               7
100
AcDbLine
 10
106.29998697395342
 20
-9.0362760701262914
 30
0.0
 11
106.29998697395342
 21
-2.9637357869231664
 31
0.0
  0
ARC
  5
22E
100
AcDbEntity
  8
0
  6
CONTINUOUS
 62
               7
100
AcDbCircle
 10
98.91760172004706
 20
-6.0000211873137914
 30
0.0
 40
7.9824194908142081
100
AcDbArc
 50
337.64346078089295
 51
22.356542861572724
  0
LINE
  5
22F
100
AcDbEntity
  8
0
  6
CONTINUOUS
 62
               7
100
AcDbLine
 10
106.29997913433101
 20
-2.963749196832282
 30
0.0
 11
105.0000131236294
 21
-2.8500169082589082
 31
0.0
  0
LINE
  5
230
100
AcDbEntity
  8
0
  6
CONTINUOUS
 62
               7
100
AcDbLine
 10
106.30001368997284
 20
-9.0362756811817917
 30
0.0
 11
104.99998687637071
 21
-9.1500132893196451
 31
0.0
  0
LINE
  5
231
100
AcDbEntity
  8
0
  6
CONTINUOUS
 62
               7
100
AcDbLine
 10
106.29998697395342
 20
-151.53627607012669
 30
0.0
 11
106.29998697395342
 21
-145.46373578692356
 31
0.0
  0
ARC
  5
232
100
AcDbEntity
  8
0
  6
CONTINUOUS
 62
               7
100
AcDbCircle
 10
98.91760172004706
 20
-148.50002118731425
 30
0.0
 40
7.9824194908142081
100
AcDbArc
 50
337.64346078089295
 51
22.356542861572724
  0
LINE
  5
233
100
AcDbEntity
  8
0
  6
CONTINUOUS
 62
               7
100
AcDbLine
 10
106.29997913433101
 20
-145.46374919683274
 30
0.0
 11
105.0000131236294
 21
-145.35001690825936
 31
0.0
  0
LINE
  5
234
100
AcDbEntity
  8
0
  6
CONTINUOUS
 62
               7
100
AcDbLine
 10
106.30001368997284
 20
-151.53627568118225
 30
0.0
 11
104.99998687637071
 21
-151.65001328932004
 31
0.0
  0
LINE
  5
235
100
AcDbEntity
  8
0
  6
CONTINUOUS
 62
               7
100
AcDbLine
 10
106.29998697395342
 20
-294.03627607012663
 30
0.0
 11
106.29998697395342
 21
-287.96373578692351
 31
0.0
  0
ARC
  5
236
100
AcDbEntity
  8
0
  6
CONTINUOUS
 62
               7
100
AcDbCircle
 10
98.91760172004706
 20
-291.00002118731425
 30
0.0
 40
7.9824194908142081
100
AcDbArc
 50
337.64346078089295
 51
22.356542861572724
  0
LINE
  5
237
100
AcDbEntity
  8
0
  6
CONTINUOUS
 62
               7
100
AcDbLine
 10
106.29997913433101
 20
-287.96374919683274
 30
0.0
 11
105.0000131236294
 21
-287.85001690825936
 31
0.0
  0
LINE
  5
238
100
AcDbEntity
  8
0
  6
CONTINUOUS
 62
               7
100
AcDbLine
 10
106.30001368997284
 20
-294.03627568118225
 30
0.0
 11
104.99998687637071
 21
-294.15001328931999
 31
0.0
  0
LINE
  5
239
100
AcDbEntity
  8
0
  6
CONTINUOUS
 62
               7
100
AcDbLine
 10
-106.29997913433087
 20
-2.963749196832282
 30
0.0
 11
-105.00001312362926
 21
-2.8500169082589082
 31
0.0
  0
LINE
  5
23A
100
AcDbEntity
  8
0
  6
CONTINUOUS
 62
               7
100
AcDbLine
 10
-106.3000136899727
 20
-9.0362756811817917
 30
0.0
 11
-104.99998687637063
 21
-9.1500132893196451
 31
0.0
  0
ARC
  5
23B
100
AcDbEntity
  8
0
  6
CONTINUOUS
 62
               7
100
AcDbCircle
 10
-98.917601720046974
 20
-6.0000211873137914
 30
0.0
 40
7.9824194908142081
100
AcDbArc
 50
157.64345713842727
 51
202.35653921910705
  0
LINE
  5
23C
100
AcDbEntity
  8
0
  6
CONTINUOUS
 62
               7
100
AcDbLine
 10
-106.29998697395334
 20
-9.0362760701262914
 30
0.0
 11
-106.29998697395334
 21
-2.9637357869231664
 31
0.0
  0
LINE
  5
23D
100
AcDbEntity
  8
0
  6
CONTINUOUS
 62
               7
100
AcDbLine
 10
-106.29997913433087
 20
-145.46374919683274
 30
0.0
 11
-105.00001312362926
 21
-145.35001690825936
 31
0.0
  0
LINE
  5
23E
100
AcDbEntity
  8
0
  6
CONTINUOUS
 62
               7
100
AcDbLine
 10
-106.3000136899727
 20
-151.53627568118225
 30
0.0
 11
-104.99998687637063
 21
-151.65001328932004
 31
0.0
  0
ARC
  5
23F
100
AcDbEntity
  8
0
  6
CONTINUOUS
 62
               7
100
AcDbCircle
 10
-98.917601720046974
 20
-148.50002118731425
 30
0.0
 40
7.9824194908142081
100
AcDbArc
 50
157.64345713842727
 51
202.35653921910705
  0
LINE
  5
240
100
AcDbEntity
  8
0
  6
CONTINUOUS
 62
               7
100
AcDbLine
 10
-106.29998697395334
 20
-151.53627607012669
 30
0.0
 11
-106.29998697395334
 21
-145.46373578692356
 31
0.0
  0
LINE
  5
241
100
AcDbEntity
  8
0
  6
CONTINUOUS
 62
               7
100
AcDbLine
 10
-106.29997913433087
 20
-287.96374919683274
 30
0.0
 11
-105.00001312362926
 21
-287.85001690825936
 31
0.0
  0
LINE
  5
242
100
AcDbEntity
  8
0
  6
CONTINUOUS
 62
               7
100
AcDbLine
 10
-106.3000136899727
 20
-294.03627568118225
 30
0.0
 11
-104.99998687637063
 21
-294.15001328931999
 31
0.0
  0
ARC
  5
243
100
AcDbEntity
  8
0
  6
CONTINUOUS
 62
               7
100
AcDbCircle
 10
-98.917601720046974
 20
-291.00002118731425
 30
0.0
 40
7.9824194908142081
100
AcDbArc
 50
157.64345713842727
 51
202.35653921910705
  0
LINE
  5
244
100
AcDbEntity
  8
0
  6
CONTINUOUS
 62
               7
100
AcDbLine
 10
-106.29998697395334
 20
-294.03627607012663
 30
0.0
 11
-106.29998697395334
 21
-287.96373578692351
 31
0.0
  0
LINE
  5
245
100
AcDbEntity
  8
0
  6
CONTINUOUS
 62
               7
100
AcDbLine
 10
100.10000008000009
 20
5.0999999999999091
 30
0.0
 11
89.900000080000041
 21
5.0999999999999091
 31
0.0
  0
LINE
  5
246
100
AcDbEntity
  8
0
  6
CONTINUOUS
 62
               7
100
AcDbLine
 10
100.10000008000009
 20
1.7999999999999545
 30
0.0
 11
89.900000080000041
 21
1.7999999999999545
 31
0.0
  0
LINE
  5
247
100
AcDbEntity
  8
0
  6
CONTINUOUS
 62
               7
100
AcDbLine
 10
91.50000007999995
 20
5.500015128054315
 30
0.0
 11
91.50000007999995
 21
5.0999999999999091
 31
0.0
  0
LINE
  5
248
100
AcDbEntity
  8
0
  6
CONTINUOUS
 62
               7
100
AcDbLine
 10
98.500000080000063
 20
5.500015128054315
 30
0.0
 11
98.500000080000063
 21
5.0999999999999091
 31
0.0
  0
LINE
  5
249
100
AcDbEntity
  8
0
  6
CONTINUOUS
 62
               7
100
AcDbLine
 10
98.499999988610739
 20
5.5000152914012688
 30
0.0
 11
97.980384874019705
 21
5.8000152794803626
 31
0.0
  0
LINE
  5
24A
100
AcDbEntity
  8
0
  6
CONTINUOUS
 62
               7
100
AcDbLine
 10
97.980384906660106
 20
5.800015318789292
 30
0.0
 11
92.019616207014224
 21
5.800015318789292
 31
0.0
  0
LINE
  5
24B
100
AcDbEntity
  8
0
  6
CONTINUOUS
 62
               7
100
AcDbLine
 10
98.500000080000063
 20
5.500015128054315
 30
0.0
 11
91.50000007999995
 21
5.500015128054315
 31
0.0
  0
LINE
  5
24C
100
AcDbEntity
  8
0
  6
CONTINUOUS
 62
               7
100
AcDbLine
 10
91.500000497021801
 20
5.5000150857499648
 30
0.0
 11
92.019616131854377
 21
5.8000152049592089
 31
0.0
  0
LINE
  5
24D
100
AcDbEntity
  8
0
  6
CONTINUOUS
 62
               2
100
AcDbLine
 10
95.00000007999995
 20
6.8981316021009889
 30
0.0
 11
95.00000007999995
 21
-2.3989891591293144
 31
0.0
  0
LINE
  5
24E
100
AcDbEntity
  8
0
  6
CONTINUOUS
 62
               7
100
AcDbLine
 10
89.900000080000041
 20
5.0999999999999091
 30
0.0
 11
89.900000080000041
 21
0.0
 31
0.0
  0
LINE
  5
24F
100
AcDbEntity
  8
0
  6
CONTINUOUS
 62
               7
100
AcDbLine
 10
100.10000008000009
 20
5.0999999999999091
 30
0.0
 11
100.10000008000009
 21
0.0
 31
0.0
  0
LINE
  5
250
100
AcDbEntity
  8
0
  6
CONTINUOUS
 62
               7
100
AcDbLine
 10
-14.000000000000028
 20
49.49996964242257
 30
0.0
 11
-14.000000000000028
 21
0.0
 31
0.0
  0
LINE
  5
251
100
AcDbEntity
  8
0
  6
CONTINUOUS
 62
               7
100
AcDbLine
 10
105.92436544174632
 20
-17.550005560533805
 30
0.0
 11
105.85000007746396
 21
-18.400005566275695
 31
0.0
  0
LINE
  5
252
100
AcDbEntity
  8
0
  6
CONTINUOUS
 62
               7
100
AcDbLine
 10
110.07563455825402
 20
-17.550005560533805
 30
0.0
 11
110.14999992253627
 21
-18.400005566275695
 31
0.0
  0
LINE
  5
253
100
AcDbEntity
  8
0
  6
CONTINUOUS
 62
               7
100
AcDbLine
 10
110.07563471794128
 20
-17.550005538204459
 30
0.0
 11
105.92436528205883
 21
-17.550005538204687
 31
0.0
  0
ARC
  5
254
100
AcDbEntity
  8
0
  6
CONTINUOUS
 62
               7
100
AcDbCircle
 10
108.00000000000023
 20
-23.52966140005924
 30
0.0
 40
6.3296561241149902
100
AcDbArc
 50
70.857292686107982
 51
109.14270913513137
  0
LINE
  5
255
100
AcDbEntity
  8
0
  6
CONTINUOUS
 62
               7
100
AcDbLine
 10
176.00000000000091
 20
-13.899996025303267
 30
0.0
 11
163.00000000000091
 21
-13.899996025303267
 31
0.0
  0
LINE
  5
256
100
AcDbEntity
  8
0
  6
CONTINUOUS
 62
               2
100
AcDbLine
 10
169.50000000000102
 20
-20.149803641246422
 30
0.0
 11
169.50000000000102
 21
-11.263085857780311
 31
0.0
  0
LINE
  5
257
100
AcDbEntity
  8
0
  6
CONTINUOUS
 62
               7
100
AcDbLine
 10
161.50000000000091
 20
-14.899996025303381
 30
0.0
 11
177.5000000000008
 21
-14.899996025303381
 31
0.0
  0
ARC
  5
258
100
AcDbEntity
  8
0
  6
CONTINUOUS
 62
               7
100
AcDbCircle
 10
176.00000000000091
 20
-14.899996025303381
 30
0.0
 40
1.0
100
AcDbArc
 50
0.0
 51
90.0
  0
ARC
  5
259
100
AcDbEntity
  8
0
  6
CONTINUOUS
 62
               7
100
AcDbCircle
 10
177.5000000000008
 20
-18.399996025303381
 30
0.0
 40
3.4999999999999996
100
AcDbArc
 50
0.0
 51
90.0
  0
ARC
  5
25A
100
AcDbEntity
  8
0
  6
CONTINUOUS
 62
               7
100
AcDbCircle
 10
161.50000000000091
 20
-18.399996025303381
 30
0.0
 40
3.4999999999999996
100
AcDbArc
 50
90.0
 51
180.0
  0
ARC
  5
25B
100
AcDbEntity
  8
0
  6
CONTINUOUS
 62
               7
100
AcDbCircle
 10
163.00000000000091
 20
-14.899996025303381
 30
0.0
 40
1.0
100
AcDbArc
 50
90.0
 51
180.0
  0
LINE
  5
25C
100
AcDbEntity
  8
0
  6
CONTINUOUS
 62
               7
100
AcDbLine
 10
182.5000000000008
 20
-18.400015098789709
 30
0.0
 11
104.50000000000102
 21
-18.400015098789709
 31
0.0
  0
LINE
  5
25D
100
AcDbEntity
  8
0
  6
CONTINUOUS
 62
               7
100
AcDbLine
 10
18.5
 20
49.49996964242257
 30
0.0
 11
18.5
 21
0.0000001599998996
 31
0.0
  0
SPLINE
  5
25E
100
AcDbEntity
  8
0
  6
CONTINUOUS
 62
               7
100
AcDbSpline
210
0.0
220
0.0
230
1.0
 70
               0
 71
               3
 72
               0
 73
               0
 74
               3
 44
0.000001
 12
-0.994162944659953
 22
-0.1078890145707673
 32
0.0
 13
-0.9999789424324792
 23
0.0064895833163881
 33
0.0
 11
44.350000000000023
 21
-306.43387917201005
 31
0.0
 11
39.579992163618613
 21
-306.84770192408303
 31
0.0
 11
31.650000000000126
 21
-307.07907477820015
 31
0.0
  0
LINE
  5
25F
100
AcDbEntity
  8
0
  6
CONTINUOUS
 62
               7
100
AcDbLine
 10
23.5
 20
51.49996964242257
 30
0.0
 11
-19.000000000000028
 21
51.49996964242257
 31
0.0
  0
LINE
  5
260
100
AcDbEntity
  8
0
  6
CONTINUOUS
 62
               7
100
AcDbLine
 10
-19.000000000000028
 20
51.49996964242257
 30
0.0
 11
-19.000000000000028
 21
0.0
 31
0.0
  0
ARC
  5
261
100
AcDbEntity
  8
0
  6
CONTINUOUS
 62
               7
100
AcDbCircle
 10
0.0
 20
609.99998490121175
 30
0.0
 40
920.0
100
AcDbArc
 50
272.76310112686076
 51
276.49788211075821
  0
LINE
  5
262
100
AcDbEntity
  8
0
  6
CONTINUOUS
 62
               7
100
AcDbLine
 10
31.650000000000091
 20
-325.49999999999909
 30
0.0
 11
31.650000000000091
 21
-307.07907477820027
 31
0.0
  0
LINE
  5
263
100
AcDbEntity
  8
0
  6
CONTINUOUS
 62
               7
100
AcDbLine
 10
44.350000000000023
 20
-325.49999999999909
 30
0.0
 11
44.350000000000023
 21
-306.43387917201005
 31
0.0
  0
LINE
  5
264
100
AcDbEntity
  8
0
  6
CONTINUOUS
 62
               7
100
AcDbLine
 10
32.5
 20
-327.99999999999909
 30
0.0
 11
32.5
 21
-326.49999999999898
 31
0.0
  0
LINE
  5
265
100
AcDbEntity
  8
0
  6
CONTINUOUS
 62
               7
100
AcDbLine
 10
43.500000000000114
 20
-327.99999999999909
 30
0.0
 11
43.500000000000114
 21
-326.49999999999898
 31
0.0
  0
LINE
  5
266
100
AcDbEntity
  8
0
  6
CONTINUOUS
 62
               7
100
AcDbLine
 10
32.5
 20
-327.99999999999909
 30
0.0
 11
43.500000000000114
 21
-327.99999999999909
 31
0.0
  0
LINE
  5
267
100
AcDbEntity
  8
0
  6
CONTINUOUS
 62
               7
100
AcDbLine
 10
32.5
 20
-326.49999999999898
 30
0.0
 11
31.650000000000091
 21
-325.49999999999909
 31
0.0
  0
LINE
  5
268
100
AcDbEntity
  8
0
  6
CONTINUOUS
 62
               7
100
AcDbLine
 10
44.350000000000023
 20
-325.49999999999909
 30
0.0
 11
43.500000000000114
 21
-326.49999999999898
 31
0.0
  0
LINE
  5
269
100
AcDbEntity
  8
0
  6
CONTINUOUS
 62
               7
100
AcDbLine
 10
32.5
 20
-326.49999999999898
 30
0.0
 11
43.500000000000114
 21
-326.49999999999898
 31
0.0
  0
LINE
  5
26A
100
AcDbEntity
  8
0
  6
CONTINUOUS
 62
               7
100
AcDbLine
 10
44.350000000000023
 20
-325.49999999999909
 30
0.0
 11
31.650000000000091
 21
-325.49999999999909
 31
0.0
  0
LINE
  5
26B
100
AcDbEntity
  8
0
  6
CONTINUOUS
 62
               7
100
AcDbLine
 10
-104.99999999999997
 20
-59.500015098789731
 30
0.0
 11
-104.99999999999997
 21
-303.09638961050814
 31
0.0
  0
LINE
  5
26C
100
AcDbEntity
  8
0
  6
CONTINUOUS
 62
               7
100
AcDbLine
 10
-31.060660171779858
 20
-7.060675139435034
 30
0.0
 11
-28.939339828220199
 21
-4.9393547958753743
 31
0.0
  0
LINE
  5
26D
100
AcDbEntity
  8
0
  6
CONTINUOUS
 62
               7
100
AcDbLine
 10
-31.060660171779858
 20
-4.9393547958753743
 30
0.0
 11
-28.939339828220199
 21
-7.060675139435034
 31
0.0
  0
LINE
  5
26E
100
AcDbEntity
  8
0
  6
CONTINUOUS
 62
               7
100
AcDbLine
 10
28.939339828220113
 20
-7.060675139435034
 30
0.0
 11
31.060660171779773
 21
-4.9393547958753743
 31
0.0
  0
LINE
  5
26F
100
AcDbEntity
  8
0
  6
CONTINUOUS
 62
               7
100
AcDbLine
 10
28.939339828220113
 20
-4.9393547958753743
 30
0.0
 11
31.060660171779773
 21
-7.060675139435034
 31
0.0
  0
CIRCLE
  5
270
100
AcDbEntity
  8
0
  6
CONTINUOUS
 62
               7
100
AcDbCircle
 10
-30.000000000000028
 20
-6.0000149676551473
 30
0.0
 40
2.1499999999999999
  0
CIRCLE
  5
271
100
AcDbEntity
  8
0
  6
CONTINUOUS
 62
               7
100
AcDbCircle
 10
30.0
 20
-6.0000149676551473
 30
0.0
 40
2.1499999999999999
  0
CIRCLE
  5
272
100
AcDbEntity
  8
0
  6
CONTINUOUS
 62
               7
100
AcDbCircle
 10
30.0
 20
-6.0000149676551473
 30
0.0
 40
2.5
  0
CIRCLE
  5
273
100
AcDbEntity
  8
0
  6
CONTINUOUS
 62
               7
100
AcDbCircle
 10
-30.000000000000028
 20
-6.0000149676551473
 30
0.0
 40
2.5
  0
LINE
  5
274
100
AcDbEntity
  8
0
  6
CONTINUOUS
 62
               7
100
AcDbLine
 10
-34.999999999999972
 20
-60.000015098789731
 30
0.0
 11
-34.999999999999972
 21
-300.20002730582064
 31
0.0
  0
LINE
  5
275
100
AcDbEntity
  8
0
  6
CONTINUOUS
 62
               7
100
AcDbLine
 10
-24.999999999999972
 20
-60.000015098789731
 30
0.0
 11
-24.999999999999972
 21
-300.20002730582064
 31
0.0
  0
LINE
  5
276
100
AcDbEntity
  8
0
  6
CONTINUOUS
 62
               7
100
AcDbLine
 10
-19.499999999999915
 20
-60.000015098789731
 30
0.0
 11
-19.499999999999915
 21
-238.50001509878973
 31
0.0
  0
LINE
  5
277
100
AcDbEntity
  8
0
  6
CONTINUOUS
 62
               7
100
AcDbLine
 10
-13.500000000000028
 20
-60.000015098789731
 30
0.0
 11
-13.500000000000028
 21
-238.50001509878973
 31
0.0
  0
LINE
  5
278
100
AcDbEntity
  8
0
  6
CONTINUOUS
 62
               7
100
AcDbLine
 10
13.500000000000114
 20
-60.000015098789731
 30
0.0
 11
13.500000000000114
 21
-238.50001509878973
 31
0.0
  0
LINE
  5
279
100
AcDbEntity
  8
0
  6
CONTINUOUS
 62
               7
100
AcDbLine
 10
19.5
 20
-60.000015098789731
 30
0.0
 11
19.5
 21
-238.50001509878973
 31
0.0
  0
LINE
  5
27A
100
AcDbEntity
  8
0
  6
CONTINUOUS
 62
               7
100
AcDbLine
 10
25.0
 20
-60.000015098789731
 30
0.0
 11
25.0
 21
-300.20002730582064
 31
0.0
  0
LINE
  5
27B
100
AcDbEntity
  8
0
  6
CONTINUOUS
 62
               7
100
AcDbLine
 10
35.0
 20
-60.000015098789731
 30
0.0
 11
35.0
 21
-300.20002730582064
 31
0.0
  0
LINE
  5
27C
100
AcDbEntity
  8
0
  6
CONTINUOUS
 62
               7
100
AcDbLine
 10
105.00000016000013
 20
0.0
 30
0.0
 11
105.00000016000013
 21
-16.124304048245563
 31
0.0
  0
LINE
  5
27D
100
AcDbEntity
  8
0
  6
CONTINUOUS
 62
               7
100
AcDbLine
 10
105.00000016000013
 20
0.0
 30
0.0
 11
-104.99999999999997
 21
0.0
 31
0.0
  0
LINE
  5
27E
100
AcDbEntity
  8
0
  6
CONTINUOUS
 62
               7
100
AcDbLine
 10
-104.99999999999997
 20
-19.999999840000555
 30
0.0
 11
94.5
 21
-19.999999840000555
 31
0.0
  0
LINE
  5
27F
100
AcDbEntity
  8
0
  6
CONTINUOUS
 62
               7
100
AcDbLine
 10
94.5
 20
-17.000024635532782
 30
0.0
 11
105.14999992253615
 21
-17.000024635532782
 31
0.0
  0
LINE
  5
280
100
AcDbEntity
  8
0
  6
CONTINUOUS
 62
               7
100
AcDbLine
 10
105.0
 20
-17.000024635532782
 30
0.0
 11
105.0
 21
-18.400015098789709
 31
0.0
  0
ARC
  5
281
100
AcDbEntity
  8
0
  6
CONTINUOUS
 62
               7
100
AcDbCircle
 10
109.5
 20
-24.000024635532782
 30
0.0
 40
6.3499999999999996
100
AcDbArc
 50
61.87135403137259
 51
84.698108691994832
  0
ARC
  5
282
100
AcDbEntity
  8
0
  6
CONTINUOUS
 62
               7
100
AcDbCircle
 10
103.00000000000023
 20
-22.129680473545477
 30
0.0
 40
6.3296561241149902
100
AcDbArc
 50
70.857292686105737
 51
109.14270913512912
  0
LINE
  5
283
100
AcDbEntity
  8
0
  6
CONTINUOUS
 62
               7
100
AcDbLine
 10
105.07563471794128
 20
-16.150024611690696
 30
0.0
 11
100.92436528205883
 21
-16.150024611691038
 31
0.0
  0
LINE
  5
284
100
AcDbEntity
  8
0
  6
CONTINUOUS
 62
               7
100
AcDbLine
 10
105.07563455825391
 20
-16.150024634020042
 30
0.0
 11
105.14999992253615
 21
-17.000024639761932
 31
0.0
  0
LINE
  5
285
100
AcDbEntity
  8
0
  6
CONTINUOUS
 62
               7
100
AcDbLine
 10
100.92436544174598
 20
-16.150024634020042
 30
0.0
 11
100.85000007746373
 21
-17.000024639761932
 31
0.0
  0
LINE
  5
286
100
AcDbEntity
  8
0
  6
CONTINUOUS
 62
               7
100
AcDbLine
 10
94.5
 20
-21.000024635532782
 30
0.0
 11
94.5
 21
-17.000024635532782
 31
0.0
  0
LINE
  5
287
100
AcDbEntity
  8
0
  6
CONTINUOUS
 62
               7
100
AcDbLine
 10
105.91561493994732
 20
-17.650024254063055
 30
0.0
 11
105.0
 21
-17.650024254063055
 31
0.0
  0
ARC
  5
288
100
AcDbEntity
  8
0
  6
CONTINUOUS
 62
               7
100
AcDbCircle
 10
-104.50000000399993
 20
-19.499999844000513
 30
0.0
 40
0.4999999959999999
100
AcDbArc
 50
179.99999749552182
 51
270.0
  0
ARC
  5
289
100
AcDbEntity
  8
0
  6
CONTINUOUS
 62
               7
100
AcDbCircle
 10
-85.500000156000084
 20
-19.499999844000513
 30
0.0
 40
0.4999999959999999
100
AcDbArc
 50
270.0
 51
0.0000025044781673
  0
ARC
  5
28A
100
AcDbEntity
  8
0
  6
CONTINUOUS
 62
               7
100
AcDbCircle
 10
-85.500000156000084
 20
-0.5000001560001692
 30
0.0
 40
0.4999999959999999
100
AcDbArc
 50
359.99999749552182
 51
90.0
  0
ARC
  5
28B
100
AcDbEntity
  8
0
  6
CONTINUOUS
 62
               7
100
AcDbCircle
 10
-104.50000000399993
 20
-0.5000001560001692
 30
0.0
 40
0.4999999959999999
100
AcDbArc
 50
90.0
 51
180.00000250447818
  0
ARC
  5
28C
100
AcDbEntity
  8
0
  6
CONTINUOUS
 62
               7
100
AcDbCircle
 10
85.499999996000042
 20
-19.499999844000513
 30
0.0
 40
0.4999999959999999
100
AcDbArc
 50
179.99999749552182
 51
270.0
  0
ARC
  5
28D
100
AcDbEntity
  8
0
  6
CONTINUOUS
 62
               7
100
AcDbCircle
 10
104.49999984399994
 20
-0.5000001560001692
 30
0.0
 40
0.4999999959999999
100
AcDbArc
 50
359.99999749552182
 51
90.0
  0
ARC
  5
28E
100
AcDbEntity
  8
0
  6
CONTINUOUS
 62
               7
100
AcDbCircle
 10
85.499999996000042
 20
-0.5000001560001692
 30
0.0
 40
0.4999999959999999
100
AcDbArc
 50
90.0
 51
180.00000250447818
  0
LINE
  5
28F
100
AcDbEntity
  8
0
  6
CONTINUOUS
 62
               7
100
AcDbLine
 10
101.42153176139368
 20
-15.999999840000442
 30
0.0
 11
85.0
 21
-15.999999840000442
 31
0.0
  0
LINE
  5
290
100
AcDbEntity
  8
0
  6
CONTINUOUS
 62
               7
100
AcDbLine
 10
85.0
 20
-19.999999840000555
 30
0.0
 11
85.0
 21
0.0
 31
0.0
  0
LINE
  5
291
100
AcDbEntity
  8
0
  6
CONTINUOUS
 62
               7
100
AcDbLine
 10
-84.999999999999972
 20
-19.999999840000555
 30
0.0
 11
-84.999999999999972
 21
0.0
 31
0.0
  0
LINE
  5
292
100
AcDbEntity
  8
0
  6
CONTINUOUS
 62
               7
100
AcDbLine
 10
49.800003051757926
 20
-290.00002272818392
 30
0.0
 11
60.199996948242301
 21
-290.00002272818392
 31
0.0
  0
LINE
  5
293
100
AcDbEntity
  8
0
  6
CONTINUOUS
 62
               7
100
AcDbLine
 10
49.800003051757926
 20
-292.40002425406294
 30
0.0
 11
60.199996948242301
 21
-292.40002425406294
 31
0.0
  0
LINE
  5
294
100
AcDbEntity
  8
0
  6
CONTINUOUS
 62
               7
100
AcDbLine
 10
-60.199999332427893
 20
-292.40002425406294
 30
0.0
 11
-60.199999332427893
 21
-290.00002272818392
 31
0.0
  0
LINE
  5
295
100
AcDbEntity
  8
0
  6
CONTINUOUS
 62
               7
100
AcDbLine
 10
60.199996948242301
 20
-292.40002425406294
 30
0.0
 11
60.199996948242301
 21
-290.00002272818392
 31
0.0
  0
LINE
  5
296
100
AcDbEntity
  8
0
  6
CONTINUOUS
 62
               7
100
AcDbLine
 10
-49.799999237060405
 20
-292.40002425406294
 30
0.0
 11
-49.799999237060405
 21
-290.00002272818392
 31
0.0
  0
LINE
  5
297
100
AcDbEntity
  8
0
  6
CONTINUOUS
 62
               7
100
AcDbLine
 10
49.800003051757926
 20
-292.40002425406294
 30
0.0
 11
49.800003051757926
 21
-290.00002272818392
 31
0.0
  0
LINE
  5
298
100
AcDbEntity
  8
0
  6
CONTINUOUS
 62
               7
100
AcDbLine
 10
-60.199999332427893
 20
-290.00002272818392
 30
0.0
 11
-49.799999237060405
 21
-290.00002272818392
 31
0.0
  0
LINE
  5
299
100
AcDbEntity
  8
0
  6
CONTINUOUS
 62
               7
100
AcDbLine
 10
-60.199999332427893
 20
-292.40002425406294
 30
0.0
 11
-49.799999237060405
 21
-292.40002425406294
 31
0.0
  0
LINE
  5
29A
100
AcDbEntity
  8
0
  6
CONTINUOUS
 62
               2
100
AcDbLine
 10
-137.49999999999986
 20
-12.677133681425403
 30
0.0
 11
-137.49999999999986
 21
-66.791279276665932
 31
0.0
  0
LINE
  5
29B
100
AcDbEntity
  8
0
  6
CONTINUOUS
 62
               2
100
AcDbLine
 10
62.5
 20
-12.677133681425403
 30
0.0
 11
62.5
 21
-66.791279276665932
 31
0.0
  0
LINE
  5
29C
100
AcDbEntity
  8
0
  6
CONTINUOUS
 62
               7
100
AcDbLine
 10
-15.778312325477458
 20
-247.75001509878959
 30
0.0
 11
-17.221685886382915
 21
-247.75001509878959
 31
0.0
  0
LINE
  5
29D
100
AcDbEntity
  8
0
  6
CONTINUOUS
 62
               7
100
AcDbLine
 10
-15.778315862125254
 20
-247.75000843813754
 30
0.0
 11
-15.056633851975818
 21
-246.50001422994472
 31
0.0
  0
LINE
  5
29E
100
AcDbEntity
  8
0
  6
CONTINUOUS
 62
               7
100
AcDbLine
 10
-15.056634340793181
 20
-246.50001493148264
 30
0.0
 11
-15.778317680765468
 21
-245.25002258157309
 31
0.0
  0
LINE
  5
29F
100
AcDbEntity
  8
0
  6
CONTINUOUS
 62
               7
100
AcDbLine
 10
-15.778314462677628
 20
-245.2500289270676
 30
0.0
 11
-17.221686712280786
 21
-245.25002988074093
 31
0.0
  0
LINE
  5
2A0
100
AcDbEntity
  8
0
  6
CONTINUOUS
 62
               7
100
AcDbLine
 10
-17.221683148344283
 20
-245.2500228131924
 30
0.0
 11
-17.943365902974421
 21
-246.50001653960896
 31
0.0
  0
LINE
  5
2A1
100
AcDbEntity
  8
0
  6
CONTINUOUS
 62
               7
100
AcDbLine
 10
-17.943365865992547
 20
-246.50001538336608
 30
0.0
 11
-17.221681486603387
 21
-247.75000836991359
 31
0.0
  0
CIRCLE
  5
2A2
100
AcDbEntity
  8
0
  6
CONTINUOUS
 62
               7
100
AcDbCircle
 10
-16.499999999999858
 20
-246.50001509878965
 30
0.0
 40
2.75
  0
LINE
  5
2A3
100
AcDbEntity
  8
0
  6
CONTINUOUS
 62
               7
100
AcDbLine
 10
17.2216876745224
 20
-247.75001509878959
 30
0.0
 11
15.778314113616943
 21
-247.75001509878959
 31
0.0
  0
LINE
  5
2A4
100
AcDbEntity
  8
0
  6
CONTINUOUS
 62
               7
100
AcDbLine
 10
17.221684137874604
 20
-247.75000843813754
 30
0.0
 11
17.943366148024097
 21
-246.50001422994472
 31
0.0
  0
LINE
  5
2A5
100
AcDbEntity
  8
0
  6
CONTINUOUS
 62
               7
100
AcDbLine
 10
17.943365659206734
 20
-246.50001493148264
 30
0.0
 11
17.221682319234333
 21
-245.25002258157309
 31
0.0
  0
LINE
  5
2A6
100
AcDbEntity
  8
0
  6
CONTINUOUS
 62
               7
100
AcDbLine
 10
17.221685537322401
 20
-245.2500289270676
 30
0.0
 11
15.778313287719129
 21
-245.25002988074093
 31
0.0
  0
LINE
  5
2A7
100
AcDbEntity
  8
0
  6
CONTINUOUS
 62
               7
100
AcDbLine
 10
15.778316851655632
 20
-245.2500228131924
 30
0.0
 11
15.056634097025608
 21
-246.50001653960896
 31
0.0
  0
LINE
  5
2A8
100
AcDbEntity
  8
0
  6
CONTINUOUS
 62
               7
100
AcDbLine
 10
15.056634134007254
 20
-246.50001538336608
 30
0.0
 11
15.778318513396584
 21
-247.75000836991359
 31
0.0
  0
CIRCLE
  5
2A9
100
AcDbEntity
  8
0
  6
CONTINUOUS
 62
               7
100
AcDbCircle
 10
16.5
 20
-246.50001509878965
 30
0.0
 40
2.75
  0
LINE
  5
2AA
100
AcDbEntity
  8
0
  6
CONTINUOUS
 62
               7
100
AcDbLine
 10
17.2216876745224
 20
-273.7500150987895
 30
0.0
 11
15.778314113616943
 21
-273.7500150987895
 31
0.0
  0
LINE
  5
2AB
100
AcDbEntity
  8
0
  6
CONTINUOUS
 62
               7
100
AcDbLine
 10
17.221684137874604
 20
-273.75000843813746
 30
0.0
 11
17.943366148024097
 21
-272.50001422994455
 31
0.0
  0
LINE
  5
2AC
100
AcDbEntity
  8
0
  6
CONTINUOUS
 62
               7
100
AcDbLine
 10
17.943365659206734
 20
-272.50001493148261
 30
0.0
 11
17.221682319234333
 21
-271.25002258157303
 31
0.0
  0
LINE
  5
2AD
100
AcDbEntity
  8
0
  6
CONTINUOUS
 62
               7
100
AcDbLine
 10
17.221685537322401
 20
-271.25002892706743
 30
0.0
 11
15.778313287719129
 21
-271.25002988074084
 31
0.0
  0
LINE
  5
2AE
100
AcDbEntity
  8
0
  6
CONTINUOUS
 62
               7
100
AcDbLine
 10
15.778316851655632
 20
-271.25002281319223
 30
0.0
 11
15.056634097025608
 21
-272.50001653960885
 31
0.0
  0
LINE
  5
2AF
100
AcDbEntity
  8
0
  6
CONTINUOUS
 62
               7
100
AcDbLine
 10
15.056634134007254
 20
-272.50001538336596
 30
0.0
 11
15.778318513396584
 21
-273.75000836991342
 31
0.0
  0
CIRCLE
  5
2B0
100
AcDbEntity
  8
0
  6
CONTINUOUS
 62
               7
100
AcDbCircle
 10
16.5
 20
-272.5000150987895
 30
0.0
 40
2.75
  0
LINE
  5
2B1
100
AcDbEntity
  8
0
  6
CONTINUOUS
 62
               7
100
AcDbLine
 10
-15.778312325477458
 20
-273.7500150987895
 30
0.0
 11
-17.221685886382915
 21
-273.7500150987895
 31
0.0
  0
LINE
  5
2B2
100
AcDbEntity
  8
0
  6
CONTINUOUS
 62
               7
100
AcDbLine
 10
-15.778315862125254
 20
-273.75000843813746
 30
0.0
 11
-15.056633851975818
 21
-272.50001422994455
 31
0.0
  0
LINE
  5
2B3
100
AcDbEntity
  8
0
  6
CONTINUOUS
 62
               7
100
AcDbLine
 10
-15.056634340793181
 20
-272.50001493148261
 30
0.0
 11
-15.778317680765468
 21
-271.25002258157303
 31
0.0
  0
LINE
  5
2B4
100
AcDbEntity
  8
0
  6
CONTINUOUS
 62
               7
100
AcDbLine
 10
-15.778314462677628
 20
-271.25002892706743
 30
0.0
 11
-17.221686712280786
 21
-271.25002988074084
 31
0.0
  0
LINE
  5
2B5
100
AcDbEntity
  8
0
  6
CONTINUOUS
 62
               7
100
AcDbLine
 10
-17.221683148344283
 20
-271.25002281319223
 30
0.0
 11
-17.943365902974421
 21
-272.50001653960885
 31
0.0
  0
LINE
  5
2B6
100
AcDbEntity
  8
0
  6
CONTINUOUS
 62
               7
100
AcDbLine
 10
-17.943365865992547
 20
-272.50001538336596
 30
0.0
 11
-17.221681486603387
 21
-273.75000836991342
 31
0.0
  0
CIRCLE
  5
2B7
100
AcDbEntity
  8
0
  6
CONTINUOUS
 62
               7
100
AcDbCircle
 10
-16.499999999999858
 20
-272.5000150987895
 30
0.0
 40
2.75
  0
LINE
  5
2B8
100
AcDbEntity
  8
0
  6
CONTINUOUS
 62
               7
100
AcDbLine
 10
105.92436539558616
 20
-59.850015119205409
 30
0.0
 11
105.85000002964989
 21
-59.000015094560354
 31
0.0
  0
LINE
  5
2B9
100
AcDbEntity
  8
0
  6
CONTINUOUS
 62
               7
100
AcDbLine
 10
110.07563460441384
 20
-59.850015119205523
 30
0.0
 11
110.14999997034988
 21
-59.000015094560581
 31
0.0
  0
LINE
  5
2BA
100
AcDbEntity
  8
0
  6
CONTINUOUS
 62
               7
100
AcDbLine
 10
110.07563471794128
 20
-59.850015122631703
 30
0.0
 11
105.92436528205883
 21
-59.850015122631362
 31
0.0
  0
ARC
  5
2BB
100
AcDbEntity
  8
0
  6
CONTINUOUS
 62
               7
100
AcDbCircle
 10
108.00000000000023
 20
-53.870359260777036
 30
0.0
 40
6.3296561241149902
100
AcDbArc
 50
250.85729086486964
 51
289.14270731389303
  0
CIRCLE
  5
2BC
100
AcDbEntity
  8
0
  6
CONTINUOUS
 62
               7
100
AcDbCircle
 10
49.5
 20
-23.500015098789731
 30
0.0
 40
1.25
  0
CIRCLE
  5
2BD
100
AcDbEntity
  8
0
  6
CONTINUOUS
 62
               2
100
AcDbCircle
 10
49.5
 20
-23.500015098789731
 30
0.0
 40
1.4999999999999998
  0
CIRCLE
  5
2BE
100
AcDbEntity
  8
0
  6
CONTINUOUS
 62
               7
100
AcDbCircle
 10
75.499999999999886
 20
-23.500015098789731
 30
0.0
 40
1.25
  0
CIRCLE
  5
2BF
100
AcDbEntity
  8
0
  6
CONTINUOUS
 62
               2
100
AcDbCircle
 10
75.499999999999886
 20
-23.500015098789731
 30
0.0
 40
1.4999999999999998
  0
CIRCLE
  5
2C0
100
AcDbEntity
  8
0
  6
CONTINUOUS
 62
               7
100
AcDbCircle
 10
75.499999999999886
 20
-56.500015098789618
 30
0.0
 40
1.25
  0
CIRCLE
  5
2C1
100
AcDbEntity
  8
0
  6
CONTINUOUS
 62
               2
100
AcDbCircle
 10
75.499999999999886
 20
-56.500015098789618
 30
0.0
 40
1.4999999999999998
  0
CIRCLE
  5
2C2
100
AcDbEntity
  8
0
  6
CONTINUOUS
 62
               7
100
AcDbCircle
 10
49.5
 20
-56.500015098789618
 30
0.0
 40
1.25
  0
CIRCLE
  5
2C3
100
AcDbEntity
  8
0
  6
CONTINUOUS
 62
               2
100
AcDbCircle
 10
49.5
 20
-56.500015098789618
 30
0.0
 40
1.4999999999999998
  0
ARC
  5
2C4
100
AcDbEntity
  8
0
  6
CONTINUOUS
 62
               7
100
AcDbCircle
 10
52.999999999999886
 20
-29.500015098789618
 30
0.0
 40
3.25
100
AcDbArc
 50
63.164683533596474
 51
116.83531282393785
  0
ARC
  5
2C5
100
AcDbEntity
  8
0
  6
CONTINUOUS
 62
               7
100
AcDbCircle
 10
72.0
 20
-29.500015098789618
 30
0.0
 40
3.25
100
AcDbArc
 50
63.164683533596474
 51
116.83531282393785
  0
ARC
  5
2C6
100
AcDbEntity
  8
0
  6
CONTINUOUS
 62
               7
100
AcDbCircle
 10
52.999999999999886
 20
-50.500015098789731
 30
0.0
 40
3.25
100
AcDbArc
 50
243.16468023218744
 51
296.835316352718
  0
ARC
  5
2C7
100
AcDbEntity
  8
0
  6
CONTINUOUS
 62
               7
100
AcDbCircle
 10
72.0
 20
-50.500015098789731
 30
0.0
 40
3.25
100
AcDbArc
 50
243.16468023218744
 51
296.835316352718
  0
ARC
  5
2C8
100
AcDbEntity
  8
0
  6
CONTINUOUS
 62
               7
100
AcDbCircle
 10
-171.17529296874963
 20
-57.000015098789731
 30
0.0
 40
2.0
100
AcDbArc
 50
202.13136085930475
 51
270.00000250447806
  0
ARC
  5
2C9
100
AcDbEntity
  8
0
  6
CONTINUOUS
 62
               7
100
AcDbCircle
 10
-171.17529296874963
 20
-23.000015098789731
 30
0.0
 40
2.0
100
AcDbArc
 50
89.999991348577993
 51
157.86863048927324
  0
ARC
  5
2CA
100
AcDbEntity
  8
0
  6
CONTINUOUS
 62
               7
100
AcDbCircle
 10
-167.45202636718724
 20
-23.000015098789731
 30
0.0
 40
2.0
100
AcDbArc
 50
89.999991348577993
 51
170.84680953499787
  0
ARC
  5
2CB
100
AcDbEntity
  8
0
  6
CONTINUOUS
 62
               7
100
AcDbCircle
 10
-167.45202636718724
 20
-57.000015098789731
 30
0.0
 40
2.0
100
AcDbArc
 50
189.15318181358012
 51
270.00000250447806
  0
ARC
  5
2CC
100
AcDbEntity
  8
0
  6
CONTINUOUS
 62
               7
100
AcDbCircle
 10
-129.3749999999998
 20
-40.000015098789731
 30
0.0
 40
47.125
100
AcDbArc
 50
157.86864096192809
 51
202.13136085930475
  0
ARC
  5
2CD
100
AcDbEntity
  8
0
  6
CONTINUOUS
 62
               7
100
AcDbCircle
 10
-61.944702148437472
 20
-40.000015098789731
 30
0.0
 40
108.86813354492186
100
AcDbArc
 50
170.84681317746356
 51
189.15318181358012
  0
ARC
  5
2CE
100
AcDbEntity
  8
0
  6
CONTINUOUS
 62
               7
100
AcDbCircle
 10
-16.499999999999858
 20
-282.0000150987895
 30
0.0
 40
2.9999999999999996
100
AcDbArc
 50
179.99999749552182
 51
0.0000025044781673
  0
ARC
  5
2CF
100
AcDbEntity
  8
0
  6
CONTINUOUS
 62
               7
100
AcDbCircle
 10
16.5
 20
-282.0000150987895
 30
0.0
 40
2.9999999999999996
100
AcDbArc
 50
179.99999749552182
 51
0.0000025044781673
  0
CIRCLE
  5
2D0
100
AcDbEntity
  8
0
  6
CONTINUOUS
 62
               7
100
AcDbCircle
 10
16.5
 20
-246.50001509878965
 30
0.0
 40
1.7499999999999998
  0
CIRCLE
  5
2D1
100
AcDbEntity
  8
0
  6
CONTINUOUS
 62
               7
100
AcDbCircle
 10
16.5
 20
-246.50001509878965
 30
0.0
 40
3.25
  0
CIRCLE
  5
2D2
100
AcDbEntity
  8
0
  6
CONTINUOUS
 62
               7
100
AcDbCircle
 10
16.5
 20
-272.5000150987895
 30
0.0
 40
3.25
  0
CIRCLE
  5
2D3
100
AcDbEntity
  8
0
  6
CONTINUOUS
 62
               7
100
AcDbCircle
 10
16.5
 20
-272.5000150987895
 30
0.0
 40
1.7499999999999998
  0
CIRCLE
  5
2D4
100
AcDbEntity
  8
0
  6
CONTINUOUS
 62
               7
100
AcDbCircle
 10
-16.499999999999858
 20
-272.5000150987895
 30
0.0
 40
1.7499999999999998
  0
CIRCLE
  5
2D5
100
AcDbEntity
  8
0
  6
CONTINUOUS
 62
               7
100
AcDbCircle
 10
-16.499999999999858
 20
-272.5000150987895
 30
0.0
 40
3.25
  0
CIRCLE
  5
2D6
100
AcDbEntity
  8
0
  6
CONTINUOUS
 62
               2
100
AcDbCircle
 10
22.0
 20
-277.5000150987895
 30
0.0
 40
1.4999999999999998
  0
CIRCLE
  5
2D7
100
AcDbEntity
  8
0
  6
CONTINUOUS
 62
               7
100
AcDbCircle
 10
22.0
 20
-277.5000150987895
 30
0.0
 40
1.25
  0
CIRCLE
  5
2D8
100
AcDbEntity
  8
0
  6
CONTINUOUS
 62
               7
100
AcDbCircle
 10
-21.999999999999915
 20
-277.5000150987895
 30
0.0
 40
1.25
  0
CIRCLE
  5
2D9
100
AcDbEntity
  8
0
  6
CONTINUOUS
 62
               2
100
AcDbCircle
 10
-21.999999999999915
 20
-277.5000150987895
 30
0.0
 40
1.4999999999999998
  0
CIRCLE
  5
2DA
100
AcDbEntity
  8
0
  6
CONTINUOUS
 62
               2
100
AcDbCircle
 10
-21.999999999999915
 20
-241.50001509878965
 30
0.0
 40
1.4999999999999998
  0
CIRCLE
  5
2DB
100
AcDbEntity
  8
0
  6
CONTINUOUS
 62
               7
100
AcDbCircle
 10
-21.999999999999915
 20
-241.50001509878965
 30
0.0
 40
1.25
  0
ARC
  5
2DC
100
AcDbEntity
  8
0
  6
CONTINUOUS
 62
               7
100
AcDbCircle
 10
-21.999999999999915
 20
-241.50001509878965
 30
0.0
 40
2.9999999999999996
100
AcDbArc
 50
89.999991348577993
 51
180.00000068324533
  0
ARC
  5
2DD
100
AcDbEntity
  8
0
  6
CONTINUOUS
 62
               7
100
AcDbCircle
 10
-21.999999999999915
 20
-277.5000150987895
 30
0.0
 40
2.9999999999999996
100
AcDbArc
 50
179.99999749552182
 51
270.0
  0
ARC
  5
2DE
100
AcDbEntity
  8
0
  6
CONTINUOUS
 62
               7
100
AcDbCircle
 10
22.0
 20
-277.5000150987895
 30
0.0
 40
2.9999999999999996
100
AcDbArc
 50
270.0
 51
0.0000025044781673
  0
ARC
  5
2DF
100
AcDbEntity
  8
0
  6
CONTINUOUS
 62
               7
100
AcDbCircle
 10
22.0
 20
-241.50001509878965
 30
0.0
 40
2.9999999999999996
100
AcDbArc
 50
0.0000025044781673
 51
90.000005008956336
  0
CIRCLE
  5
2E0
100
AcDbEntity
  8
0
  6
CONTINUOUS
 62
               7
100
AcDbCircle
 10
22.0
 20
-241.50001509878965
 30
0.0
 40
1.25
  0
CIRCLE
  5
2E1
100
AcDbEntity
  8
0
  6
CONTINUOUS
 62
               2
100
AcDbCircle
 10
22.0
 20
-241.50001509878965
 30
0.0
 40
1.4999999999999998
  0
CIRCLE
  5
2E2
100
AcDbEntity
  8
0
  6
CONTINUOUS
 62
               7
100
AcDbCircle
 10
-16.499999999999858
 20
-246.50001509878965
 30
0.0
 40
3.25
  0
CIRCLE
  5
2E3
100
AcDbEntity
  8
0
  6
CONTINUOUS
 62
               7
100
AcDbCircle
 10
-16.499999999999858
 20
-246.50001509878965
 30
0.0
 40
1.7499999999999998
  0
ARC
  5
2E4
100
AcDbEntity
  8
0
  6
CONTINUOUS
 62
               7
100
AcDbCircle
 10
0.0
 20
-169.06358321402411
 30
0.0
 40
135.72679138183594
100
AcDbArc
 50
255.0562291149291
 51
284.94377088507088
  0
ARC
  5
2E5
100
AcDbEntity
  8
0
  6
CONTINUOUS
 62
               7
100
AcDbCircle
 10
104.0
 20
-301.99205001089877
 30
0.0
 40
1.0
100
AcDbArc
 50
271.98128483929463
 51
0.0000025044781673
  0
ARC
  5
2E6
100
AcDbEntity
  8
0
  6
CONTINUOUS
 62
               7
100
AcDbCircle
 10
-103.99999999999986
 20
-301.99205001089877
 30
0.0
 40
1.0
100
AcDbArc
 50
179.99999749552182
 51
268.01871516070537
  0
ARC
  5
2E7
100
AcDbEntity
  8
0
  6
CONTINUOUS
 62
               7
100
AcDbCircle
 10
0.0
 20
2704.3327485730802
 30
0.0
 40
3009.123046875
100
AcDbArc
 50
268.01871516070537
 51
271.98128484826367
  0
ARC
  5
2E8
100
AcDbEntity
  8
0
  6
CONTINUOUS
 62
               7
100
AcDbCircle
 10
104.0
 20
-303.00001509878939
 30
0.0
 40
1.0
100
AcDbArc
 50
270.0
 51
0.0000025044781673
  0
ARC
  5
2E9
100
AcDbEntity
  8
0
  6
CONTINUOUS
 62
               7
100
AcDbCircle
 10
104.0
 20
-303.09638961050814
 30
0.0
 40
1.0
100
AcDbArc
 50
276.49788211075821
 51
0.0000025044781673
  0
ARC
  5
2EA
100
AcDbEntity
  8
0
  6
CONTINUOUS
 62
               7
100
AcDbCircle
 10
-103.99999999999986
 20
-303.09638961050814
 30
0.0
 40
1.0
100
AcDbArc
 50
179.99999749552182
 51
263.50211788924179
  0
ARC
  5
2EB
100
AcDbEntity
  8
0
  6
CONTINUOUS
 62
               7
100
AcDbCircle
 10
0.0
 20
609.99998490121175
 30
0.0
 40
920.0
100
AcDbArc
 50
263.50211788924179
 51
271.97148838100151
  0
LINE
  5
2EC
100
AcDbEntity
  8
0
  6
CONTINUOUS
 62
               2
100
AcDbLine
 10
37.694308743115926
 20
-59.500015098789731
 30
0.0
 11
-37.822453857322358
 21
-59.500015098789731
 31
0.0
  0
LINE
  5
2ED
100
AcDbEntity
  8
0
  6
CONTINUOUS
 62
               2
100
AcDbLine
 10
38.46097638372953
 20
-259.50001509878962
 30
0.0
 11
-38.972455318242766
 21
-259.50001509878962
 31
0.0
  0
LINE
  5
2EE
100
AcDbEntity
  8
0
  6
CONTINUOUS
 62
               7
100
AcDbLine
 10
23.5
 20
51.49996964242257
 30
0.0
 11
23.5
 21
0.0000001599998996
 31
0.0
  0
LINE
  5
2EF
100
AcDbEntity
  8
0
  6
CONTINUOUS
 62
               7
100
AcDbLine
 10
83.499999999999886
 20
-26.599990684727231
 30
0.0
 11
83.499999999999886
 21
-21.000015098789618
 31
0.0
  0
LINE
  5
2F0
100
AcDbEntity
  8
0
  6
CONTINUOUS
 62
               7
100
AcDbLine
 10
83.499999999999886
 20
-26.000015098789731
 30
0.0
 11
41.5
 21
-26.000015098789731
 31
0.0
  0
LINE
  5
2F1
100
AcDbEntity
  8
0
  6
CONTINUOUS
 62
               7
100
AcDbLine
 10
41.5
 20
-26.599990684727231
 30
0.0
 11
41.5
 21
-21.000015098789618
 31
0.0
  0
LINE
  5
2F2
100
AcDbEntity
  8
0
  6
CONTINUOUS
 62
               2
100
AcDbLine
 10
49.5
 20
-26.000015098789731
 30
0.0
 11
49.5
 21
-21.000015098789618
 31
0.0
  0
LINE
  5
2F3
100
AcDbEntity
  8
0
  6
CONTINUOUS
 62
               2
100
AcDbLine
 10
47.0
 20
-23.500015098789731
 30
0.0
 11
52.0
 21
-23.500015098789731
 31
0.0
  0
LINE
  5
2F4
100
AcDbEntity
  8
0
  6
CONTINUOUS
 62
               2
100
AcDbLine
 10
75.499999999999886
 20
-26.000015098789731
 30
0.0
 11
75.499999999999886
 21
-21.000015098789618
 31
0.0
  0
LINE
  5
2F5
100
AcDbEntity
  8
0
  6
CONTINUOUS
 62
               2
100
AcDbLine
 10
72.999999999999886
 20
-23.500015098789731
 30
0.0
 11
77.999999999999886
 21
-23.500015098789731
 31
0.0
  0
LINE
  5
2F6
100
AcDbEntity
  8
0
  6
CONTINUOUS
 62
               2
100
AcDbLine
 10
75.499999999999886
 20
-59.000015098789618
 30
0.0
 11
75.499999999999886
 21
-54.000015098789618
 31
0.0
  0
LINE
  5
2F7
100
AcDbEntity
  8
0
  6
CONTINUOUS
 62
               2
100
AcDbLine
 10
72.999999999999886
 20
-56.500015098789618
 30
0.0
 11
77.999999999999886
 21
-56.500015098789618
 31
0.0
  0
LINE
  5
2F8
100
AcDbEntity
  8
0
  6
CONTINUOUS
 62
               2
100
AcDbLine
 10
49.5
 20
-59.000015098789618
 30
0.0
 11
49.5
 21
-54.000015098789618
 31
0.0
  0
LINE
  5
2F9
100
AcDbEntity
  8
0
  6
CONTINUOUS
 62
               2
100
AcDbLine
 10
47.0
 20
-56.500015098789618
 30
0.0
 11
52.0
 21
-56.500015098789618
 31
0.0
  0
LINE
  5
2FA
100
AcDbEntity
  8
0
  6
CONTINUOUS
 62
               7
100
AcDbLine
 10
41.5
 20
-59.000015098789618
 30
0.0
 11
41.5
 21
-53.400039512852118
 31
0.0
  0
LINE
  5
2FB
100
AcDbEntity
  8
0
  6
CONTINUOUS
 62
               7
100
AcDbLine
 10
83.499999999999886
 20
-59.000015098789618
 30
0.0
 11
83.499999999999886
 21
-53.400039512852118
 31
0.0
  0
LINE
  5
2FC
100
AcDbEntity
  8
0
  6
CONTINUOUS
 62
               7
100
AcDbLine
 10
83.499999999999886
 20
-54.000015098789618
 30
0.0
 11
41.5
 21
-54.000015098789618
 31
0.0
  0
LINE
  5
2FD
100
AcDbEntity
  8
0
  6
CONTINUOUS
 62
               7
100
AcDbLine
 10
104.5
 20
-26.600005943516294
 30
0.0
 11
-164.49999999999969
 21
-26.600005943516294
 31
0.0
  0
LINE
  5
2FE
100
AcDbEntity
  8
0
  6
CONTINUOUS
 62
               7
100
AcDbLine
 10
104.5
 20
-28.800018150547544
 30
0.0
 11
-164.49999999999969
 21
-28.800018150547544
 31
0.0
  0
LINE
  5
2FF
100
AcDbEntity
  8
0
  6
CONTINUOUS
 62
               7
100
AcDbLine
 10
104.5
 20
-51.200012047031919
 30
0.0
 11
-164.49999999999969
 21
-51.200012047031919
 31
0.0
  0
LINE
  5
300
100
AcDbEntity
  8
0
  6
CONTINUOUS
 62
               7
100
AcDbLine
 10
104.5
 20
-53.400008995274106
 30
0.0
 11
-164.49999999999969
 21
-53.400008995274106
 31
0.0
  0
LINE
  5
301
100
AcDbEntity
  8
0
  6
CONTINUOUS
 62
               7
100
AcDbLine
 10
104.5
 20
-59.000015098789731
 30
0.0
 11
-171.17529296874963
 21
-59.000015098789731
 31
0.0
  0
LINE
  5
302
100
AcDbEntity
  8
0
  6
CONTINUOUS
 62
               7
100
AcDbLine
 10
104.5
 20
-21.000015098789618
 30
0.0
 11
-171.17529296874963
 21
-21.000015098789618
 31
0.0
  0
LINE
  5
303
100
AcDbEntity
  8
0
  6
CONTINUOUS
 62
               7
100
AcDbLine
 10
-164.49999999999969
 20
-59.000015098789731
 30
0.0
 11
-164.49999999999969
 21
-21.000015098789618
 31
0.0
  0
LINE
  5
304
100
AcDbEntity
  8
0
  6
CONTINUOUS
 62
               7
100
AcDbLine
 10
181.3547363281258
 20
-53.830016929844419
 30
0.0
 11
105.36614990234386
 21
-53.830016929844419
 31
0.0
  0
LINE
  5
305
100
AcDbEntity
  8
0
  6
CONTINUOUS
 62
               7
100
AcDbLine
 10
182.5000000000008
 20
-59.000015098789731
 30
0.0
 11
104.5
 21
-59.000015098789731
 31
0.0
  0
LINE
  5
306
100
AcDbEntity
  8
0
  6
CONTINUOUS
 62
               7
100
AcDbLine
 10
182.5000000000008
 20
-59.000015098789731
 30
0.0
 11
182.5000000000008
 21
-18.400015098789709
 31
0.0
  0
LINE
  5
307
100
AcDbEntity
  8
0
  6
CONTINUOUS
 62
               7
100
AcDbLine
 10
104.5
 20
-59.000015098789731
 30
0.0
 11
104.5
 21
-18.400015098789709
 31
0.0
  0
LINE
  5
308
100
AcDbEntity
  8
0
  6
CONTINUOUS
 62
               7
100
AcDbLine
 10
181.1743164062508
 20
-26.170013267735044
 30
0.0
 11
105.54644775390625
 21
-26.170013267735044
 31
0.0
  0
LINE
  5
309
100
AcDbEntity
  8
0
  6
CONTINUOUS
 62
               2
100
AcDbLine
 10
187.6666259765633
 20
-40.000015098789731
 30
0.0
 11
-181.31774902343719
 21
-40.000015098789731
 31
0.0
  0
LINE
  5
30A
100
AcDbEntity
  8
0
  6
CONTINUOUS
 62
               7
100
AcDbLine
 10
25.0
 20
0.0
 30
0.0
 11
25.0
 21
-19.999999840000555
 31
0.0
  0
LINE
  5
30B
100
AcDbEntity
  8
0
  6
CONTINUOUS
 62
               7
100
AcDbLine
 10
-24.999999999999972
 20
0.0
 30
0.0
 11
-24.999999999999972
 21
-19.999999840000555
 31
0.0
  0
LINE
  5
30C
100
AcDbEntity
  8
0
  6
CONTINUOUS
 62
               7
100
AcDbLine
 10
19.5
 20
-280.5000150987895
 30
0.0
 11
19.5
 21
-282.0000150987895
 31
0.0
  0
LINE
  5
30D
100
AcDbEntity
  8
0
  6
CONTINUOUS
 62
               7
100
AcDbLine
 10
13.500000000000114
 20
-280.5000150987895
 30
0.0
 11
13.500000000000114
 21
-282.0000150987895
 31
0.0
  0
LINE
  5
30E
100
AcDbEntity
  8
0
  6
CONTINUOUS
 62
               7
100
AcDbLine
 10
-19.499999999999915
 20
-280.5000150987895
 30
0.0
 11
-19.499999999999915
 21
-282.0000150987895
 31
0.0
  0
LINE
  5
30F
100
AcDbEntity
  8
0
  6
CONTINUOUS
 62
               7
100
AcDbLine
 10
-13.500000000000028
 20
-280.5000150987895
 30
0.0
 11
-13.500000000000028
 21
-282.0000150987895
 31
0.0
  0
LINE
  5
310
100
AcDbEntity
  8
0
  6
CONTINUOUS
 62
               2
100
AcDbLine
 10
24.5
 20
-277.5000150987895
 30
0.0
 11
19.5
 21
-277.5000150987895
 31
0.0
  0
LINE
  5
311
100
AcDbEntity
  8
0
  6
CONTINUOUS
 62
               2
100
AcDbLine
 10
22.0
 20
-275.0000150987895
 30
0.0
 11
22.0
 21
-280.00001509878939
 31
0.0
  0
LINE
  5
312
100
AcDbEntity
  8
0
  6
CONTINUOUS
 62
               2
100
AcDbLine
 10
-21.999999999999915
 20
-275.0000150987895
 30
0.0
 11
-21.999999999999915
 21
-280.00001509878939
 31
0.0
  0
LINE
  5
313
100
AcDbEntity
  8
0
  6
CONTINUOUS
 62
               2
100
AcDbLine
 10
-19.499999999999915
 20
-277.5000150987895
 30
0.0
 11
-24.499999999999915
 21
-277.5000150987895
 31
0.0
  0
LINE
  5
314
100
AcDbEntity
  8
0
  6
CONTINUOUS
 62
               2
100
AcDbLine
 10
-21.999999999999915
 20
-239.00001509878967
 30
0.0
 11
-21.999999999999915
 21
-244.00001509878965
 31
0.0
  0
LINE
  5
315
100
AcDbEntity
  8
0
  6
CONTINUOUS
 62
               2
100
AcDbLine
 10
-19.499999999999915
 20
-241.50001509878965
 30
0.0
 11
-24.499999999999915
 21
-241.50001509878965
 31
0.0
  0
LINE
  5
316
100
AcDbEntity
  8
0
  6
CONTINUOUS
 62
               2
100
AcDbLine
 10
22.0
 20
-239.00001509878967
 30
0.0
 11
22.0
 21
-244.00001509878965
 31
0.0
  0
LINE
  5
317
100
AcDbEntity
  8
0
  6
CONTINUOUS
 62
               2
100
AcDbLine
 10
24.5
 20
-241.50001509878965
 30
0.0
 11
19.5
 21
-241.50001509878965
 31
0.0
  0
LINE
  5
318
100
AcDbEntity
  8
0
  6
CONTINUOUS
 62
               2
100
AcDbLine
 10
-16.499999999999858
 20
-242.50001509878962
 30
0.0
 11
-16.499999999999858
 21
-250.50001509878962
 31
0.0
  0
LINE
  5
319
100
AcDbEntity
  8
0
  6
CONTINUOUS
 62
               2
100
AcDbLine
 10
-12.499999999999972
 20
-246.50001509878965
 30
0.0
 11
-20.499999999999972
 21
-246.50001509878965
 31
0.0
  0
LINE
  5
31A
100
AcDbEntity
  8
0
  6
CONTINUOUS
 62
               2
100
AcDbLine
 10
16.5
 20
-242.50001509878962
 30
0.0
 11
16.5
 21
-250.50001509878962
 31
0.0
  0
LINE
  5
31B
100
AcDbEntity
  8
0
  6
CONTINUOUS
 62
               2
100
AcDbLine
 10
20.500000000000114
 20
-246.50001509878965
 30
0.0
 11
12.5
 21
-246.50001509878965
 31
0.0
  0
LINE
  5
31C
100
AcDbEntity
  8
0
  6
CONTINUOUS
 62
               2
100
AcDbLine
 10
16.5
 20
-268.5000150987895
 30
0.0
 11
16.5
 21
-276.5000150987895
 31
0.0
  0
LINE
  5
31D
100
AcDbEntity
  8
0
  6
CONTINUOUS
 62
               2
100
AcDbLine
 10
20.500000000000114
 20
-272.5000150987895
 30
0.0
 11
12.5
 21
-272.5000150987895
 31
0.0
  0
LINE
  5
31E
100
AcDbEntity
  8
0
  6
CONTINUOUS
 62
               2
100
AcDbLine
 10
-16.499999999999858
 20
-268.5000150987895
 30
0.0
 11
-16.499999999999858
 21
-276.5000150987895
 31
0.0
  0
LINE
  5
31F
100
AcDbEntity
  8
0
  6
CONTINUOUS
 62
               2
100
AcDbLine
 10
-12.499999999999972
 20
-272.5000150987895
 30
0.0
 11
-20.499999999999972
 21
-272.5000150987895
 31
0.0
  0
LINE
  5
320
100
AcDbEntity
  8
0
  6
CONTINUOUS
 62
               7
100
AcDbLine
 10
22.0
 20
-280.5000150987895
 30
0.0
 11
-21.999999999999915
 21
-280.5000150987895
 31
0.0
  0
LINE
  5
321
100
AcDbEntity
  8
0
  6
CONTINUOUS
 62
               7
100
AcDbLine
 10
22.0
 20
-238.50001509878973
 30
0.0
 11
-21.999999999999915
 21
-238.50001509878973
 31
0.0
  0
LINE
  5
322
100
AcDbEntity
  8
0
  6
CONTINUOUS
 62
               7
100
AcDbLine
 10
-34.999999999999972
 20
0.0
 30
0.0
 11
-34.999999999999972
 21
-19.999999840000555
 31
0.0
  0
LINE
  5
323
100
AcDbEntity
  8
0
  6
CONTINUOUS
 62
               7
100
AcDbLine
 10
35.0
 20
0.0
 30
0.0
 11
35.0
 21
-19.999999840000555
 31
0.0
  0
LINE
  5
324
100
AcDbEntity
  8
0
  6
CONTINUOUS
 62
               7
100
AcDbLine
 10
105.0
 20
-59.000015098789731
 30
0.0
 11
105.0
 21
-303.00001509878939
 31
0.0
  0
LINE
  5
325
100
AcDbEntity
  8
0
  6
CONTINUOUS
 62
               2
100
AcDbLine
 10
0.0
 20
54.265974619630924
 30
0.0
 11
0.0
 21
-315.46725509870862
 31
0.0
  0
LINE
  5
326
100
AcDbEntity
  8
0
  6
CONTINUOUS
 62
               7
100
AcDbLine
 10
-104.99999999999997
 20
-60.000015098789731
 30
0.0
 11
105.0
 21
-60.000015098789731
 31
0.0
  0
LINE
  5
327
100
AcDbEntity
  8
0
  6
CONTINUOUS
 62
               7
100
AcDbLine
 10
-104.99999999999997
 20
-300.20002730582064
 30
0.0
 11
105.0
 21
-300.20002730582064
 31
0.0
  0
LINE
  5
328
100
AcDbEntity
  8
0
  6
CONTINUOUS
 62
               7
100
AcDbLine
 10
-104.99999999999997
 20
0.0000001599998996
 30
0.0
 11
-104.99999999999997
 21
-21.000015098789618
 31
0.0
  0
LINE
  5
329
100
AcDbEntity
  8
0
  6
CONTINUOUS
 62
               7
100
AcDbLine
 10
-41.060660171779801
 20
-7.060675139435034
 30
0.0
 11
-38.939339828220142
 21
-4.9393547958753743
 31
0.0
  0
LINE
  5
32A
100
AcDbEntity
  8
0
  6
CONTINUOUS
 62
               7
100
AcDbLine
 10
-41.060660171779801
 20
-4.9393547958753743
 30
0.0
 11
-38.939339828220142
 21
-7.060675139435034
 31
0.0
  0
LINE
  5
32B
100
AcDbEntity
  8
0
  6
CONTINUOUS
 62
               7
100
AcDbLine
 10
38.93933982822017
 20
-7.060675139435034
 30
0.0
 11
41.06066017177983
 21
-4.9393547958753743
 31
0.0
  0
LINE
  5
32C
100
AcDbEntity
  8
0
  6
CONTINUOUS
 62
               7
100
AcDbLine
 10
38.93933982822017
 20
-4.9393547958753743
 30
0.0
 11
41.06066017177983
 21
-7.060675139435034
 31
0.0
  0
LINE
  5
32D
100
AcDbEntity
  8
0
  6
CONTINUOUS
 62
               7
100
AcDbLine
 10
-41.060660171779801
 20
-292.26068747760064
 30
0.0
 11
-38.939339828220142
 21
-290.13936713404098
 31
0.0
  0
LINE
  5
32E
100
AcDbEntity
  8
0
  6
CONTINUOUS
 62
               7
100
AcDbLine
 10
-41.060660171779801
 20
-290.13936713404098
 30
0.0
 11
-38.939339828220142
 21
-292.26068747760064
 31
0.0
  0
LINE
  5
32F
100
AcDbEntity
  8
0
  6
CONTINUOUS
 62
               7
100
AcDbLine
 10
38.93933982822017
 20
-292.26068747760064
 30
0.0
 11
41.06066017177983
 21
-290.13936713404098
 31
0.0
  0
LINE
  5
330
100
AcDbEntity
  8
0
  6
CONTINUOUS
 62
               7
100
AcDbLine
 10
38.93933982822017
 20
-290.13936713404098
 30
0.0
 11
41.06066017177983
 21
-292.26068747760064
 31
0.0
  0
LINE
  5
331
100
AcDbEntity
  8
0
  6
CONTINUOUS
 62
               2
100
AcDbLine
 10
38.000000000000114
 20
-330.10364889673417
 30
0.0
 11
38.000000000000114
 21
-302.51536484202086
 31
0.0
  0
ENDBLK
  5
332
100
AcDbEntity
  8
0
100
AcDbBlockEnd
  0
BLOCK
  5
22
100
AcDbEntity
  8
0
  6
ByBlock
 62
               0
100
AcDbBlockBegin
  2
_OPEN30
 70
               2
 10
0.0
 20
0.0
 30
0.0
  3
_OPEN30
  1

  0
LINE
  5
23
100
AcDbEntity
  8
0
  6
ByBlock
 62
               0
100
AcDbLine
 10
-1.0
 20
0.267949
 30
0.0
 11
0.0
 21
0.0
 31
0.0
  0
LINE
  5
24
100
AcDbEntity
  8
0
  6
ByBlock
 62
               0
100
AcDbLine
 10
0.0
 20
0.0
 30
0.0
 11
-1.0
 21
-0.267949
 31
0.0
  0
LINE
  5
25
100
AcDbEntity
  8
0
  6
ByBlock
 62
               0
100
AcDbLine
 10
0.0
 20
0.0
 30
0.0
 11
-1.0
 21
0.0
 31
0.0
  0
ENDBLK
  5
26
100
AcDbEntity
  8
0
  6
ByBlock
 62
               0
100
AcDbBlockEnd
  0
BLOCK
  5
337
100
AcDbEntity
  8
0
  6
ByBlock
 62
               0
100
AcDbBlockBegin
  2
*D4
 70
               1
 10
0.0
 20
0.0
 30
0.0
  3
*D4
  1

  0
LINE
  5
338
100
AcDbEntity
  8
0
  6
CONTINUOUS
 62
               2
100
AcDbLine
 10
90.270255852641782
 20
356.32288141736427
 30
0.0
 11
290.27025585264181
 21
356.32288141736427
 31
0.0
  0
LINE
  5
339
100
AcDbEntity
  8
0
  6
CONTINUOUS
 62
               2
100
AcDbLine
 10
90.270255852641782
 20
235.85266657361427
 30
0.0
 11
90.270255852641782
 21
357.82288141736427
 31
0.0
  0
LINE
  5
33A
100
AcDbEntity
  8
0
  6
CONTINUOUS
 62
               2
100
AcDbLine
 10
290.27025585264181
 20
235.85266657361427
 30
0.0
 11
290.27025585264181
 21
357.82288141736427
 31
0.0
  0
INSERT
  5
33B
100
AcDbEntity
  8
0
  6
CONTINUOUS
 62
               2
100
AcDbBlockReference
  2
_OPEN30
 10
90.270255852641782
 20
356.32288141736427
 30
0.0
 41
8.3100000000000005
 42
8.3100000000000005
 43
8.3100000000000005
 50
180.0
  0
INSERT
  5
33C
100
AcDbEntity
  8
0
  6
CONTINUOUS
 62
               2
100
AcDbBlockReference
  2
_OPEN30
 10
290.27025585264181
 20
356.32288141736427
 30
0.0
 41
8.3100000000000005
 42
8.3100000000000005
 43
8.3100000000000005
  0
MTEXT
  5
33E
100
AcDbEntity
  8
0
  6
CONTINUOUS
 62
               2
100
AcDbMText
 10
197.77025585264178
 20
361.82288141736427
 30
0.0
 40
9.0
 41
0.0
 71
               5
 72
               1
  1
\A1;X-STROKE(200）
  7
MX_DIMTXSTY_2
  0
POINT
  5
33F
100
AcDbEntity
  8
DEFPOINTS
  6
CONTINUOUS
 62
               0
100
AcDbPoint
 10
90.270255852641782
 20
234.35266657361427
 30
0.0
  0
POINT
  5
340
100
AcDbEntity
  8
DEFPOINTS
  6
CONTINUOUS
 62
               0
100
AcDbPoint
 10
290.27025585264181
 20
234.35266657361427
 30
0.0
  0
POINT
  5
341
100
AcDbEntity
  8
DEFPOINTS
  6
CONTINUOUS
 62
               0
100
AcDbPoint
 10
290.27025585264181
 20
356.32288141736427
 30
0.0
  0
ENDBLK
  5
342
100
AcDbEntity
  8
0
  6
ByBlock
 62
               0
100
AcDbBlockEnd
  0
BLOCK
  5
345
100
AcDbEntity
  8
0
  6
ByBlock
 62
               0
100
AcDbBlockBegin
  2
*D5
 70
               1
 10
0.0
 20
0.0
 30
0.0
  3
*D5
  1

  0
LINE
  5
346
100
AcDbEntity
  8
0
  6
CONTINUOUS
 62
               2
100
AcDbLine
 10
72.894060002485617
 20
15.873099920692994
 30
0.0
 11
72.894060002485617
 21
215.87309992069299
 31
0.0
  0
LINE
  5
347
100
AcDbEntity
  8
0
  6
CONTINUOUS
 62
               2
100
AcDbLine
 10
190.87513910404812
 20
15.873099920692994
 30
0.0
 11
71.394060002485617
 21
15.873099920692994
 31
0.0
  0
LINE
  5
348
100
AcDbEntity
  8
0
  6
CONTINUOUS
 62
               2
100
AcDbLine
 10
190.87513910404812
 20
215.87309992069299
 30
0.0
 11
71.394060002485617
 21
215.87309992069299
 31
0.0
  0
INSERT
  5
349
100
AcDbEntity
  8
0
  6
CONTINUOUS
 62
               2
100
AcDbBlockReference
  2
_OPEN30
 10
72.894060002485617
 20
15.873099920692994
 30
0.0
 41
8.3100000000000005
 42
8.3100000000000005
 43
8.3100000000000005
 50
270.0
  0
INSERT
  5
34A
100
AcDbEntity
  8
0
  6
CONTINUOUS
 62
               2
100
AcDbBlockReference
  2
_OPEN30
 10
72.894060002485617
 20
215.87309992069299
 30
0.0
 41
8.3100000000000005
 42
8.3100000000000005
 43
8.3100000000000005
 50
90.0
  0
MTEXT
  5
34B
100
AcDbEntity
  8
0
  6
CONTINUOUS
 62
               2
100
AcDbMText
 10
67.394060002485617
 20
117.20264398807581
 30
0.0
 40
9.0
 41
0.0
 71
               5
 72
               1
  1
\A1;Y-STROKE(200）
  7
MX_DIMTXSTY_2
 11
0.0000000000000001
 21
1.0
 31
0.0
  0
POINT
  5
34C
100
AcDbEntity
  8
DEFPOINTS
  6
CONTINUOUS
 62
               0
100
AcDbPoint
 10
192.37513910404812
 20
15.873099920692994
 30
0.0
  0
POINT
  5
34D
100
AcDbEntity
  8
DEFPOINTS
  6
CONTINUOUS
 62
               0
100
AcDbPoint
 10
192.37513910404812
 20
215.87309992069299
 30
0.0
  0
POINT
  5
34E
100
AcDbEntity
  8
DEFPOINTS
  6
CONTINUOUS
 62
               0
100
AcDbPoint
 10
72.894060002485617
 20
215.87309992069299
 30
0.0
  0
ENDBLK
  5
34F
100
AcDbEntity
  8
0
  6
ByBlock
 62
               0
100
AcDbBlockEnd
  0
ENDSEC
  0
SECTION
  2
ENTITIES
  0
INSERT
  5
333
100
AcDbEntity
  8
0
  6
ByBlock
100
AcDbBlockReference
  2
DTRB-AL2-3
 10
227.77025585264187
 20
275.37311501948267
 30
0.0
  0
INSERT
  5
334
100
AcDbEntity
  8
0
  6
ByBlock
100
AcDbBlockReference
  2
DTRB-AL2-2
 10
-340.79833779872286
 20
-307.02454264329413
 30
0.0
  0
INSERT
  5
335
100
AcDbEntity
  8
0
  6
ByBlock
100
AcDbBlockReference
  2
DTRB-AL2-1
 10
218.77309077270633
 20
-307.02456095384116
 30
0.0
  0
DIMENSION
  5
343
100
AcDbEntity
  8
0
  6
CONTINUOUS
 62
               2
100
AcDbDimension
  2
*D4
 10
290.27025585264181
 20
356.32288141736427
 30
0.0
 11
197.77025585264178
 21
356.32288141736427
 31
0.0
 70
             128
  1
X-STROKE(200）
  3
MXDIMSTYLE
100
AcDbAlignedDimension
 13
90.270255852641782
 23
234.35266657361427
 33
0.0
 14
290.27025585264181
 24
234.35266657361427
 34
0.0
100
AcDbRotatedDimension
1001
ACAD
1000
DSTYLE
1002
{
1070
              41
1040
8.3100000000000005
1070
             140
1040
9.0
1070
             340
1005
33D
1002
}
  0
DIMENSION
  5
350
100
AcDbEntity
  8
0
  6
CONTINUOUS
 62
               2
100
AcDbDimension
  2
*D5
 10
72.894060002485617
 20
215.87309992069299
 30
0.0
 11
72.894060002485617
 21
117.20264398807581
 31
0.0
 70
             128
  1
Y-STROKE(200）
  3
MXDIMSTYLE
100
AcDbAlignedDimension
 13
192.37513910404812
 23
15.873099920692994
 33
0.0
 14
192.37513910404812
 24
215.87309992069299
 34
0.0
 50
90.0
100
AcDbRotatedDimension
1001
ACAD
1000
DSTYLE
1002
{
1070
              41
1040
8.3100000000000005
1070
             140
1040
9.0
1070
             340
1005
33D
1002
}
  0
MTEXT
  5
351
100
AcDbEntity
  8
0
  6
CONTINUOUS
 62
             255
100
AcDbMText
 10
-497.41667429606122
 20
378.0
 30
0.0
 40
12.5
 41
0.0
 71
               4
 72
               1
  1
\A1;DTRB-AL2
  0
MTEXT
  5
352
100
AcDbEntity
  8
0
  6
CONTINUOUS
 62
             255
100
AcDbMText
 10
-516.08806047499559
 20
393.0
 30
0.0
 40
12.5
 41
0.0
 71
               4
 72
               1
  1
\W1.038;\A1;CELL MASTER
  0
LINE
  5
353
100
AcDbEntity
  8
0
  6
CONTINUOUS
 62
               7
100
AcDbLine
 10
-564.5
 20
370.5
 30
0.0
 11
-334.5
 21
370.5
 31
0.0
  0
LINE
  5
354
100
AcDbEntity
  8
0
  6
CONTINUOUS
 62
               7
100
AcDbLine
 10
-334.5
 20
400.5
 30
0.0
 11
-334.5
 21
370.5
 31
0.0
  0
LINE
  5
355
100
AcDbEntity
  8
0
  6
CONTINUOUS
 62
               7
100
AcDbLine
 10
344.5
 20
-370.5
 30
0.0
 11
574.5
 21
-370.5
 31
0.0
  0
LINE
  5
356
100
AcDbEntity
  8
0
  6
CONTINUOUS
 62
               7
100
AcDbLine
 10
344.5
 20
-370.5
 30
0.0
 11
344.5
 21
-400.5
 31
0.0
  0
MTEXT
  5
357
100
AcDbEntity
  8
0
  6
CONTINUOUS
 62
               7
100
AcDbMText
 10
350.86206895687951
 20
-385.5
 30
0.0
 40
18.0
 41
0.0
 71
               4
 72
               1
  1
\W1.121;\A1;KOGANEI CORP.
  0
LINE
  5
358
100
AcDbEntity
  8
0
  6
CONTINUOUS
 62
               7
100
AcDbLine
 10
344.5
 20
370.5
 30
0.0
 11
574.5
 21
370.5
 31
0.0
  0
LINE
  5
359
100
AcDbEntity
  8
0
  6
CONTINUOUS
 62
               7
100
AcDbLine
 10
344.5
 20
400.5
 30
0.0
 11
344.5
 21
370.5
 31
0.0
  0
MTEXT
  5
35A
100
AcDbEntity
  8
0
  6
CONTINUOUS
 62
               7
100
AcDbMText
 10
412.2322331979733
 20
385.5
 30
0.0
 40
12.5
 41
0.0
 71
               4
 72
               1
  1
\W1.311;\A1;Ver. 1.0
  0
LINE
  5
35B
100
AcDbEntity
  8
0
  6
CONTINUOUS
 62
               7
100
AcDbLine
 10
574.5
 20
400.5
 30
0.0
 11
574.5
 21
-400.5
 31
0.0
  0
LINE
  5
35C
100
AcDbEntity
  8
0
  6
CONTINUOUS
 62
               7
100
AcDbLine
 10
-564.5
 20
400.5
 30
0.0
 11
574.5
 21
400.5
 31
0.0
  0
LINE
  5
35D
100
AcDbEntity
  8
0
  6
CONTINUOUS
 62
               7
100
AcDbLine
 10
-564.5
 20
-400.5
 30
0.0
 11
574.5
 21
-400.5
 31
0.0
  0
LINE
  5
35E
100
AcDbEntity
  8
0
  6
CONTINUOUS
 62
               7
100
AcDbLine
 10
-564.5
 20
400.5
 30
0.0
 11
-564.5
 21
-400.5
 31
0.0
  0
MTEXT
  5
35F
100
AcDbEntity
  8
0
  6
CONTINUOUS
 62
               7
100
AcDbMText
 10
-538.5625006215181
 20
340.5
 30
0.0
 40
12.5
 41
0.0
 71
               4
 72
               1
  1
\W1.050;\A1;MODEL:DTRB-AL2
  0
ENDSEC
  0
SECTION
  2
OBJECTS
  0
DICTIONARY
  5
19
100
AcDbDictionary
  3
ACAD_GROUP
350
1A
  3
ACAD_MLINESTYLE
350
1B
  0
DICTIONARY
  5
1A
102
{ACAD_REACTORS
330
19
102
}
100
AcDbDictionary
  0
DICTIONARY
  5
1B
102
{ACAD_REACTORS
330
19
102
}
100
AcDbDictionary
  3
STANDARD
350
1C
  0
MLINESTYLE
  5
1C
102
{ACAD_REACTORS
330
1B
102
}
100
AcDbMlineStyle
  2
Standard
 70
               0
  3

 62
               0
 51
90.0
 52
90.0
 71
               2
 49
0.5
 62
             256
  6
ByLayer
 49
-0.5
 62
             256
  6
ByLayer
  0
ENDSEC
  0
EOF
