  0
SECTION
  2
HEADER
  9
$ACADVER
  1
AC1012
  9
$DWGCODEPAGE
  3
dos932
  9
$INSBASE
 10
0.0
 20
0.0
 30
0.0
  9
$EXTMIN
 10
-820.5
 20
-574.5
 30
0.0
  9
$EXTMAX
 10
820.5
 20
575.5
 30
0.0
  9
$LIMMIN
 10
-840.50000000000011
 20
-594.5
  9
$LIMMAX
 10
840.50000000000011
 20
594.5
  9
$ORTHOMODE
 70
               0
  9
$REGENMODE
 70
               1
  9
$FILLMODE
 70
               1
  9
$QTEXTMODE
 70
               0
  9
$MIRRTEXT
 70
               1
  9
$DRAGMODE
 70
               2
  9
$LTSCALE
 40
1.0
  9
$OSMODE
 70
               0
  9
$ATTMODE
 70
               1
  9
$TEXTSIZE
 40
3.2000000476837158
  9
$TRACEWID
 40
0.05
  9
$TEXTSTYLE
  7
MX_NOTE_STANDARD
  9
$CLAYER
  8
0
  9
$CELTYPE
  6
CONTINUOUS
  9
$CECOLOR
 62
             256
  9
$CELTSCALE
 40
1.0
  9
$DELOBJ
 70
               1
  9
$DISPSILH
 70
               0
  9
$DIMSCALE
 40
1.0
  9
$DIMASZ
 40
2.5
  9
$DIMEXO
 40
1.5
  9
$DIMDLI
 40
3.75
  9
$DIMRND
 40
0.0
  9
$DIMDLE
 40
0.0
  9
$DIMEXE
 40
1.5
  9
$DIMTP
 40
0.0
  9
$DIMTM
 40
0.0
  9
$DIMTXT
 40
3.2000000476837158
  9
$DIMCEN
 40
2.5
  9
$DIMTSZ
 40
0.0
  9
$DIMTOL
 70
               0
  9
$DIMLIM
 70
               0
  9
$DIMTIH
 70
               0
  9
$DIMTOH
 70
               0
  9
$DIMSE1
 70
               0
  9
$DIMSE2
 70
               0
  9
$DIMTAD
 70
               1
  9
$DIMZIN
 70
               8
  9
$DIMBLK
  1

  9
$DIMASO
 70
               1
  9
$DIMSHO
 70
               1
  9
$DIMPOST
  1

  9
$DIMAPOST
  1

  9
$DIMALT
 70
               0
  9
$DIMALTD
 70
               4
  9
$DIMALTF
 40
0.03937007874016
  9
$DIMLFAC
 40
1.0
  9
$DIMTOFL
 70
               1
  9
$DIMTVP
 40
0.0
  9
$DIMTIX
 70
               0
  9
$DIMSOXD
 70
               0
  9
$DIMSAH
 70
               1
  9
$DIMBLK1
  1
_OPEN30
  9
$DIMBLK2
  1
_OPEN30
  9
$DIMSTYLE
  2
MXDIMSTYLE
  9
$DIMCLRD
 70
               0
  9
$DIMCLRE
 70
               0
  9
$DIMCLRT
 70
               0
  9
$DIMTFAC
 40
1.0
  9
$DIMGAP
 40
1.0
  9
$DIMJUST
 70
               0
  9
$DIMSD1
 70
               0
  9
$DIMSD2
 70
               0
  9
$DIMTOLJ
 70
               0
  9
$DIMTZIN
 70
               0
  9
$DIMALTZ
 70
               0
  9
$DIMALTTZ
 70
               0
  9
$DIMFIT
 70
               3
  9
$DIMUPT
 70
               1
  9
$DIMUNIT
 70
               2
  9
$DIMDEC
 70
               2
  9
$DIMTDEC
 70
               2
  9
$DIMALTU
 70
               2
  9
$DIMALTTD
 70
               4
  9
$DIMTXSTY
  7
MX_NOTE_STANDARD
  9
$DIMAUNIT
 70
               0
  9
$LUNITS
 70
               2
  9
$LUPREC
 70
               4
  9
$SKETCHINC
 40
0.1
  9
$FILLETRAD
 40
0.0
  9
$AUNITS
 70
               0
  9
$AUPREC
 70
               0
  9
$MENU
  1
acad
  9
$ELEVATION
 40
0.0
  9
$PELEVATION
 40
0.0
  9
$THICKNESS
 40
0.0
  9
$LIMCHECK
 70
               0
  9
$BLIPMODE
 70
               1
  9
$CHAMFERA
 40
0.0
  9
$CHAMFERB
 40
0.0
  9
$CHAMFERC
 40
0.0
  9
$CHAMFERD
 40
0.0
  9
$SKPOLY
 70
               0
  9
$TDCREATE
 40
2453916.737164352
  9
$TDUPDATE
 40
2453916.737164352
  9
$TDINDWG
 40
0.0000000000
  9
$TDUSRTIMER
 40
0.0000000000
  9
$USRTIMER
 70
               1
  9
$ANGBASE
 50
0.0
  9
$ANGDIR
 70
               0
  9
$PDMODE
 70
               0
  9
$PDSIZE
 40
0.0
  9
$PLINEWID
 40
0.0
  9
$COORDS
 70
               1
  9
$SPLFRAME
 70
               0
  9
$SPLINETYPE
 70
               6
  9
$SPLINESEGS
 70
               8
  9
$ATTDIA
 70
               0
  9
$ATTREQ
 70
               1
  9
$HANDLING
 70
               1
  9
$HANDSEED
  5
416
  9
$SURFTAB1
 70
               6
  9
$SURFTAB2
 70
               6
  9
$SURFTYPE
 70
               6
  9
$SURFU
 70
               6
  9
$SURFV
 70
               6
  9
$UCSNAME
  2

  9
$UCSORG
 10
0.0
 20
0.0
 30
0.0
  9
$UCSXDIR
 10
1.0
 20
0.0
 30
0.0
  9
$UCSYDIR
 10
0.0
 20
1.0
 30
0.0
  9
$PUCSNAME
  2

  9
$PUCSORG
 10
0.0
 20
0.0
 30
0.0
  9
$PUCSXDIR
 10
1.0
 20
0.0
 30
0.0
  9
$PUCSYDIR
 10
0.0
 20
1.0
 30
0.0
  9
$USERI1
 70
               0
  9
$USERI2
 70
               0
  9
$USERI3
 70
               0
  9
$USERI4
 70
               0
  9
$USERI5
 70
               0
  9
$USERR1
 40
0.0
  9
$USERR2
 40
0.0
  9
$USERR3
 40
0.0
  9
$USERR4
 40
0.0
  9
$USERR5
 40
0.0
  9
$WORLDVIEW
 70
               1
  9
$SHADEDGE
 70
               3
  9
$SHADEDIF
 70
              70
  9
$TILEMODE
 70
               1
  9
$MAXACTVP
 70
              16
  9
$PINSBASE
 10
0.0
 20
0.0
 30
0.0
  9
$PLIMCHECK
 70
               0
  9
$PEXTMIN
 10
1.0000000000000000E+20
 20
1.0000000000000000E+20
 30
1.0000000000000000E+20
  9
$PEXTMAX
 10
-1.0000000000000000E+20
 20
-1.0000000000000000E+20
 30
-1.0000000000000000E+20
  9
$PLIMMIN
 10
0.0
 20
0.0
  9
$PLIMMAX
 10
12.0
 20
9.0
  9
$UNITMODE
 70
               0
  9
$VISRETAIN
 70
               0
  9
$PLINEGEN
 70
               1
  9
$PSLTSCALE
 70
               0
  9
$TREEDEPTH
 70
            3020
  9
$PICKSTYLE
 70
               1
  9
$CMLSTYLE
  2
Standard
  9
$CMLJUST
 70
               0
  9
$CMLSCALE
 40
1.0
  9
$SAVEIMAGES
 70
               0
  0
ENDSEC
  0
SECTION
  2
CLASSES
  0
CLASS
  1
LWPOLYLINE
  2
AcDbPolyline
  3
"AutoCAD"
 90
    32768
280
               0
281
               1
  0
CLASS
  1
IMAGE
  2
AcDbRasterImage
  3
ISM
 90
    32895
280
               0
281
               1
  0
CLASS
  1
OLE2FRAME
  2
AcDbOle2Frame
  3
""
 90
    32768
280
               0
281
               1
  0
CLASS
  1
HATCH
  2
AcDbHatch
  3
"ACAD_SEDONA"
 90
    32768
280
               0
281
               1
  0
CLASS
  1
DICTIONARYVAR
  2
AcDbDictionaryVar
  3
"AutoCAD"
 90
    32768
280
               0
281
               0
  0
CLASS
  1
RASTERVARIABLES
  2
AcDbRasterVariables
  3
ISM
 90
    32768
280
               0
281
               0
  0
CLASS
  1
IMAGEDEF
  2
AcDbRasterImageDef
  3
ISM
 90
    32768
280
               0
281
               0
  0
CLASS
  1
IMAGEDEF_REACTOR
  2
AcDbRasterImageDefReactor
  3
ISM
 90
    32769
280
               0
281
               0
  0
CLASS
  1
IDBUFFER
  2
AcDbIdBuffer
  3
"Acad"
 90
    32768
280
               0
281
               0
  0
CLASS
  1
SPATIAL_FILTER
  2
AcDbSpatialFilter
  3
"Acad"
 90
    32768
280
               0
281
               0
  0
CLASS
  1
XRECORD
  2
AcDbXrecord
  3
"<Built In>"
 90
    32768
280
               0
281
               0
  0
CLASS
  1
SORTENTSTABLE
  2
AcDbSortentsTable
  3
"AutoCAD"
 90
    32768
280
               0
281
               0
  0
CLASS
  1
LAYER_INDEX
  2
AcDbLayerIndex
  3
"Acad"
 90
    32768
280
               0
281
               0
  0
CLASS
  1
SPATIAL_INDEX
  2
AcDbSpatialIndex
  3
"Acad"
 90
    32768
280
               0
281
               0
  0
CLASS
  1
OBJECT_PTR
  2
CAseDLPNTableRecord
  3
"ASE-LPNTableRecord"
 90
    32769
280
               0
281
               0
  0
CLASS
  1
LAYOUT
  2
AcDbLayout
  3
"AutoCAD 2000"
 90
    32768
280
               0
281
               0
  0
CLASS
  1
PLOTSETTINGS
  2
AcDbPlotSettings
  3
"AutoCAD 2000"
 90
    32768
280
               0
281
               0
  0
CLASS
  1
ACDBDICTIONARYWDFLT
  2
AcDbDictionaryWithDefault
  3
"AutoCAD 2000"
 90
    32768
280
               0
281
               0
  0
CLASS
  1
ACDBPLACEHOLDER
  2
AcDbPlaceHolder
  3
"AutoCAD 2000"
 90
    32768
280
               0
281
               0
  0
ENDSEC
  0
SECTION
  2
TABLES
  0
TABLE
  2
VPORT
  5
7
100
AcDbSymbolTable
 70
               1
  0
VPORT
  5
15
100
AcDbSymbolTableRecord
100
AcDbViewportTableRecord
  2
*ACTIVE
 70
               0
 10
0.0
 20
0.0
 11
1.0
 21
1.0
 12
0.0
 22
0.0
 13
0.0
 23
0.0
 14
1.0
 24
1.0
 15
0.0
 25
0.0
 16
0.0
 26
0.0
 36
1.0
 17
0.0
 27
0.0
 37
0.0
 40
1200.8900000000001
 41
1.7320508075688772
 42
50.0
 43
0.0
 44
0.0
 50
0.0
 51
0.0
 71
               0
 72
             100
 73
               1
 74
               1
 75
               0
 76
               0
 77
               0
 78
               0
  0
ENDTAB
  0
TABLE
  2
LTYPE
  5
4
100
AcDbSymbolTable
 70
               4
  0
LTYPE
  5
11
100
AcDbSymbolTableRecord
100
AcDbLinetypeTableRecord
  2
BYBLOCK
 70
              64
  3

 72
              65
 73
               0
 40
0.0
  0
LTYPE
  5
12
100
AcDbSymbolTableRecord
100
AcDbLinetypeTableRecord
  2
BYLAYER
 70
              64
  3

 72
              65
 73
               0
 40
0.0
  0
LTYPE
  5
13
100
AcDbSymbolTableRecord
100
AcDbLinetypeTableRecord
  2
CONTINUOUS
 70
              64
  3
Solid line
 72
              65
 73
               0
 40
0.0
  0
LTYPE
  5
FE
100
AcDbSymbolTableRecord
100
AcDbLinetypeTableRecord
  2
PHANTOM
 70
              64
  3
Phantom ______  __  __  ______  __  __  ______
 72
              65
 73
               6
 40
63.500000000000007
 49
31.75
 74
               0
 49
-6.3499999999999996
 74
               0
 49
6.3499999999999996
 74
               0
 49
-6.3499999999999996
 74
               0
 49
6.3499999999999996
 74
               0
 49
-6.3499999999999996
 74
               0
  0
ENDTAB
  0
TABLE
  2
LAYER
  5
2
100
AcDbSymbolTable
 70
               2
  0
LAYER
  5
14
100
AcDbSymbolTableRecord
100
AcDbLayerTableRecord
  2
0
 70
               0
 62
               7
  6
CONTINUOUS
  0
LAYER
  5
1D
100
AcDbSymbolTableRecord
100
AcDbLayerTableRecord
  2
DEFPOINTS
 70
               0
 62
               7
  6
CONTINUOUS
  0
ENDTAB
  0
TABLE
  2
STYLE
  5
3
100
AcDbSymbolTable
 70
               2
  0
STYLE
  5
17
100
AcDbSymbolTableRecord
100
AcDbTextStyleTableRecord
  2
MX_NOTE_STANDARD
 70
               0
 40
0.0
 41
1.0
 50
0.0
 71
               0
 42
3.2000000476837158
  3
txt.shx
  4
extfont.shx
  0
STYLE
  5
3E4
100
AcDbSymbolTableRecord
100
AcDbTextStyleTableRecord
  2
MX_DIMTXSTY_2
 70
               0
 40
0.0
 41
1.05
 50
0.0
 71
               0
 42
3.2000000476837158
  3
txt.shx
  4
extfont.shx
  0
ENDTAB
  0
TABLE
  2
VIEW
  5
5
100
AcDbSymbolTable
 70
               0
  0
ENDTAB
  0
TABLE
  2
UCS
  5
6
100
AcDbSymbolTable
 70
               0
  0
ENDTAB
  0
TABLE
  2
APPID
  5
8
100
AcDbSymbolTable
 70
               1
  0
APPID
  5
16
100
AcDbSymbolTableRecord
100
AcDbRegAppTableRecord
  2
ACAD
 70
               0
  0
ENDTAB
  0
TABLE
  2
DIMSTYLE
  5
9
100
AcDbSymbolTable
 70
               1
  0
DIMSTYLE
105
18
100
AcDbSymbolTableRecord
100
AcDbDimStyleTableRecord
  2
MXDIMSTYLE
 70
               0
  3

  4

  5

  6
_OPEN30
  7
_OPEN30
 40
1.0
 41
2.5
 42
1.5
 43
3.75
 44
1.5
 45
0.0
 46
0.0
 47
0.0
 48
0.0
 71
               0
 72
               0
 73
               0
 74
               0
 75
               0
 76
               0
 77
               1
 78
               8
140
3.2000000476837158
141
2.5
142
0.0
143
0.03937007874016
144
1.0
145
0.0
146
1.0
147
1.0
170
               0
171
               4
172
               1
173
               1
174
               0
175
               0
176
               0
177
               0
178
               0
270
               2
271
               2
272
               2
273
               2
274
               4
275
               0
280
               0
281
               0
282
               0
283
               0
284
               0
285
               0
286
               0
287
               3
288
               1
340
17
  0
ENDTAB
  0
TABLE
  2
BLOCK_RECORD
  5
1
100
AcDbSymbolTable
 70
               7
  0
BLOCK_RECORD
  5
A
100
AcDbSymbolTableRecord
100
AcDbBlockTableRecord
  2
*MODEL_SPACE
  0
BLOCK_RECORD
  5
B
100
AcDbSymbolTableRecord
100
AcDbBlockTableRecord
  2
*PAPER_SPACE
  0
BLOCK_RECORD
  5
1E
100
AcDbSymbolTableRecord
100
AcDbBlockTableRecord
  2
DTHB-CS3-1
  0
BLOCK_RECORD
  5
1F
100
AcDbSymbolTableRecord
100
AcDbBlockTableRecord
  2
DTHB-CS3-2
  0
BLOCK_RECORD
  5
20
100
AcDbSymbolTableRecord
100
AcDbBlockTableRecord
  2
DTHB-CS3-3
  0
BLOCK_RECORD
  5
21
100
AcDbSymbolTableRecord
100
AcDbBlockTableRecord
  2
_OPEN30
  0
BLOCK_RECORD
  5
3DD
100
AcDbSymbolTableRecord
100
AcDbBlockTableRecord
  2
*D4
  0
BLOCK_RECORD
  5
3EB
100
AcDbSymbolTableRecord
100
AcDbBlockTableRecord
  2
*D5
  0
BLOCK_RECORD
  5
3F9
100
AcDbSymbolTableRecord
100
AcDbBlockTableRecord
  2
*D6
  0
ENDTAB
  0
ENDSEC
  0
SECTION
  2
BLOCKS
  0
BLOCK
  5
D
100
AcDbEntity
  8
0
100
AcDbBlockBegin
  2
*MODEL_SPACE
 70
               0
 10
0.0
 20
0.0
 30
0.0
  3
*MODEL_SPACE
  1

  0
ENDBLK
  5
E
100
AcDbEntity
  8
0
100
AcDbBlockEnd
  0
BLOCK
  5
F
100
AcDbEntity
 67
               1
  8
0
100
AcDbBlockBegin
  2
*PAPER_SPACE
 70
               0
 10
0.0
 20
0.0
 30
0.0
  3
*PAPER_SPACE
  1

  0
ENDBLK
  5
10
100
AcDbEntity
 67
               1
  8
0
100
AcDbBlockEnd
  0
BLOCK
  5
27
100
AcDbEntity
  8
0
100
AcDbBlockBegin
  2
DTHB-CS3-1
 70
               0
 10
0.0
 20
0.0
 30
0.0
  3
DTHB-CS3-1
  1

  0
CIRCLE
  5
28
100
AcDbEntity
  8
0
  6
CONTINUOUS
 62
               7
100
AcDbCircle
 10
142.99999985416684
 20
252.69995151270822
 30
0.0
 40
1.7500000000000002
  0
LINE
  5
29
100
AcDbEntity
  8
0
  6
CONTINUOUS
 62
               7
100
AcDbLine
 10
1.8999804073470727
 20
428.19998266361972
 30
0.0
 11
1.8999804073470727
 21
415.19998266361978
 31
0.0
  0
LINE
  5
2A
100
AcDbEntity
  8
0
  6
CONTINUOUS
 62
               2
100
AcDbLine
 10
8.1497880232901139
 20
421.69998266361972
 30
0.0
 11
-0.7369297601759968
 21
421.69998266361972
 31
0.0
  0
LINE
  5
2B
100
AcDbEntity
  8
0
  6
CONTINUOUS
 62
               7
100
AcDbLine
 10
2.8999804073471296
 20
413.69998266361983
 30
0.0
 11
2.8999804073471296
 21
429.69998266361978
 31
0.0
  0
ARC
  5
2C
100
AcDbEntity
  8
0
  6
CONTINUOUS
 62
               7
100
AcDbCircle
 10
2.8999804073471296
 20
428.19998266361972
 30
0.0
 40
1.0
100
AcDbArc
 50
90.0
 51
180.0
  0
ARC
  5
2D
100
AcDbEntity
  8
0
  6
CONTINUOUS
 62
               7
100
AcDbCircle
 10
6.3999804073470727
 20
429.69998266361978
 30
0.0
 40
3.5000000000000004
100
AcDbArc
 50
90.0
 51
180.0
  0
ARC
  5
2E
100
AcDbEntity
  8
0
  6
CONTINUOUS
 62
               7
100
AcDbCircle
 10
6.3999804073470727
 20
413.69998266361983
 30
0.0
 40
3.5000000000000004
100
AcDbArc
 50
180.0
 51
270.0
  0
ARC
  5
2F
100
AcDbEntity
  8
0
  6
CONTINUOUS
 62
               7
100
AcDbCircle
 10
2.8999804073471296
 20
415.19998266361978
 30
0.0
 40
1.0
100
AcDbArc
 50
180.0
 51
270.0
  0
LINE
  5
30
100
AcDbEntity
  8
0
  6
CONTINUOUS
 62
               7
100
AcDbLine
 10
6.3999994808334577
 20
434.69998266361978
 30
0.0
 11
6.3999994808334577
 21
356.69998266361972
 31
0.0
  0
ARC
  5
31
100
AcDbEntity
  8
0
  6
CONTINUOUS
 62
               7
100
AcDbCircle
 10
59.899999615833337
 20
203.69995759955714
 30
0.0
 40
1.0
100
AcDbArc
 50
180.0
 51
270.0
  0
LINE
  5
32
100
AcDbEntity
  8
0
  6
CONTINUOUS
 62
               7
100
AcDbLine
 10
63.399999615833281
 20
202.49994928901026
 30
0.0
 11
63.399999615833281
 21
198.19995759955714
 31
0.0
  0
LINE
  5
33
100
AcDbEntity
  8
0
  6
CONTINUOUS
 62
               7
100
AcDbLine
 10
63.899999615833394
 20
198.19995759955714
 30
0.0
 11
63.899999615833394
 21
202.49994928901026
 31
0.0
  0
ARC
  5
34
100
AcDbEntity
  8
0
  6
CONTINUOUS
 62
               7
100
AcDbCircle
 10
63.399999615833281
 20
202.19995759955714
 30
0.0
 40
3.5000000000000004
100
AcDbArc
 50
180.0
 51
270.0
  0
LINE
  5
35
100
AcDbEntity
  8
0
  6
CONTINUOUS
 62
               7
100
AcDbLine
 10
58.899999615833394
 20
216.69995759955714
 30
0.0
 11
58.899999615833394
 21
203.69995759955714
 31
0.0
  0
LINE
  5
36
100
AcDbEntity
  8
0
  6
CONTINUOUS
 62
               7
100
AcDbLine
 10
62.549999614320882
 20
222.27559605429531
 30
0.0
 11
63.399999620062658
 21
222.34996141857755
 31
0.0
  0
LINE
  5
37
100
AcDbEntity
  8
0
  6
CONTINUOUS
 62
               7
100
AcDbLine
 10
62.549999614320654
 20
218.12432693778771
 30
0.0
 11
63.399999620062431
 21
218.04996157350541
 31
0.0
  0
LINE
  5
38
100
AcDbEntity
  8
0
  6
CONTINUOUS
 62
               7
100
AcDbLine
 10
62.549999591991423
 20
218.12432677810023
 30
0.0
 11
62.549999591991423
 21
222.27559621398279
 31
0.0
  0
ARC
  5
39
100
AcDbEntity
  8
0
  6
CONTINUOUS
 62
               7
100
AcDbCircle
 10
68.529655453845976
 20
220.19996149604128
 30
0.0
 40
6.3296561241149902
100
AcDbArc
 50
160.85729086486964
 51
199.14270731389303
  0
ARC
  5
3A
100
AcDbEntity
  8
0
  6
CONTINUOUS
 62
               7
100
AcDbCircle
 10
63.399999615833281
 20
218.19995759955714
 30
0.0
 40
3.5000000000000004
100
AcDbArc
 50
107.58284247057495
 51
180.0
  0
ARC
  5
3B
100
AcDbEntity
  8
0
  6
CONTINUOUS
 62
               7
100
AcDbCircle
 10
66.899999615833281
 20
221.46939143213501
 30
0.0
 40
3.0
100
AcDbArc
 50
134.96855723541546
 51
180.0
  0
ARC
  5
3C
100
AcDbEntity
  8
0
  6
CONTINUOUS
 62
               7
100
AcDbCircle
 10
66.899999615833281
 20
221.46939143213513
 30
0.0
 40
3.5000000000000004
100
AcDbArc
 50
134.9685572354158
 51
179.99999999999997
  0
LINE
  5
3D
100
AcDbEntity
  8
0
  6
CONTINUOUS
 62
               7
100
AcDbLine
 10
63.899999615833394
 20
215.89997370307276
 30
0.0
 11
63.899999615833394
 21
221.46939143213501
 31
0.0
  0
LINE
  5
3E
100
AcDbEntity
  8
0
  6
CONTINUOUS
 62
               7
100
AcDbLine
 10
66.00418749656194
 20
225.52159536236138
 30
0.0
 11
64.426484414911215
 21
223.9456229541878
 31
0.0
  0
LINE
  5
3F
100
AcDbEntity
  8
0
  6
CONTINUOUS
 62
               7
100
AcDbLine
 10
66.00418749656194
 20
224.81487630785654
 30
0.0
 11
64.779843729328718
 21
223.59187559389443
 31
0.0
  0
ARC
  5
40
100
AcDbEntity
  8
0
  6
CONTINUOUS
 62
               7
100
AcDbCircle
 10
59.899999615833337
 20
216.69995759955714
 30
0.0
 40
1.0
100
AcDbArc
 50
90.0
 51
180.0
  0
LINE
  5
41
100
AcDbEntity
  8
0
  6
CONTINUOUS
 62
               7
100
AcDbLine
 10
59.899999615833337
 20
202.19995759955714
 30
0.0
 11
59.899999615833337
 21
218.19995759955714
 31
0.0
  0
LINE
  5
42
100
AcDbEntity
  8
0
  6
CONTINUOUS
 62
               7
100
AcDbLine
 10
63.399999615833281
 20
222.34996141857755
 30
0.0
 11
63.399999615833281
 21
215.89997370307276
 31
0.0
  0
ARC
  5
43
100
AcDbEntity
  8
0
  6
CONTINUOUS
 62
               7
100
AcDbCircle
 10
82.000000000000114
 20
36.849975581687431
 30
0.0
 40
1.0000000000000002
100
AcDbArc
 50
269.99999749552182
 51
0.0
  0
LINE
  5
44
100
AcDbEntity
  8
0
  6
CONTINUOUS
 62
               7
100
AcDbLine
 10
64.99999960416676
 20
195.19998190195315
 30
0.0
 11
104.99999973750016
 21
195.19998190195315
 31
0.0
  0
LINE
  5
45
100
AcDbEntity
  8
0
  6
CONTINUOUS
 62
               7
100
AcDbLine
 10
-62.978504180908203
 20
25.75000152162886
 30
0.0
 11
-62.978504180908203
 21
23.25000152162886
 31
0.0
  0
LINE
  5
46
100
AcDbEntity
  8
0
  6
CONTINUOUS
 62
               7
100
AcDbLine
 10
-62.978504180908203
 20
25.75000152162886
 30
0.0
 11
-82.978506088256836
 21
25.75000152162886
 31
0.0
  0
LINE
  5
47
100
AcDbEntity
  8
0
  6
CONTINUOUS
 62
               7
100
AcDbLine
 10
-82.978506088256836
 20
25.75000152162886
 30
0.0
 11
-82.978506088256836
 21
23.25000152162886
 31
0.0
  0
LINE
  5
48
100
AcDbEntity
  8
0
  6
CONTINUOUS
 62
               7
100
AcDbLine
 10
-85.478506088256836
 20
23.25000152162886
 30
0.0
 11
-82.978506088256836
 21
23.25000152162886
 31
0.0
  0
ARC
  5
49
100
AcDbEntity
  8
0
  6
CONTINUOUS
 62
               7
100
AcDbCircle
 10
-85.478506088256836
 20
19.75000152162886
 30
0.0
 40
3.5000000000000004
100
AcDbArc
 50
90.0
 51
270.0
  0
LINE
  5
4A
100
AcDbEntity
  8
0
  6
CONTINUOUS
 62
               7
100
AcDbLine
 10
-85.478506088256836
 20
16.25000152162886
 30
0.0
 11
-82.978506088256836
 21
16.25000152162886
 31
0.0
  0
LINE
  5
4B
100
AcDbEntity
  8
0
  6
CONTINUOUS
 62
               7
100
AcDbLine
 10
-82.978506088256836
 20
16.25000152162886
 30
0.0
 11
-82.978506088256836
 21
13.350001521628883
 31
0.0
  0
LINE
  5
4C
100
AcDbEntity
  8
0
  6
CONTINUOUS
 62
               7
100
AcDbLine
 10
-62.978504180908203
 20
13.350001521628883
 30
0.0
 11
-82.978506088256836
 21
13.350001521628883
 31
0.0
  0
LINE
  5
4D
100
AcDbEntity
  8
0
  6
CONTINUOUS
 62
               7
100
AcDbLine
 10
-62.978504180908203
 20
16.25000152162886
 30
0.0
 11
-62.978504180908203
 21
13.350001521628883
 31
0.0
  0
LINE
  5
4E
100
AcDbEntity
  8
0
  6
CONTINUOUS
 62
               7
100
AcDbLine
 10
-60.478504180908203
 20
16.25000152162886
 30
0.0
 11
-62.978504180908203
 21
16.25000152162886
 31
0.0
  0
ARC
  5
4F
100
AcDbEntity
  8
0
  6
CONTINUOUS
 62
               7
100
AcDbCircle
 10
-60.478504180908203
 20
19.75000152162886
 30
0.0
 40
3.5000000000000004
100
AcDbArc
 50
270.0
 51
90.0
  0
LINE
  5
50
100
AcDbEntity
  8
0
  6
CONTINUOUS
 62
               7
100
AcDbLine
 10
-60.478504180908203
 20
23.25000152162886
 30
0.0
 11
-62.978504180908203
 21
23.25000152162886
 31
0.0
  0
LINE
  5
51
100
AcDbEntity
  8
0
  6
CONTINUOUS
 62
               7
100
AcDbLine
 10
49.005000953674312
 20
23.84998168520309
 30
0.0
 11
49.005000953674312
 21
11.84998168520309
 31
0.0
  0
LINE
  5
52
100
AcDbEntity
  8
0
  6
CONTINUOUS
 62
               7
100
AcDbLine
 10
49.005000953674312
 20
11.84998168520309
 30
0.0
 11
88.004999999999995
 21
11.84998168520309
 31
0.0
  0
LINE
  5
53
100
AcDbEntity
  8
0
  6
CONTINUOUS
 62
               7
100
AcDbLine
 10
88.004999999999995
 20
23.84998168520309
 30
0.0
 11
88.004999999999995
 21
11.84998168520309
 31
0.0
  0
LINE
  5
54
100
AcDbEntity
  8
0
  6
CONTINUOUS
 62
               7
100
AcDbLine
 10
49.005000953674312
 20
23.84998168520309
 30
0.0
 11
88.004999999999995
 21
23.84998168520309
 31
0.0
  0
LINE
  5
55
100
AcDbEntity
  8
0
  6
CONTINUOUS
 62
               7
100
AcDbLine
 10
5.6500086994398657
 20
358.11559843792418
 30
0.0
 11
5.6500086994398657
 21
357.19998266362006
 31
0.0
  0
LINE
  5
56
100
AcDbEntity
  8
0
  6
CONTINUOUS
 62
               7
100
AcDbLine
 10
4.150009079397023
 20
353.12434810536593
 30
0.0
 11
5.00000908513897
 21
353.0499827410838
 31
0.0
  0
LINE
  5
57
100
AcDbEntity
  8
0
  6
CONTINUOUS
 62
               7
100
AcDbLine
 10
4.1500090793972504
 20
357.2756172218738
 30
0.0
 11
5.00000908513897
 21
357.34998258615605
 31
0.0
  0
LINE
  5
58
100
AcDbEntity
  8
0
  6
CONTINUOUS
 62
               7
100
AcDbLine
 10
4.1500090570677912
 20
357.27561738156135
 30
0.0
 11
4.1500090570680186
 21
353.12434794567878
 31
0.0
  0
LINE
  5
59
100
AcDbEntity
  8
0
  6
CONTINUOUS
 62
               7
100
AcDbLine
 10
5.0000090809096491
 20
346.69998266361995
 30
0.0
 11
5.0000090809096491
 21
357.34998258615605
 31
0.0
  0
ARC
  5
5A
100
AcDbEntity
  8
0
  6
CONTINUOUS
 62
               7
100
AcDbCircle
 10
10.129664918922288
 20
355.19998266362018
 30
0.0
 40
6.3296561241149902
100
AcDbArc
 50
160.85729268610575
 51
199.14270913512914
  0
LINE
  5
5B
100
AcDbEntity
  8
0
  6
CONTINUOUS
 62
               7
100
AcDbLine
 10
5.5499995203247181
 20
358.12434794567866
 30
0.0
 11
5.5499995203247181
 21
362.27561738156123
 31
0.0
  0
ARC
  5
5C
100
AcDbEntity
  8
0
  6
CONTINUOUS
 62
               7
100
AcDbCircle
 10
11.529655382178987
 20
360.19998266361966
 30
0.0
 40
6.3296561241149902
100
AcDbArc
 50
160.85729086486964
 51
199.14270731389303
  0
LINE
  5
5D
100
AcDbEntity
  8
0
  6
CONTINUOUS
 62
               7
100
AcDbLine
 10
5.5499995426539499
 20
358.12434810536621
 30
0.0
 11
6.3999995483956695
 21
358.04998274108397
 31
0.0
  0
LINE
  5
5E
100
AcDbEntity
  8
0
  6
CONTINUOUS
 62
               7
100
AcDbLine
 10
5.5499995426541204
 20
362.27561722187386
 30
0.0
 11
6.3999995483960674
 21
362.34998258615605
 31
0.0
  0
LINE
  5
5F
100
AcDbEntity
  8
0
  6
CONTINUOUS
 62
               7
100
AcDbLine
 10
5.0000090809096491
 20
357.19998266362006
 30
0.0
 11
6.3999994808334577
 21
357.19998266362006
 31
0.0
  0
ARC
  5
60
100
AcDbEntity
  8
0
  6
CONTINUOUS
 62
               7
100
AcDbCircle
 10
12.000009080909706
 20
361.69998266361983
 30
0.0
 40
6.3499999999999996
100
AcDbArc
 50
151.87135524348031
 51
174.69811631459697
  0
LINE
  5
61
100
AcDbEntity
  8
0
  6
CONTINUOUS
 62
               7
100
AcDbLine
 10
9.0000090809095923
 20
346.69998266361995
 30
0.0
 11
5.0000090809096491
 21
346.69998266361995
 31
0.0
  0
ARC
  5
62
100
AcDbEntity
  8
0
  6
CONTINUOUS
 62
               7
100
AcDbCircle
 10
41.870360855192928
 20
360.19998244195313
 30
0.0
 40
6.3296561452138436
100
AcDbArc
 50
340.85729006794099
 51
19.142706516964399
  0
ARC
  5
63
100
AcDbEntity
  8
0
  6
CONTINUOUS
 62
               7
100
AcDbCircle
 10
44.999999537500059
 20
231.02468904261883
 30
0.0
 40
2.0000000066666663
100
AcDbArc
 50
292.13136085930472
 51
0.0
  0
ARC
  5
64
100
AcDbEntity
  8
0
  6
CONTINUOUS
 62
               7
100
AcDbCircle
 10
10.999999424166731
 20
231.02468904261883
 30
0.0
 40
2.0000000066666663
100
AcDbArc
 50
180.00000500895632
 51
247.86863048927324
  0
ARC
  5
65
100
AcDbEntity
  8
0
  6
CONTINUOUS
 62
               7
100
AcDbCircle
 10
10.999999424166731
 20
234.74798617417042
 30
0.0
 40
2.0000000066666663
100
AcDbArc
 50
180.00000500895632
 51
260.84680953499787
  0
ARC
  5
66
100
AcDbEntity
  8
0
  6
CONTINUOUS
 62
               7
100
AcDbCircle
 10
44.999999537500059
 20
234.74798617417042
 30
0.0
 40
2.0000000066666663
100
AcDbArc
 50
279.15318181358009
 51
0.0
  0
ARC
  5
67
100
AcDbEntity
  8
0
  6
CONTINUOUS
 62
               7
100
AcDbCircle
 10
27.999999480833424
 20
272.82498215070314
 30
0.0
 40
47.125000157083328
100
AcDbArc
 50
247.86864096192809
 51
292.13136085930472
  0
ARC
  5
68
100
AcDbEntity
  8
0
  6
CONTINUOUS
 62
               7
100
AcDbCircle
 10
27.999999480833424
 20
340.25534126218975
 30
0.0
 40
108.86813390781565
100
AcDbArc
 50
260.84681317746356
 51
279.15318181358009
  0
CIRCLE
  5
69
100
AcDbEntity
  8
0
  6
CONTINUOUS
 62
               7
100
AcDbCircle
 10
11.49999942583338
 20
301.69998224695314
 30
0.0
 40
1.2500000041666668
  0
CIRCLE
  5
6A
100
AcDbEntity
  8
0
  6
CONTINUOUS
 62
               2
100
AcDbCircle
 10
11.49999942583338
 20
301.69998224695314
 30
0.0
 40
1.5000000049999997
  0
CIRCLE
  5
6B
100
AcDbEntity
  8
0
  6
CONTINUOUS
 62
               7
100
AcDbCircle
 10
11.49999942583338
 20
327.6999823336198
 30
0.0
 40
1.2500000041666668
  0
CIRCLE
  5
6C
100
AcDbEntity
  8
0
  6
CONTINUOUS
 62
               2
100
AcDbCircle
 10
11.49999942583338
 20
327.6999823336198
 30
0.0
 40
1.5000000049999997
  0
CIRCLE
  5
6D
100
AcDbEntity
  8
0
  6
CONTINUOUS
 62
               7
100
AcDbCircle
 10
44.49999953583341
 20
327.6999823336198
 30
0.0
 40
1.2500000041666668
  0
CIRCLE
  5
6E
100
AcDbEntity
  8
0
  6
CONTINUOUS
 62
               2
100
AcDbCircle
 10
44.49999953583341
 20
327.6999823336198
 30
0.0
 40
1.5000000049999997
  0
CIRCLE
  5
6F
100
AcDbEntity
  8
0
  6
CONTINUOUS
 62
               7
100
AcDbCircle
 10
44.49999953583341
 20
301.69998224695314
 30
0.0
 40
1.2500000041666668
  0
CIRCLE
  5
70
100
AcDbEntity
  8
0
  6
CONTINUOUS
 62
               2
100
AcDbCircle
 10
44.49999953583341
 20
301.69998224695314
 30
0.0
 40
1.5000000049999997
  0
ARC
  5
71
100
AcDbEntity
  8
0
  6
CONTINUOUS
 62
               7
100
AcDbCircle
 10
17.499999445833396
 20
305.1999822586198
 30
0.0
 40
3.2500000108333333
100
AcDbArc
 50
153.16468353359647
 51
206.8353264843162
  0
ARC
  5
72
100
AcDbEntity
  8
0
  6
CONTINUOUS
 62
               7
100
AcDbCircle
 10
17.499999445833396
 20
324.19998232195314
 30
0.0
 40
3.2500000108333333
100
AcDbArc
 50
153.16468353359647
 51
206.8353264843162
  0
ARC
  5
73
100
AcDbEntity
  8
0
  6
CONTINUOUS
 62
               7
100
AcDbCircle
 10
38.499999515833395
 20
305.1999822586198
 30
0.0
 40
3.2500000108333333
100
AcDbArc
 50
333.16467852464012
 51
26.835321475359859
  0
ARC
  5
74
100
AcDbEntity
  8
0
  6
CONTINUOUS
 62
               7
100
AcDbCircle
 10
38.499999515833395
 20
324.19998232195314
 30
0.0
 40
3.2500000108333333
100
AcDbArc
 50
333.16467852464012
 51
26.835321475359859
  0
ARC
  5
75
100
AcDbEntity
  8
0
  6
CONTINUOUS
 62
               7
100
AcDbCircle
 10
67.129638283140594
 20
205.19998192528647
 30
0.0
 40
6.3296561452138436
100
AcDbArc
 50
160.85729336935006
 51
199.14270298818428
  0
ARC
  5
76
100
AcDbEntity
  8
0
  6
CONTINUOUS
 62
               7
100
AcDbCircle
 10
67.129638283140594
 20
213.19998195195308
 30
0.0
 40
6.3296561452138436
100
AcDbArc
 50
160.85729336935006
 51
199.14270298818428
  0
ARC
  5
77
100
AcDbEntity
  8
0
  6
CONTINUOUS
 62
               7
100
AcDbCircle
 10
98.870361045193022
 20
206.19998192861976
 30
0.0
 40
6.3296561452138436
100
AcDbArc
 50
340.85729006794099
 51
19.142706516964399
  0
ARC
  5
78
100
AcDbEntity
  8
0
  6
CONTINUOUS
 62
               7
100
AcDbCircle
 10
98.870361045193022
 20
220.19998197528645
 30
0.0
 40
6.3296561452138436
100
AcDbArc
 50
340.85729006794099
 51
19.142706516964399
  0
ARC
  5
79
100
AcDbEntity
  8
0
  6
CONTINUOUS
 62
               7
100
AcDbCircle
 10
96.499999709166673
 20
227.19998199861982
 30
0.0
 40
2.4000001033674319
100
AcDbArc
 50
331.17621921195268
 51
163.04248945089057
  0
ARC
  5
7A
100
AcDbEntity
  8
0
  6
CONTINUOUS
 62
               7
100
AcDbCircle
 10
73.499999632500021
 20
227.19998199861982
 30
0.0
 40
2.4000001033674319
100
AcDbArc
 50
16.957513850518463
 51
208.82378579700367
  0
ARC
  5
7B
100
AcDbEntity
  8
0
  6
CONTINUOUS
 62
               7
100
AcDbCircle
 10
100.99999972416674
 20
201.1999819119531
 30
0.0
 40
3.0000000099999995
100
AcDbArc
 50
269.99999749552182
 51
0.0
  0
ARC
  5
7C
100
AcDbEntity
  8
0
  6
CONTINUOUS
 62
               7
100
AcDbCircle
 10
97.999999714166734
 20
228.69998200361977
 30
0.0
 40
2.0000000066666663
100
AcDbArc
 50
60.000001669652114
 51
90.000002504478161
  0
ARC
  5
7D
100
AcDbEntity
  8
0
  6
CONTINUOUS
 62
               7
100
AcDbCircle
 10
71.99999962749996
 20
228.69998200361977
 30
0.0
 40
2.0000000066666663
100
AcDbArc
 50
90.000002504478161
 51
120.00000333930423
  0
ARC
  5
7E
100
AcDbEntity
  8
0
  6
CONTINUOUS
 62
               7
100
AcDbCircle
 10
95.792907421653467
 20
225.5999758897708
 30
0.0
 40
2.2999999599829506
100
AcDbArc
 50
45.00000125223908
 51
90.000002504478161
  0
ARC
  5
7F
100
AcDbEntity
  8
0
  6
CONTINUOUS
 62
               7
100
AcDbCircle
 10
69.499999619166715
 20
219.19580106373604
 30
0.0
 40
3.5000000116666663
100
AcDbArc
 50
135.00000034162267
 51
180.00000500895632
  0
ARC
  5
80
100
AcDbEntity
  8
0
  6
CONTINUOUS
 62
               7
100
AcDbCircle
 10
100.49999972250009
 20
219.19580106373604
 30
0.0
 40
3.5000000116666663
100
AcDbArc
 50
0.0000000000000509
 51
45.00000125223908
  0
ARC
  5
81
100
AcDbEntity
  8
0
  6
CONTINUOUS
 62
               7
100
AcDbCircle
 10
74.20709192001334
 20
225.5999758897708
 30
0.0
 40
2.2999999599829506
100
AcDbArc
 50
90.000002504478161
 51
135.00000034162267
  0
ARC
  5
82
100
AcDbEntity
  8
0
  6
CONTINUOUS
 62
               7
100
AcDbCircle
 10
68.999999617500066
 20
201.1999819119531
 30
0.0
 40
3.0000000099999995
100
AcDbArc
 50
179.99999499104368
 51
269.99999749552182
  0
ARC
  5
83
100
AcDbEntity
  8
0
  6
CONTINUOUS
 62
               7
100
AcDbCircle
 10
97.999999714166734
 20
228.69998200361977
 30
0.0
 40
1.5000000049999997
100
AcDbArc
 50
45.00000125223908
 51
90.000002504478161
  0
ARC
  5
84
100
AcDbEntity
  8
0
  6
CONTINUOUS
 62
               7
100
AcDbCircle
 10
103.49999973249999
 20
231.19995149437489
 30
0.0
 40
0.5000000016666666
100
AcDbArc
 50
7.4208451464152363
 51
90.000002504478161
  0
ARC
  5
85
100
AcDbEntity
  8
0
  6
CONTINUOUS
 62
               7
100
AcDbCircle
 10
71.99999962749996
 20
228.69998200361977
 30
0.0
 40
1.5000000049999997
100
AcDbArc
 50
90.000002504478161
 51
135.00000034162267
  0
ARC
  5
86
100
AcDbEntity
  8
0
  6
CONTINUOUS
 62
               7
100
AcDbCircle
 10
99.499999719166681
 20
231.19995149437489
 30
0.0
 40
0.5000000016666666
100
AcDbArc
 50
90.000002504478161
 51
180.00000500895632
  0
ARC
  5
87
100
AcDbEntity
  8
0
  6
CONTINUOUS
 62
               7
100
AcDbCircle
 10
70.499999622500127
 20
231.19995149437489
 30
0.0
 40
0.5000000016666666
100
AcDbArc
 50
0.0
 51
90.000002504478161
  0
ARC
  5
88
100
AcDbEntity
  8
0
  6
CONTINUOUS
 62
               7
100
AcDbCircle
 10
66.499999609166707
 20
231.19995149437489
 30
0.0
 40
0.5000000016666666
100
AcDbArc
 50
89.999995674288996
 51
172.57915473989922
  0
CIRCLE
  5
89
100
AcDbEntity
  8
0
  6
CONTINUOUS
 62
               7
100
AcDbCircle
 10
73.499999632500021
 20
258.69995158604155
 30
0.0
 40
2.0750000546003822
  0
CIRCLE
  5
8A
100
AcDbEntity
  8
0
  6
CONTINUOUS
 62
               7
100
AcDbCircle
 10
73.499999632500021
 20
258.69995158604155
 30
0.0
 40
2.1500001025340985
  0
CIRCLE
  5
8B
100
AcDbEntity
  8
0
  6
CONTINUOUS
 62
               7
100
AcDbCircle
 10
73.499999632500021
 20
244.69995153937487
 30
0.0
 40
2.0750000546003822
  0
CIRCLE
  5
8C
100
AcDbEntity
  8
0
  6
CONTINUOUS
 62
               7
100
AcDbCircle
 10
73.499999632500021
 20
244.69995153937487
 30
0.0
 40
2.1500001025340985
  0
ARC
  5
8D
100
AcDbEntity
  8
0
  6
CONTINUOUS
 62
               7
100
AcDbCircle
 10
-101.45025729832372
 20
261.39996380207282
 30
0.0
 40
5.0000000166666672
100
AcDbArc
 50
90.000002504478161
 51
140.58004632746963
  0
ARC
  5
8E
100
AcDbEntity
  8
0
  6
CONTINUOUS
 62
               7
100
AcDbCircle
 10
-57.000000802499926
 20
248.69995155270823
 30
0.0
 40
50.000000166666666
100
AcDbArc
 50
161.77401403899248
 51
191.03970806633964
  0
ARC
  5
8F
100
AcDbEntity
  8
0
  6
CONTINUOUS
 62
               7
100
AcDbCircle
 10
-104.02777195535293
 20
242.69995153270821
 30
0.0
 40
6.000000019999999
100
AcDbArc
 50
198.4084749552519
 51
269.99999749552182
  0
ARC
  5
90
100
AcDbEntity
  8
0
  6
CONTINUOUS
 62
               7
100
AcDbCircle
 10
-103.1302499797049
 20
239.6999515227082
 30
0.0
 40
3.0000000099999995
100
AcDbArc
 50
191.03971170880533
 51
269.99999749552182
  0
ARC
  5
91
100
AcDbEntity
  8
0
  6
CONTINUOUS
 62
               7
100
AcDbCircle
 10
-86.000000899166594
 20
248.69995155270823
 30
0.0
 40
25.000000083333333
100
AcDbArc
 50
140.58004632746963
 51
198.40848497316458
  0
ARC
  5
92
100
AcDbEntity
  8
0
  6
CONTINUOUS
 62
               7
100
AcDbCircle
 10
-101.64202975990037
 20
263.39996380873953
 30
0.0
 40
3.0000000099999995
100
AcDbArc
 50
90.000002504478161
 51
161.77401403899248
  0
LINE
  5
93
100
AcDbEntity
  8
0
  6
CONTINUOUS
 62
               7
100
AcDbLine
 10
48.249999548333335
 20
229.19995148770823
 30
0.0
 11
45.818786161323146
 21
229.19995148770823
 31
0.0
  0
LINE
  5
94
100
AcDbEntity
  8
0
  6
CONTINUOUS
 62
               7
100
AcDbLine
 10
48.249998604821769
 20
229.19998127145521
 30
0.0
 11
47.750007892595818
 21
228.69999245579851
 31
0.0
  0
LINE
  5
95
100
AcDbEntity
  8
0
  6
CONTINUOUS
 62
               7
100
AcDbLine
 10
48.249999548333335
 20
229.19995148770823
 30
0.0
 11
48.249999548333335
 21
231.69995149604159
 31
0.0
  0
LINE
  5
96
100
AcDbEntity
  8
0
  6
CONTINUOUS
 62
               7
100
AcDbLine
 10
47.749999546666686
 20
228.69995148604158
 30
0.0
 11
44.54528762192183
 21
228.69995148604158
 31
0.0
  0
LINE
  5
97
100
AcDbEntity
  8
0
  6
CONTINUOUS
 62
               7
100
AcDbLine
 10
8.9999994174999642
 20
249.89996376373949
 30
0.0
 11
-99.000000942499923
 21
249.89996376373949
 31
0.0
  0
LINE
  5
98
100
AcDbEntity
  8
0
  6
CONTINUOUS
 62
               7
100
AcDbLine
 10
69.999999620833478
 20
249.89996376373949
 30
0.0
 11
46.999999544166712
 21
249.89996376373949
 31
0.0
  0
LINE
  5
99
100
AcDbEntity
  8
0
  6
CONTINUOUS
 62
               7
100
AcDbLine
 10
69.999999620833478
 20
246.49996985592185
 30
0.0
 11
46.999999544166712
 21
246.49996985592185
 31
0.0
  0
LINE
  5
9A
100
AcDbEntity
  8
0
  6
CONTINUOUS
 62
               7
100
AcDbLine
 10
8.9999994174999642
 20
246.49996985592185
 30
0.0
 11
-99.000000942499923
 21
246.49996985592185
 31
0.0
  0
LINE
  5
9B
100
AcDbEntity
  8
0
  6
CONTINUOUS
 62
               7
100
AcDbLine
 10
46.999999544166712
 20
320.19998230861978
 30
0.0
 11
48.999999550833309
 21
320.19998230861978
 31
0.0
  0
LINE
  5
9C
100
AcDbEntity
  8
0
  6
CONTINUOUS
 62
               7
100
AcDbLine
 10
8.9999994174999642
 20
270.19995162437488
 30
0.0
 11
6.9999994108333681
 21
270.19995162437488
 31
0.0
  0
LINE
  5
9D
100
AcDbEntity
  8
0
  6
CONTINUOUS
 62
               7
100
AcDbLine
 10
8.9999994174999642
 20
258.59997599977078
 30
0.0
 11
6.9999994108333681
 21
258.59997599977078
 31
0.0
  0
LINE
  5
9E
100
AcDbEntity
  8
0
  6
CONTINUOUS
 62
               7
100
AcDbLine
 10
8.9999994174999642
 20
257.69995158270825
 30
0.0
 11
-99.000000942499923
 21
257.69995158270825
 31
0.0
  0
LINE
  5
9F
100
AcDbEntity
  8
0
  6
CONTINUOUS
 62
               7
100
AcDbLine
 10
8.9999994174999642
 20
236.6999515127082
 30
0.0
 11
-104.02777195535293
 21
236.6999515127082
 31
0.0
  0
LINE
  5
A0
100
AcDbEntity
  8
0
  6
CONTINUOUS
 62
               7
100
AcDbLine
 10
46.999999544166712
 20
231.69995149604159
 30
0.0
 11
105.49999973916681
 21
231.69995149604159
 31
0.0
  0
LINE
  5
A1
100
AcDbEntity
  8
0
  6
CONTINUOUS
 62
               7
100
AcDbLine
 10
47.849975132937459
 20
362.27560500746563
 30
0.0
 11
47.849975132937459
 21
358.12435987644062
 31
0.0
  0
LINE
  5
A2
100
AcDbEntity
  8
0
  6
CONTINUOUS
 62
               7
100
AcDbLine
 10
47.850026391463302
 20
362.27565135361499
 30
0.0
 11
47.000001840940058
 21
362.35001886528738
 31
0.0
  0
LINE
  5
A3
100
AcDbEntity
  8
0
  6
CONTINUOUS
 62
               7
100
AcDbLine
 10
47.850037872626558
 20
358.12436124198962
 30
0.0
 11
47.000013322103371
 21
358.04999373031723
 31
0.0
  0
LINE
  5
A4
100
AcDbEntity
  8
0
  6
CONTINUOUS
 62
               7
100
AcDbLine
 10
14.599975022104104
 20
335.69998236028641
 30
0.0
 11
8.9999994174999642
 21
335.69998236028641
 31
0.0
  0
LINE
  5
A5
100
AcDbEntity
  8
0
  6
CONTINUOUS
 62
               7
100
AcDbLine
 10
46.999999544166712
 20
237.69998203361979
 30
0.0
 11
8.9999994174999642
 21
237.69998203361979
 31
0.0
  0
LINE
  5
A6
100
AcDbEntity
  8
0
  6
CONTINUOUS
 62
               7
100
AcDbLine
 10
13.999999434166625
 20
335.69998236028641
 30
0.0
 11
13.999999434166625
 21
293.69998222028642
 31
0.0
  0
LINE
  5
A7
100
AcDbEntity
  8
0
  6
CONTINUOUS
 62
               7
100
AcDbLine
 10
41.830016616777186
 20
433.55471898792723
 30
0.0
 11
41.830016616777186
 21
357.56613233551735
 31
0.0
  0
LINE
  5
A8
100
AcDbEntity
  8
0
  6
CONTINUOUS
 62
               7
100
AcDbLine
 10
8.9999994174999642
 20
356.69998243028647
 30
0.0
 11
8.9999994174999642
 21
231.02468904261883
 31
0.0
  0
LINE
  5
A9
100
AcDbEntity
  8
0
  6
CONTINUOUS
 62
               7
100
AcDbLine
 10
39.20001172519801
 20
356.69998243028647
 30
0.0
 11
39.20001172519801
 21
237.69998203361979
 31
0.0
  0
LINE
  5
AA
100
AcDbEntity
  8
0
  6
CONTINUOUS
 62
               7
100
AcDbLine
 10
46.999999544166712
 20
434.69998266361978
 30
0.0
 11
46.999999544166712
 21
231.02468904261883
 31
0.0
  0
LINE
  5
AB
100
AcDbEntity
  8
0
  6
CONTINUOUS
 62
               7
100
AcDbLine
 10
14.599975022104104
 20
293.69998222028642
 30
0.0
 11
8.9999994174999642
 21
293.69998222028642
 31
0.0
  0
LINE
  5
AC
100
AcDbEntity
  8
0
  6
CONTINUOUS
 62
               7
100
AcDbLine
 10
46.999999544166712
 20
434.69998266361978
 30
0.0
 11
6.3999994808334577
 21
434.69998266361978
 31
0.0
  0
LINE
  5
AD
100
AcDbEntity
  8
0
  6
CONTINUOUS
 62
               7
100
AcDbLine
 10
16.799987236468723
 20
356.69998243028647
 30
0.0
 11
16.799987236468723
 21
237.69998203361979
 31
0.0
  0
LINE
  5
AE
100
AcDbEntity
  8
0
  6
CONTINUOUS
 62
               7
100
AcDbLine
 10
14.599975022104104
 20
356.69998243028647
 30
0.0
 11
14.599975022104104
 21
237.69998203361979
 31
0.0
  0
LINE
  5
AF
100
AcDbEntity
  8
0
  6
CONTINUOUS
 62
               2
100
AcDbLine
 10
13.999999434166625
 20
301.69998224695314
 30
0.0
 11
8.9999994174999642
 21
301.69998224695314
 31
0.0
  0
LINE
  5
B0
100
AcDbEntity
  8
0
  6
CONTINUOUS
 62
               2
100
AcDbLine
 10
11.49999942583338
 20
299.19998223861978
 30
0.0
 11
11.49999942583338
 21
304.19998225528644
 31
0.0
  0
LINE
  5
B1
100
AcDbEntity
  8
0
  6
CONTINUOUS
 62
               2
100
AcDbLine
 10
13.999999434166625
 20
327.6999823336198
 30
0.0
 11
8.9999994174999642
 21
327.6999823336198
 31
0.0
  0
LINE
  5
B2
100
AcDbEntity
  8
0
  6
CONTINUOUS
 62
               2
100
AcDbLine
 10
11.49999942583338
 20
325.19998232528644
 30
0.0
 11
11.49999942583338
 21
330.1999823419531
 31
0.0
  0
LINE
  5
B3
100
AcDbEntity
  8
0
  6
CONTINUOUS
 62
               2
100
AcDbLine
 10
46.999999544166712
 20
327.6999823336198
 30
0.0
 11
41.999999527500051
 21
327.6999823336198
 31
0.0
  0
LINE
  5
B4
100
AcDbEntity
  8
0
  6
CONTINUOUS
 62
               2
100
AcDbLine
 10
44.49999953583341
 20
325.19998232528644
 30
0.0
 11
44.49999953583341
 21
330.1999823419531
 31
0.0
  0
LINE
  5
B5
100
AcDbEntity
  8
0
  6
CONTINUOUS
 62
               2
100
AcDbLine
 10
46.999999544166712
 20
301.69998224695314
 30
0.0
 11
41.999999527500051
 21
301.69998224695314
 31
0.0
  0
LINE
  5
B6
100
AcDbEntity
  8
0
  6
CONTINUOUS
 62
               2
100
AcDbLine
 10
44.49999953583341
 20
299.19998223861978
 30
0.0
 11
44.49999953583341
 21
304.19998225528644
 31
0.0
  0
LINE
  5
B7
100
AcDbEntity
  8
0
  6
CONTINUOUS
 62
               7
100
AcDbLine
 10
41.400023939562629
 20
356.69998243028647
 30
0.0
 11
41.400023939562629
 21
237.69998203361979
 31
0.0
  0
LINE
  5
B8
100
AcDbEntity
  8
0
  6
CONTINUOUS
 62
               7
100
AcDbLine
 10
46.999999544166712
 20
293.69998222028642
 30
0.0
 11
41.400023939562629
 21
293.69998222028642
 31
0.0
  0
LINE
  5
B9
100
AcDbEntity
  8
0
  6
CONTINUOUS
 62
               7
100
AcDbLine
 10
46.999999544166712
 20
335.69998236028641
 30
0.0
 11
41.400023939562629
 21
335.69998236028641
 31
0.0
  0
LINE
  5
BA
100
AcDbEntity
  8
0
  6
CONTINUOUS
 62
               7
100
AcDbLine
 10
46.999999544166712
 20
356.69998243028647
 30
0.0
 11
6.3999994808334577
 21
356.69998243028647
 31
0.0
  0
LINE
  5
BB
100
AcDbEntity
  8
0
  6
CONTINUOUS
 62
               7
100
AcDbLine
 10
14.169982344889547
 20
433.37442113576373
 30
0.0
 11
14.169982344889547
 21
357.74649122283734
 31
0.0
  0
LINE
  5
BC
100
AcDbEntity
  8
0
  6
CONTINUOUS
 62
               2
100
AcDbLine
 10
27.999999480833424
 20
441.72104949954957
 30
0.0
 11
27.999999480833424
 21
314.69998229028647
 31
0.0
  0
LINE
  5
BD
100
AcDbEntity
  8
0
  6
CONTINUOUS
 62
               7
100
AcDbLine
 10
41.999999527500051
 20
335.69998236028641
 30
0.0
 11
41.999999527500051
 21
293.69998222028642
 31
0.0
  0
LINE
  5
BE
100
AcDbEntity
  8
0
  6
CONTINUOUS
 62
               7
100
AcDbLine
 10
61.150024005396062
 20
203.12432884219572
 30
0.0
 11
61.150024005396062
 21
207.27560449079897
 31
0.0
  0
LINE
  5
BF
100
AcDbEntity
  8
0
  6
CONTINUOUS
 62
               7
100
AcDbLine
 10
61.150049184530758
 20
203.12435009331261
 30
0.0
 11
62.000012932153481
 21
203.0499879012047
 31
0.0
  0
LINE
  5
C0
100
AcDbEntity
  8
0
  6
CONTINUOUS
 62
               7
100
AcDbLine
 10
61.150034559769551
 20
207.2756044714713
 30
0.0
 11
61.999998307392275
 21
207.34996666357915
 31
0.0
  0
LINE
  5
C1
100
AcDbEntity
  8
0
  6
CONTINUOUS
 62
               7
100
AcDbLine
 10
61.150024005396062
 20
211.12432886886239
 30
0.0
 11
61.150024005396062
 21
215.27560451746558
 31
0.0
  0
LINE
  5
C2
100
AcDbEntity
  8
0
  6
CONTINUOUS
 62
               7
100
AcDbLine
 10
61.150031002855371
 20
211.12436834088714
 30
0.0
 11
61.999994750478095
 21
211.05000614877918
 31
0.0
  0
LINE
  5
C3
100
AcDbEntity
  8
0
  6
CONTINUOUS
 62
               7
100
AcDbLine
 10
61.149991938544417
 20
215.27561739948135
 30
0.0
 11
62.000016489067661
 21
215.34998491115368
 31
0.0
  0
LINE
  5
C4
100
AcDbEntity
  8
0
  6
CONTINUOUS
 62
               7
100
AcDbLine
 10
104.84997532293755
 20
208.27560449413227
 30
0.0
 11
104.84997532293755
 21
204.12432884552908
 31
0.0
  0
LINE
  5
C5
100
AcDbEntity
  8
0
  6
CONTINUOUS
 62
               7
100
AcDbLine
 10
104.85001855311896
 20
208.27558719161578
 30
0.0
 11
103.99999400259571
 21
208.34995470328818
 31
0.0
  0
LINE
  5
C6
100
AcDbEntity
  8
0
  6
CONTINUOUS
 62
               7
100
AcDbLine
 10
104.85007127151391
 20
204.12435445353844
 30
0.0
 11
104.00004672099067
 21
204.04998694186605
 31
0.0
  0
LINE
  5
C7
100
AcDbEntity
  8
0
  6
CONTINUOUS
 62
               7
100
AcDbLine
 10
104.84997532293755
 20
222.27560454079895
 30
0.0
 11
104.84997532293755
 21
218.12432889219576
 31
0.0
  0
LINE
  5
C8
100
AcDbEntity
  8
0
  6
CONTINUOUS
 62
               7
100
AcDbLine
 10
104.85004953292423
 20
222.27563660639447
 30
0.0
 11
104.00002498240087
 21
222.35000411806686
 31
0.0
  0
LINE
  5
C9
100
AcDbEntity
  8
0
  6
CONTINUOUS
 62
               7
100
AcDbLine
 10
104.84998480837237
 20
218.12433774585202
 30
0.0
 11
104.00008186365039
 21
218.04998087330864
 31
0.0
  0
LINE
  5
CA
100
AcDbEntity
  8
0
  6
CONTINUOUS
 62
               7
100
AcDbLine
 10
61.999999594166752
 20
215.8999941679844
 30
0.0
 11
61.999999594166752
 21
202.4999697092552
 31
0.0
  0
LINE
  5
CB
100
AcDbEntity
  8
0
  6
CONTINUOUS
 62
               7
100
AcDbLine
 10
65.999999607499944
 20
202.4999697092552
 30
0.0
 11
61.999999594166752
 21
202.4999697092552
 31
0.0
  0
LINE
  5
CC
100
AcDbEntity
  8
0
  6
CONTINUOUS
 62
               7
100
AcDbLine
 10
65.999999607499944
 20
215.8999941679844
 30
0.0
 11
61.999999594166752
 21
215.8999941679844
 31
0.0
  0
LINE
  5
CD
100
AcDbEntity
  8
0
  6
CONTINUOUS
 62
               7
100
AcDbLine
 10
97.999999714166734
 20
230.69998201028642
 30
0.0
 11
71.99999962749996
 21
230.69998201028642
 31
0.0
  0
LINE
  5
CE
100
AcDbEntity
  8
0
  6
CONTINUOUS
 62
               7
100
AcDbLine
 10
67.025100893312697
 20
221.67066605315739
 30
0.0
 11
72.58074868185065
 21
227.22631384169551
 31
0.0
  0
LINE
  5
CF
100
AcDbEntity
  8
0
  6
CONTINUOUS
 62
               7
100
AcDbLine
 10
102.97483814764212
 20
221.67064447397127
 30
0.0
 11
97.419211938290005
 21
227.22627068332321
 31
0.0
  0
LINE
  5
D0
100
AcDbEntity
  8
0
  6
CONTINUOUS
 62
               2
100
AcDbLine
 10
68.499999615833417
 20
237.40763662733366
 30
0.0
 11
68.499999615833417
 21
229.20353065482954
 31
0.0
  0
LINE
  5
D1
100
AcDbEntity
  8
0
  6
CONTINUOUS
 62
               7
100
AcDbLine
 10
70.999999624166662
 20
231.19995149437489
 30
0.0
 11
70.999999624166662
 21
225.64553863406331
 31
0.0
  0
LINE
  5
D2
100
AcDbEntity
  8
0
  6
CONTINUOUS
 62
               7
100
AcDbLine
 10
95.792907421653467
 20
227.8999636904062
 30
0.0
 11
74.20709192001334
 21
227.8999636904062
 31
0.0
  0
LINE
  5
D3
100
AcDbEntity
  8
0
  6
CONTINUOUS
 62
               7
100
AcDbLine
 10
97.999999714166734
 20
230.19998200861977
 30
0.0
 11
71.99999962749996
 21
230.19998200861977
 31
0.0
  0
LINE
  5
D4
100
AcDbEntity
  8
0
  6
CONTINUOUS
 62
               2
100
AcDbLine
 10
101.49999972583339
 20
237.33096273974013
 30
0.0
 11
101.49999972583339
 21
228.89683510445553
 31
0.0
  0
LINE
  5
D5
100
AcDbEntity
  8
0
  6
CONTINUOUS
 62
               7
100
AcDbLine
 10
98.999999717500032
 20
231.19995149437489
 30
0.0
 11
98.999999717500032
 21
225.64553863406331
 31
0.0
  0
LINE
  5
D6
100
AcDbEntity
  8
0
  6
CONTINUOUS
 62
               7
100
AcDbLine
 10
-103.00000095583323
 20
250.69995155937488
 30
0.0
 11
-103.00000095583323
 21
250.19995155770823
 31
0.0
  0
LINE
  5
D7
100
AcDbEntity
  8
0
  6
CONTINUOUS
 62
               7
100
AcDbLine
 10
-99.000000942499923
 20
250.19995155770823
 30
0.0
 11
-103.00000095583323
 21
250.19995155770823
 31
0.0
  0
LINE
  5
D8
100
AcDbEntity
  8
0
  6
CONTINUOUS
 62
               7
100
AcDbLine
 10
-99.000000942499923
 20
256.19995157770825
 30
0.0
 11
-103.00000095583323
 21
256.19995157770825
 31
0.0
  0
LINE
  5
D9
100
AcDbEntity
  8
0
  6
CONTINUOUS
 62
               7
100
AcDbLine
 10
-103.00000095583323
 20
256.19995157770825
 30
0.0
 11
-103.00000095583323
 21
255.69995157604154
 31
0.0
  0
LINE
  5
DA
100
AcDbEntity
  8
0
  6
CONTINUOUS
 62
               7
100
AcDbLine
 10
-99.000000942499923
 20
255.69995157604154
 30
0.0
 11
-103.00000095583323
 21
255.69995157604154
 31
0.0
  0
LINE
  5
DB
100
AcDbEntity
  8
0
  6
CONTINUOUS
 62
               7
100
AcDbLine
 10
-99.000000942499923
 20
250.69995155937488
 30
0.0
 11
-103.00000095583323
 21
250.69995155937488
 31
0.0
  0
LINE
  5
DC
100
AcDbEntity
  8
0
  6
CONTINUOUS
 62
               7
100
AcDbLine
 10
-99.000000942499923
 20
266.39996381873948
 30
0.0
 11
-101.45025729832372
 21
266.39996381873948
 31
0.0
  0
LINE
  5
DD
100
AcDbEntity
  8
0
  6
CONTINUOUS
 62
               7
100
AcDbLine
 10
6.9999994108333681
 20
262.56445355204823
 30
0.0
 11
-99.000000942499923
 21
262.56445355204823
 31
0.0
  0
LINE
  5
DE
100
AcDbEntity
  8
0
  6
CONTINUOUS
 62
               7
100
AcDbLine
 10
147.99999985416684
 20
236.6999515127082
 30
0.0
 11
46.999999544166712
 21
236.6999515127082
 31
0.0
  0
LINE
  5
DF
100
AcDbEntity
  8
0
  6
CONTINUOUS
 62
               7
100
AcDbLine
 10
48.999999550833309
 20
270.19995162437488
 30
0.0
 11
46.999999544166712
 21
270.19995162437488
 31
0.0
  0
LINE
  5
E0
100
AcDbEntity
  8
0
  6
CONTINUOUS
 62
               7
100
AcDbLine
 10
69.999999620833478
 20
257.69995158270825
 30
0.0
 11
46.999999544166712
 21
257.69995158270825
 31
0.0
  0
LINE
  5
E1
100
AcDbEntity
  8
0
  6
CONTINUOUS
 62
               7
100
AcDbLine
 10
69.999999620833478
 20
269.19995162104158
 30
0.0
 11
69.999999620833478
 21
236.6999515127082
 31
0.0
  0
LINE
  5
E2
100
AcDbEntity
  8
0
  6
CONTINUOUS
 62
               7
100
AcDbLine
 10
69.999999620833478
 20
259.6463627220088
 30
0.0
 11
48.999999550833309
 21
259.6463627220088
 31
0.0
  0
LINE
  5
E3
100
AcDbEntity
  8
0
  6
CONTINUOUS
 62
               7
100
AcDbLine
 10
69.999999620833478
 20
262.56445355204823
 30
0.0
 11
48.999999550833309
 21
262.56445355204823
 31
0.0
  0
LINE
  5
E4
100
AcDbEntity
  8
0
  6
CONTINUOUS
 62
               7
100
AcDbLine
 10
6.9999994108333681
 20
270.19995162437488
 30
0.0
 11
6.9999994108333681
 21
258.59997599977078
 31
0.0
  0
LINE
  5
E5
100
AcDbEntity
  8
0
  6
CONTINUOUS
 62
               7
100
AcDbLine
 10
6.9999994108333681
 20
265.09997602143744
 30
0.0
 11
-99.000000942499923
 21
265.09997602143744
 31
0.0
  0
LINE
  5
E6
100
AcDbEntity
  8
0
  6
CONTINUOUS
 62
               7
100
AcDbLine
 10
69.999999620833478
 20
265.09997602143744
 30
0.0
 11
48.999999550833309
 21
265.09997602143744
 31
0.0
  0
LINE
  5
E7
100
AcDbEntity
  8
0
  6
CONTINUOUS
 62
               7
100
AcDbLine
 10
-99.000000942499923
 20
266.39996381873948
 30
0.0
 11
-99.000000942499923
 21
236.6999515127082
 31
0.0
  0
LINE
  5
E8
100
AcDbEntity
  8
0
  6
CONTINUOUS
 62
               7
100
AcDbLine
 10
147.99999985416684
 20
269.19995162104158
 30
0.0
 11
69.999999620833478
 21
269.19995162104158
 31
0.0
  0
LINE
  5
E9
100
AcDbEntity
  8
0
  6
CONTINUOUS
 62
               7
100
AcDbLine
 10
147.99999985416684
 20
269.19995162104158
 30
0.0
 11
147.99999985416684
 21
236.6999515127082
 31
0.0
  0
LINE
  5
EA
100
AcDbEntity
  8
0
  6
CONTINUOUS
 62
               7
100
AcDbLine
 10
147.06762680418387
 20
264.02838177958427
 30
0.0
 11
70.742919545184918
 21
264.02838177958427
 31
0.0
  0
LINE
  5
EB
100
AcDbEntity
  8
0
  6
CONTINUOUS
 62
               7
100
AcDbLine
 10
48.999999550833309
 20
258.59997599977078
 30
0.0
 11
46.999999544166712
 21
258.59997599977078
 31
0.0
  0
LINE
  5
EC
100
AcDbEntity
  8
0
  6
CONTINUOUS
 62
               7
100
AcDbLine
 10
48.999999550833309
 20
270.19995162437488
 30
0.0
 11
48.999999550833309
 21
258.59997599977078
 31
0.0
  0
LINE
  5
ED
100
AcDbEntity
  8
0
  6
CONTINUOUS
 62
               7
100
AcDbLine
 10
6.9999994108333681
 20
259.6463627220088
 30
0.0
 11
-99.000000942499923
 21
259.6463627220088
 31
0.0
  0
LINE
  5
EE
100
AcDbEntity
  8
0
  6
CONTINUOUS
 62
               7
100
AcDbLine
 10
5.4999994058333641
 20
236.6999515127082
 30
0.0
 11
5.4999994058333641
 21
231.69995149604159
 31
0.0
  0
LINE
  5
EF
100
AcDbEntity
  8
0
  6
CONTINUOUS
 62
               7
100
AcDbLine
 10
105.49999973916681
 20
236.6999515127082
 30
0.0
 11
105.49999973916681
 21
231.69995149604159
 31
0.0
  0
LINE
  5
F0
100
AcDbEntity
  8
0
  6
CONTINUOUS
 62
               7
100
AcDbLine
 10
5.4999994058333641
 20
231.69995149604159
 30
0.0
 11
8.9999994174999642
 21
231.69995149604159
 31
0.0
  0
LINE
  5
F1
100
AcDbEntity
  8
0
  6
CONTINUOUS
 62
               7
100
AcDbLine
 10
97.15002412539593
 20
188.19998186861977
 30
0.0
 11
97.15002412539593
 21
78.199981501953118
 31
0.0
  0
LINE
  5
F2
100
AcDbEntity
  8
0
  6
CONTINUOUS
 62
               7
100
AcDbLine
 10
92.849975282937521
 20
188.19998186861977
 30
0.0
 11
92.849975282937521
 21
78.199981501953118
 31
0.0
  0
LINE
  5
F3
100
AcDbEntity
  8
0
  6
CONTINUOUS
 62
               7
100
AcDbLine
 10
77.150024058729173
 20
188.19998186861977
 30
0.0
 11
77.150024058729173
 21
78.199981501953118
 31
0.0
  0
LINE
  5
F4
100
AcDbEntity
  8
0
  6
CONTINUOUS
 62
               7
100
AcDbLine
 10
72.849975216270877
 20
188.19998186861977
 30
0.0
 11
72.849975216270877
 21
78.199981501953118
 31
0.0
  0
LINE
  5
F5
100
AcDbEntity
  8
0
  6
CONTINUOUS
 62
               7
100
AcDbLine
 10
64.99999960416676
 20
188.19998186861977
 30
0.0
 11
104.99999973750016
 21
188.19998186861977
 31
0.0
  0
LINE
  5
F6
100
AcDbEntity
  8
0
  6
CONTINUOUS
 62
               7
100
AcDbLine
 10
6.9999994108333681
 20
320.19998230861978
 30
0.0
 11
8.9999994174999642
 21
320.19998230861978
 31
0.0
  0
LINE
  5
F7
100
AcDbEntity
  8
0
  6
CONTINUOUS
 62
               7
100
AcDbLine
 10
48.999999550833309
 20
320.19998230861978
 30
0.0
 11
48.999999550833309
 21
270.19995162437488
 31
0.0
  0
LINE
  5
F8
100
AcDbEntity
  8
0
  6
CONTINUOUS
 62
               7
100
AcDbLine
 10
6.9999994108333681
 20
320.19998230861978
 30
0.0
 11
6.9999994108333681
 21
270.19995162437488
 31
0.0
  0
LINE
  5
F9
100
AcDbEntity
  8
0
  6
CONTINUOUS
 62
               7
100
AcDbLine
 10
104.99999973750016
 20
78.199981501953118
 30
0.0
 11
104.99999973750016
 21
198.19998190195315
 31
0.0
  0
LINE
  5
FA
100
AcDbEntity
  8
0
  6
CONTINUOUS
 62
               7
100
AcDbLine
 10
64.99999960416676
 20
78.199981501953118
 30
0.0
 11
64.99999960416676
 21
198.19998190195315
 31
0.0
  0
LINE
  5
FB
100
AcDbEntity
  8
0
  6
CONTINUOUS
 62
               7
100
AcDbLine
 10
63.399999615833281
 20
198.19998190195315
 30
0.0
 11
104.99999973750016
 21
198.19998190195315
 31
0.0
  0
LINE
  5
FC
100
AcDbEntity
  8
0
  6
CONTINUOUS
 62
               7
100
AcDbLine
 10
65.999999607499944
 20
231.19995149437489
 30
0.0
 11
65.999999607499944
 21
198.19998190195315
 31
0.0
  0
LINE
  5
FD
100
AcDbEntity
  8
0
  6
CONTINUOUS
 62
               7
100
AcDbLine
 10
103.99999973416675
 20
231.19995149437489
 30
0.0
 11
103.99999973416675
 21
198.19998190195315
 31
0.0
  0
LINE
  5
FF
100
AcDbEntity
  8
0
  6
PHANTOM
 62
               2
100
AcDbLine
 10
-72.000000852499909
 20
314.69998229028647
 30
0.0
 11
27.999999480833424
 21
314.69998229028647
 31
0.0
  0
LINE
  5
100
100
AcDbEntity
  8
0
  6
PHANTOM
 62
               2
100
AcDbLine
 10
-72.000000852499909
 20
314.69998229028641
 30
0.0
 11
-72.000000852499909
 21
265.09997602143744
 31
0.0
  0
LINE
  5
101
100
AcDbEntity
  8
0
  6
CONTINUOUS
 62
               2
100
AcDbLine
 10
27.999999480833424
 20
264.6999821236198
 30
0.0
 11
27.999999480833424
 21
220.88223295412314
 31
0.0
  0
LINE
  5
102
100
AcDbEntity
  8
0
  6
PHANTOM
 62
               2
100
AcDbLine
 10
27.999999480833424
 20
314.69998229028647
 30
0.0
 11
27.999999480833424
 21
264.69998212361975
 31
0.0
  0
LINE
  5
103
100
AcDbEntity
  8
0
  6
PHANTOM
 62
               2
100
AcDbLine
 10
-72.000000852499909
 20
264.69998212361975
 30
0.0
 11
27.999999480833424
 21
264.69998212361975
 31
0.0
  0
LINE
  5
104
100
AcDbEntity
  8
0
  6
CONTINUOUS
 62
               2
100
AcDbLine
 10
27.999999480833424
 20
314.69998229028647
 30
0.0
 11
53.075682035856858
 21
314.69998229028647
 31
0.0
  0
LINE
  5
105
100
AcDbEntity
  8
0
  6
CONTINUOUS
 62
               2
100
AcDbLine
 10
27.999999480833424
 20
264.69998212361975
 30
0.0
 11
53.075682035856858
 21
264.69998212361975
 31
0.0
  0
LINE
  5
106
100
AcDbEntity
  8
0
  6
CONTINUOUS
 62
               7
100
AcDbLine
 10
-102.99999982992273
 20
30.399963310906287
 30
0.0
 11
102.99999965507732
 21
30.399963310906287
 31
0.0
  0
ARC
  5
107
100
AcDbEntity
  8
0
  6
CONTINUOUS
 62
               7
100
AcDbCircle
 10
103.99999974000002
 20
4.1999816869530946
 30
0.0
 40
0.9999999975000001
100
AcDbArc
 50
270.0
 51
0.0
  0
ARC
  5
108
100
AcDbEntity
  8
0
  6
CONTINUOUS
 62
               7
100
AcDbCircle
 10
102.29999974425004
 20
5.8999816827030713
 30
0.0
 40
0.9999999975000001
100
AcDbArc
 50
270.0
 51
0.0
  0
ARC
  5
109
100
AcDbEntity
  8
0
  6
CONTINUOUS
 62
               7
100
AcDbCircle
 10
-102.29999974424987
 20
5.8999816827030713
 30
0.0
 40
0.9999999975000001
100
AcDbArc
 50
180.0
 51
270.0
  0
ARC
  5
10A
100
AcDbEntity
  8
0
  6
CONTINUOUS
 62
               7
100
AcDbCircle
 10
-103.99999973999996
 20
4.1999816869530946
 30
0.0
 40
0.9999999975000001
100
AcDbArc
 50
180.0
 51
270.0
  0
LINE
  5
10B
100
AcDbEntity
  8
0
  6
CONTINUOUS
 62
               7
100
AcDbLine
 10
102.29999974425004
 20
4.8999816852031017
 30
0.0
 11
-102.29999974424987
 21
4.8999816852031017
 31
0.0
  0
LINE
  5
10C
100
AcDbEntity
  8
0
  6
CONTINUOUS
 62
               7
100
AcDbLine
 10
103.99999974000002
 20
3.1999816894530682
 30
0.0
 11
79.999999800000182
 21
3.1999816894530682
 31
0.0
  0
LINE
  5
10D
100
AcDbEntity
  8
0
  6
CONTINUOUS
 62
               7
100
AcDbLine
 10
-106.30001138413149
 20
15.236241848625866
 30
0.0
 11
-105.00004537667979
 21
15.349974136914909
 31
0.0
  0
LINE
  5
10E
100
AcDbEntity
  8
0
  6
CONTINUOUS
 62
               7
100
AcDbLine
 10
-106.29998752721872
 20
9.163717636457875
 30
0.0
 11
-106.29998752721872
 21
15.236257904479658
 31
0.0
  0
ARC
  5
10F
100
AcDbEntity
  8
0
  6
CONTINUOUS
 62
               7
100
AcDbCircle
 10
-98.917602291768503
 20
12.199972511679675
 30
0.0
 40
7.9824194708581615
100
AcDbArc
 50
157.64345713842727
 51
202.35653921910705
  0
LINE
  5
110
100
AcDbEntity
  8
0
  6
CONTINUOUS
 62
               7
100
AcDbLine
 10
-106.30000785495002
 20
9.1637260907231166
 30
0.0
 11
-104.9999810445982
 21
9.0499884828696509
 31
0.0
  0
ARC
  5
111
100
AcDbEntity
  8
0
  6
CONTINUOUS
 62
               7
100
AcDbCircle
 10
98.917602291768617
 20
12.199972511679675
 30
0.0
 40
7.9824194708581615
100
AcDbArc
 50
337.64346078089295
 51
22.356542861572724
  0
LINE
  5
112
100
AcDbEntity
  8
0
  6
CONTINUOUS
 62
               7
100
AcDbLine
 10
106.30001138413149
 20
15.236241848625866
 30
0.0
 11
105.00004537667996
 21
15.349974136914909
 31
0.0
  0
LINE
  5
113
100
AcDbEntity
  8
0
  6
CONTINUOUS
 62
               7
100
AcDbLine
 10
106.30000785495019
 20
9.1637260907231166
 30
0.0
 11
104.99998104459826
 21
9.0499884828696509
 31
0.0
  0
LINE
  5
114
100
AcDbEntity
  8
0
  6
CONTINUOUS
 62
               7
100
AcDbLine
 10
106.29998752721883
 20
9.163717636457875
 30
0.0
 11
106.29998752721883
 21
15.236257904479658
 31
0.0
  0
LINE
  5
115
100
AcDbEntity
  8
0
  6
CONTINUOUS
 62
               7
100
AcDbLine
 10
79.999999800000182
 20
3.1999816894530682
 30
0.0
 11
79.999999800000182
 21
4.8999816852031017
 31
0.0
  0
LINE
  5
116
100
AcDbEntity
  8
0
  6
CONTINUOUS
 62
               7
100
AcDbLine
 10
-79.999999799999955
 20
3.1999816894530682
 30
0.0
 11
-79.999999799999955
 21
4.8999816852031017
 31
0.0
  0
LINE
  5
117
100
AcDbEntity
  8
0
  6
CONTINUOUS
 62
               7
100
AcDbLine
 10
-79.999999799999955
 20
3.1999816894530682
 30
0.0
 11
-103.99999973999996
 21
3.1999816894530682
 31
0.0
  0
LINE
  5
118
100
AcDbEntity
  8
0
  6
CONTINUOUS
 62
               7
100
AcDbLine
 10
103.29999974175007
 20
5.8999816827030713
 30
0.0
 11
103.29999974175007
 21
30.422591317521153
 31
0.0
  0
LINE
  5
119
100
AcDbEntity
  8
0
  6
CONTINUOUS
 62
               7
100
AcDbLine
 10
-103.29999974175007
 20
5.8999816827030713
 30
0.0
 11
-103.29999974175007
 21
30.422591317521096
 31
0.0
  0
LINE
  5
11A
100
AcDbEntity
  8
0
  6
CONTINUOUS
 62
               7
100
AcDbLine
 10
104.99999973750016
 20
4.1999816869530946
 30
0.0
 11
104.99999973750016
 21
76.199981506953009
 31
0.0
  0
LINE
  5
11B
100
AcDbEntity
  8
0
  6
CONTINUOUS
 62
               7
100
AcDbLine
 10
-104.99999973750005
 20
4.1999816869530946
 30
0.0
 11
-104.99999973750005
 21
76.199981506953009
 31
0.0
  0
LINE
  5
11C
100
AcDbEntity
  8
0
  6
CONTINUOUS
 62
               2
100
AcDbLine
 10
0.0
 20
86.715580072962211
 30
0.0
 11
0.0
 21
-6.3153934550648501
 31
0.0
  0
LINE
  5
11D
100
AcDbEntity
  8
0
  6
CONTINUOUS
 62
               7
100
AcDbLine
 10
81.999999795000008
 20
49.34997547056247
 30
0.0
 11
81.999999795000008
 21
36.849975501812423
 31
0.0
  0
LINE
  5
11E
100
AcDbEntity
  8
0
  6
CONTINUOUS
 62
               7
100
AcDbLine
 10
81.999999795000008
 20
49.34997547056247
 30
0.0
 11
47.999999880000075
 21
49.34997547056247
 31
0.0
  0
LINE
  5
11F
100
AcDbEntity
  8
0
  6
CONTINUOUS
 62
               7
100
AcDbLine
 10
-89.499999776250093
 20
52.499969359171871
 30
0.0
 11
-89.499999776250093
 21
36.499969399171903
 31
0.0
  0
LINE
  5
120
100
AcDbEntity
  8
0
  6
CONTINUOUS
 62
               7
100
AcDbLine
 10
-56.499999858749959
 20
36.499969399171903
 30
0.0
 11
-89.499999776250093
 21
36.499969399171903
 31
0.0
  0
LINE
  5
121
100
AcDbEntity
  8
0
  6
CONTINUOUS
 62
               7
100
AcDbLine
 10
-56.499999858749959
 20
52.499969359171871
 30
0.0
 11
-56.499999858749959
 21
36.499969399171903
 31
0.0
  0
LINE
  5
122
100
AcDbEntity
  8
0
  6
CONTINUOUS
 62
               7
100
AcDbLine
 10
-56.499999858749959
 20
52.499969359171871
 30
0.0
 11
-89.499999776250093
 21
52.499969359171871
 31
0.0
  0
LINE
  5
123
100
AcDbEntity
  8
0
  6
CONTINUOUS
 62
               7
100
AcDbLine
 10
81.999999795000008
 20
36.849975501812423
 30
0.0
 11
47.999999880000075
 21
36.849975501812423
 31
0.0
  0
LINE
  5
124
100
AcDbEntity
  8
0
  6
CONTINUOUS
 62
               7
100
AcDbLine
 10
47.999999880000075
 20
49.34997547056247
 30
0.0
 11
47.999999880000075
 21
36.849975501812423
 31
0.0
  0
LINE
  5
125
100
AcDbEntity
  8
0
  6
CONTINUOUS
 62
               7
100
AcDbLine
 10
46.999999882499878
 20
49.34997547056247
 30
0.0
 11
46.999999882499878
 21
36.849975501812423
 31
0.0
  0
LINE
  5
126
100
AcDbEntity
  8
0
  6
CONTINUOUS
 62
               7
100
AcDbLine
 10
82.999999792500034
 20
49.34997547056247
 30
0.0
 11
82.999999792500034
 21
36.849975501812423
 31
0.0
  0
LINE
  5
127
100
AcDbEntity
  8
0
  6
CONTINUOUS
 62
               7
100
AcDbLine
 10
81.999999795000008
 20
35.849975504312454
 30
0.0
 11
47.999999880000075
 21
35.849975504312454
 31
0.0
  0
LINE
  5
128
100
AcDbEntity
  8
0
  6
CONTINUOUS
 62
               7
100
AcDbLine
 10
81.999999795000008
 20
50.349975468062439
 30
0.0
 11
47.999999880000075
 21
50.349975468062439
 31
0.0
  0
LINE
  5
129
100
AcDbEntity
  8
0
  6
CONTINUOUS
 62
               7
100
AcDbLine
 10
-90.499999773749948
 20
52.499969359171871
 30
0.0
 11
-90.499999773749948
 21
36.499969399171903
 31
0.0
  0
LINE
  5
12A
100
AcDbEntity
  8
0
  6
CONTINUOUS
 62
               7
100
AcDbLine
 10
-56.499999858749959
 20
35.499969401671819
 30
0.0
 11
-89.499999776250093
 21
35.499969401671819
 31
0.0
  0
LINE
  5
12B
100
AcDbEntity
  8
0
  6
CONTINUOUS
 62
               7
100
AcDbLine
 10
-56.499999858749959
 20
53.499969356671841
 30
0.0
 11
-89.499999776250093
 21
53.499969356671841
 31
0.0
  0
LINE
  5
12C
100
AcDbEntity
  8
0
  6
CONTINUOUS
 62
               7
100
AcDbLine
 10
-55.499999861249989
 20
52.499969359171871
 30
0.0
 11
-55.499999861249989
 21
36.499969399171903
 31
0.0
  0
LINE
  5
12D
100
AcDbEntity
  8
0
  6
CONTINUOUS
 62
               7
100
AcDbLine
 10
36.19616690169704
 20
78.199981501953118
 30
0.0
 11
104.99999973750016
 21
78.199981501953118
 31
0.0
  0
LINE
  5
12E
100
AcDbEntity
  8
0
  6
CONTINUOUS
 62
               7
100
AcDbLine
 10
-25.000026185642525
 20
81.199973448750143
 30
0.0
 11
-36.196193465274177
 21
78.199969442704571
 31
0.0
  0
LINE
  5
12F
100
AcDbEntity
  8
0
  6
CONTINUOUS
 62
               7
100
AcDbLine
 10
25.000006651764693
 20
81.199981515284151
 30
0.0
 11
36.196114975963553
 21
78.199993306299348
 31
0.0
  0
LINE
  5
130
100
AcDbEntity
  8
0
  6
CONTINUOUS
 62
               7
100
AcDbLine
 10
-102.99999974249988
 20
78.199981501953118
 30
0.0
 11
-36.196166901697097
 21
78.199981501953118
 31
0.0
  0
LINE
  5
131
100
AcDbEntity
  8
0
  6
CONTINUOUS
 62
               7
100
AcDbLine
 10
24.999999937499979
 20
81.199981494453084
 30
0.0
 11
-24.999999937499922
 21
81.199981494453084
 31
0.0
  0
LINE
  5
132
100
AcDbEntity
  8
0
  6
CONTINUOUS
 62
               7
100
AcDbLine
 10
-47.999999879999962
 20
59.399963238406258
 30
0.0
 11
-47.999999879999962
 21
71.399963208406234
 31
0.0
  0
LINE
  5
133
100
AcDbEntity
  8
0
  6
CONTINUOUS
 62
               7
100
AcDbLine
 10
-97.999999754999976
 20
59.399963238406258
 30
0.0
 11
-97.999999754999976
 21
71.399963208406234
 31
0.0
  0
LINE
  5
134
100
AcDbEntity
  8
0
  6
CONTINUOUS
 62
               7
100
AcDbLine
 10
-48.999999877500045
 20
58.399963240906231
 30
0.0
 11
-96.999999757500007
 21
58.399963240906231
 31
0.0
  0
LINE
  5
135
100
AcDbEntity
  8
0
  6
CONTINUOUS
 62
               7
100
AcDbLine
 10
-48.999999877500045
 20
72.399963205906261
 30
0.0
 11
-96.999999757500007
 21
72.399963205906261
 31
0.0
  0
LINE
  5
136
100
AcDbEntity
  8
0
  6
CONTINUOUS
 62
               7
100
AcDbLine
 10
48.999999877500102
 20
60.899963234656298
 30
0.0
 11
48.999999877500102
 21
69.899963212156308
 31
0.0
  0
LINE
  5
137
100
AcDbEntity
  8
0
  6
CONTINUOUS
 62
               7
100
AcDbLine
 10
80.999999797499981
 20
60.899963234656298
 30
0.0
 11
80.999999797499981
 21
69.899963212156308
 31
0.0
  0
LINE
  5
138
100
AcDbEntity
  8
0
  6
CONTINUOUS
 62
               7
100
AcDbLine
 10
79.999999800000182
 20
70.899963209656278
 30
0.0
 11
49.999999875000071
 21
70.899963209656278
 31
0.0
  0
LINE
  5
139
100
AcDbEntity
  8
0
  6
CONTINUOUS
 62
               7
100
AcDbLine
 10
79.999999800000182
 20
59.899963237156271
 30
0.0
 11
49.999999875000071
 21
59.899963237156271
 31
0.0
  0
ARC
  5
13A
100
AcDbEntity
  8
0
  6
CONTINUOUS
 62
               7
100
AcDbCircle
 10
47.999999880000075
 20
36.849975501812423
 30
0.0
 40
0.9999999975000001
100
AcDbArc
 50
179.99999499104368
 51
269.99999749552182
  0
CIRCLE
  5
13B
100
AcDbEntity
  8
0
  6
CONTINUOUS
 62
               7
100
AcDbCircle
 10
-35.999999909999929
 20
44.49996937917183
 30
0.0
 40
2.5999998981325687
  0
ARC
  5
13C
100
AcDbEntity
  8
0
  6
CONTINUOUS
 62
               7
100
AcDbCircle
 10
81.999999795000008
 20
49.34997547056247
 30
0.0
 40
0.9999999975000001
100
AcDbArc
 50
0.0
 51
90.000002504478161
  0
CIRCLE
  5
13D
100
AcDbEntity
  8
0
  6
CONTINUOUS
 62
               7
100
AcDbCircle
 10
-45.999999884999909
 20
44.49996937917183
 30
0.0
 40
2.5999998981325687
  0
ARC
  5
13E
100
AcDbEntity
  8
0
  6
CONTINUOUS
 62
               7
100
AcDbCircle
 10
47.999999880000075
 20
49.34997547056247
 30
0.0
 40
0.9999999975000001
100
AcDbArc
 50
90.000002504478161
 51
180.00000500895632
  0
ARC
  5
13F
100
AcDbEntity
  8
0
  6
CONTINUOUS
 62
               7
100
AcDbCircle
 10
-56.499999858749959
 20
36.499969399171903
 30
0.0
 40
0.9999999975000001
100
AcDbArc
 50
269.99999749552182
 51
0.0
  0
ARC
  5
140
100
AcDbEntity
  8
0
  6
CONTINUOUS
 62
               7
100
AcDbCircle
 10
-89.499999776250093
 20
52.499969359171871
 30
0.0
 40
0.9999999975000001
100
AcDbArc
 50
90.000002504478161
 51
180.00000500895632
  0
ARC
  5
141
100
AcDbEntity
  8
0
  6
CONTINUOUS
 62
               7
100
AcDbCircle
 10
-89.499999776250093
 20
36.499969399171903
 30
0.0
 40
0.9999999975000001
100
AcDbArc
 50
179.99999499104368
 51
269.99999749552182
  0
ARC
  5
142
100
AcDbEntity
  8
0
  6
CONTINUOUS
 62
               7
100
AcDbCircle
 10
-56.499999858749959
 20
52.499969359171871
 30
0.0
 40
0.9999999975000001
100
AcDbArc
 50
0.0
 51
90.000002504478161
  0
ARC
  5
143
100
AcDbEntity
  8
0
  6
CONTINUOUS
 62
               7
100
AcDbCircle
 10
-102.99999974249988
 20
32.399963305906283
 30
0.0
 40
1.9999999950000003
100
AcDbArc
 50
179.99999499104368
 51
269.99999749552182
  0
CIRCLE
  5
144
100
AcDbEntity
  8
0
  6
CONTINUOUS
 62
               7
100
AcDbCircle
 10
-35.999999909999929
 20
44.49996937917183
 30
0.0
 40
2.0999998993825693
  0
ARC
  5
145
100
AcDbEntity
  8
0
  6
CONTINUOUS
 62
               7
100
AcDbCircle
 10
102.99999974250011
 20
76.199981506953122
 30
0.0
 40
1.9999999950000003
100
AcDbArc
 50
0.0
 51
90.000002504478161
  0
CIRCLE
  5
146
100
AcDbEntity
  8
0
  6
CONTINUOUS
 62
               7
100
AcDbCircle
 10
-45.999999884999909
 20
44.49996937917183
 30
0.0
 40
2.0999998993825693
  0
ARC
  5
147
100
AcDbEntity
  8
0
  6
CONTINUOUS
 62
               7
100
AcDbCircle
 10
102.99999974250011
 20
32.399963305906283
 30
0.0
 40
1.9999999950000003
100
AcDbArc
 50
269.99999749552182
 51
0.0
  0
ARC
  5
148
100
AcDbEntity
  8
0
  6
CONTINUOUS
 62
               7
100
AcDbCircle
 10
-102.99999974249988
 20
76.199981506953122
 30
0.0
 40
1.9999999950000003
100
AcDbArc
 50
90.000002504478161
 51
180.00000500895632
  0
ARC
  5
149
100
AcDbEntity
  8
0
  6
CONTINUOUS
 62
               7
100
AcDbCircle
 10
0.0
 20
397.61569115263256
 30
0.0
 40
321.46008220416229
100
AcDbArc
 50
263.53482729513291
 51
276.46516769591074
  0
ARC
  5
14A
100
AcDbEntity
  8
0
  6
CONTINUOUS
 62
               7
100
AcDbCircle
 10
49.999999875000071
 20
69.899963212156308
 30
0.0
 40
0.9999999975000001
100
AcDbArc
 50
90.000002504478161
 51
180.00000500895632
  0
ARC
  5
14B
100
AcDbEntity
  8
0
  6
CONTINUOUS
 62
               7
100
AcDbCircle
 10
79.999999800000182
 20
69.899963212156308
 30
0.0
 40
0.9999999975000001
100
AcDbArc
 50
0.0
 51
90.000002504478161
  0
ARC
  5
14C
100
AcDbEntity
  8
0
  6
CONTINUOUS
 62
               7
100
AcDbCircle
 10
-48.999999877500045
 20
59.399963238406258
 30
0.0
 40
0.9999999975000001
100
AcDbArc
 50
269.99999749552182
 51
0.0
  0
ARC
  5
14D
100
AcDbEntity
  8
0
  6
CONTINUOUS
 62
               7
100
AcDbCircle
 10
-96.999999757500007
 20
71.399963208406234
 30
0.0
 40
0.9999999975000001
100
AcDbArc
 50
90.000002504478161
 51
180.00000500895632
  0
ARC
  5
14E
100
AcDbEntity
  8
0
  6
CONTINUOUS
 62
               7
100
AcDbCircle
 10
-96.999999757500007
 20
59.399963238406258
 30
0.0
 40
0.9999999975000001
100
AcDbArc
 50
179.99999499104368
 51
269.99999749552182
  0
ARC
  5
14F
100
AcDbEntity
  8
0
  6
CONTINUOUS
 62
               7
100
AcDbCircle
 10
-48.999999877500045
 20
71.399963208406234
 30
0.0
 40
0.9999999975000001
100
AcDbArc
 50
0.0
 51
90.000002504478161
  0
ARC
  5
150
100
AcDbEntity
  8
0
  6
CONTINUOUS
 62
               7
100
AcDbCircle
 10
79.999999800000182
 20
60.899963234656298
 30
0.0
 40
0.9999999975000001
100
AcDbArc
 50
269.99999749552182
 51
0.0
  0
ARC
  5
151
100
AcDbEntity
  8
0
  6
CONTINUOUS
 62
               7
100
AcDbCircle
 10
49.999999875000071
 20
60.899963234656298
 30
0.0
 40
0.9999999975000001
100
AcDbArc
 50
179.99999499104368
 51
269.99999749552182
  0
LINE
  5
152
100
AcDbEntity
  8
0
  6
CONTINUOUS
 62
               7
100
AcDbLine
 10
-93.999999533333209
 20
0.0
 30
0.0
 11
-93.999999533333209
 21
3.1999816894530682
 31
0.0
  0
LINE
  5
153
100
AcDbEntity
  8
0
  6
CONTINUOUS
 62
               7
100
AcDbLine
 10
-81.999999533333209
 20
0.0
 30
0.0
 11
-93.999999533333209
 21
0.0
 31
0.0
  0
LINE
  5
154
100
AcDbEntity
  8
0
  6
CONTINUOUS
 62
               7
100
AcDbLine
 10
-81.999999533333209
 20
0.0
 30
0.0
 11
-81.999999533333209
 21
3.1999816894530682
 31
0.0
  0
LINE
  5
155
100
AcDbEntity
  8
0
  6
CONTINUOUS
 62
               7
100
AcDbLine
 10
82.000000466666847
 20
0.0
 30
0.0
 11
82.000000466666847
 21
3.1999816894530682
 31
0.0
  0
LINE
  5
156
100
AcDbEntity
  8
0
  6
CONTINUOUS
 62
               7
100
AcDbLine
 10
82.000000466666847
 20
0.0
 30
0.0
 11
94.000000466666961
 21
0.0
 31
0.0
  0
LINE
  5
157
100
AcDbEntity
  8
0
  6
CONTINUOUS
 62
               7
100
AcDbLine
 10
94.000000466666961
 20
0.0
 30
0.0
 11
94.000000466666961
 21
3.1999816894530682
 31
0.0
  0
LINE
  5
158
100
AcDbEntity
  8
0
  6
CONTINUOUS
 62
               2
100
AcDbLine
 10
74.560659810172353
 20
257.63929140836922
 30
0.0
 11
72.439339454827632
 21
259.76061176371394
 31
0.0
  0
LINE
  5
159
100
AcDbEntity
  8
0
  6
CONTINUOUS
 62
               2
100
AcDbLine
 10
72.439339454827632
 20
257.63929140836916
 30
0.0
 11
74.56065981017241
 21
259.76061176371394
 31
0.0
  0
LINE
  5
15A
100
AcDbEntity
  8
0
  6
CONTINUOUS
 62
               2
100
AcDbLine
 10
74.560659810172353
 20
243.63929136170248
 30
0.0
 11
72.439339454827632
 21
245.76061171704725
 31
0.0
  0
LINE
  5
15B
100
AcDbEntity
  8
0
  6
CONTINUOUS
 62
               2
100
AcDbLine
 10
72.439339454827632
 20
243.63929136170248
 30
0.0
 11
74.56065981017241
 21
245.76061171704725
 31
0.0
  0
ENDBLK
  5
15C
100
AcDbEntity
  8
0
100
AcDbBlockEnd
  0
BLOCK
  5
15D
100
AcDbEntity
  8
0
100
AcDbBlockBegin
  2
DTHB-CS3-2
 70
               0
 10
0.0
 20
0.0
 30
0.0
  3
DTHB-CS3-2
  1

  0
CIRCLE
  5
15E
100
AcDbEntity
  8
0
  6
CONTINUOUS
 62
               7
100
AcDbCircle
 10
43.199966642997367
 20
421.70001361869771
 30
0.0
 40
11.5
  0
CIRCLE
  5
15F
100
AcDbEntity
  8
0
  6
CONTINUOUS
 62
               7
100
AcDbCircle
 10
43.199966642997367
 20
421.70001361869771
 30
0.0
 40
5.5
  0
CIRCLE
  5
160
100
AcDbEntity
  8
0
  6
CONTINUOUS
 62
               7
100
AcDbCircle
 10
43.199966642997367
 20
421.70001361869771
 30
0.0
 40
7.5
  0
ARC
  5
161
100
AcDbEntity
  8
0
  6
CONTINUOUS
 62
               7
100
AcDbCircle
 10
-20.100030555911587
 20
242.20001920054671
 30
0.0
 40
1.0
100
AcDbArc
 50
180.0
 51
270.0
  0
LINE
  5
162
100
AcDbEntity
  8
0
  6
CONTINUOUS
 62
               7
100
AcDbLine
 10
-16.600030555911587
 20
241.00001088999983
 30
0.0
 11
-16.600030555911587
 21
236.70001920054671
 31
0.0
  0
LINE
  5
163
100
AcDbEntity
  8
0
  6
CONTINUOUS
 62
               7
100
AcDbLine
 10
-16.100030555911587
 20
236.70001920054671
 30
0.0
 11
-16.100030555911587
 21
241.00001088999983
 31
0.0
  0
ARC
  5
164
100
AcDbEntity
  8
0
  6
CONTINUOUS
 62
               7
100
AcDbCircle
 10
-16.600030555911587
 20
240.70001920054671
 30
0.0
 40
3.5000000000000004
100
AcDbArc
 50
180.0
 51
270.0
  0
LINE
  5
165
100
AcDbEntity
  8
0
  6
CONTINUOUS
 62
               7
100
AcDbLine
 10
-21.100030555911587
 20
255.20001920054671
 30
0.0
 11
-21.100030555911587
 21
242.20001920054671
 31
0.0
  0
LINE
  5
166
100
AcDbEntity
  8
0
  6
CONTINUOUS
 62
               7
100
AcDbLine
 10
-17.4500305574241
 20
260.77565765528487
 30
0.0
 11
-16.60003055168221
 21
260.85002301956712
 31
0.0
  0
LINE
  5
167
100
AcDbEntity
  8
0
  6
CONTINUOUS
 62
               7
100
AcDbLine
 10
-17.45003055742427
 20
256.62438853877728
 30
0.0
 11
-16.600030551682437
 21
256.55002317449498
 31
0.0
  0
LINE
  5
168
100
AcDbEntity
  8
0
  6
CONTINUOUS
 62
               7
100
AcDbLine
 10
-17.450030579753445
 20
256.62438837908979
 30
0.0
 11
-17.450030579753445
 21
260.77565781497236
 31
0.0
  0
ARC
  5
169
100
AcDbEntity
  8
0
  6
CONTINUOUS
 62
               7
100
AcDbCircle
 10
-11.470374717898892
 20
258.70002309703085
 30
0.0
 40
6.3296561241149902
100
AcDbArc
 50
160.85729086486964
 51
199.14270731389303
  0
ARC
  5
16A
100
AcDbEntity
  8
0
  6
CONTINUOUS
 62
               7
100
AcDbCircle
 10
-16.600030555911587
 20
256.70001920054671
 30
0.0
 40
3.5000000000000004
100
AcDbArc
 50
107.58284247057495
 51
180.0
  0
ARC
  5
16B
100
AcDbEntity
  8
0
  6
CONTINUOUS
 62
               7
100
AcDbCircle
 10
-13.100030555911587
 20
259.96945303312452
 30
0.0
 40
3.0
100
AcDbArc
 50
134.96855723541546
 51
180.0
  0
ARC
  5
16C
100
AcDbEntity
  8
0
  6
CONTINUOUS
 62
               7
100
AcDbCircle
 10
-13.100030555911587
 20
259.96945303312464
 30
0.0
 40
3.5000000000000004
100
AcDbArc
 50
134.9685572354158
 51
179.99999999999997
  0
LINE
  5
16D
100
AcDbEntity
  8
0
  6
CONTINUOUS
 62
               7
100
AcDbLine
 10
-16.100030555911587
 20
254.40003530406233
 30
0.0
 11
-16.100030555911587
 21
259.96945303312452
 31
0.0
  0
LINE
  5
16E
100
AcDbEntity
  8
0
  6
CONTINUOUS
 62
               7
100
AcDbLine
 10
-13.995842675182928
 20
264.02165696335089
 30
0.0
 11
-15.573545756833653
 21
262.44568455517731
 31
0.0
  0
LINE
  5
16F
100
AcDbEntity
  8
0
  6
CONTINUOUS
 62
               7
100
AcDbLine
 10
-13.995842675182928
 20
263.31493790884605
 30
0.0
 11
-15.220186442416207
 21
262.091937194884
 31
0.0
  0
ARC
  5
170
100
AcDbEntity
  8
0
  6
CONTINUOUS
 62
               7
100
AcDbCircle
 10
-20.100030555911587
 20
255.20001920054671
 30
0.0
 40
1.0
100
AcDbArc
 50
90.0
 51
180.0
  0
LINE
  5
171
100
AcDbEntity
  8
0
  6
CONTINUOUS
 62
               7
100
AcDbLine
 10
-20.100030555911587
 20
240.70001920054671
 30
0.0
 11
-20.100030555911587
 21
256.70001920054671
 31
0.0
  0
LINE
  5
172
100
AcDbEntity
  8
0
  6
CONTINUOUS
 62
               7
100
AcDbLine
 10
-16.600030555911587
 20
260.85002301956712
 30
0.0
 11
-16.600030555911587
 21
254.40003530406233
 31
0.0
  0
CIRCLE
  5
173
100
AcDbEntity
  8
0
  6
CONTINUOUS
 62
               7
100
AcDbCircle
 10
-102.00000035666659
 20
210.20001296536446
 30
0.0
 40
11.5
  0
CIRCLE
  5
174
100
AcDbEntity
  8
0
  6
CONTINUOUS
 62
               7
100
AcDbCircle
 10
-102.00000035666659
 20
210.20001296536446
 30
0.0
 40
5.5
  0
CIRCLE
  5
175
100
AcDbEntity
  8
0
  6
CONTINUOUS
 62
               7
100
AcDbCircle
 10
-102.00000035666659
 20
210.20001296536446
 30
0.0
 40
7.5
  0
LINE
  5
176
100
AcDbEntity
  8
0
  6
CONTINUOUS
 62
               7
100
AcDbLine
 10
3.0
 20
198.20001285703114
 30
0.0
 11
0.0
 21
195.20001285703103
 31
0.0
  0
LINE
  5
177
100
AcDbEntity
  8
0
  6
CONTINUOUS
 62
               7
100
AcDbLine
 10
207.00001595878911
 20
198.20001285703114
 30
0.0
 11
210.00001595878913
 21
195.20001285703103
 31
0.0
  0
CIRCLE
  5
178
100
AcDbEntity
  8
0
  6
CONTINUOUS
 62
               7
100
AcDbCircle
 10
6.0000000200000159
 20
12.2000030817577
 30
0.0
 40
3.1499999999999999
  0
CIRCLE
  5
179
100
AcDbEntity
  8
0
  6
CONTINUOUS
 62
               7
100
AcDbCircle
 10
148.50000049499999
 20
12.2000030817577
 30
0.0
 40
3.1499999999999999
  0
CIRCLE
  5
17A
100
AcDbEntity
  8
0
  6
CONTINUOUS
 62
               7
100
AcDbCircle
 10
291.00000097000003
 20
12.2000030817577
 30
0.0
 40
3.1499999999999999
  0
LINE
  5
17B
100
AcDbEntity
  8
0
  6
CONTINUOUS
 62
               7
100
AcDbLine
 10
-37.000030640911575
 20
202.00001590878901
 30
0.0
 11
-37.000030640911575
 21
198.20001285703114
 31
0.0
  0
LINE
  5
17C
100
AcDbEntity
  8
0
  6
CONTINUOUS
 62
               7
100
AcDbLine
 10
34.999954435966174
 20
356.70007442052088
 30
0.0
 11
31.199966534663986
 21
356.70007442052088
 31
0.0
  0
LINE
  5
17D
100
AcDbEntity
  8
0
  6
CONTINUOUS
 62
               7
100
AcDbLine
 10
56.19996664299731
 20
433.70001361869777
 30
0.0
 11
56.19996664299731
 21
357.70007465385396
 31
0.0
  0
CIRCLE
  5
17E
100
AcDbEntity
  8
0
  6
CONTINUOUS
 62
               7
100
AcDbCircle
 10
38.199966642997197
 20
344.20007465385402
 30
0.0
 40
0.8
  0
CIRCLE
  5
17F
100
AcDbEntity
  8
0
  6
CONTINUOUS
 62
               7
100
AcDbCircle
 10
46.19996664299731
 20
344.20007465385402
 30
0.0
 40
0.8
  0
LINE
  5
180
100
AcDbEntity
  8
0
  6
CONTINUOUS
 62
               7
100
AcDbLine
 10
34.999954435966174
 20
357.20004413627589
 30
0.0
 11
34.999954435966174
 21
356.70004413627584
 31
0.0
  0
LINE
  5
181
100
AcDbEntity
  8
0
  6
CONTINUOUS
 62
               7
100
AcDbLine
 10
49.399978850028674
 20
357.20004413627589
 30
0.0
 11
49.399978850028674
 21
356.70004413627584
 31
0.0
  0
LINE
  5
182
100
AcDbEntity
  8
0
  6
CONTINUOUS
 62
               7
100
AcDbLine
 10
49.399978850028674
 20
357.20004413627589
 30
0.0
 11
46.989030689435367
 21
357.20004413627589
 31
0.0
  0
ARC
  5
183
100
AcDbEntity
  8
0
  6
CONTINUOUS
 62
               7
100
AcDbCircle
 10
36.19996664299731
 20
351.70007465385402
 30
0.0
 40
1.5
100
AcDbArc
 50
117.81866648709102
 51
179.99999749552188
  0
LINE
  5
184
100
AcDbEntity
  8
0
  6
CONTINUOUS
 62
               7
100
AcDbLine
 10
34.699966642997424
 20
347.70007465385396
 30
0.0
 11
34.699966642997424
 21
351.70007465385402
 31
0.0
  0
LINE
  5
185
100
AcDbEntity
  8
0
  6
CONTINUOUS
 62
               7
100
AcDbLine
 10
35.49995443596606
 20
346.70007465385402
 30
0.0
 11
48.89997885002856
 21
346.70007465385402
 31
0.0
  0
LINE
  5
186
100
AcDbEntity
  8
0
  6
CONTINUOUS
 62
               7
100
AcDbLine
 10
36.19996664299731
 20
346.20007465385396
 30
0.0
 11
48.199966642997197
 21
346.20007465385396
 31
0.0
  0
LINE
  5
187
100
AcDbEntity
  8
0
  6
CONTINUOUS
 62
               7
100
AcDbLine
 10
49.699966642997197
 20
347.70004413627589
 30
0.0
 11
49.699966642997197
 21
351.70004413627584
 31
0.0
  0
ARC
  5
188
100
AcDbEntity
  8
0
  6
CONTINUOUS
 62
               7
100
AcDbCircle
 10
48.199966642997197
 20
347.70007465385396
 30
0.0
 40
1.5
100
AcDbArc
 50
270.00000000000006
 51
0.0000025044782182
  0
ARC
  5
189
100
AcDbEntity
  8
0
  6
CONTINUOUS
 62
               7
100
AcDbCircle
 10
48.199966642997197
 20
351.70007465385402
 30
0.0
 40
1.5
100
AcDbArc
 50
0.0000025044782182
 51
62.181333512908971
  0
ARC
  5
18A
100
AcDbEntity
  8
0
  6
CONTINUOUS
 62
               7
100
AcDbCircle
 10
36.19996664299731
 20
347.70007465385396
 30
0.0
 40
1.5
100
AcDbArc
 50
179.99999749552188
 51
270.00000000000006
  0
LINE
  5
18B
100
AcDbEntity
  8
0
  6
CONTINUOUS
 62
               7
100
AcDbLine
 10
35.49995443596606
 20
357.20007465385402
 30
0.0
 11
35.49995443596606
 21
346.70007465385402
 31
0.0
  0
LINE
  5
18C
100
AcDbEntity
  8
0
  6
CONTINUOUS
 62
               7
100
AcDbLine
 10
48.89997885002856
 20
357.20007465385402
 30
0.0
 11
48.89997885002856
 21
346.70007465385402
 31
0.0
  0
CIRCLE
  5
18D
100
AcDbEntity
  8
0
  6
CONTINUOUS
 62
               7
100
AcDbCircle
 10
46.19996664299731
 20
355.20007465385396
 30
0.0
 40
2.0749999999999997
  0
CIRCLE
  5
18E
100
AcDbEntity
  8
0
  6
CONTINUOUS
 62
               7
100
AcDbCircle
 10
46.19996664299731
 20
355.20007465385396
 30
0.0
 40
2.1499999999999999
  0
CIRCLE
  5
18F
100
AcDbEntity
  8
0
  6
CONTINUOUS
 62
               7
100
AcDbCircle
 10
38.199966642997197
 20
355.20007465385396
 30
0.0
 40
2.0749999999999997
  0
CIRCLE
  5
190
100
AcDbEntity
  8
0
  6
CONTINUOUS
 62
               7
100
AcDbCircle
 10
38.199966642997197
 20
355.20007465385396
 30
0.0
 40
2.1499999999999999
  0
LINE
  5
191
100
AcDbEntity
  8
0
  6
CONTINUOUS
 62
               7
100
AcDbLine
 10
37.410902596559254
 20
357.20004413627589
 30
0.0
 11
34.999954435966174
 21
357.20004413627589
 31
0.0
  0
LINE
  5
192
100
AcDbEntity
  8
0
  6
CONTINUOUS
 62
               7
100
AcDbLine
 10
45.410902596559367
 20
357.20004413627589
 30
0.0
 11
38.989030689435253
 21
357.20004413627589
 31
0.0
  0
LINE
  5
193
100
AcDbEntity
  8
0
  6
CONTINUOUS
 62
               7
100
AcDbLine
 10
40.849966642997288
 20
358.82163926106682
 30
0.0
 11
40.849966642997288
 21
357.20004413627589
 31
0.0
  0
LINE
  5
194
100
AcDbEntity
  8
0
  6
CONTINUOUS
 62
               7
100
AcDbLine
 10
40.699966642997197
 20
358.65975195620092
 30
0.0
 11
40.699966642997197
 21
357.20004413627589
 31
0.0
  0
LINE
  5
195
100
AcDbEntity
  8
0
  6
CONTINUOUS
 62
               7
100
AcDbLine
 10
44.399948332450322
 20
346.20007465385396
 30
0.0
 11
44.399948332450322
 21
237.70004413627589
 31
0.0
  0
LINE
  5
196
100
AcDbEntity
  8
0
  6
CONTINUOUS
 62
               7
100
AcDbLine
 10
40.99995443596606
 20
346.20007465385396
 30
0.0
 11
40.99995443596606
 21
237.70004413627589
 31
0.0
  0
ARC
  5
197
100
AcDbEntity
  8
0
  6
CONTINUOUS
 62
               7
100
AcDbCircle
 10
42.44996664299731
 20
364.95007465385396
 30
0.0
 40
1.7500000000000002
100
AcDbArc
 50
0.0
 51
180.0
  0
LINE
  5
198
100
AcDbEntity
  8
0
  6
CONTINUOUS
 62
               7
100
AcDbLine
 10
44.19996664299731
 20
364.95007465385396
 30
0.0
 11
44.19996664299731
 21
357.20007465385402
 31
0.0
  0
LINE
  5
199
100
AcDbEntity
  8
0
  6
CONTINUOUS
 62
               7
100
AcDbLine
 10
40.699966642997197
 20
364.95007465385396
 30
0.0
 11
40.699966642997197
 21
361.74036683392893
 31
0.0
  0
LINE
  5
19A
100
AcDbEntity
  8
0
  6
CONTINUOUS
 62
               7
100
AcDbLine
 10
43.549966642997333
 20
366.3111404127356
 30
0.0
 11
43.549966642997333
 21
357.20007465385402
 31
0.0
  0
LINE
  5
19B
100
AcDbEntity
  8
0
  6
CONTINUOUS
 62
               7
100
AcDbLine
 10
40.849966642997288
 20
365.65894699779176
 30
0.0
 11
40.849966642997288
 21
361.57847952906303
 31
0.0
  0
LINE
  5
19C
100
AcDbEntity
  8
0
  6
CONTINUOUS
 62
               7
100
AcDbLine
 10
-37.500030874244828
 20
212.41096406938226
 30
0.0
 11
-37.500030874244828
 21
205.98909216225809
 31
0.0
  0
LINE
  5
19D
100
AcDbEntity
  8
0
  6
CONTINUOUS
 62
               7
100
AcDbLine
 10
-37.500030874244828
 20
204.41096406938215
 30
0.0
 11
-37.500030874244828
 21
202.00001590878901
 31
0.0
  0
CIRCLE
  5
19E
100
AcDbEntity
  8
0
  6
CONTINUOUS
 62
               7
100
AcDbCircle
 10
-35.50006139182284
 20
205.20002811582009
 30
0.0
 40
2.1499999999999999
  0
CIRCLE
  5
19F
100
AcDbEntity
  8
0
  6
CONTINUOUS
 62
               7
100
AcDbCircle
 10
-35.50006139182284
 20
205.20002811582009
 30
0.0
 40
2.0749999999999997
  0
CIRCLE
  5
1A0
100
AcDbEntity
  8
0
  6
CONTINUOUS
 62
               7
100
AcDbCircle
 10
-35.50006139182284
 20
213.2000281158202
 30
0.0
 40
2.1499999999999999
  0
CIRCLE
  5
1A1
100
AcDbEntity
  8
0
  6
CONTINUOUS
 62
               7
100
AcDbCircle
 10
-35.50006139182284
 20
213.2000281158202
 30
0.0
 40
2.0749999999999997
  0
LINE
  5
1A2
100
AcDbEntity
  8
0
  6
CONTINUOUS
 62
               7
100
AcDbLine
 10
-37.500061391822953
 20
215.9000403228514
 30
0.0
 11
-27.000061391822896
 21
215.9000403228514
 31
0.0
  0
LINE
  5
1A3
100
AcDbEntity
  8
0
  6
CONTINUOUS
 62
               7
100
AcDbLine
 10
-37.500061391822953
 20
202.50001590878895
 30
0.0
 11
-27.000061391822896
 21
202.50001590878895
 31
0.0
  0
ARC
  5
1A4
100
AcDbEntity
  8
0
  6
CONTINUOUS
 62
               7
100
AcDbCircle
 10
-28.00006139182284
 20
203.2000281158202
 30
0.0
 40
1.5
100
AcDbArc
 50
269.99999749552188
 51
0.0000000000000509
  0
ARC
  5
1A5
100
AcDbEntity
  8
0
  6
CONTINUOUS
 62
               7
100
AcDbCircle
 10
-32.000061391822896
 20
215.20002811582009
 30
0.0
 40
1.5
100
AcDbArc
 50
90.000002504478218
 51
152.18133351290896
  0
ARC
  5
1A6
100
AcDbEntity
  8
0
  6
CONTINUOUS
 62
               7
100
AcDbCircle
 10
-28.00006139182284
 20
215.20002811582009
 30
0.0
 40
1.5
100
AcDbArc
 50
0.0000000000000509
 51
90.000002504478218
  0
LINE
  5
1A7
100
AcDbEntity
  8
0
  6
CONTINUOUS
 62
               7
100
AcDbLine
 10
-28.000030874244771
 20
216.70002811582009
 30
0.0
 11
-32.000030874244715
 21
216.70002811582009
 31
0.0
  0
LINE
  5
1A8
100
AcDbEntity
  8
0
  6
CONTINUOUS
 62
               7
100
AcDbLine
 10
-26.500061391822896
 20
203.2000281158202
 30
0.0
 11
-26.500061391822896
 21
215.20002811582009
 31
0.0
  0
LINE
  5
1A9
100
AcDbEntity
  8
0
  6
CONTINUOUS
 62
               7
100
AcDbLine
 10
-27.000061391822896
 20
202.50001590878895
 30
0.0
 11
-27.000061391822896
 21
215.9000403228514
 31
0.0
  0
LINE
  5
1AA
100
AcDbEntity
  8
0
  6
CONTINUOUS
 62
               7
100
AcDbLine
 10
-28.00006139182284
 20
201.70002811582026
 30
0.0
 11
-32.000061391822896
 21
201.70002811582026
 31
0.0
  0
ARC
  5
1AB
100
AcDbEntity
  8
0
  6
CONTINUOUS
 62
               7
100
AcDbCircle
 10
-32.000061391822896
 20
203.2000281158202
 30
0.0
 40
1.5
100
AcDbArc
 50
207.81866648709104
 51
269.99999749552188
  0
LINE
  5
1AC
100
AcDbEntity
  8
0
  6
CONTINUOUS
 62
               7
100
AcDbLine
 10
-45.250061391822896
 20
211.20002811582015
 30
0.0
 11
-37.500061391822953
 21
211.20002811582015
 31
0.0
  0
ARC
  5
1AD
100
AcDbEntity
  8
0
  6
CONTINUOUS
 62
               7
100
AcDbCircle
 10
-45.250061391822896
 20
209.4500281158202
 30
0.0
 40
1.7500000000000002
100
AcDbArc
 50
90.0
 51
270.0
  0
LINE
  5
1AE
100
AcDbEntity
  8
0
  6
CONTINUOUS
 62
               7
100
AcDbLine
 10
-45.250061391822896
 20
207.70002811582009
 30
0.0
 11
-42.040353571897867
 21
207.70002811582009
 31
0.0
  0
LINE
  5
1AF
100
AcDbEntity
  8
0
  6
CONTINUOUS
 62
               7
100
AcDbLine
 10
-46.611127150704533
 20
210.55002811582017
 30
0.0
 11
-37.500061391822953
 21
210.55002811582017
 31
0.0
  0
LINE
  5
1B0
100
AcDbEntity
  8
0
  6
CONTINUOUS
 62
               7
100
AcDbLine
 10
-45.958933735760695
 20
207.85002811582018
 30
0.0
 11
-41.878466267031968
 21
207.85002811582018
 31
0.0
  0
LINE
  5
1B1
100
AcDbEntity
  8
0
  6
CONTINUOUS
 62
               7
100
AcDbLine
 10
-37.500030874244828
 20
216.40004032285151
 30
0.0
 11
-37.500030874244828
 21
213.9890921622582
 31
0.0
  0
LINE
  5
1B2
100
AcDbEntity
  8
0
  6
CONTINUOUS
 62
               7
100
AcDbLine
 10
-37.500030874244828
 20
216.40004032285151
 30
0.0
 11
-37.000030874244715
 21
216.40004032285151
 31
0.0
  0
LINE
  5
1B3
100
AcDbEntity
  8
0
  6
CONTINUOUS
 62
               7
100
AcDbLine
 10
-37.500030874244828
 20
202.00001590878901
 30
0.0
 11
-37.000030874244715
 21
202.00001590878901
 31
0.0
  0
LINE
  5
1B4
100
AcDbEntity
  8
0
  6
CONTINUOUS
 62
               7
100
AcDbLine
 10
-39.121625999035757
 20
207.85002811582018
 30
0.0
 11
-37.500030874244828
 21
207.85002811582018
 31
0.0
  0
LINE
  5
1B5
100
AcDbEntity
  8
0
  6
CONTINUOUS
 62
               7
100
AcDbLine
 10
-38.959738694169857
 20
207.70002811582009
 30
0.0
 11
-37.500030874244828
 21
207.70002811582009
 31
0.0
  0
CIRCLE
  5
1B6
100
AcDbEntity
  8
0
  6
CONTINUOUS
 62
               7
100
AcDbCircle
 10
-24.500061391822896
 20
213.2000281158202
 30
0.0
 40
0.8
  0
CIRCLE
  5
1B7
100
AcDbEntity
  8
0
  6
CONTINUOUS
 62
               7
100
AcDbCircle
 10
-24.500061391822896
 20
205.20002811582009
 30
0.0
 40
0.8
  0
LINE
  5
1B8
100
AcDbEntity
  8
0
  6
CONTINUOUS
 62
               7
100
AcDbLine
 10
-18.000030555911735
 20
254.40002920054667
 30
0.0
 11
-18.000030555911735
 21
241.00000478648417
 31
0.0
  0
LINE
  5
1B9
100
AcDbEntity
  8
0
  6
CONTINUOUS
 62
               7
100
AcDbLine
 10
-18.850030557423736
 20
253.7756515517693
 30
0.0
 11
-18.000030551682016
 21
253.85001691605152
 31
0.0
  0
LINE
  5
1BA
100
AcDbEntity
  8
0
  6
CONTINUOUS
 62
               7
100
AcDbLine
 10
-18.850030557424304
 20
249.62438243526179
 30
0.0
 11
-18.000030551682585
 21
249.55001707097944
 31
0.0
  0
LINE
  5
1BB
100
AcDbEntity
  8
0
  6
CONTINUOUS
 62
               7
100
AcDbLine
 10
-18.850030579753536
 20
249.62438227557433
 30
0.0
 11
-18.850030579752968
 21
253.77565171145676
 31
0.0
  0
LINE
  5
1BC
100
AcDbEntity
  8
0
  6
CONTINUOUS
 62
               7
100
AcDbLine
 10
-18.850030557423736
 20
245.77565155176919
 30
0.0
 11
-18.000030551682016
 21
245.85001691605152
 31
0.0
  0
LINE
  5
1BD
100
AcDbEntity
  8
0
  6
CONTINUOUS
 62
               7
100
AcDbLine
 10
-18.850030557424304
 20
241.62438243526174
 30
0.0
 11
-18.000030551682585
 21
241.55001707097938
 31
0.0
  0
LINE
  5
1BE
100
AcDbEntity
  8
0
  6
CONTINUOUS
 62
               7
100
AcDbLine
 10
-18.850030579753536
 20
241.62438227557419
 30
0.0
 11
-18.850030579752968
 21
245.77565171145687
 31
0.0
  0
ARC
  5
1BF
100
AcDbEntity
  8
0
  6
CONTINUOUS
 62
               7
100
AcDbCircle
 10
-12.870374717898699
 20
251.70001699351513
 30
0.0
 40
6.3296561241149902
100
AcDbArc
 50
160.85729086486762
 51
199.14270731389101
  0
ARC
  5
1C0
100
AcDbEntity
  8
0
  6
CONTINUOUS
 62
               7
100
AcDbCircle
 10
-12.870374717898699
 20
243.70001699351513
 30
0.0
 40
6.3296561241149902
100
AcDbArc
 50
160.85729086486762
 51
199.14270731389101
  0
LINE
  5
1C1
100
AcDbEntity
  8
0
  6
CONTINUOUS
 62
               7
100
AcDbLine
 10
-14.000030555911565
 20
254.40002920054667
 30
0.0
 11
-18.000030555911735
 21
254.40002920054667
 31
0.0
  0
LINE
  5
1C2
100
AcDbEntity
  8
0
  6
CONTINUOUS
 62
               7
100
AcDbLine
 10
-14.000030555911565
 20
241.00000478648417
 30
0.0
 11
-18.000030555911735
 21
241.00000478648417
 31
0.0
  0
LINE
  5
1C3
100
AcDbEntity
  8
0
  6
CONTINUOUS
 62
               7
100
AcDbLine
 10
300.00001625878912
 20
81.200012467031115
 30
0.0
 11
300.000001
 21
30.200012297031094
 31
0.0
  0
LINE
  5
1C4
100
AcDbEntity
  8
0
  6
CONTINUOUS
 62
               7
100
AcDbLine
 10
0.0
 20
3.2000122070311363
 30
0.0
 11
0.0
 21
195.20001285703103
 31
0.0
  0
ARC
  5
1C5
100
AcDbEntity
  8
0
  6
CONTINUOUS
 62
               7
100
AcDbCircle
 10
17.999984801210985
 20
267.2000130870311
 30
0.0
 40
2.0000000066666663
100
AcDbArc
 50
60.000001669652114
 51
90.000002504478161
  0
ARC
  5
1C6
100
AcDbEntity
  8
0
  6
CONTINUOUS
 62
               7
100
AcDbCircle
 10
18.870315614658921
 20
244.70001301203109
 30
0.0
 40
6.3296561452138436
100
AcDbArc
 50
340.85729006794099
 51
19.142706516964399
  0
ARC
  5
1C7
100
AcDbEntity
  8
0
  6
CONTINUOUS
 62
               7
100
AcDbCircle
 10
18.870315614658921
 20
258.70001305869778
 30
0.0
 40
6.3296561452138436
100
AcDbArc
 50
340.85729006794099
 51
19.142706516964399
  0
ARC
  5
1C8
100
AcDbEntity
  8
0
  6
CONTINUOUS
 62
               7
100
AcDbCircle
 10
16.499984796210924
 20
265.70001308203109
 30
0.0
 40
2.4000001033674319
100
AcDbArc
 50
331.17621921195268
 51
163.04248945089057
  0
ARC
  5
1C9
100
AcDbEntity
  8
0
  6
CONTINUOUS
 62
               7
100
AcDbCircle
 10
-6.5000305392449036
 20
265.70001308203109
 30
0.0
 40
2.4000001033674319
100
AcDbArc
 50
16.957513850518463
 51
208.82378579700367
  0
ARC
  5
1CA
100
AcDbEntity
  8
0
  6
CONTINUOUS
 62
               7
100
AcDbCircle
 10
20.999984811210879
 20
239.70001299536443
 30
0.0
 40
3.0000000099999995
100
AcDbArc
 50
269.99999749552182
 51
0.0
  0
ARC
  5
1CB
100
AcDbEntity
  8
0
  6
CONTINUOUS
 62
               7
100
AcDbCircle
 10
-8.0000305442448507
 20
267.2000130870311
 30
0.0
 40
2.0000000066666663
100
AcDbArc
 50
90.000002504478161
 51
120.00000333930423
  0
ARC
  5
1CC
100
AcDbEntity
  8
0
  6
CONTINUOUS
 62
               7
100
AcDbCircle
 10
15.79286199111948
 20
264.10000697318213
 30
0.0
 40
2.2999999599829506
100
AcDbArc
 50
45.00000125223908
 51
90.000002504478161
  0
ARC
  5
1CD
100
AcDbEntity
  8
0
  6
CONTINUOUS
 62
               7
100
AcDbCircle
 10
-10.500030552578153
 20
257.69583214714737
 30
0.0
 40
3.5000000116666663
100
AcDbArc
 50
135.00000034162267
 51
180.00000500895632
  0
ARC
  5
1CE
100
AcDbEntity
  8
0
  6
CONTINUOUS
 62
               7
100
AcDbCircle
 10
20.499984809544287
 20
257.69583214714737
 30
0.0
 40
3.5000000116666663
100
AcDbArc
 50
0.0000000000000509
 51
45.00000125223908
  0
ARC
  5
1CF
100
AcDbEntity
  8
0
  6
CONTINUOUS
 62
               7
100
AcDbCircle
 10
-5.792922992942465
 20
264.10000697318213
 30
0.0
 40
2.2999999599829506
100
AcDbArc
 50
90.000002504478161
 51
135.00000034162267
  0
ARC
  5
1D0
100
AcDbEntity
  8
0
  6
CONTINUOUS
 62
               7
100
AcDbCircle
 10
-11.000030554244859
 20
239.70001299536443
 30
0.0
 40
3.0000000099999995
100
AcDbArc
 50
179.99999499104368
 51
269.99999749552182
  0
ARC
  5
1D1
100
AcDbEntity
  8
0
  6
CONTINUOUS
 62
               7
100
AcDbCircle
 10
17.999984801210985
 20
267.2000130870311
 30
0.0
 40
1.5000000049999997
100
AcDbArc
 50
45.00000125223908
 51
90.000002504478161
  0
ARC
  5
1D2
100
AcDbEntity
  8
0
  6
CONTINUOUS
 62
               7
100
AcDbCircle
 10
23.499984819544238
 20
269.70001309536445
 30
0.0
 40
0.5000000016666666
100
AcDbArc
 50
7.4208451464152363
 51
90.000002504478161
  0
ARC
  5
1D3
100
AcDbEntity
  8
0
  6
CONTINUOUS
 62
               7
100
AcDbCircle
 10
-8.0000305442448507
 20
267.2000130870311
 30
0.0
 40
1.5000000049999997
100
AcDbArc
 50
90.000002504478161
 51
135.00000034162267
  0
ARC
  5
1D4
100
AcDbEntity
  8
0
  6
CONTINUOUS
 62
               7
100
AcDbCircle
 10
19.499984806210932
 20
269.70001309536445
 30
0.0
 40
0.5000000016666666
100
AcDbArc
 50
90.000002504478161
 51
180.00000500895632
  0
ARC
  5
1D5
100
AcDbEntity
  8
0
  6
CONTINUOUS
 62
               7
100
AcDbCircle
 10
-9.5000305492449115
 20
269.70001309536445
 30
0.0
 40
0.5000000016666666
100
AcDbArc
 50
0.0
 51
90.000002504478161
  0
ARC
  5
1D6
100
AcDbEntity
  8
0
  6
CONTINUOUS
 62
               7
100
AcDbCircle
 10
-13.500030562578161
 20
269.70001309536445
 30
0.0
 40
0.5000000016666666
100
AcDbArc
 50
89.999995674288996
 51
172.57915473989922
  0
CIRCLE
  5
1D7
100
AcDbEntity
  8
0
  6
CONTINUOUS
 62
               7
100
AcDbCircle
 10
53.199966607997339
 20
360.20007443218753
 30
0.0
 40
2.0750000546003822
  0
CIRCLE
  5
1D8
100
AcDbEntity
  8
0
  6
CONTINUOUS
 62
               7
100
AcDbCircle
 10
53.199966607997339
 20
360.20007443218753
 30
0.0
 40
2.1500001025340985
  0
CIRCLE
  5
1D9
100
AcDbEntity
  8
0
  6
CONTINUOUS
 62
               7
100
AcDbCircle
 10
39.199966561330655
 20
360.20007443218753
 30
0.0
 40
2.0750000546003822
  0
CIRCLE
  5
1DA
100
AcDbEntity
  8
0
  6
CONTINUOUS
 62
               7
100
AcDbCircle
 10
39.199966561330655
 20
360.20007443218753
 30
0.0
 40
2.1500001025340985
  0
CIRCLE
  5
1DB
100
AcDbEntity
  8
0
  6
CONTINUOUS
 62
               7
100
AcDbCircle
 10
-40.500030652578175
 20
220.20001293036444
 30
0.0
 40
2.0750000546003822
  0
CIRCLE
  5
1DC
100
AcDbEntity
  8
0
  6
CONTINUOUS
 62
               7
100
AcDbCircle
 10
-40.500030652578175
 20
220.20001293036444
 30
0.0
 40
2.1500001025340985
  0
CIRCLE
  5
1DD
100
AcDbEntity
  8
0
  6
CONTINUOUS
 62
               7
100
AcDbCircle
 10
-40.500030652578175
 20
206.20001288369775
 30
0.0
 40
2.0750000546003822
  0
CIRCLE
  5
1DE
100
AcDbEntity
  8
0
  6
CONTINUOUS
 62
               7
100
AcDbCircle
 10
-40.500030652578175
 20
206.20001288369775
 30
0.0
 40
2.1500001025340985
  0
ARC
  5
1DF
100
AcDbEntity
  8
0
  6
CONTINUOUS
 62
               7
100
AcDbCircle
 10
55.899948306450369
 20
235.24978715045222
 30
0.0
 40
5.0000000166666672
100
AcDbArc
 50
309.41994593172478
 51
0.0
  0
ARC
  5
1E0
100
AcDbEntity
  8
0
  6
CONTINUOUS
 62
               7
100
AcDbCircle
 10
43.199966574664018
 20
279.70004364627601
 30
0.0
 40
50.000000166666666
100
AcDbArc
 50
258.96028760794934
 51
288.22598846548567
  0
ARC
  5
1E1
100
AcDbEntity
  8
0
  6
CONTINUOUS
 62
               7
100
AcDbCircle
 10
37.199966554664002
 20
232.67230301100119
 30
0.0
 40
6.000000019999999
100
AcDbArc
 50
180.00000500895632
 51
251.59152071903708
  0
ARC
  5
1E2
100
AcDbEntity
  8
0
  6
CONTINUOUS
 62
               7
100
AcDbCircle
 10
34.199966544663994
 20
233.56979446907098
 30
0.0
 40
3.0000000099999995
100
AcDbArc
 50
180.00000500895632
 51
258.96028396548365
  0
ARC
  5
1E3
100
AcDbEntity
  8
0
  6
CONTINUOUS
 62
               7
100
AcDbCircle
 10
43.199966574664018
 20
250.70004354960932
 30
0.0
 40
25.000000083333333
100
AcDbArc
 50
251.5915175313136
 51
309.41994593172478
  0
ARC
  5
1E4
100
AcDbEntity
  8
0
  6
CONTINUOUS
 62
               7
100
AcDbCircle
 10
57.899948313117079
 20
235.05801468887546
 30
0.0
 40
3.0000000099999995
100
AcDbArc
 50
288.22598846548567
 51
0.0
  0
ARC
  5
1E5
100
AcDbEntity
  8
0
  6
CONTINUOUS
 62
               7
100
AcDbCircle
 10
234.45021135278978
 20
222.89999462881752
 30
0.0
 40
5.0000000166666672
100
AcDbArc
 50
39.419948436202937
 51
90.000002504478161
  0
ARC
  5
1E6
100
AcDbEntity
  8
0
  6
CONTINUOUS
 62
               7
100
AcDbCircle
 10
189.99998537454422
 20
210.20001289703106
 30
0.0
 40
50.000000166666666
100
AcDbArc
 50
348.96028584355929
 51
18.225985847321969
  0
ARC
  5
1E7
100
AcDbEntity
  8
0
  6
CONTINUOUS
 62
               7
100
AcDbCircle
 10
237.02772600981899
 20
204.2000128770311
 30
0.0
 40
6.000000019999999
100
AcDbArc
 50
269.99999749552182
 51
341.59152003579175
  0
ARC
  5
1E8
100
AcDbEntity
  8
0
  6
CONTINUOUS
 62
               7
100
AcDbCircle
 10
236.13023455174923
 20
201.20001286703109
 30
0.0
 40
3.0000000099999995
100
AcDbArc
 50
269.99999749552182
 51
348.96028584355929
  0
ARC
  5
1E9
100
AcDbEntity
  8
0
  6
CONTINUOUS
 62
               7
100
AcDbCircle
 10
218.99998547121089
 20
210.20001289703106
 30
0.0
 40
25.000000083333333
100
AcDbArc
 50
341.59152003579175
 51
39.419948436202937
  0
ARC
  5
1EA
100
AcDbEntity
  8
0
  6
CONTINUOUS
 62
               7
100
AcDbCircle
 10
234.64198381436654
 20
224.89999463548418
 30
0.0
 40
3.0000000099999995
100
AcDbArc
 50
18.225985847321969
 51
90.000002504478161
  0
LINE
  5
1EB
100
AcDbEntity
  8
0
  6
CONTINUOUS
 62
               7
100
AcDbLine
 10
15.749997936189573
 20
228.70003635949445
 30
0.0
 11
15.249996434349555
 21
229.20003596472424
 31
0.0
  0
LINE
  5
1EC
100
AcDbEntity
  8
0
  6
CONTINUOUS
 62
               7
100
AcDbLine
 10
15.249984792044245
 20
231.70001296869776
 30
0.0
 11
15.249984792044245
 21
229.20001296036446
 31
0.0
  0
LINE
  5
1ED
100
AcDbEntity
  8
0
  6
CONTINUOUS
 62
               7
100
AcDbLine
 10
20.749954292799373
 20
229.20001296036446
 30
0.0
 11
15.249984792044245
 21
229.20001296036446
 31
0.0
  0
LINE
  5
1EE
100
AcDbEntity
  8
0
  6
CONTINUOUS
 62
               7
100
AcDbLine
 10
20.749988966974342
 20
229.20003806247922
 30
0.0
 11
20.249955096292467
 21
228.7000060885303
 31
0.0
  0
LINE
  5
1EF
100
AcDbEntity
  8
0
  6
CONTINUOUS
 62
               7
100
AcDbLine
 10
20.749984810377555
 20
229.20001296036446
 30
0.0
 11
20.749984810377555
 21
231.70001296869776
 31
0.0
  0
LINE
  5
1F0
100
AcDbEntity
  8
0
  6
CONTINUOUS
 62
               7
100
AcDbLine
 10
20.249954291132724
 20
228.70001295869776
 30
0.0
 11
15.749984793710894
 21
228.70001295869776
 31
0.0
  0
LINE
  5
1F1
100
AcDbEntity
  8
0
  6
CONTINUOUS
 62
               7
100
AcDbLine
 10
-10.250020058091366
 20
228.70001941642943
 30
0.0
 11
-10.750021559931326
 21
229.20001902165916
 31
0.0
  0
LINE
  5
1F2
100
AcDbEntity
  8
0
  6
CONTINUOUS
 62
               7
100
AcDbLine
 10
-10.750030553411591
 20
231.70001296869776
 30
0.0
 11
-10.750030553411591
 21
229.20001296036446
 31
0.0
  0
LINE
  5
1F3
100
AcDbEntity
  8
0
  6
CONTINUOUS
 62
               7
100
AcDbLine
 10
-5.2500457938673435
 20
229.20001296036446
 30
0.0
 11
-10.750030553411591
 21
229.20001296036446
 31
0.0
  0
LINE
  5
1F4
100
AcDbEntity
  8
0
  6
CONTINUOUS
 62
               7
100
AcDbLine
 10
-5.2500236325608967
 20
229.20002803155023
 30
0.0
 11
-5.75003592401481
 21
228.70001763674748
 31
0.0
  0
LINE
  5
1F5
100
AcDbEntity
  8
0
  6
CONTINUOUS
 62
               7
100
AcDbLine
 10
-5.250015276289048
 20
229.20001296036446
 30
0.0
 11
-5.250015276289048
 21
231.70001296869776
 31
0.0
  0
LINE
  5
1F6
100
AcDbEntity
  8
0
  6
CONTINUOUS
 62
               7
100
AcDbLine
 10
-5.75003053674493
 20
228.70001295869776
 30
0.0
 11
-10.250015292955709
 21
228.70001295869776
 31
0.0
  0
LINE
  5
1F7
100
AcDbEntity
  8
0
  6
CONTINUOUS
 62
               7
100
AcDbLine
 10
155.25001586932586
 20
185.20005675362296
 30
0.0
 11
154.75001706488939
 21
185.70005366145944
 31
0.0
  0
LINE
  5
1F8
100
AcDbEntity
  8
0
  6
CONTINUOUS
 62
               7
100
AcDbLine
 10
154.75001577462245
 20
188.200043341276
 30
0.0
 11
154.75001577462245
 21
185.7000433329427
 31
0.0
  0
LINE
  5
1F9
100
AcDbEntity
  8
0
  6
CONTINUOUS
 62
               7
100
AcDbLine
 10
160.24998527537753
 20
185.7000433329427
 30
0.0
 11
154.75001577462245
 21
185.7000433329427
 31
0.0
  0
LINE
  5
1FA
100
AcDbEntity
  8
0
  6
CONTINUOUS
 62
               7
100
AcDbLine
 10
160.25002531839667
 20
185.70007240724556
 30
0.0
 11
159.74999144771476
 21
185.20004043329664
 31
0.0
  0
LINE
  5
1FB
100
AcDbEntity
  8
0
  6
CONTINUOUS
 62
               7
100
AcDbLine
 10
160.25001579295576
 20
185.7000433329427
 30
0.0
 11
160.25001579295576
 21
188.200043341276
 31
0.0
  0
LINE
  5
1FC
100
AcDbEntity
  8
0
  6
CONTINUOUS
 62
               7
100
AcDbLine
 10
159.74998527371088
 20
185.20004333127605
 30
0.0
 11
155.2500157762891
 21
185.20004333127605
 31
0.0
  0
LINE
  5
1FD
100
AcDbEntity
  8
0
  6
CONTINUOUS
 62
               7
100
AcDbLine
 10
35.250007100864082
 20
185.20005034729735
 30
0.0
 11
34.750005599024121
 21
185.70004995252708
 31
0.0
  0
LINE
  5
1FE
100
AcDbEntity
  8
0
  6
CONTINUOUS
 62
               7
100
AcDbLine
 10
34.750000115833359
 20
188.200043341276
 30
0.0
 11
34.750000115833359
 21
185.7000433329427
 31
0.0
  0
LINE
  5
1FF
100
AcDbEntity
  8
0
  6
CONTINUOUS
 62
               7
100
AcDbLine
 10
40.250000134166726
 20
185.7000433329427
 30
0.0
 11
34.750000115833359
 21
185.7000433329427
 31
0.0
  0
LINE
  5
200
100
AcDbEntity
  8
0
  6
CONTINUOUS
 62
               7
100
AcDbLine
 10
40.250005760300496
 20
185.7000572344046
 30
0.0
 11
39.749993468846469
 21
185.20004683960184
 31
0.0
  0
LINE
  5
201
100
AcDbEntity
  8
0
  6
CONTINUOUS
 62
               7
100
AcDbLine
 10
40.250000134166726
 20
185.7000433329427
 30
0.0
 11
40.250000134166726
 21
188.200043341276
 31
0.0
  0
LINE
  5
202
100
AcDbEntity
  8
0
  6
CONTINUOUS
 62
               7
100
AcDbLine
 10
39.75000013250002
 20
185.20004333127605
 30
0.0
 11
35.25001537628907
 21
185.20004333127605
 31
0.0
  0
LINE
  5
203
100
AcDbEntity
  8
0
  6
CONTINUOUS
 62
               7
100
AcDbLine
 10
-26.500061391822896
 20
211.40002510806238
 30
0.0
 11
231.99998551454422
 21
211.40002510806238
 31
0.0
  0
LINE
  5
204
100
AcDbEntity
  8
0
  6
CONTINUOUS
 62
               7
100
AcDbLine
 10
-26.500061391822896
 20
208.00000068266644
 30
0.0
 11
231.99998551454422
 21
208.00000068266644
 31
0.0
  0
LINE
  5
205
100
AcDbEntity
  8
0
  6
CONTINUOUS
 62
               7
100
AcDbLine
 10
24.849960409981691
 20
246.7756355775436
 30
0.0
 11
24.849960409981691
 21
242.62435992894041
 31
0.0
  0
LINE
  5
206
100
AcDbEntity
  8
0
  6
CONTINUOUS
 62
               7
100
AcDbLine
 10
24.849968240549174
 20
246.77564519019734
 30
0.0
 11
23.999974091476247
 21
246.85001004208743
 31
0.0
  0
LINE
  5
207
100
AcDbEntity
  8
0
  6
CONTINUOUS
 62
               7
100
AcDbLine
 10
24.849965712406288
 20
242.62436451268957
 30
0.0
 11
23.999971563333361
 21
242.54999966079941
 31
0.0
  0
LINE
  5
208
100
AcDbEntity
  8
0
  6
CONTINUOUS
 62
               7
100
AcDbLine
 10
24.849960409981691
 20
260.77563562421028
 30
0.0
 11
24.849960409981691
 21
256.62435997560704
 31
0.0
  0
LINE
  5
209
100
AcDbEntity
  8
0
  6
CONTINUOUS
 62
               7
100
AcDbLine
 10
24.849981359846993
 20
260.77566553341683
 30
0.0
 11
23.999972010048964
 21
260.85003171519804
 31
0.0
  0
LINE
  5
20A
100
AcDbEntity
  8
0
  6
CONTINUOUS
 62
               7
100
AcDbLine
 10
24.849967793833571
 20
256.62438618580018
 30
0.0
 11
23.999973644760644
 21
256.55002133391002
 31
0.0
  0
LINE
  5
20B
100
AcDbEntity
  8
0
  6
CONTINUOUS
 62
               7
100
AcDbLine
 10
17.999984801210985
 20
269.20001309369775
 30
0.0
 11
-8.0000305442448507
 21
269.20001309369775
 31
0.0
  0
LINE
  5
20C
100
AcDbEntity
  8
0
  6
CONTINUOUS
 62
               7
100
AcDbLine
 10
-12.974898859411439
 20
260.17071642857849
 30
0.0
 11
-7.4192942292455655
 21
265.7263210587443
 31
0.0
  0
LINE
  5
20D
100
AcDbEntity
  8
0
  6
CONTINUOUS
 62
               7
100
AcDbLine
 10
22.974838394917867
 20
260.17069484939236
 30
0.0
 11
17.419201395972834
 21
265.72633184833734
 31
0.0
  0
LINE
  5
20E
100
AcDbEntity
  8
0
  6
CONTINUOUS
 62
               7
100
AcDbLine
 10
-9.0000305475782056
 20
269.70001309536445
 30
0.0
 11
-9.0000305475782056
 21
264.14556971747464
 31
0.0
  0
LINE
  5
20F
100
AcDbEntity
  8
0
  6
CONTINUOUS
 62
               7
100
AcDbLine
 10
15.79286199111948
 20
266.39999477381753
 30
0.0
 11
-5.792922992942465
 21
266.39999477381753
 31
0.0
  0
LINE
  5
210
100
AcDbEntity
  8
0
  6
CONTINUOUS
 62
               7
100
AcDbLine
 10
17.999984801210985
 20
268.7000130920311
 30
0.0
 11
-8.0000305442448507
 21
268.7000130920311
 31
0.0
  0
LINE
  5
211
100
AcDbEntity
  8
0
  6
CONTINUOUS
 62
               7
100
AcDbLine
 10
18.999984804544283
 20
269.70001309536445
 30
0.0
 11
18.999984804544283
 21
264.14556971747464
 31
0.0
  0
LINE
  5
212
100
AcDbEntity
  8
0
  6
CONTINUOUS
 62
               7
100
AcDbLine
 10
49.847397016743912
 20
226.60000684818209
 30
0.0
 11
231.99998551454422
 21
226.60000684818209
 31
0.0
  0
LINE
  5
213
100
AcDbEntity
  8
0
  6
CONTINUOUS
 62
               7
100
AcDbLine
 10
45.199966581330671
 20
233.70004349294265
 30
0.0
 11
44.699966579663965
 21
233.70004349294265
 31
0.0
  0
LINE
  5
214
100
AcDbEntity
  8
0
  6
CONTINUOUS
 62
               7
100
AcDbLine
 10
44.699966579663965
 20
237.70004350627602
 30
0.0
 11
44.699966579663965
 21
233.70004349294265
 31
0.0
  0
LINE
  5
215
100
AcDbEntity
  8
0
  6
CONTINUOUS
 62
               7
100
AcDbLine
 10
50.699966599663981
 20
237.70004350627602
 30
0.0
 11
50.699966599663981
 21
233.70004349294265
 31
0.0
  0
LINE
  5
216
100
AcDbEntity
  8
0
  6
CONTINUOUS
 62
               7
100
AcDbLine
 10
50.699966599663981
 20
233.70004349294265
 30
0.0
 11
50.199966597997332
 21
233.70004349294265
 31
0.0
  0
LINE
  5
217
100
AcDbEntity
  8
0
  6
CONTINUOUS
 62
               7
100
AcDbLine
 10
50.199966597997332
 20
237.70004350627602
 30
0.0
 11
50.199966597997332
 21
233.70004349294265
 31
0.0
  0
LINE
  5
218
100
AcDbEntity
  8
0
  6
CONTINUOUS
 62
               7
100
AcDbLine
 10
45.199966581330671
 20
237.70004350627602
 30
0.0
 11
45.199966581330671
 21
233.70004349294265
 31
0.0
  0
LINE
  5
219
100
AcDbEntity
  8
0
  6
CONTINUOUS
 62
               7
100
AcDbLine
 10
60.899978840695326
 20
237.70004350627602
 30
0.0
 11
60.899978840695326
 21
235.24978715045222
 31
0.0
  0
LINE
  5
21A
100
AcDbEntity
  8
0
  6
CONTINUOUS
 62
               7
100
AcDbLine
 10
57.064468574003968
 20
293.70007421052088
 30
0.0
 11
57.064468574003968
 21
237.70004350627602
 31
0.0
  0
LINE
  5
21B
100
AcDbEntity
  8
0
  6
CONTINUOUS
 62
               7
100
AcDbLine
 10
31.199966534663986
 20
434.70001361869777
 30
0.0
 11
31.199966534663986
 21
232.67230301100119
 31
0.0
  0
LINE
  5
21C
100
AcDbEntity
  8
0
  6
CONTINUOUS
 62
               7
100
AcDbLine
 10
64.699966646330665
 20
335.70007435052088
 30
0.0
 11
64.699966646330665
 21
293.70007421052088
 31
0.0
  0
LINE
  5
21D
100
AcDbEntity
  8
0
  6
CONTINUOUS
 62
               7
100
AcDbLine
 10
52.199966604663985
 20
356.70007442052088
 30
0.0
 11
52.199966604663985
 21
237.70004350627602
 31
0.0
  0
LINE
  5
21E
100
AcDbEntity
  8
0
  6
CONTINUOUS
 62
               7
100
AcDbLine
 10
63.69996664299731
 20
356.70007442052088
 30
0.0
 11
49.399978850028674
 21
356.70007442052088
 31
0.0
  0
LINE
  5
21F
100
AcDbEntity
  8
0
  6
CONTINUOUS
 62
               7
100
AcDbLine
 10
54.146377743964536
 20
356.70007442052088
 30
0.0
 11
54.146377743964536
 21
335.70007435052088
 31
0.0
  0
LINE
  5
220
100
AcDbEntity
  8
0
  6
CONTINUOUS
 62
               7
100
AcDbLine
 10
57.064468574003968
 20
356.70007442052088
 30
0.0
 11
57.064468574003968
 21
335.70007435052088
 31
0.0
  0
LINE
  5
221
100
AcDbEntity
  8
0
  6
CONTINUOUS
 62
               7
100
AcDbLine
 10
64.699966646330665
 20
293.70007421052088
 30
0.0
 11
53.099960504148328
 21
293.70007421052088
 31
0.0
  0
LINE
  5
222
100
AcDbEntity
  8
0
  6
CONTINUOUS
 62
               7
100
AcDbLine
 10
59.59996052581505
 20
293.70007421052088
 30
0.0
 11
59.59996052581505
 21
237.70004350627602
 31
0.0
  0
LINE
  5
223
100
AcDbEntity
  8
0
  6
CONTINUOUS
 62
               7
100
AcDbLine
 10
59.59996052581505
 20
356.70007442052088
 30
0.0
 11
59.59996052581505
 21
335.70007435052088
 31
0.0
  0
LINE
  5
224
100
AcDbEntity
  8
0
  6
CONTINUOUS
 62
               7
100
AcDbLine
 10
60.899978840695326
 20
237.70004350627602
 30
0.0
 11
31.199966534663986
 21
237.70004350627602
 31
0.0
  0
LINE
  5
225
100
AcDbEntity
  8
0
  6
CONTINUOUS
 62
               7
100
AcDbLine
 10
63.69996664299731
 20
434.70001361869777
 30
0.0
 11
63.69996664299731
 21
356.7000133853644
 31
0.0
  0
LINE
  5
226
100
AcDbEntity
  8
0
  6
CONTINUOUS
 62
               7
100
AcDbLine
 10
63.69996664299731
 20
434.70001361869777
 30
0.0
 11
31.199966534663986
 21
434.70001361869777
 31
0.0
  0
LINE
  5
227
100
AcDbEntity
  8
0
  6
CONTINUOUS
 62
               2
100
AcDbLine
 10
33.429861530927269
 20
282.20004365460932
 30
0.0
 11
26.74314645205061
 21
282.20004365460932
 31
0.0
  0
LINE
  5
228
100
AcDbEntity
  8
0
  6
CONTINUOUS
 62
               2
100
AcDbLine
 10
66.814102395565214
 20
327.70007432385421
 30
0.0
 11
58.078872874260355
 21
327.70007432385421
 31
0.0
  0
LINE
  5
229
100
AcDbEntity
  8
0
  6
CONTINUOUS
 62
               7
100
AcDbLine
 10
53.099960504148328
 20
335.70007435052088
 30
0.0
 11
53.099960504148328
 21
293.70007421052088
 31
0.0
  0
LINE
  5
22A
100
AcDbEntity
  8
0
  6
CONTINUOUS
 62
               7
100
AcDbLine
 10
64.699966646330665
 20
335.70007435052088
 30
0.0
 11
53.099960504148328
 21
335.70007435052088
 31
0.0
  0
LINE
  5
22B
100
AcDbEntity
  8
0
  6
CONTINUOUS
 62
               7
100
AcDbLine
 10
54.146377743964536
 20
293.70007421052088
 30
0.0
 11
54.146377743964536
 21
237.70004350627602
 31
0.0
  0
LINE
  5
22C
100
AcDbEntity
  8
0
  6
CONTINUOUS
 62
               2
100
AcDbLine
 10
66.814102395565214
 20
301.70007423718755
 30
0.0
 11
58.078872874260355
 21
301.70007423718755
 31
0.0
  0
LINE
  5
22D
100
AcDbEntity
  8
0
  6
CONTINUOUS
 62
               7
100
AcDbLine
 10
235.99998552787758
 20
212.20001290369777
 30
0.0
 11
235.99998552787758
 21
211.70001290203112
 31
0.0
  0
LINE
  5
22E
100
AcDbEntity
  8
0
  6
CONTINUOUS
 62
               7
100
AcDbLine
 10
231.99998551454422
 20
217.70001292203108
 30
0.0
 11
235.99998552787758
 21
217.70001292203108
 31
0.0
  0
LINE
  5
22F
100
AcDbEntity
  8
0
  6
CONTINUOUS
 62
               7
100
AcDbLine
 10
231.99998551454422
 20
211.70001290203112
 30
0.0
 11
235.99998552787758
 21
211.70001290203112
 31
0.0
  0
LINE
  5
230
100
AcDbEntity
  8
0
  6
CONTINUOUS
 62
               7
100
AcDbLine
 10
235.99998552787758
 20
217.70001292203108
 30
0.0
 11
235.99998552787758
 21
217.20001292036449
 31
0.0
  0
LINE
  5
231
100
AcDbEntity
  8
0
  6
CONTINUOUS
 62
               7
100
AcDbLine
 10
231.99998551454422
 20
217.20001292036449
 30
0.0
 11
235.99998552787758
 21
217.20001292036449
 31
0.0
  0
LINE
  5
232
100
AcDbEntity
  8
0
  6
CONTINUOUS
 62
               7
100
AcDbLine
 10
231.99998551454422
 20
212.20001290369777
 30
0.0
 11
235.99998552787758
 21
212.20001290369777
 31
0.0
  0
LINE
  5
233
100
AcDbEntity
  8
0
  6
CONTINUOUS
 62
               7
100
AcDbLine
 10
231.99998551454422
 20
227.90002516306242
 30
0.0
 11
234.45021135278978
 21
227.90002516306242
 31
0.0
  0
LINE
  5
234
100
AcDbEntity
  8
0
  6
CONTINUOUS
 62
               7
100
AcDbLine
 10
25.999984827877597
 20
224.06451489637112
 30
0.0
 11
231.99998551454422
 21
224.06451489637112
 31
0.0
  0
LINE
  5
235
100
AcDbEntity
  8
0
  6
CONTINUOUS
 62
               7
100
AcDbLine
 10
-115.00000035666665
 20
198.20001285703114
 30
0.0
 11
237.02772574755065
 21
198.20001285703114
 31
0.0
  0
LINE
  5
236
100
AcDbEntity
  8
0
  6
CONTINUOUS
 62
               7
100
AcDbLine
 10
-16.00003057091152
 20
231.70001296869776
 30
0.0
 11
25.999984827877597
 21
231.70001296869776
 31
0.0
  0
LINE
  5
237
100
AcDbEntity
  8
0
  6
CONTINUOUS
 62
               7
100
AcDbLine
 10
-37.000030640911575
 20
219.20001292703108
 30
0.0
 11
231.99998551454422
 21
219.20001292703108
 31
0.0
  0
LINE
  5
238
100
AcDbEntity
  8
0
  6
CONTINUOUS
 62
               7
100
AcDbLine
 10
-37.000030640911575
 20
230.70001296536441
 30
0.0
 11
-37.000030640911575
 21
216.40004032285151
 31
0.0
  0
LINE
  5
239
100
AcDbEntity
  8
0
  6
CONTINUOUS
 62
               7
100
AcDbLine
 10
-37.000030640911575
 20
221.14642406633163
 30
0.0
 11
-16.00003057091152
 21
221.14642406633163
 31
0.0
  0
LINE
  5
23A
100
AcDbEntity
  8
0
  6
CONTINUOUS
 62
               7
100
AcDbLine
 10
-37.000030640911575
 20
224.06451489637112
 30
0.0
 11
-16.00003057091152
 21
224.06451489637112
 31
0.0
  0
LINE
  5
23B
100
AcDbEntity
  8
0
  6
CONTINUOUS
 62
               7
100
AcDbLine
 10
25.999984827877597
 20
231.70001296869776
 30
0.0
 11
25.999984827877597
 21
220.10000682651543
 31
0.0
  0
LINE
  5
23C
100
AcDbEntity
  8
0
  6
CONTINUOUS
 62
               7
100
AcDbLine
 10
25.999984827877597
 20
226.60000684818209
 30
0.0
 11
36.552536132584009
 21
226.60000684818209
 31
0.0
  0
LINE
  5
23D
100
AcDbEntity
  8
0
  6
CONTINUOUS
 62
               7
100
AcDbLine
 10
-37.000030640911575
 20
226.60000684818209
 30
0.0
 11
-16.00003057091152
 21
226.60000684818209
 31
0.0
  0
LINE
  5
23E
100
AcDbEntity
  8
0
  6
CONTINUOUS
 62
               7
100
AcDbLine
 10
231.99998551454422
 20
227.90002516306242
 30
0.0
 11
231.99998551454422
 21
198.20001285703114
 31
0.0
  0
LINE
  5
23F
100
AcDbEntity
  8
0
  6
CONTINUOUS
 62
               7
100
AcDbLine
 10
-115.00000035666665
 20
230.70001296536441
 30
0.0
 11
-37.00000012333328
 21
230.70001296536441
 31
0.0
  0
LINE
  5
240
100
AcDbEntity
  8
0
  6
CONTINUOUS
 62
               7
100
AcDbLine
 10
-115.00000035666665
 20
230.70001296536441
 30
0.0
 11
-115.00000035666665
 21
198.20001285703114
 31
0.0
  0
LINE
  5
241
100
AcDbEntity
  8
0
  6
CONTINUOUS
 62
               2
100
AcDbLine
 10
-8.0000305442448507
 20
233.25360184106387
 30
0.0
 11
-8.0000305442448507
 21
227.35919702446387
 31
0.0
  0
LINE
  5
242
100
AcDbEntity
  8
0
  6
CONTINUOUS
 62
               7
100
AcDbLine
 10
-114.06768834184027
 20
225.5284431239071
 30
0.0
 11
-37.742981082841254
 21
225.5284431239071
 31
0.0
  0
LINE
  5
243
100
AcDbEntity
  8
0
  6
CONTINUOUS
 62
               7
100
AcDbLine
 10
-16.00003057091152
 20
220.10000682651543
 30
0.0
 11
25.999984827877597
 21
220.10000682651543
 31
0.0
  0
LINE
  5
244
100
AcDbEntity
  8
0
  6
CONTINUOUS
 62
               7
100
AcDbLine
 10
-16.00003057091152
 20
231.70001296869776
 30
0.0
 11
-16.00003057091152
 21
220.10000682651543
 31
0.0
  0
LINE
  5
245
100
AcDbEntity
  8
0
  6
CONTINUOUS
 62
               7
100
AcDbLine
 10
25.999984827877597
 20
221.14642406633163
 30
0.0
 11
231.99998551454422
 21
221.14642406633163
 31
0.0
  0
LINE
  5
246
100
AcDbEntity
  8
0
  6
CONTINUOUS
 62
               2
100
AcDbLine
 10
17.999984801210985
 20
233.25360184106387
 30
0.0
 11
17.999984801210985
 21
227.35919702446387
 31
0.0
  0
LINE
  5
247
100
AcDbEntity
  8
0
  6
CONTINUOUS
 62
               7
100
AcDbLine
 10
-14.250030565078134
 20
275.70001311536441
 30
0.0
 11
-12.512802165732808
 21
275.70001311536441
 31
0.0
  0
LINE
  5
248
100
AcDbEntity
  8
0
  6
CONTINUOUS
 62
               7
100
AcDbLine
 10
-14.250031720704044
 20
275.70002105279394
 30
0.0
 11
-13.750041008478092
 21
276.20000986845059
 31
0.0
  0
LINE
  5
249
100
AcDbEntity
  8
0
  6
CONTINUOUS
 62
               7
100
AcDbLine
 10
-14.250030565078134
 20
275.70001311536441
 30
0.0
 11
-14.250030565078134
 21
273.80117888051939
 31
0.0
  0
LINE
  5
24A
100
AcDbEntity
  8
0
  6
CONTINUOUS
 62
               7
100
AcDbLine
 10
-13.750030563411542
 20
276.20001311703112
 30
0.0
 11
-12.055343668114176
 21
276.20001311703112
 31
0.0
  0
LINE
  5
24B
100
AcDbEntity
  8
0
  6
CONTINUOUS
 62
               7
100
AcDbLine
 10
24.999984824544299
 20
236.70001298536442
 30
0.0
 11
24.999984824544299
 21
231.70001296869776
 31
0.0
  0
LINE
  5
24C
100
AcDbEntity
  8
0
  6
CONTINUOUS
 62
               7
100
AcDbLine
 10
-15.000030567578165
 20
236.70001298536442
 30
0.0
 11
-15.000030567578165
 21
231.70001296869776
 31
0.0
  0
LINE
  5
24D
100
AcDbEntity
  8
0
  6
CONTINUOUS
 62
               7
100
AcDbLine
 10
-16.600030555911587
 20
236.70001298536442
 30
0.0
 11
24.999984824544299
 21
236.70001298536442
 31
0.0
  0
LINE
  5
24E
100
AcDbEntity
  8
0
  6
CONTINUOUS
 62
               7
100
AcDbLine
 10
197.84999150422652
 20
188.20001282369776
 30
0.0
 11
197.84999150422652
 21
78.200012457031107
 31
0.0
  0
LINE
  5
24F
100
AcDbEntity
  8
0
  6
CONTINUOUS
 62
               7
100
AcDbLine
 10
202.15000982910678
 20
188.20001282369776
 30
0.0
 11
202.15000982910678
 21
78.200012457031107
 31
0.0
  0
LINE
  5
250
100
AcDbEntity
  8
0
  6
CONTINUOUS
 62
               7
100
AcDbLine
 10
7.8500061296822992
 20
188.20001282369776
 30
0.0
 11
7.8500061296822992
 21
78.200012457031107
 31
0.0
  0
LINE
  5
251
100
AcDbEntity
  8
0
  6
CONTINUOUS
 62
               7
100
AcDbLine
 10
12.149993936984345
 20
188.20001282369776
 30
0.0
 11
12.149993936984345
 21
78.200012457031107
 31
0.0
  0
LINE
  5
252
100
AcDbEntity
  8
0
  6
CONTINUOUS
 62
               7
100
AcDbLine
 10
-14.800031840637189
 20
273.20000382375952
 30
0.0
 11
28.199990958416606
 21
320.20001231958679
 31
0.0
  0
LINE
  5
253
100
AcDbEntity
  8
0
  6
CONTINUOUS
 62
               2
100
AcDbLine
 10
-11.500030555911565
 20
271.48906733479805
 30
0.0
 11
-11.500030555911565
 21
266.01842225500457
 31
0.0
  0
LINE
  5
254
100
AcDbEntity
  8
0
  6
CONTINUOUS
 62
               2
100
AcDbLine
 10
21.499984812877585
 20
271.39788991680155
 30
0.0
 11
21.499984812877585
 21
266.47430934498738
 31
0.0
  0
LINE
  5
255
100
AcDbEntity
  8
0
  6
CONTINUOUS
 62
               2
100
AcDbLine
 10
26.74314645205061
 20
312.20007427218752
 30
0.0
 11
33.429861530927269
 21
312.20007427218752
 31
0.0
  0
LINE
  5
256
100
AcDbEntity
  8
0
  6
CONTINUOUS
 62
               2
100
AcDbLine
 10
157.50001578378908
 20
190.56663697472857
 30
0.0
 11
157.50001578378908
 21
183.90401816640644
 31
0.0
  0
LINE
  5
257
100
AcDbEntity
  8
0
  6
CONTINUOUS
 62
               2
100
AcDbLine
 10
37.500000124999985
 20
190.89337151806882
 30
0.0
 11
37.500000124999985
 21
183.74494319755064
 31
0.0
  0
LINE
  5
258
100
AcDbEntity
  8
0
  6
CONTINUOUS
 62
               7
100
AcDbLine
 10
20.000000066666644
 20
188.20001282369776
 30
0.0
 11
20.000000066666644
 21
78.200012457031107
 31
0.0
  0
LINE
  5
259
100
AcDbEntity
  8
0
  6
CONTINUOUS
 62
               7
100
AcDbLine
 10
190.00001589212243
 20
188.20001282369776
 30
0.0
 11
190.00001589212243
 21
78.200012457031107
 31
0.0
  0
LINE
  5
25A
100
AcDbEntity
  8
0
  6
CONTINUOUS
 62
               7
100
AcDbLine
 10
210.00001595878911
 20
188.20001282369776
 30
0.0
 11
0.0
 21
188.20001282369776
 31
0.0
  0
LINE
  5
25B
100
AcDbEntity
  8
0
  6
CONTINUOUS
 62
               7
100
AcDbLine
 10
210.00001595878911
 20
195.20001285703103
 30
0.0
 11
210.00001595878911
 21
78.200012457031107
 31
0.0
  0
LINE
  5
25C
100
AcDbEntity
  8
0
  6
CONTINUOUS
 62
               7
100
AcDbLine
 10
-14.800033618669318
 20
270.2000130970311
 30
0.0
 11
31.199966534663986
 21
270.2000130970311
 31
0.0
  0
LINE
  5
25D
100
AcDbEntity
  8
0
  6
CONTINUOUS
 62
               7
100
AcDbLine
 10
28.199966524663978
 20
320.20001326369777
 30
0.0
 11
31.199966534663986
 21
320.20001326369777
 31
0.0
  0
LINE
  5
25E
100
AcDbEntity
  8
0
  6
CONTINUOUS
 62
               7
100
AcDbLine
 10
-14.800033618669318
 20
270.2000130970311
 30
0.0
 11
-14.800033618669318
 21
273.20001310703111
 31
0.0
  0
LINE
  5
25F
100
AcDbEntity
  8
0
  6
CONTINUOUS
 62
               7
100
AcDbLine
 10
-14.000030564244923
 20
269.70001309536445
 30
0.0
 11
-14.000030564244923
 21
236.70001298536442
 31
0.0
  0
LINE
  5
260
100
AcDbEntity
  8
0
  6
CONTINUOUS
 62
               7
100
AcDbLine
 10
23.999984821210887
 20
269.70001309536445
 30
0.0
 11
23.999984821210887
 21
236.70001298536442
 31
0.0
  0
LINE
  5
261
100
AcDbEntity
  8
0
  6
CONTINUOUS
 62
               2
100
AcDbLine
 10
4.9999847578775984
 20
275.09080289216666
 30
0.0
 11
4.9999847578775984
 21
213.12199826204795
 31
0.0
  0
LINE
  5
262
100
AcDbEntity
  8
0
  6
CONTINUOUS
 62
               7
100
AcDbLine
 10
292.20000173693944
 20
66.600006314848827
 30
0.0
 11
292.20000173693944
 21
56.20001238369781
 31
0.0
  0
LINE
  5
263
100
AcDbEntity
  8
0
  6
CONTINUOUS
 62
               7
100
AcDbLine
 10
289.80000020306056
 20
66.600006314848827
 30
0.0
 11
289.80000020306056
 21
56.20001238369781
 31
0.0
  0
LINE
  5
264
100
AcDbEntity
  8
0
  6
CONTINUOUS
 62
               7
100
AcDbLine
 10
289.80000020306056
 20
66.600006314848827
 30
0.0
 11
292.20000173693944
 21
66.600006314848827
 31
0.0
  0
LINE
  5
265
100
AcDbEntity
  8
0
  6
CONTINUOUS
 62
               7
100
AcDbLine
 10
119.05000344859116
 20
44.250009292106597
 30
0.0
 11
110.94999731807548
 21
44.250009292106597
 31
0.0
  0
LINE
  5
266
100
AcDbEntity
  8
0
  6
CONTINUOUS
 62
               7
100
AcDbLine
 10
110.94999731807548
 20
42.150015388622307
 30
0.0
 11
119.05000344859116
 21
42.150015388622307
 31
0.0
  0
LINE
  5
267
100
AcDbEntity
  8
0
  6
CONTINUOUS
 62
               7
100
AcDbLine
 10
289.80000020306056
 20
56.20001238369781
 30
0.0
 11
292.20000173693944
 21
56.20001238369781
 31
0.0
  0
LINE
  5
268
100
AcDbEntity
  8
0
  6
CONTINUOUS
 62
               7
100
AcDbLine
 10
0.0
 20
3.2000122070311363
 30
0.0
 11
298.00000099333329
 21
3.2000122070311363
 31
0.0
  0
LINE
  5
269
100
AcDbEntity
  8
0
  6
CONTINUOUS
 62
               7
100
AcDbLine
 10
298.00000099333329
 20
30.200012297031094
 30
0.0
 11
304.58219989339671
 21
30.200012297031094
 31
0.0
  0
LINE
  5
26A
100
AcDbEntity
  8
0
  6
CONTINUOUS
 62
               7
100
AcDbLine
 10
298.00000099333329
 20
30.200012297031094
 30
0.0
 11
298.00000099333329
 21
3.2000122070311363
 31
0.0
  0
ARC
  5
26B
100
AcDbEntity
  8
0
  6
CONTINUOUS
 62
               7
100
AcDbCircle
 10
118.95000648809469
 20
43.200012340364424
 30
0.0
 40
1.0499969517421859
100
AcDbArc
 50
270.0
 51
90.0
  0
ARC
  5
26C
100
AcDbEntity
  8
0
  6
CONTINUOUS
 62
               7
100
AcDbCircle
 10
111.04999427857194
 20
43.200012340364424
 30
0.0
 40
1.0499969517421859
100
AcDbArc
 50
90.0
 51
270.0
  0
ARC
  5
26D
100
AcDbEntity
  8
0
  6
CONTINUOUS
 62
               7
100
AcDbCircle
 10
96.049994228571961
 20
43.200012340364424
 30
0.0
 40
1.0499969517421859
100
AcDbArc
 50
90.0
 51
270.0
  0
LINE
  5
26E
100
AcDbEntity
  8
0
  6
CONTINUOUS
 62
               7
100
AcDbLine
 10
95.949997268075549
 20
42.150015388622307
 30
0.0
 11
104.05000339859112
 21
42.150015388622307
 31
0.0
  0
ARC
  5
26F
100
AcDbEntity
  8
0
  6
CONTINUOUS
 62
               7
100
AcDbCircle
 10
103.95000643809465
 20
43.200012340364424
 30
0.0
 40
1.0499969517421859
100
AcDbArc
 50
270.0
 51
90.0
  0
LINE
  5
270
100
AcDbEntity
  8
0
  6
CONTINUOUS
 62
               7
100
AcDbLine
 10
104.05000339859112
 20
44.250009292106597
 30
0.0
 11
95.949997268075549
 21
44.250009292106597
 31
0.0
  0
ARC
  5
271
100
AcDbEntity
  8
0
  6
CONTINUOUS
 62
               7
100
AcDbCircle
 10
103.54999425357198
 20
38.20001232369782
 30
0.0
 40
1.0499969517421859
100
AcDbArc
 50
90.0
 51
270.0
  0
LINE
  5
272
100
AcDbEntity
  8
0
  6
CONTINUOUS
 62
               7
100
AcDbLine
 10
103.44999729307551
 20
37.15001537195559
 30
0.0
 11
111.55000342359114
 21
37.15001537195559
 31
0.0
  0
ARC
  5
273
100
AcDbEntity
  8
0
  6
CONTINUOUS
 62
               7
100
AcDbCircle
 10
111.45000646309472
 20
38.20001232369782
 30
0.0
 40
1.0499969517421859
100
AcDbArc
 50
270.0
 51
90.0
  0
LINE
  5
274
100
AcDbEntity
  8
0
  6
CONTINUOUS
 62
               7
100
AcDbLine
 10
111.55000342359114
 20
39.250009275439993
 30
0.0
 11
103.44999729307551
 21
39.250009275439993
 31
0.0
  0
ARC
  5
275
100
AcDbEntity
  8
0
  6
CONTINUOUS
 62
               7
100
AcDbCircle
 10
88.549994203571941
 20
38.20001232369782
 30
0.0
 40
1.0499969517421859
100
AcDbArc
 50
90.0
 51
270.0
  0
LINE
  5
276
100
AcDbEntity
  8
0
  6
CONTINUOUS
 62
               7
100
AcDbLine
 10
88.449997243075529
 20
37.15001537195559
 30
0.0
 11
96.550003373591153
 21
37.15001537195559
 31
0.0
  0
ARC
  5
277
100
AcDbEntity
  8
0
  6
CONTINUOUS
 62
               7
100
AcDbCircle
 10
96.450006413094684
 20
38.20001232369782
 30
0.0
 40
1.0499969517421859
100
AcDbArc
 50
270.0
 51
90.0
  0
LINE
  5
278
100
AcDbEntity
  8
0
  6
CONTINUOUS
 62
               7
100
AcDbLine
 10
96.550003373591153
 20
39.250009275439993
 30
0.0
 11
88.449997243075529
 21
39.250009275439993
 31
0.0
  0
ARC
  5
279
100
AcDbEntity
  8
0
  6
CONTINUOUS
 62
               7
100
AcDbCircle
 10
81.049994178571978
 20
43.200012340364424
 30
0.0
 40
1.0499969517421859
100
AcDbArc
 50
90.0
 51
270.0
  0
LINE
  5
27A
100
AcDbEntity
  8
0
  6
CONTINUOUS
 62
               7
100
AcDbLine
 10
80.949997218075509
 20
42.150015388622307
 30
0.0
 11
89.050003348591133
 21
42.150015388622307
 31
0.0
  0
ARC
  5
27B
100
AcDbEntity
  8
0
  6
CONTINUOUS
 62
               7
100
AcDbCircle
 10
88.950006388094721
 20
43.200012340364424
 30
0.0
 40
1.0499969517421859
100
AcDbArc
 50
270.0
 51
90.0
  0
LINE
  5
27C
100
AcDbEntity
  8
0
  6
CONTINUOUS
 62
               7
100
AcDbLine
 10
89.050003348591133
 20
44.250009292106597
 30
0.0
 11
80.949997218075509
 21
44.250009292106597
 31
0.0
  0
ARC
  5
27D
100
AcDbEntity
  8
0
  6
CONTINUOUS
 62
               7
100
AcDbCircle
 10
66.049994128571939
 20
43.200012340364424
 30
0.0
 40
1.0499969517421859
100
AcDbArc
 50
90.0
 51
270.0
  0
LINE
  5
27E
100
AcDbEntity
  8
0
  6
CONTINUOUS
 62
               7
100
AcDbLine
 10
65.94999716807547
 20
42.150015388622307
 30
0.0
 11
74.050003298591093
 21
42.150015388622307
 31
0.0
  0
ARC
  5
27F
100
AcDbEntity
  8
0
  6
CONTINUOUS
 62
               7
100
AcDbCircle
 10
73.950006338094681
 20
43.200012340364424
 30
0.0
 40
1.0499969517421859
100
AcDbArc
 50
270.0
 51
90.0
  0
LINE
  5
280
100
AcDbEntity
  8
0
  6
CONTINUOUS
 62
               7
100
AcDbLine
 10
74.050003298591093
 20
44.250009292106597
 30
0.0
 11
65.94999716807547
 21
44.250009292106597
 31
0.0
  0
ARC
  5
281
100
AcDbEntity
  8
0
  6
CONTINUOUS
 62
               7
100
AcDbCircle
 10
73.549994153572015
 20
38.20001232369782
 30
0.0
 40
1.0499969517421859
100
AcDbArc
 50
90.0
 51
270.0
  0
LINE
  5
282
100
AcDbEntity
  8
0
  6
CONTINUOUS
 62
               7
100
AcDbLine
 10
73.449997193075546
 20
37.15001537195559
 30
0.0
 11
81.550003323591113
 21
37.15001537195559
 31
0.0
  0
ARC
  5
283
100
AcDbEntity
  8
0
  6
CONTINUOUS
 62
               7
100
AcDbCircle
 10
81.450006363094701
 20
38.20001232369782
 30
0.0
 40
1.0499969517421859
100
AcDbArc
 50
270.0
 51
90.0
  0
LINE
  5
284
100
AcDbEntity
  8
0
  6
CONTINUOUS
 62
               7
100
AcDbLine
 10
81.550003323591113
 20
39.250009275439993
 30
0.0
 11
73.449997193075546
 21
39.250009275439993
 31
0.0
  0
ARC
  5
285
100
AcDbEntity
  8
0
  6
CONTINUOUS
 62
               7
100
AcDbCircle
 10
81.049994178571978
 20
33.200012307031102
 30
0.0
 40
1.0499969517421859
100
AcDbArc
 50
90.0
 51
270.0
  0
LINE
  5
286
100
AcDbEntity
  8
0
  6
CONTINUOUS
 62
               7
100
AcDbLine
 10
80.949997218075509
 20
32.150015355288929
 30
0.0
 11
89.050003348591133
 21
32.150015355288929
 31
0.0
  0
ARC
  5
287
100
AcDbEntity
  8
0
  6
CONTINUOUS
 62
               7
100
AcDbCircle
 10
88.950006388094721
 20
33.200012307031102
 30
0.0
 40
1.0499969517421859
100
AcDbArc
 50
270.0
 51
90.0
  0
LINE
  5
288
100
AcDbEntity
  8
0
  6
CONTINUOUS
 62
               7
100
AcDbLine
 10
89.050003348591133
 20
34.250009258773332
 30
0.0
 11
80.949997218075509
 21
34.250009258773332
 31
0.0
  0
ARC
  5
289
100
AcDbEntity
  8
0
  6
CONTINUOUS
 62
               7
100
AcDbCircle
 10
66.049994128571939
 20
33.200012307031102
 30
0.0
 40
1.0499969517421859
100
AcDbArc
 50
90.0
 51
270.0
  0
LINE
  5
28A
100
AcDbEntity
  8
0
  6
CONTINUOUS
 62
               7
100
AcDbLine
 10
65.94999716807547
 20
32.150015355288929
 30
0.0
 11
74.050003298591093
 21
32.150015355288929
 31
0.0
  0
ARC
  5
28B
100
AcDbEntity
  8
0
  6
CONTINUOUS
 62
               7
100
AcDbCircle
 10
73.950006338094681
 20
33.200012307031102
 30
0.0
 40
1.0499969517421859
100
AcDbArc
 50
270.0
 51
90.0
  0
LINE
  5
28C
100
AcDbEntity
  8
0
  6
CONTINUOUS
 62
               7
100
AcDbLine
 10
74.050003298591093
 20
34.250009258773332
 30
0.0
 11
65.94999716807547
 21
34.250009258773332
 31
0.0
  0
ARC
  5
28D
100
AcDbEntity
  8
0
  6
CONTINUOUS
 62
               7
100
AcDbCircle
 10
96.049994228571961
 20
33.200012307031102
 30
0.0
 40
1.0499969517421859
100
AcDbArc
 50
90.0
 51
270.0
  0
LINE
  5
28E
100
AcDbEntity
  8
0
  6
CONTINUOUS
 62
               7
100
AcDbLine
 10
95.949997268075549
 20
32.150015355288929
 30
0.0
 11
104.05000339859112
 21
32.150015355288929
 31
0.0
  0
ARC
  5
28F
100
AcDbEntity
  8
0
  6
CONTINUOUS
 62
               7
100
AcDbCircle
 10
103.95000643809465
 20
33.200012307031102
 30
0.0
 40
1.0499969517421859
100
AcDbArc
 50
270.0
 51
90.0
  0
LINE
  5
290
100
AcDbEntity
  8
0
  6
CONTINUOUS
 62
               7
100
AcDbLine
 10
104.05000339859112
 20
34.250009258773332
 30
0.0
 11
95.949997268075549
 21
34.250009258773332
 31
0.0
  0
ARC
  5
291
100
AcDbEntity
  8
0
  6
CONTINUOUS
 62
               7
100
AcDbCircle
 10
111.04999427857194
 20
33.200012307031102
 30
0.0
 40
1.0499969517421859
100
AcDbArc
 50
90.0
 51
270.0
  0
LINE
  5
292
100
AcDbEntity
  8
0
  6
CONTINUOUS
 62
               7
100
AcDbLine
 10
110.94999731807548
 20
32.150015355288929
 30
0.0
 11
119.05000344859116
 21
32.150015355288929
 31
0.0
  0
ARC
  5
293
100
AcDbEntity
  8
0
  6
CONTINUOUS
 62
               7
100
AcDbCircle
 10
118.95000648809469
 20
33.200012307031102
 30
0.0
 40
1.0499969517421859
100
AcDbArc
 50
270.0
 51
90.0
  0
LINE
  5
294
100
AcDbEntity
  8
0
  6
CONTINUOUS
 62
               7
100
AcDbLine
 10
119.05000344859116
 20
34.250009258773332
 30
0.0
 11
110.94999731807548
 21
34.250009258773332
 31
0.0
  0
ARC
  5
295
100
AcDbEntity
  8
0
  6
CONTINUOUS
 62
               7
100
AcDbCircle
 10
103.54999425357198
 20
28.200012290364441
 30
0.0
 40
1.0499969517421859
100
AcDbArc
 50
90.0
 51
270.0
  0
LINE
  5
296
100
AcDbEntity
  8
0
  6
CONTINUOUS
 62
               7
100
AcDbLine
 10
103.44999729307551
 20
27.150015338622268
 30
0.0
 11
111.55000342359114
 21
27.150015338622268
 31
0.0
  0
ARC
  5
297
100
AcDbEntity
  8
0
  6
CONTINUOUS
 62
               7
100
AcDbCircle
 10
111.45000646309472
 20
28.200012290364441
 30
0.0
 40
1.0499969517421859
100
AcDbArc
 50
270.0
 51
90.0
  0
LINE
  5
298
100
AcDbEntity
  8
0
  6
CONTINUOUS
 62
               7
100
AcDbLine
 10
111.55000342359114
 20
29.250009242106614
 30
0.0
 11
103.44999729307551
 21
29.250009242106614
 31
0.0
  0
ARC
  5
299
100
AcDbEntity
  8
0
  6
CONTINUOUS
 62
               7
100
AcDbCircle
 10
88.549994203571941
 20
28.200012290364441
 30
0.0
 40
1.0499969517421859
100
AcDbArc
 50
90.0
 51
270.0
  0
LINE
  5
29A
100
AcDbEntity
  8
0
  6
CONTINUOUS
 62
               7
100
AcDbLine
 10
88.449997243075529
 20
27.150015338622268
 30
0.0
 11
96.550003373591153
 21
27.150015338622268
 31
0.0
  0
ARC
  5
29B
100
AcDbEntity
  8
0
  6
CONTINUOUS
 62
               7
100
AcDbCircle
 10
96.450006413094684
 20
28.200012290364441
 30
0.0
 40
1.0499969517421859
100
AcDbArc
 50
270.0
 51
90.0
  0
LINE
  5
29C
100
AcDbEntity
  8
0
  6
CONTINUOUS
 62
               7
100
AcDbLine
 10
96.550003373591153
 20
29.250009242106614
 30
0.0
 11
88.449997243075529
 21
29.250009242106614
 31
0.0
  0
ARC
  5
29D
100
AcDbEntity
  8
0
  6
CONTINUOUS
 62
               7
100
AcDbCircle
 10
73.549994153572015
 20
28.200012290364441
 30
0.0
 40
1.0499969517421859
100
AcDbArc
 50
90.0
 51
270.0
  0
LINE
  5
29E
100
AcDbEntity
  8
0
  6
CONTINUOUS
 62
               7
100
AcDbLine
 10
73.449997193075546
 20
27.150015338622268
 30
0.0
 11
81.550003323591113
 21
27.150015338622268
 31
0.0
  0
ARC
  5
29F
100
AcDbEntity
  8
0
  6
CONTINUOUS
 62
               7
100
AcDbCircle
 10
81.450006363094701
 20
28.200012290364441
 30
0.0
 40
1.0499969517421859
100
AcDbArc
 50
270.0
 51
90.0
  0
LINE
  5
2A0
100
AcDbEntity
  8
0
  6
CONTINUOUS
 62
               7
100
AcDbLine
 10
81.550003323591113
 20
29.250009242106614
 30
0.0
 11
73.449997193075546
 21
29.250009242106614
 31
0.0
  0
ARC
  5
2A1
100
AcDbEntity
  8
0
  6
CONTINUOUS
 62
               7
100
AcDbCircle
 10
66.049994128571939
 20
23.20001227369778
 30
0.0
 40
1.0499969517421859
100
AcDbArc
 50
90.0
 51
270.0
  0
LINE
  5
2A2
100
AcDbEntity
  8
0
  6
CONTINUOUS
 62
               7
100
AcDbLine
 10
65.94999716807547
 20
22.150015321955607
 30
0.0
 11
74.050003298591093
 21
22.150015321955607
 31
0.0
  0
ARC
  5
2A3
100
AcDbEntity
  8
0
  6
CONTINUOUS
 62
               7
100
AcDbCircle
 10
73.950006338094681
 20
23.20001227369778
 30
0.0
 40
1.0499969517421859
100
AcDbArc
 50
270.0
 51
90.0
  0
LINE
  5
2A4
100
AcDbEntity
  8
0
  6
CONTINUOUS
 62
               7
100
AcDbLine
 10
74.050003298591093
 20
24.250009225439953
 30
0.0
 11
65.94999716807547
 21
24.250009225439953
 31
0.0
  0
ARC
  5
2A5
100
AcDbEntity
  8
0
  6
CONTINUOUS
 62
               7
100
AcDbCircle
 10
81.049994178571978
 20
23.20001227369778
 30
0.0
 40
1.0499969517421859
100
AcDbArc
 50
90.0
 51
270.0
  0
LINE
  5
2A6
100
AcDbEntity
  8
0
  6
CONTINUOUS
 62
               7
100
AcDbLine
 10
80.949997218075509
 20
22.150015321955607
 30
0.0
 11
89.050003348591133
 21
22.150015321955607
 31
0.0
  0
ARC
  5
2A7
100
AcDbEntity
  8
0
  6
CONTINUOUS
 62
               7
100
AcDbCircle
 10
88.950006388094721
 20
23.20001227369778
 30
0.0
 40
1.0499969517421859
100
AcDbArc
 50
270.0
 51
90.0
  0
LINE
  5
2A8
100
AcDbEntity
  8
0
  6
CONTINUOUS
 62
               7
100
AcDbLine
 10
89.050003348591133
 20
24.250009225439953
 30
0.0
 11
80.949997218075509
 21
24.250009225439953
 31
0.0
  0
ARC
  5
2A9
100
AcDbEntity
  8
0
  6
CONTINUOUS
 62
               7
100
AcDbCircle
 10
96.049994228571961
 20
23.20001227369778
 30
0.0
 40
1.0499969517421859
100
AcDbArc
 50
90.0
 51
270.0
  0
LINE
  5
2AA
100
AcDbEntity
  8
0
  6
CONTINUOUS
 62
               7
100
AcDbLine
 10
95.949997268075549
 20
22.150015321955607
 30
0.0
 11
104.05000339859112
 21
22.150015321955607
 31
0.0
  0
ARC
  5
2AB
100
AcDbEntity
  8
0
  6
CONTINUOUS
 62
               7
100
AcDbCircle
 10
103.95000643809465
 20
23.20001227369778
 30
0.0
 40
1.0499969517421859
100
AcDbArc
 50
270.0
 51
90.0
  0
LINE
  5
2AC
100
AcDbEntity
  8
0
  6
CONTINUOUS
 62
               7
100
AcDbLine
 10
104.05000339859112
 20
24.250009225439953
 30
0.0
 11
95.949997268075549
 21
24.250009225439953
 31
0.0
  0
ARC
  5
2AD
100
AcDbEntity
  8
0
  6
CONTINUOUS
 62
               7
100
AcDbCircle
 10
111.04999427857194
 20
23.20001227369778
 30
0.0
 40
1.0499969517421859
100
AcDbArc
 50
90.0
 51
270.0
  0
LINE
  5
2AE
100
AcDbEntity
  8
0
  6
CONTINUOUS
 62
               7
100
AcDbLine
 10
110.94999731807548
 20
22.150015321955607
 30
0.0
 11
119.05000344859116
 21
22.150015321955607
 31
0.0
  0
ARC
  5
2AF
100
AcDbEntity
  8
0
  6
CONTINUOUS
 62
               7
100
AcDbCircle
 10
118.95000648809469
 20
23.20001227369778
 30
0.0
 40
1.0499969517421859
100
AcDbArc
 50
270.0
 51
90.0
  0
LINE
  5
2B0
100
AcDbEntity
  8
0
  6
CONTINUOUS
 62
               7
100
AcDbLine
 10
119.05000344859116
 20
24.250009225439953
 30
0.0
 11
110.94999731807548
 21
24.250009225439953
 31
0.0
  0
LINE
  5
2B1
100
AcDbEntity
  8
0
  6
CONTINUOUS
 62
               7
100
AcDbLine
 10
300.000001
 20
81.200012467031115
 30
0.0
 11
300.88340859571815
 21
81.200012467031115
 31
0.0
  0
LINE
  5
2B2
100
AcDbEntity
  8
0
  6
CONTINUOUS
 62
               7
100
AcDbLine
 10
0.0
 20
78.200012457031107
 30
0.0
 11
301.94667153871546
 21
78.200012457031107
 31
0.0
  0
ARC
  5
2B3
100
AcDbEntity
  8
0
  6
CONTINUOUS
 62
               7
100
AcDbCircle
 10
54.000015438789092
 20
54.300018480880112
 30
0.0
 40
250.00000083333333
100
AcDbArc
 50
355.14609020783729
 51
4.8539097921627041
  0
ARC
  5
2B4
100
AcDbEntity
  8
0
  6
CONTINUOUS
 62
               7
100
AcDbCircle
 10
300.11418251893531
 20
33.399993997150887
 30
0.0
 40
3.0000000099999999
100
AcDbArc
 50
269.99999749552182
 51
355.14609020783729
  0
ARC
  5
2B5
100
AcDbEntity
  8
0
  6
CONTINUOUS
 62
               7
100
AcDbCircle
 10
300.11418251893531
 20
75.200012447031156
 30
0.0
 40
3.0000000099999999
100
AcDbArc
 50
4.8539097921627041
 51
90.000002504478161
  0
ARC
  5
2B6
100
AcDbEntity
  8
0
  6
CONTINUOUS
 62
               7
100
AcDbCircle
 10
210.00001595878911
 20
44.300018447546734
 30
0.0
 40
100.00000033333333
100
AcDbArc
 50
354.62440334723948
 51
20.455793309426426
  0
ARC
  5
2B7
100
AcDbEntity
  8
0
  6
CONTINUOUS
 62
               7
100
AcDbCircle
 10
300.88340859571815
 20
78.200012457031107
 30
0.0
 40
3.0000000099999999
100
AcDbArc
 50
20.455793309426426
 51
90.000002504478161
  0
ARC
  5
2B8
100
AcDbEntity
  8
0
  6
CONTINUOUS
 62
               7
100
AcDbCircle
 10
304.58220011195363
 20
35.39999400381754
 30
0.0
 40
5.0000000166666672
100
AcDbArc
 50
269.99999749552182
 51
354.62440334723948
  0
ARC
  5
2B9
100
AcDbEntity
  8
0
  6
CONTINUOUS
 62
               7
100
AcDbCircle
 10
301.94667153871546
 20
75.200012447031156
 30
0.0
 40
3.0000000099999999
100
AcDbArc
 50
18.575665919617233
 51
90.000002504478161
  0
LINE
  5
2BA
100
AcDbEntity
  8
0
  6
CONTINUOUS
 62
               7
100
AcDbLine
 10
11.000048828124818
 20
3.2000122070311363
 30
0.0
 11
11.000048828124818
 21
0.0
 31
0.0
  0
LINE
  5
2BB
100
AcDbEntity
  8
0
  6
CONTINUOUS
 62
               7
100
AcDbLine
 10
23.000048828124989
 20
3.2000122070311363
 30
0.0
 11
23.000048828124989
 21
0.0
 31
0.0
  0
LINE
  5
2BC
100
AcDbEntity
  8
0
  6
CONTINUOUS
 62
               7
100
AcDbLine
 10
11.000048828124818
 20
0.0
 30
0.0
 11
23.000048828124989
 21
0.0
 31
0.0
  0
LINE
  5
2BD
100
AcDbEntity
  8
0
  6
CONTINUOUS
 62
               7
100
AcDbLine
 10
277.00004882812493
 20
3.2000122070311363
 30
0.0
 11
277.00004882812493
 21
0.0
 31
0.0
  0
LINE
  5
2BE
100
AcDbEntity
  8
0
  6
CONTINUOUS
 62
               7
100
AcDbLine
 10
289.0000488281247
 20
3.2000122070311363
 30
0.0
 11
289.0000488281247
 21
0.0
 31
0.0
  0
LINE
  5
2BF
100
AcDbEntity
  8
0
  6
CONTINUOUS
 62
               7
100
AcDbLine
 10
277.00004882812493
 20
0.0
 30
0.0
 11
289.0000488281247
 21
0.0
 31
0.0
  0
LINE
  5
2C0
100
AcDbEntity
  8
0
  6
CONTINUOUS
 62
               2
100
AcDbLine
 10
7.0606601976723482
 20
11.139342904085311
 30
0.0
 11
4.9393398423276267
 21
13.260663259430089
 31
0.0
  0
LINE
  5
2C1
100
AcDbEntity
  8
0
  6
CONTINUOUS
 62
               2
100
AcDbLine
 10
4.9393398423276267
 20
11.139342904085311
 30
0.0
 11
7.060660197672405
 21
13.260663259430089
 31
0.0
  0
LINE
  5
2C2
100
AcDbEntity
  8
0
  6
CONTINUOUS
 62
               2
100
AcDbLine
 10
149.56066067267233
 20
11.139342904085311
 30
0.0
 11
147.43934031732761
 21
13.260663259430089
 31
0.0
  0
LINE
  5
2C3
100
AcDbEntity
  8
0
  6
CONTINUOUS
 62
               2
100
AcDbLine
 10
147.43934031732761
 20
11.139342904085311
 30
0.0
 11
149.56066067267238
 21
13.260663259430089
 31
0.0
  0
LINE
  5
2C4
100
AcDbEntity
  8
0
  6
CONTINUOUS
 62
               2
100
AcDbLine
 10
292.06066114767236
 20
11.139342904085311
 30
0.0
 11
289.93934079232764
 21
13.260663259430089
 31
0.0
  0
LINE
  5
2C5
100
AcDbEntity
  8
0
  6
CONTINUOUS
 62
               2
100
AcDbLine
 10
289.93934079232764
 20
11.139342904085311
 30
0.0
 11
292.06066114767242
 21
13.260663259430089
 31
0.0
  0
LINE
  5
2C6
100
AcDbEntity
  8
0
  6
CONTINUOUS
 62
               2
100
AcDbLine
 10
40.260626739002987
 20
359.13941425451515
 30
0.0
 11
38.139306383658266
 21
361.26073460985992
 31
0.0
  0
LINE
  5
2C7
100
AcDbEntity
  8
0
  6
CONTINUOUS
 62
               2
100
AcDbLine
 10
38.139306383658266
 20
359.13941425451515
 30
0.0
 11
40.260626739003044
 21
361.26073460985992
 31
0.0
  0
LINE
  5
2C8
100
AcDbEntity
  8
0
  6
CONTINUOUS
 62
               2
100
AcDbLine
 10
39.260626820669529
 20
354.13941447618157
 30
0.0
 11
37.139306465324808
 21
356.26073483152635
 31
0.0
  0
LINE
  5
2C9
100
AcDbEntity
  8
0
  6
CONTINUOUS
 62
               2
100
AcDbLine
 10
37.139306465324808
 20
354.13941447618157
 30
0.0
 11
39.260626820669586
 21
356.26073483152635
 31
0.0
  0
LINE
  5
2CA
100
AcDbEntity
  8
0
  6
CONTINUOUS
 62
               2
100
AcDbLine
 10
47.260626820669643
 20
354.13941447618157
 30
0.0
 11
45.139306465324921
 21
356.26073483152635
 31
0.0
  0
LINE
  5
2CB
100
AcDbEntity
  8
0
  6
CONTINUOUS
 62
               2
100
AcDbLine
 10
45.139306465324921
 20
354.13941447618157
 30
0.0
 11
47.2606268206697
 21
356.26073483152635
 31
0.0
  0
LINE
  5
2CC
100
AcDbEntity
  8
0
  6
CONTINUOUS
 62
               2
100
AcDbLine
 10
54.260626785669672
 20
359.13941425451515
 30
0.0
 11
52.13930643032495
 21
361.26073460985992
 31
0.0
  0
LINE
  5
2CD
100
AcDbEntity
  8
0
  6
CONTINUOUS
 62
               2
100
AcDbLine
 10
52.13930643032495
 20
359.13941425451515
 30
0.0
 11
54.260626785669729
 21
361.26073460985992
 31
0.0
  0
LINE
  5
2CE
100
AcDbEntity
  8
0
  6
CONTINUOUS
 62
               2
100
AcDbLine
 10
-39.439370474905843
 20
219.13935275269205
 30
0.0
 11
-41.560690830250564
 21
221.26067310803683
 31
0.0
  0
LINE
  5
2CF
100
AcDbEntity
  8
0
  6
CONTINUOUS
 62
               2
100
AcDbLine
 10
-41.560690830250564
 20
219.13935275269205
 30
0.0
 11
-39.439370474905786
 21
221.26067310803683
 31
0.0
  0
LINE
  5
2D0
100
AcDbEntity
  8
0
  6
CONTINUOUS
 62
               2
100
AcDbLine
 10
-34.439401214150507
 20
212.13936793814781
 30
0.0
 11
-36.560721569495229
 21
214.26068829349259
 31
0.0
  0
LINE
  5
2D1
100
AcDbEntity
  8
0
  6
CONTINUOUS
 62
               2
100
AcDbLine
 10
-36.560721569495229
 20
212.13936793814781
 30
0.0
 11
-34.43940121415045
 21
214.26068829349259
 31
0.0
  0
LINE
  5
2D2
100
AcDbEntity
  8
0
  6
CONTINUOUS
 62
               2
100
AcDbLine
 10
-34.439401214150507
 20
204.1393679381477
 30
0.0
 11
-36.560721569495229
 21
206.26068829349248
 31
0.0
  0
LINE
  5
2D3
100
AcDbEntity
  8
0
  6
CONTINUOUS
 62
               2
100
AcDbLine
 10
-36.560721569495229
 20
204.1393679381477
 30
0.0
 11
-34.43940121415045
 21
206.26068829349248
 31
0.0
  0
LINE
  5
2D4
100
AcDbEntity
  8
0
  6
CONTINUOUS
 62
               2
100
AcDbLine
 10
-39.439370474905843
 20
205.13935270602536
 30
0.0
 11
-41.560690830250564
 21
207.26067306137014
 31
0.0
  0
LINE
  5
2D5
100
AcDbEntity
  8
0
  6
CONTINUOUS
 62
               2
100
AcDbLine
 10
-41.560690830250564
 20
205.13935270602536
 30
0.0
 11
-39.439370474905786
 21
207.26067306137014
 31
0.0
  0
ENDBLK
  5
2D6
100
AcDbEntity
  8
0
100
AcDbBlockEnd
  0
BLOCK
  5
2D7
100
AcDbEntity
  8
0
100
AcDbBlockBegin
  2
DTHB-CS3-3
 70
               0
 10
0.0
 20
0.0
 30
0.0
  3
DTHB-CS3-3
  1

  0
ARC
  5
2D8
100
AcDbEntity
  8
0
  6
CONTINUOUS
 62
               7
100
AcDbCircle
 10
41.000000136666699
 20
-35.500015377122509
 30
0.0
 40
2.7500000091666661
100
AcDbArc
 50
264.78409073216426
 51
213.0558071618525
  0
LINE
  5
2D9
100
AcDbEntity
  8
0
  6
CONTINUOUS
 62
               7
100
AcDbLine
 10
39.556623263372387
 20
-35.500006687755558
 30
0.0
 11
40.278303383432672
 21
-36.749992296934806
 31
0.0
  0
LINE
  5
2DA
100
AcDbEntity
  8
0
  6
CONTINUOUS
 62
               7
100
AcDbLine
 10
40.278359573125101
 20
-34.250032576150033
 30
0.0
 11
39.556680958605966
 21
-35.500019131669433
 31
0.0
  0
LINE
  5
2DB
100
AcDbEntity
  8
0
  6
CONTINUOUS
 62
               7
100
AcDbLine
 10
41.721690942332202
 20
-34.250025364210273
 30
0.0
 11
40.278331562521032
 21
-34.25002631787504
 31
0.0
  0
LINE
  5
2DC
100
AcDbEntity
  8
0
  6
CONTINUOUS
 62
               7
100
AcDbLine
 10
42.443384168290038
 20
-35.499999015405365
 30
0.0
 11
41.721704521399886
 21
-34.250013062102425
 31
0.0
  0
LINE
  5
2DD
100
AcDbEntity
  8
0
  6
CONTINUOUS
 62
               7
100
AcDbLine
 10
41.72167697801757
 20
-36.749992527793552
 30
0.0
 11
42.443354818258342
 21
-35.500005542119652
 31
0.0
  0
LINE
  5
2DE
100
AcDbEntity
  8
0
  6
CONTINUOUS
 62
               7
100
AcDbLine
 10
41.721679826572313
 20
-36.750015381289131
 30
0.0
 11
40.278320446761086
 21
-36.750015381289131
 31
0.0
  0
LINE
  5
2DF
100
AcDbEntity
  8
0
  6
CONTINUOUS
 62
               7
100
AcDbLine
 10
40.750000102500053
 20
-37.500018441546899
 30
0.0
 11
40.750000102500053
 21
-40.000018449880372
 31
0.0
  0
LINE
  5
2E0
100
AcDbEntity
  8
0
  6
CONTINUOUS
 62
               7
100
AcDbLine
 10
35.250000084166743
 20
-40.000018449880372
 30
0.0
 11
35.250000084166743
 21
-37.500018441546899
 31
0.0
  0
LINE
  5
2E1
100
AcDbEntity
  8
0
  6
CONTINUOUS
 62
               7
100
AcDbLine
 10
35.750055108029301
 20
-37.0000426097331
 30
0.0
 11
35.250042816575331
 21
-37.500053004535857
 31
0.0
  0
LINE
  5
2E2
100
AcDbEntity
  8
0
  6
CONTINUOUS
 62
               7
100
AcDbLine
 10
40.750000102500053
 20
-37.500018441546899
 30
0.0
 11
35.250000084166743
 21
-37.500018441546899
 31
0.0
  0
LINE
  5
2E3
100
AcDbEntity
  8
0
  6
CONTINUOUS
 62
               7
100
AcDbLine
 10
40.750026793492054
 20
-37.500020584025378
 30
0.0
 11
40.250036081266046
 21
-37.000031768368899
 31
0.0
  0
LINE
  5
2E4
100
AcDbEntity
  8
0
  6
CONTINUOUS
 62
               7
100
AcDbLine
 10
40.250000100833347
 20
-37.00001843988025
 30
0.0
 11
35.750000085833392
 21
-37.00001843988025
 31
0.0
  0
LINE
  5
2E5
100
AcDbEntity
  8
0
  6
CONTINUOUS
 62
               7
100
AcDbLine
 10
29.5000000734222
 20
-36.700018449880304
 30
0.0
 11
29.5000000734222
 21
-40.000018449880372
 31
0.0
  0
LINE
  5
2E6
100
AcDbEntity
  8
0
  6
CONTINUOUS
 62
               7
100
AcDbLine
 10
32.5000000734222
 20
-40.000018419414346
 30
0.0
 11
31.918121031333214
 21
-36.700018407493417
 31
0.0
  0
LINE
  5
2E7
100
AcDbEntity
  8
0
  6
CONTINUOUS
 62
               7
100
AcDbLine
 10
43.0000000734222
 20
-40.000018449880372
 30
0.0
 11
43.0000000734222
 21
-41.800018449880326
 31
0.0
  0
LINE
  5
2E8
100
AcDbEntity
  8
0
  6
CONTINUOUS
 62
               2
100
AcDbLine
 10
38.000000093333369
 20
-35.49444338238925
 30
0.0
 11
38.000000093333369
 21
-46.807398409883945
 31
0.0
  0
LINE
  5
2E9
100
AcDbEntity
  8
0
  6
CONTINUOUS
 62
               7
100
AcDbLine
 10
24.5000000734222
 20
-36.700018449880304
 30
0.0
 11
24.5000000734222
 21
-40.000018449880372
 31
0.0
  0
LINE
  5
2EA
100
AcDbEntity
  8
0
  6
CONTINUOUS
 62
               7
100
AcDbLine
 10
22.5000000734222
 20
-36.700018449880304
 30
0.0
 11
22.5000000734222
 21
-41.800018449880326
 31
0.0
  0
LINE
  5
2EB
100
AcDbEntity
  8
0
  6
CONTINUOUS
 62
               7
100
AcDbLine
 10
20.750000102500053
 20
-39.300018441546968
 30
0.0
 11
20.750000102500053
 21
-41.800018449880326
 31
0.0
  0
LINE
  5
2EC
100
AcDbEntity
  8
0
  6
CONTINUOUS
 62
               7
100
AcDbLine
 10
15.250000084166743
 20
-41.800018449880326
 30
0.0
 11
15.250000084166743
 21
-39.300018441546968
 31
0.0
  0
LINE
  5
2ED
100
AcDbEntity
  8
0
  6
CONTINUOUS
 62
               7
100
AcDbLine
 10
15.750055108029301
 20
-38.800042609733055
 30
0.0
 11
15.250042816575331
 21
-39.300053004535812
 31
0.0
  0
LINE
  5
2EE
100
AcDbEntity
  8
0
  6
CONTINUOUS
 62
               7
100
AcDbLine
 10
20.750000102500053
 20
-39.300018441546968
 30
0.0
 11
15.250000084166743
 21
-39.300018441546968
 31
0.0
  0
LINE
  5
2EF
100
AcDbEntity
  8
0
  6
CONTINUOUS
 62
               7
100
AcDbLine
 10
20.250000100833347
 20
-38.800018439880205
 30
0.0
 11
15.750000085833392
 21
-38.800018439880205
 31
0.0
  0
LINE
  5
2F0
100
AcDbEntity
  8
0
  6
CONTINUOUS
 62
               7
100
AcDbLine
 10
20.750026793492054
 20
-39.300020584025447
 30
0.0
 11
20.250036081266046
 21
-38.800031768368854
 31
0.0
  0
LINE
  5
2F1
100
AcDbEntity
  8
0
  6
CONTINUOUS
 62
               2
100
AcDbLine
 10
18.000000093333369
 20
-36.700018449880304
 30
0.0
 11
18.000000093333369
 21
-46.807398409883945
 31
0.0
  0
LINE
  5
2F2
100
AcDbEntity
  8
0
  6
CONTINUOUS
 62
               7
100
AcDbLine
 10
31.918121038807158
 20
-36.700018449880304
 30
0.0
 11
22.5000000734222
 21
-36.700018449880304
 31
0.0
  0
LINE
  5
2F3
100
AcDbEntity
  8
0
  6
CONTINUOUS
 62
               7
100
AcDbLine
 10
43.0000000734222
 20
-40.000018449880372
 30
0.0
 11
22.5000000734222
 21
-40.000018449880372
 31
0.0
  0
LINE
  5
2F4
100
AcDbEntity
  8
0
  6
CONTINUOUS
 62
               7
100
AcDbLine
 10
29.5000000734222
 20
-38.400018449880349
 30
0.0
 11
24.5000000734222
 21
-38.400018449880349
 31
0.0
  0
LINE
  5
2F5
100
AcDbEntity
  8
0
  6
CONTINUOUS
 62
               7
100
AcDbLine
 10
6.4000000933333467
 20
-44.800018459880221
 30
0.0
 11
49.000000163333368
 21
-44.800018459880221
 31
0.0
  0
LINE
  5
2F6
100
AcDbEntity
  8
0
  6
CONTINUOUS
 62
               7
100
AcDbLine
 10
10.000000033333379
 20
-41.800018449880326
 30
0.0
 11
46.00000015333336
 21
-41.800018449880326
 31
0.0
  0
LINE
  5
2F7
100
AcDbEntity
  8
0
  6
CONTINUOUS
 62
               7
100
AcDbLine
 10
13.556623176705727
 20
-35.500006687755558
 30
0.0
 11
14.278303296766012
 21
-36.749992296934806
 31
0.0
  0
LINE
  5
2F8
100
AcDbEntity
  8
0
  6
CONTINUOUS
 62
               7
100
AcDbLine
 10
14.278359486458442
 20
-34.250032576150033
 30
0.0
 11
13.556680871939363
 21
-35.500019131669433
 31
0.0
  0
LINE
  5
2F9
100
AcDbEntity
  8
0
  6
CONTINUOUS
 62
               7
100
AcDbLine
 10
15.721690855665599
 20
-34.250025364210273
 30
0.0
 11
14.278331475854372
 21
-34.25002631787504
 31
0.0
  0
LINE
  5
2FA
100
AcDbEntity
  8
0
  6
CONTINUOUS
 62
               7
100
AcDbLine
 10
16.443384081623435
 20
-35.499999015405365
 30
0.0
 11
15.721704434733283
 21
-34.250013062102425
 31
0.0
  0
LINE
  5
2FB
100
AcDbEntity
  8
0
  6
CONTINUOUS
 62
               7
100
AcDbLine
 10
15.721676891350967
 20
-36.749992527793552
 30
0.0
 11
16.443354731591683
 21
-35.500005542119652
 31
0.0
  0
LINE
  5
2FC
100
AcDbEntity
  8
0
  6
CONTINUOUS
 62
               7
100
AcDbLine
 10
15.721679739905653
 20
-36.750015381289131
 30
0.0
 11
14.278320360094426
 21
-36.750015381289131
 31
0.0
  0
CIRCLE
  5
2FD
100
AcDbEntity
  8
0
  6
CONTINUOUS
 62
               7
100
AcDbCircle
 10
15.00000005000004
 20
-35.500015377122509
 30
0.0
 40
2.7500000091666661
  0
ARC
  5
2FE
100
AcDbEntity
  8
0
  6
CONTINUOUS
 62
               7
100
AcDbCircle
 10
2.9000000933332899
 20
-50.300018459880334
 30
0.0
 40
1.0
100
AcDbArc
 50
90.0
 51
180.0
  0
ARC
  5
2FF
100
AcDbEntity
  8
0
  6
CONTINUOUS
 62
               7
100
AcDbCircle
 10
6.4000000933333467
 20
-48.800018459880221
 30
0.0
 40
3.5000000000000004
100
AcDbArc
 50
90.0
 51
180.0
  0
LINE
  5
300
100
AcDbEntity
  8
0
  6
CONTINUOUS
 62
               7
100
AcDbLine
 10
13.599710631492144
 20
-76.712137786343988
 30
0.0
 11
7.4264848924112243
 21
-70.54568381451088
 31
0.0
  0
LINE
  5
301
100
AcDbEntity
  8
0
  6
CONTINUOUS
 62
               7
100
AcDbLine
 10
5.5500000875913997
 20
-68.876081517681087
 30
0.0
 11
6.4000000933333467
 21
-68.950446881963217
 31
0.0
  0
LINE
  5
302
100
AcDbEntity
  8
0
  6
CONTINUOUS
 62
               7
100
AcDbLine
 10
5.5500000652623385
 20
-68.876081677368347
 30
0.0
 11
5.5500000652623385
 21
-68.195235677125766
 31
0.0
  0
ARC
  5
303
100
AcDbEntity
  8
0
  6
CONTINUOUS
 62
               7
100
AcDbCircle
 10
11.529655927116835
 20
-66.80044695942729
 30
0.0
 40
6.3296561241149902
100
AcDbArc
 50
192.18528551792392
 51
199.14270731389522
  0
ARC
  5
304
100
AcDbEntity
  8
0
  6
CONTINUOUS
 62
               7
100
AcDbCircle
 10
6.4000000933333467
 20
-64.800018459880221
 30
0.0
 40
3.5000000000000004
100
AcDbArc
 50
180.0
 51
270.0
  0
ARC
  5
305
100
AcDbEntity
  8
0
  6
CONTINUOUS
 62
               7
100
AcDbCircle
 10
2.9000000933332899
 20
-63.300018459880221
 30
0.0
 40
1.0
100
AcDbArc
 50
180.0
 51
270.0
  0
LINE
  5
306
100
AcDbEntity
  8
0
  6
CONTINUOUS
 62
               7
100
AcDbLine
 10
1.9000000933333467
 20
-50.300018459880334
 30
0.0
 11
1.9000000933333467
 21
-63.300018459880221
 31
0.0
  0
LINE
  5
307
100
AcDbEntity
  8
0
  6
CONTINUOUS
 62
               7
100
AcDbLine
 10
2.9000000933332899
 20
-64.800018459880221
 30
0.0
 11
2.9000000933332899
 21
-48.800018459880221
 31
0.0
  0
LINE
  5
308
100
AcDbEntity
  8
0
  6
CONTINUOUS
 62
               7
100
AcDbLine
 10
6.4000000933333467
 20
-44.800018459880221
 30
0.0
 11
6.4000000933333467
 21
-68.950446881963217
 31
0.0
  0
ARC
  5
309
100
AcDbEntity
  8
0
  6
CONTINUOUS
 62
               7
100
AcDbCircle
 10
9.9000000933333467
 20
-68.069452292458209
 30
0.0
 40
3.5000000000000004
100
AcDbArc
 50
180.00000000000006
 51
225.03144276458423
  0
LINE
  5
30A
100
AcDbEntity
  8
0
  6
CONTINUOUS
 62
               7
100
AcDbLine
 10
141.50006150182315
 20
7.100003751363829
 30
0.0
 11
128.50006150182321
 21
7.100003751363829
 31
0.0
  0
LINE
  5
30B
100
AcDbEntity
  8
0
  6
CONTINUOUS
 62
               7
100
AcDbLine
 10
127.00006150182321
 20
6.1000037513639427
 30
0.0
 11
143.00006150182315
 21
6.1000037513639427
 31
0.0
  0
ARC
  5
30C
100
AcDbEntity
  8
0
  6
CONTINUOUS
 62
               7
100
AcDbCircle
 10
141.50006150182315
 20
6.1000037513639427
 30
0.0
 40
1.0
100
AcDbArc
 50
0.0
 51
90.0
  0
ARC
  5
30D
100
AcDbEntity
  8
0
  6
CONTINUOUS
 62
               7
100
AcDbCircle
 10
127.00006150182321
 20
2.600003751363829
 30
0.0
 40
3.5000000000000004
100
AcDbArc
 50
90.0
 51
180.0
  0
ARC
  5
30E
100
AcDbEntity
  8
0
  6
CONTINUOUS
 62
               7
100
AcDbCircle
 10
128.50006150182321
 20
6.1000037513639427
 30
0.0
 40
1.0
100
AcDbArc
 50
90.0
 51
180.0
  0
ARC
  5
30F
100
AcDbEntity
  8
0
  6
CONTINUOUS
 62
               7
100
AcDbCircle
 10
143.00006150182315
 20
2.600003751363829
 30
0.0
 40
3.5000000000000004
100
AcDbArc
 50
0.0
 51
90.0
  0
LINE
  5
310
100
AcDbEntity
  8
0
  6
CONTINUOUS
 62
               2
100
AcDbLine
 10
135.00006150182315
 20
0.8501961354209016
 30
0.0
 11
135.00006150182315
 21
9.7369139188870122
 31
0.0
  0
LINE
  5
311
100
AcDbEntity
  8
0
  6
CONTINUOUS
 62
               7
100
AcDbLine
 10
148.00006150182315
 20
2.5999846778775009
 30
0.0
 11
70.000061501823211
 21
2.5999846778775009
 31
0.0
  0
LINE
  5
312
100
AcDbEntity
  8
0
  6
CONTINUOUS
 62
               7
100
AcDbLine
 10
58.899981209846999
 20
94.500000310000019
 30
0.0
 11
58.899981209846999
 21
81.500000310000019
 31
0.0
  0
LINE
  5
313
100
AcDbEntity
  8
0
  6
CONTINUOUS
 62
               7
100
AcDbLine
 10
59.899981209846999
 20
80.000000310000019
 30
0.0
 11
59.899981209846999
 21
96.000000310000019
 31
0.0
  0
ARC
  5
314
100
AcDbEntity
  8
0
  6
CONTINUOUS
 62
               7
100
AcDbCircle
 10
59.899981209846999
 20
94.500000310000019
 30
0.0
 40
1.0
100
AcDbArc
 50
90.0
 51
180.0
  0
ARC
  5
315
100
AcDbEntity
  8
0
  6
CONTINUOUS
 62
               7
100
AcDbCircle
 10
63.399981209847056
 20
80.000000310000019
 30
0.0
 40
3.5000000000000004
100
AcDbArc
 50
180.0
 51
270.0
  0
ARC
  5
316
100
AcDbEntity
  8
0
  6
CONTINUOUS
 62
               7
100
AcDbCircle
 10
59.899981209846999
 20
81.500000310000019
 30
0.0
 40
1.0
100
AcDbArc
 50
180.0
 51
270.0
  0
ARC
  5
317
100
AcDbEntity
  8
0
  6
CONTINUOUS
 62
               7
100
AcDbCircle
 10
63.399981209847056
 20
96.000000310000019
 30
0.0
 40
3.5000000000000004
100
AcDbArc
 50
90.0
 51
180.0
  0
LINE
  5
318
100
AcDbEntity
  8
0
  6
CONTINUOUS
 62
               2
100
AcDbLine
 10
65.14978882579004
 20
88.000000310000019
 30
0.0
 11
56.263071042323986
 21
88.000000310000019
 31
0.0
  0
LINE
  5
319
100
AcDbEntity
  8
0
  6
CONTINUOUS
 62
               7
100
AcDbLine
 10
63.400000283333384
 20
101.00000031000002
 30
0.0
 11
63.400000283333384
 21
23.000000309999905
 31
0.0
  0
LINE
  5
31A
100
AcDbEntity
  8
0
  6
CONTINUOUS
 62
               2
100
AcDbLine
 10
11.500000093333369
 20
-71.394874394236467
 30
0.0
 11
11.500000093333369
 21
-81.630972827970652
 31
0.0
  0
LINE
  5
31B
100
AcDbEntity
  8
0
  6
CONTINUOUS
 62
               2
100
AcDbLine
 10
44.500000093333369
 20
-71.394874394236467
 30
0.0
 11
44.500000093333369
 21
-81.630972827970652
 31
0.0
  0
CIRCLE
  5
31C
100
AcDbEntity
  8
0
  6
CONTINUOUS
 62
               7
100
AcDbCircle
 10
-10.000000033333322
 20
-101.00001559545586
 30
0.0
 40
5.0
  0
CIRCLE
  5
31D
100
AcDbEntity
  8
0
  6
CONTINUOUS
 62
               7
100
AcDbCircle
 10
10.000000033333379
 20
-101.00001559545586
 30
0.0
 40
5.0
  0
CIRCLE
  5
31E
100
AcDbEntity
  8
0
  6
CONTINUOUS
 62
               7
100
AcDbCircle
 10
-10.000000033333322
 20
-221.00001599545578
 30
0.0
 40
5.0
  0
CIRCLE
  5
31F
100
AcDbEntity
  8
0
  6
CONTINUOUS
 62
               7
100
AcDbCircle
 10
10.000000033333379
 20
-221.00001599545578
 30
0.0
 40
5.0
  0
LINE
  5
320
100
AcDbEntity
  8
0
  6
CONTINUOUS
 62
               7
100
AcDbLine
 10
62.550000345154046
 20
28.575634868254042
 30
0.0
 11
63.400000350895994
 21
28.650000232536286
 31
0.0
  0
LINE
  5
321
100
AcDbEntity
  8
0
  6
CONTINUOUS
 62
               7
100
AcDbLine
 10
62.550000345153876
 20
24.424365751746336
 30
0.0
 11
63.400000350895596
 21
24.350000387464206
 31
0.0
  0
LINE
  5
322
100
AcDbEntity
  8
0
  6
CONTINUOUS
 62
               7
100
AcDbLine
 10
62.550000322824644
 20
24.424365592058848
 30
0.0
 11
62.550000322824644
 21
28.575635027941416
 31
0.0
  0
ARC
  5
323
100
AcDbEntity
  8
0
  6
CONTINUOUS
 62
               7
100
AcDbCircle
 10
68.529656184678913
 20
26.500000309999905
 30
0.0
 40
6.3296561241149902
100
AcDbArc
 50
160.85729086486964
 51
199.14270731389303
  0
LINE
  5
324
100
AcDbEntity
  8
0
  6
CONTINUOUS
 62
               7
100
AcDbLine
 10
13.585788507735288
 20
-76.71422419790963
 30
0.0
 11
10.025136477858325
 21
-73.153572168032667
 31
0.0
  0
CIRCLE
  5
325
100
AcDbEntity
  8
0
  6
CONTINUOUS
 62
               7
100
AcDbCircle
 10
-95.000000316666501
 20
-44.000000146666707
 30
0.0
 40
5.0
  0
CIRCLE
  5
326
100
AcDbEntity
  8
0
  6
CONTINUOUS
 62
               7
100
AcDbCircle
 10
-75.000000249999857
 20
-44.000000146666707
 30
0.0
 40
5.0
  0
CIRCLE
  5
327
100
AcDbEntity
  8
0
  6
CONTINUOUS
 62
               7
100
AcDbCircle
 10
-95.000000316666501
 20
-214.00001597212247
 30
0.0
 40
5.0
  0
CIRCLE
  5
328
100
AcDbEntity
  8
0
  6
CONTINUOUS
 62
               7
100
AcDbCircle
 10
-75.000000249999857
 20
-214.00001597212247
 30
0.0
 40
5.0
  0
CIRCLE
  5
329
100
AcDbEntity
  8
0
  6
CONTINUOUS
 62
               7
100
AcDbCircle
 10
-95.000000316666501
 20
-234.00001603878917
 30
0.0
 40
5.0
  0
CIRCLE
  5
32A
100
AcDbEntity
  8
0
  6
CONTINUOUS
 62
               7
100
AcDbCircle
 10
-75.000000249999857
 20
-234.00001603878917
 30
0.0
 40
5.0
  0
LINE
  5
32B
100
AcDbEntity
  8
0
  6
CONTINUOUS
 62
               7
100
AcDbLine
 10
49.000000163333311
 20
1.1999969522421452
 30
0.0
 11
60.000061501823325
 21
1.1999969522421452
 31
0.0
  0
LINE
  5
32C
100
AcDbEntity
  8
0
  6
CONTINUOUS
 62
               7
100
AcDbLine
 10
62.650009501939792
 20
24.415616084304474
 30
0.0
 11
62.650009501939792
 21
23.50000031000036
 31
0.0
  0
LINE
  5
32D
100
AcDbEntity
  8
0
  6
CONTINUOUS
 62
               7
100
AcDbLine
 10
61.150009881896949
 20
19.424365751746109
 30
0.0
 11
62.000009887638896
 21
19.350000387463979
 31
0.0
  0
LINE
  5
32E
100
AcDbEntity
  8
0
  6
CONTINUOUS
 62
               7
100
AcDbLine
 10
61.150009881897176
 20
23.575634868253928
 30
0.0
 11
62.000009887638896
 21
23.650000232536286
 31
0.0
  0
LINE
  5
32F
100
AcDbEntity
  8
0
  6
CONTINUOUS
 62
               7
100
AcDbLine
 10
61.150009859567717
 20
23.575635027941644
 30
0.0
 11
61.150009859567945
 21
19.424365592058962
 31
0.0
  0
LINE
  5
330
100
AcDbEntity
  8
0
  6
CONTINUOUS
 62
               7
100
AcDbLine
 10
62.000009883409575
 20
13.000000310000132
 30
0.0
 11
62.000009883409575
 21
23.650000232536286
 31
0.0
  0
ARC
  5
331
100
AcDbEntity
  8
0
  6
CONTINUOUS
 62
               7
100
AcDbCircle
 10
67.129665721422214
 20
21.50000031000036
 30
0.0
 40
6.3296561241149902
100
AcDbArc
 50
160.85729268610575
 51
199.14270913512914
  0
LINE
  5
332
100
AcDbEntity
  8
0
  6
CONTINUOUS
 62
               7
100
AcDbLine
 10
62.000009883409575
 20
23.50000031000036
 30
0.0
 11
63.400000283333384
 21
23.50000031000036
 31
0.0
  0
ARC
  5
333
100
AcDbEntity
  8
0
  6
CONTINUOUS
 62
               7
100
AcDbCircle
 10
69.000009883409632
 20
28.000000310000019
 30
0.0
 40
6.3499999999999996
100
AcDbArc
 50
151.87135524348119
 51
174.69811631459697
  0
LINE
  5
334
100
AcDbEntity
  8
0
  6
CONTINUOUS
 62
               7
100
AcDbLine
 10
66.000009883409518
 20
13.000000310000132
 30
0.0
 11
62.000009883409575
 21
13.000000310000132
 31
0.0
  0
LINE
  5
335
100
AcDbEntity
  8
0
  6
CONTINUOUS
 62
               7
100
AcDbLine
 10
70.00000023333331
 20
-0.0000249221986905
 30
0.0
 11
49.000000163333311
 21
-0.0000249221986905
 31
0.0
  0
ARC
  5
336
100
AcDbEntity
  8
0
  6
CONTINUOUS
 62
               7
100
AcDbCircle
 10
73.500061501823097
 20
-2.5296712234680854
 30
0.0
 40
6.3296561241149902
100
AcDbArc
 50
70.857290864869654
 51
109.14270731389304
  0
LINE
  5
337
100
AcDbEntity
  8
0
  6
CONTINUOUS
 62
               7
100
AcDbLine
 10
71.424426783882097
 20
3.4499846383862405
 30
0.0
 11
75.575696219764666
 21
3.4499846383862405
 31
0.0
  0
ARC
  5
338
100
AcDbEntity
  8
0
  6
CONTINUOUS
 62
               7
100
AcDbCircle
 10
68.500061501823552
 20
-1.1296807602113859
 30
0.0
 40
6.3296561241149902
100
AcDbArc
 50
70.857292686105737
 51
109.14270913512912
  0
LINE
  5
339
100
AcDbEntity
  8
0
  6
CONTINUOUS
 62
               7
100
AcDbLine
 10
60.000061501823325
 20
3.9999750778013095
 30
0.0
 11
70.650061424359478
 21
3.9999750778013095
 31
0.0
  0
LINE
  5
33A
100
AcDbEntity
  8
0
  6
CONTINUOUS
 62
               7
100
AcDbLine
 10
70.575696219764779
 20
4.8499751016431674
 30
0.0
 11
66.424426783882154
 21
4.84997510164294
 31
0.0
  0
LINE
  5
33B
100
AcDbEntity
  8
0
  6
CONTINUOUS
 62
               7
100
AcDbLine
 10
70.575696060077235
 20
4.8499750793137082
 30
0.0
 11
70.650061424359478
 21
3.9999750735719317
 31
0.0
  0
LINE
  5
33C
100
AcDbEntity
  8
0
  6
CONTINUOUS
 62
               7
100
AcDbLine
 10
66.424426943569358
 20
4.8499750793139356
 30
0.0
 11
66.350061579287171
 21
3.9999750735719317
 31
0.0
  0
LINE
  5
33D
100
AcDbEntity
  8
0
  6
CONTINUOUS
 62
               7
100
AcDbLine
 10
71.41567727612761
 20
3.349975459271036
 30
0.0
 11
70.500061501823495
 21
3.349975459271036
 31
0.0
  0
LINE
  5
33E
100
AcDbEntity
  8
0
  6
CONTINUOUS
 62
               7
100
AcDbLine
 10
60.000061501823325
 20
-0.0000249221986905
 30
0.0
 11
60.000061501823325
 21
3.9999750778013095
 31
0.0
  0
ARC
  5
33F
100
AcDbEntity
  8
0
  6
CONTINUOUS
 62
               7
100
AcDbCircle
 10
75.000061501823268
 20
-3.0000249221986905
 30
0.0
 40
6.3499999999999996
100
AcDbArc
 50
61.871355243482107
 51
84.698116314596959
  0
LINE
  5
340
100
AcDbEntity
  8
0
  6
CONTINUOUS
 62
               7
100
AcDbLine
 10
70.500061501823495
 20
3.9999750778013095
 30
0.0
 11
70.500061501823495
 21
2.5999846778775009
 31
0.0
  0
LINE
  5
341
100
AcDbEntity
  8
0
  6
CONTINUOUS
 62
               7
100
AcDbLine
 10
75.575696060077291
 20
3.4499846160567813
 30
0.0
 11
75.650061424359478
 21
2.5999846103148911
 31
0.0
  0
LINE
  5
342
100
AcDbEntity
  8
0
  6
CONTINUOUS
 62
               7
100
AcDbLine
 10
71.424426943569642
 20
3.4499846160570087
 30
0.0
 11
71.350061579287399
 21
2.5999846103152322
 31
0.0
  0
CIRCLE
  5
343
100
AcDbEntity
  8
0
  6
CONTINUOUS
 62
               2
100
AcDbCircle
 10
-10.000000033333322
 20
-191.00001589545582
 30
0.0
 40
1.5000000049999997
  0
CIRCLE
  5
344
100
AcDbEntity
  8
0
  6
CONTINUOUS
 62
               7
100
AcDbCircle
 10
-10.000000033333322
 20
-191.00001589545582
 30
0.0
 40
1.2500000041666668
  0
CIRCLE
  5
345
100
AcDbEntity
  8
0
  6
CONTINUOUS
 62
               2
100
AcDbCircle
 10
10.000000033333379
 20
-191.00001589545582
 30
0.0
 40
1.5000000049999997
  0
CIRCLE
  5
346
100
AcDbEntity
  8
0
  6
CONTINUOUS
 62
               7
100
AcDbCircle
 10
10.000000033333379
 20
-191.00001589545582
 30
0.0
 40
1.2500000041666668
  0
CIRCLE
  5
347
100
AcDbEntity
  8
0
  6
CONTINUOUS
 62
               7
100
AcDbCircle
 10
-10.000000033333322
 20
-131.00001569545577
 30
0.0
 40
1.2500000041666668
  0
CIRCLE
  5
348
100
AcDbEntity
  8
0
  6
CONTINUOUS
 62
               2
100
AcDbCircle
 10
-10.000000033333322
 20
-131.00001569545577
 30
0.0
 40
1.5000000049999997
  0
CIRCLE
  5
349
100
AcDbEntity
  8
0
  6
CONTINUOUS
 62
               7
100
AcDbCircle
 10
15.00000005000004
 20
-2.5000000083333589
 30
0.0
 40
2.7500000091666661
  0
CIRCLE
  5
34A
100
AcDbEntity
  8
0
  6
CONTINUOUS
 62
               7
100
AcDbCircle
 10
41.000000136666699
 20
-2.5000000083333589
 30
0.0
 40
2.7500000091666661
  0
ARC
  5
34B
100
AcDbEntity
  8
0
  6
CONTINUOUS
 62
               7
100
AcDbCircle
 10
41.870361467692874
 20
-52.80000322775777
 30
0.0
 40
6.3296561452138436
100
AcDbArc
 50
340.85729086487191
 51
19.142707313895272
  0
ARC
  5
34C
100
AcDbEntity
  8
0
  6
CONTINUOUS
 62
               7
100
AcDbCircle
 10
41.870361467692874
 20
-66.800003274424398
 30
0.0
 40
6.3296561452138436
100
AcDbArc
 50
340.85729086487191
 51
19.142707313895272
  0
ARC
  5
34D
100
AcDbEntity
  8
0
  6
CONTINUOUS
 62
               7
100
AcDbCircle
 10
9.5000000316666728
 20
-77.800003311091189
 30
0.0
 40
0.5000000016666666
100
AcDbArc
 50
179.99999749552182
 51
270.0
  0
ARC
  5
34E
100
AcDbEntity
  8
0
  6
CONTINUOUS
 62
               7
100
AcDbCircle
 10
13.500000044999979
 20
-77.800003311091189
 30
0.0
 40
0.5000000016666666
100
AcDbArc
 50
270.0
 51
0.0000025044781673
  0
ARC
  5
34F
100
AcDbEntity
  8
0
  6
CONTINUOUS
 62
               7
100
AcDbCircle
 10
42.500000141666646
 20
-77.800003311091189
 30
0.0
 40
0.5000000016666666
100
AcDbArc
 50
179.99999749552182
 51
270.0
  0
ARC
  5
350
100
AcDbEntity
  8
0
  6
CONTINUOUS
 62
               7
100
AcDbCircle
 10
46.500000155000009
 20
-77.800003311091189
 30
0.0
 40
0.5000000016666666
100
AcDbArc
 50
270.0
 51
0.0000025044781673
  0
ARC
  5
351
100
AcDbEntity
  8
0
  6
CONTINUOUS
 62
               7
100
AcDbCircle
 10
41.000000136666699
 20
-75.30000330275783
 30
0.0
 40
2.0000000066666663
100
AcDbArc
 50
270.0
 51
315.00000125223909
  0
ARC
  5
352
100
AcDbEntity
  8
0
  6
CONTINUOUS
 62
               7
100
AcDbCircle
 10
15.00000005000004
 20
-75.30000330275783
 30
0.0
 40
2.0000000066666663
100
AcDbArc
 50
224.99999874776091
 51
270.0
  0
ARC
  5
353
100
AcDbEntity
  8
0
  6
CONTINUOUS
 62
               7
100
AcDbCircle
 10
43.500000145000001
 20
-70.678695914306672
 30
0.0
 40
3.5000000116666663
100
AcDbArc
 50
315.00000125223909
 51
0.0000025044781673
  0
ARC
  5
354
100
AcDbEntity
  8
0
  6
CONTINUOUS
 62
               7
100
AcDbCircle
 10
73.500000245000024
 20
-32.870346178903787
 30
0.0
 40
6.3296561452138436
100
AcDbArc
 50
250.85729006794102
 51
289.14270651696438
  0
ARC
  5
355
100
AcDbEntity
  8
0
  6
CONTINUOUS
 62
               7
100
AcDbCircle
 10
-105.67529332100082
 20
-36.000015378789158
 30
0.0
 40
2.0000000066666663
100
AcDbArc
 50
202.13136085930475
 51
270.0
  0
ARC
  5
356
100
AcDbEntity
  8
0
  6
CONTINUOUS
 62
               7
100
AcDbCircle
 10
-105.67529332100082
 20
-2.0000000066665962
 30
0.0
 40
2.0000000066666663
100
AcDbArc
 50
90.000005008956336
 51
157.86863048927324
  0
ARC
  5
357
100
AcDbEntity
  8
0
  6
CONTINUOUS
 62
               7
100
AcDbCircle
 10
-101.95202670702744
 20
-2.0000000066665962
 30
0.0
 40
2.0000000066666663
100
AcDbArc
 50
90.000005008956336
 51
170.84680953499787
  0
ARC
  5
358
100
AcDbEntity
  8
0
  6
CONTINUOUS
 62
               7
100
AcDbCircle
 10
-101.95202670702744
 20
-36.000015378789158
 30
0.0
 40
2.0000000066666663
100
AcDbArc
 50
189.15318181358012
 51
270.0
  0
ARC
  5
359
100
AcDbEntity
  8
0
  6
CONTINUOUS
 62
               7
100
AcDbCircle
 10
-63.875000212916518
 20
-19.000015322122408
 30
0.0
 40
47.125000157083328
100
AcDbArc
 50
157.86864096192809
 51
202.13136085930475
  0
ARC
  5
35A
100
AcDbEntity
  8
0
  6
CONTINUOUS
 62
               7
100
AcDbCircle
 10
3.5552978634135002
 20
-19.000015322122408
 30
0.0
 40
108.86813390781565
100
AcDbArc
 50
170.84681317746356
 51
189.15318181358012
  0
ARC
  5
35B
100
AcDbEntity
  8
0
  6
CONTINUOUS
 62
               7
100
AcDbCircle
 10
98.870361657692911
 20
26.500000088333309
 30
0.0
 40
6.3296561452138436
100
AcDbArc
 50
340.85729086487191
 51
19.142707313895272
  0
ARC
  5
35C
100
AcDbEntity
  8
0
  6
CONTINUOUS
 62
               7
100
AcDbCircle
 10
102.00000033999999
 20
-252.6753090697901
 30
0.0
 40
2.0000000066666663
100
AcDbArc
 50
292.13135824114102
 51
0.0000025044781673
  0
ARC
  5
35D
100
AcDbEntity
  8
0
  6
CONTINUOUS
 62
               7
100
AcDbCircle
 10
68.000000226666657
 20
-252.6753090697901
 30
0.0
 40
2.0000000066666663
100
AcDbArc
 50
179.99999749552182
 51
247.86864175885896
  0
ARC
  5
35E
100
AcDbEntity
  8
0
  6
CONTINUOUS
 62
               7
100
AcDbCircle
 10
68.000000226666657
 20
-248.95201193823846
 30
0.0
 40
2.0000000066666663
100
AcDbArc
 50
179.99999749552182
 51
260.84681653571539
  0
ARC
  5
35F
100
AcDbEntity
  8
0
  6
CONTINUOUS
 62
               7
100
AcDbCircle
 10
102.00000033999999
 20
-248.95201193823846
 30
0.0
 40
2.0000000066666663
100
AcDbArc
 50
279.15318346428461
 51
0.0000025044781673
  0
ARC
  5
360
100
AcDbEntity
  8
0
  6
CONTINUOUS
 62
               7
100
AcDbCircle
 10
85.00000028333335
 20
-210.8750159617058
 30
0.0
 40
47.125000157083328
100
AcDbArc
 50
247.86864175885896
 51
292.13135824114102
  0
ARC
  5
361
100
AcDbEntity
  8
0
  6
CONTINUOUS
 62
               7
100
AcDbCircle
 10
85.00000028333335
 20
-143.44468736779743
 30
0.0
 40
108.86813390781565
100
AcDbArc
 50
260.84681653571539
 51
279.15318346428461
  0
ARC
  5
362
100
AcDbEntity
  8
0
  6
CONTINUOUS
 62
               7
100
AcDbCircle
 10
0.0
 20
-182.86357177653747
 30
0.0
 40
135.72679183425856
100
AcDbArc
 50
255.0562291149291
 51
284.94377088507088
  0
ARC
  5
363
100
AcDbEntity
  8
0
  6
CONTINUOUS
 62
               7
100
AcDbCircle
 10
104.00000034666664
 20
-315.79203901650737
 30
0.0
 40
1.0000000033333332
100
AcDbArc
 50
271.98128483929463
 51
0.0000025044781673
  0
ARC
  5
364
100
AcDbEntity
  8
0
  6
CONTINUOUS
 62
               7
100
AcDbCircle
 10
-104.00000034666652
 20
-315.79203901650737
 30
0.0
 40
1.0000000033333332
100
AcDbArc
 50
179.99999749552182
 51
268.01871516070537
  0
ARC
  5
365
100
AcDbEntity
  8
0
  6
CONTINUOUS
 62
               7
100
AcDbCircle
 10
0.0
 20
2690.5327695885617
 30
0.0
 40
3009.1230569054101
100
AcDbArc
 50
268.01871516070537
 51
271.98128483929463
  0
ARC
  5
366
100
AcDbEntity
  8
0
  6
CONTINUOUS
 62
               7
100
AcDbCircle
 10
104.00000034666664
 20
-316.8000041077579
 30
0.0
 40
1.0000000033333332
100
AcDbArc
 50
270.0
 51
0.0000025044781673
  0
ARC
  5
367
100
AcDbEntity
  8
0
  6
CONTINUOUS
 62
               7
100
AcDbCircle
 10
104.00000034666664
 20
-316.89637861979787
 30
0.0
 40
1.0000000033333332
100
AcDbArc
 50
276.49788211075821
 51
0.0000025044781673
  0
ARC
  5
368
100
AcDbEntity
  8
0
  6
CONTINUOUS
 62
               7
100
AcDbCircle
 10
-104.00000034666652
 20
-316.89637861979787
 30
0.0
 40
1.0000000033333332
100
AcDbArc
 50
179.99999749552182
 51
263.50211788924179
  0
ARC
  5
369
100
AcDbEntity
  8
0
  6
CONTINUOUS
 62
               7
100
AcDbCircle
 10
0.0
 20
596.19999893557497
 30
0.0
 40
920.00000306666664
100
AcDbArc
 50
263.50211788924179
 51
276.49788211075821
  0
LINE
  5
36A
100
AcDbEntity
  8
0
  6
CONTINUOUS
 62
               2
100
AcDbLine
 10
-7.0000000233333139
 20
-191.00001589545582
 30
0.0
 11
-13.00000004333333
 21
-191.00001589545582
 31
0.0
  0
LINE
  5
36B
100
AcDbEntity
  8
0
  6
CONTINUOUS
 62
               2
100
AcDbLine
 10
-10.000000033333322
 20
-194.00001590545583
 30
0.0
 11
-10.000000033333322
 21
-188.00001588545581
 31
0.0
  0
LINE
  5
36C
100
AcDbEntity
  8
0
  6
CONTINUOUS
 62
               2
100
AcDbLine
 10
13.000000043333387
 20
-191.00001589545582
 30
0.0
 11
7.0000000233333139
 21
-191.00001589545582
 31
0.0
  0
LINE
  5
36D
100
AcDbEntity
  8
0
  6
CONTINUOUS
 62
               2
100
AcDbLine
 10
10.000000033333379
 20
-194.00001590545583
 30
0.0
 11
10.000000033333379
 21
-188.00001588545581
 31
0.0
  0
LINE
  5
36E
100
AcDbEntity
  8
0
  6
CONTINUOUS
 62
               2
100
AcDbLine
 10
-7.0000000233333139
 20
-131.00001569545577
 30
0.0
 11
-13.00000004333333
 21
-131.00001569545577
 31
0.0
  0
LINE
  5
36F
100
AcDbEntity
  8
0
  6
CONTINUOUS
 62
               2
100
AcDbLine
 10
-10.000000033333322
 20
-134.00001570545589
 30
0.0
 11
-10.000000033333322
 21
-128.00001568545582
 31
0.0
  0
LINE
  5
370
100
AcDbEntity
  8
0
  6
CONTINUOUS
 62
               7
100
AcDbLine
 10
13.556588769084101
 20
-2.4999893557637733
 30
0.0
 11
14.278268889144272
 21
-3.7499749649430214
 31
0.0
  0
LINE
  5
371
100
AcDbEntity
  8
0
  6
CONTINUOUS
 62
               7
100
AcDbLine
 10
14.278319080241658
 20
-1.2499971201189055
 30
0.0
 11
13.556632836339361
 21
-2.4999968901444163
 31
0.0
  0
LINE
  5
372
100
AcDbEntity
  8
0
  6
CONTINUOUS
 62
               7
100
AcDbLine
 10
15.721661072813504
 20
-1.250006237280104
 30
0.0
 11
14.278301693002334
 21
-1.2500071909448707
 31
0.0
  0
LINE
  5
373
100
AcDbEntity
  8
0
  6
CONTINUOUS
 62
               7
100
AcDbLine
 10
16.443412258435046
 20
-2.499989710941577
 30
0.0
 11
15.721732611544894
 21
-1.2500037576385239
 31
0.0
  0
LINE
  5
374
100
AcDbEntity
  8
0
  6
CONTINUOUS
 62
               7
100
AcDbLine
 10
15.721718775722138
 20
-3.7500119605356304
 30
0.0
 11
16.443404245337831
 21
-2.5000117603510716
 31
0.0
  0
LINE
  5
375
100
AcDbEntity
  8
0
  6
CONTINUOUS
 62
               7
100
AcDbLine
 10
15.721679739905596
 20
-3.7500000125000952
 30
0.0
 11
14.278320360094369
 21
-3.7500000125000952
 31
0.0
  0
LINE
  5
376
100
AcDbEntity
  8
0
  6
CONTINUOUS
 62
               7
100
AcDbLine
 10
39.556590171782261
 20
-2.4999790689967085
 30
0.0
 11
40.278300809438917
 21
-3.7500175361601578
 31
0.0
  0
LINE
  5
377
100
AcDbEntity
  8
0
  6
CONTINUOUS
 62
               7
100
AcDbLine
 10
40.278359285215402
 20
-1.2500323432573168
 30
0.0
 11
39.556680670696323
 21
-2.500018898776716
 31
0.0
  0
LINE
  5
378
100
AcDbEntity
  8
0
  6
CONTINUOUS
 62
               7
100
AcDbLine
 10
41.721661159500286
 20
-1.2500195759862436
 30
0.0
 11
40.278301779689116
 21
-1.250020529651124
 31
0.0
  0
LINE
  5
379
100
AcDbEntity
  8
0
  6
CONTINUOUS
 62
               7
100
AcDbLine
 10
42.443361909793168
 20
-2.5000204227296763
 30
0.0
 11
41.721682262903073
 21
-1.2500344694267369
 31
0.0
  0
LINE
  5
37A
100
AcDbEntity
  8
0
  6
CONTINUOUS
 62
               7
100
AcDbLine
 10
41.72170585943303
 20
-3.7500007129691539
 30
0.0
 11
42.443391329048723
 21
-2.5000005127845952
 31
0.0
  0
LINE
  5
37B
100
AcDbEntity
  8
0
  6
CONTINUOUS
 62
               7
100
AcDbLine
 10
41.721679826572256
 20
-3.7500000125000952
 30
0.0
 11
40.278320446761086
 21
-3.7500000125000952
 31
0.0
  0
LINE
  5
37C
100
AcDbEntity
  8
0
  6
CONTINUOUS
 62
               7
100
AcDbLine
 10
-105.00000034999982
 20
-38.000015385455754
 30
0.0
 11
-105.00000034999982
 21
-316.89637861979787
 31
0.0
  0
LINE
  5
37D
100
AcDbEntity
  8
0
  6
CONTINUOUS
 62
               7
100
AcDbLine
 10
-25.000000083333305
 20
-38.000015385455754
 30
0.0
 11
-25.000000083333305
 21
-314.00001630545586
 31
0.0
  0
LINE
  5
37E
100
AcDbEntity
  8
0
  6
CONTINUOUS
 62
               7
100
AcDbLine
 10
25.000000083333362
 20
-77.30000330942454
 30
0.0
 11
25.000000083333362
 21
-314.0000163054558
 31
0.0
  0
LINE
  5
37F
100
AcDbEntity
  8
0
  6
CONTINUOUS
 62
               7
100
AcDbLine
 10
47.849975745471852
 20
-54.875625793162726
 30
0.0
 11
47.849975745471284
 21
-50.724380662137719
 31
0.0
  0
LINE
  5
380
100
AcDbEntity
  8
0
  6
CONTINUOUS
 62
               7
100
AcDbLine
 10
47.849998068484297
 20
-54.875642734158077
 30
0.0
 11
47.00003432086163
 21
-54.950004926266047
 31
0.0
  0
LINE
  5
381
100
AcDbEntity
  8
0
  6
CONTINUOUS
 62
               7
100
AcDbLine
 10
47.850008302393576
 20
-50.724368902331435
 30
0.0
 11
47.000044554771023
 21
-50.650006710223579
 31
0.0
  0
LINE
  5
382
100
AcDbEntity
  8
0
  6
CONTINUOUS
 62
               7
100
AcDbLine
 10
47.8499757454735
 20
-68.875625839829354
 30
0.0
 11
47.849975745472932
 21
-64.724380708804347
 31
0.0
  0
LINE
  5
383
100
AcDbEntity
  8
0
  6
CONTINUOUS
 62
               7
100
AcDbLine
 10
47.850023728725034
 20
-68.87563134603613
 30
0.0
 11
46.99999917820179
 21
-68.949998857708579
 31
0.0
  0
LINE
  5
384
100
AcDbEntity
  8
0
  6
CONTINUOUS
 62
               7
100
AcDbLine
 10
47.850042115162353
 20
-64.724378034499182
 30
0.0
 11
47.000017564639109
 21
-64.650010522826733
 31
0.0
  0
LINE
  5
385
100
AcDbEntity
  8
0
  6
CONTINUOUS
 62
               7
100
AcDbLine
 10
13.500000044999979
 20
-78.300003312757838
 30
0.0
 11
9.5000000316666728
 21
-78.300003312757838
 31
0.0
  0
LINE
  5
386
100
AcDbEntity
  8
0
  6
CONTINUOUS
 62
               7
100
AcDbLine
 10
47.000000156666658
 20
-77.800003311091189
 30
0.0
 11
47.000000156666658
 21
-44.800003201091158
 31
0.0
  0
LINE
  5
387
100
AcDbEntity
  8
0
  6
CONTINUOUS
 62
               7
100
AcDbLine
 10
9.000000029999967
 20
-77.800003311091189
 30
0.0
 11
9.000000029999967
 21
-72.117472872619771
 31
0.0
  0
LINE
  5
388
100
AcDbEntity
  8
0
  6
CONTINUOUS
 62
               7
100
AcDbLine
 10
14.000000046666685
 20
-77.800003311091189
 30
0.0
 11
14.000000046666685
 21
-77.032054116100198
 31
0.0
  0
LINE
  5
389
100
AcDbEntity
  8
0
  6
CONTINUOUS
 62
               7
100
AcDbLine
 10
42.000000139999997
 20
-77.800003311091189
 30
0.0
 11
42.000000139999997
 21
-77.032054116100255
 31
0.0
  0
LINE
  5
38A
100
AcDbEntity
  8
0
  6
CONTINUOUS
 62
               7
100
AcDbLine
 10
46.500000155000009
 20
-78.300003312757838
 30
0.0
 11
42.500000141666646
 21
-78.300003312757838
 31
0.0
  0
LINE
  5
38B
100
AcDbEntity
  8
0
  6
CONTINUOUS
 62
               7
100
AcDbLine
 10
42.414211678931451
 20
-76.71422419790963
 30
0.0
 11
45.974863708808414
 21
-73.153572168032667
 31
0.0
  0
LINE
  5
38C
100
AcDbEntity
  8
0
  6
CONTINUOUS
 62
               7
100
AcDbLine
 10
41.000000136666699
 20
-77.30000330942454
 30
0.0
 11
15.00000005000004
 21
-77.30000330942454
 31
0.0
  0
LINE
  5
38D
100
AcDbEntity
  8
0
  6
PHANTOM
 62
               2
100
AcDbLine
 10
28.000000093333369
 20
-278.3000039794245
 30
0.0
 11
28.000000093333369
 21
-78.300003312757838
 31
0.0
  0
LINE
  5
38E
100
AcDbEntity
  8
0
  6
CONTINUOUS
 62
               7
100
AcDbLine
 10
71.000000236666665
 20
-39.000015388789052
 30
0.0
 11
71.000000236666665
 21
-40.000015392122464
 31
0.0
  0
LINE
  5
38F
100
AcDbEntity
  8
0
  6
CONTINUOUS
 62
               7
100
AcDbLine
 10
66.000000220000004
 20
-39.000015388789052
 30
0.0
 11
66.000000220000004
 21
-252.67530898236731
 31
0.0
  0
LINE
  5
390
100
AcDbEntity
  8
0
  6
CONTINUOUS
 62
               7
100
AcDbLine
 10
71.599975824604087
 20
-39.000015388789052
 30
0.0
 11
71.599975824604087
 21
-246.00001607878914
 31
0.0
  0
LINE
  5
391
100
AcDbEntity
  8
0
  6
CONTINUOUS
 62
               7
100
AcDbLine
 10
73.799988038968706
 20
-39.192889515260958
 30
0.0
 11
73.799988038968706
 21
-246.00001607878914
 31
0.0
  0
LINE
  5
392
100
AcDbEntity
  8
0
  6
CONTINUOUS
 62
               7
100
AcDbLine
 10
96.200012527697993
 20
-39.000015388789052
 30
0.0
 11
96.200012527697993
 21
-246.00001607878914
 31
0.0
  0
LINE
  5
393
100
AcDbEntity
  8
0
  6
CONTINUOUS
 62
               7
100
AcDbLine
 10
98.400024742062612
 20
-39.000015388789052
 30
0.0
 11
98.400024742062612
 21
-246.00001607878914
 31
0.0
  0
LINE
  5
394
100
AcDbEntity
  8
0
  6
CONTINUOUS
 62
               7
100
AcDbLine
 10
99.000000329999978
 20
-39.000015388789052
 30
0.0
 11
99.000000329999978
 21
-40.000015392122464
 31
0.0
  0
LINE
  5
395
100
AcDbEntity
  8
0
  6
CONTINUOUS
 62
               7
100
AcDbLine
 10
104.00000034666664
 20
-39.000015388789052
 30
0.0
 11
104.00000034666664
 21
-252.67530898236731
 31
0.0
  0
LINE
  5
396
100
AcDbEntity
  8
0
  6
CONTINUOUS
 62
               7
100
AcDbLine
 10
105.50000035166664
 20
-38.000015385455754
 30
0.0
 11
105.50000035166664
 21
-39.000015388789052
 31
0.0
  0
LINE
  5
397
100
AcDbEntity
  8
0
  6
CONTINUOUS
 62
               7
100
AcDbLine
 10
7.0000000233333139
 20
-38.000015385455754
 30
0.0
 11
-105.67529332100082
 21
-38.000015385455754
 31
0.0
  0
LINE
  5
398
100
AcDbEntity
  8
0
  6
CONTINUOUS
 62
               7
100
AcDbLine
 10
5.5000000183333668
 20
-38.000015385455754
 30
0.0
 11
5.5000000183333668
 21
-39.000015388789052
 31
0.0
  0
LINE
  5
399
100
AcDbEntity
  8
0
  6
CONTINUOUS
 62
               7
100
AcDbLine
 10
7.0000000233333139
 20
0.0
 30
0.0
 11
-105.67529332100082
 21
0.0
 31
0.0
  0
LINE
  5
39A
100
AcDbEntity
  8
0
  6
CONTINUOUS
 62
               7
100
AcDbLine
 10
105.00000034999999
 20
-39.000015388789052
 30
0.0
 11
105.00000034999999
 21
-316.80000410775784
 31
0.0
  0
LINE
  5
39B
100
AcDbEntity
  8
0
  6
CONTINUOUS
 62
               7
100
AcDbLine
 10
65.000000216666706
 20
-39.000015388789052
 30
0.0
 11
65.000000216666706
 21
-224.00001600545585
 31
0.0
  0
LINE
  5
39C
100
AcDbEntity
  8
0
  6
CONTINUOUS
 62
               7
100
AcDbLine
 10
7.0000000233333139
 20
1.0000000033332981
 30
0.0
 11
5.5000000183333668
 21
1.0000000033332981
 31
0.0
  0
LINE
  5
39D
100
AcDbEntity
  8
0
  6
CONTINUOUS
 62
               7
100
AcDbLine
 10
7.0000000233333139
 20
-39.000015388789052
 30
0.0
 11
5.5000000183333668
 21
-39.000015388789052
 31
0.0
  0
LINE
  5
39E
100
AcDbEntity
  8
0
  6
CONTINUOUS
 62
               7
100
AcDbLine
 10
7.0000000233333139
 20
-32.400009263273432
 30
0.0
 11
-99.000000329999835
 21
-32.400009263273432
 31
0.0
  0
LINE
  5
39F
100
AcDbEntity
  8
0
  6
CONTINUOUS
 62
               7
100
AcDbLine
 10
7.0000000233333139
 20
-30.199997048908926
 30
0.0
 11
-99.000000329999835
 21
-30.199997048908926
 31
0.0
  0
LINE
  5
3A0
100
AcDbEntity
  8
0
  6
CONTINUOUS
 62
               7
100
AcDbLine
 10
7.0000000233333139
 20
-7.8000030777577649
 30
0.0
 11
-99.000000329999835
 21
-7.8000030777577649
 31
0.0
  0
LINE
  5
3A1
100
AcDbEntity
  8
0
  6
CONTINUOUS
 62
               7
100
AcDbLine
 10
7.0000000233333139
 20
-5.6000061221823216
 30
0.0
 11
-99.000000329999835
 21
-5.6000061221823216
 31
0.0
  0
LINE
  5
3A2
100
AcDbEntity
  8
0
  6
CONTINUOUS
 62
               7
100
AcDbLine
 10
75.575622810512471
 20
-38.849990974226557
 30
0.0
 11
71.42437767948752
 21
-38.849990974226557
 31
0.0
  0
LINE
  5
3A3
100
AcDbEntity
  8
0
  6
CONTINUOUS
 62
               7
100
AcDbLine
 10
75.575637010313699
 20
-38.850010046530542
 30
0.0
 11
75.650003192094971
 21
-38.000000696732513
 31
0.0
  0
LINE
  5
3A4
100
AcDbEntity
  8
0
  6
CONTINUOUS
 62
               7
100
AcDbLine
 10
71.424389394038485
 20
-38.850012776582616
 30
0.0
 11
71.35002454214839
 21
-38.000018627509689
 31
0.0
  0
LINE
  5
3A5
100
AcDbEntity
  8
0
  6
CONTINUOUS
 62
               7
100
AcDbLine
 10
-99.000000329999835
 20
-38.000015385455754
 30
0.0
 11
-99.000000329999835
 21
0.0
 31
0.0
  0
LINE
  5
3A6
100
AcDbEntity
  8
0
  6
CONTINUOUS
 62
               7
100
AcDbLine
 10
146.85479782613061
 20
-32.830001940488046
 30
0.0
 11
70.866150138564251
 21
-32.830001940488046
 31
0.0
  0
LINE
  5
3A7
100
AcDbEntity
  8
0
  6
CONTINUOUS
 62
               7
100
AcDbLine
 10
70.00000023333331
 20
-30.199997048908926
 30
0.0
 11
49.000000163333311
 21
-30.199997048908926
 31
0.0
  0
LINE
  5
3A8
100
AcDbEntity
  8
0
  6
CONTINUOUS
 62
               7
100
AcDbLine
 10
148.00006150182315
 20
-38.000015385455754
 30
0.0
 11
49.000000163333311
 21
-38.000015385455754
 31
0.0
  0
LINE
  5
3A9
100
AcDbEntity
  8
0
  6
CONTINUOUS
 62
               7
100
AcDbLine
 10
148.00006150182315
 20
-38.000015385455754
 30
0.0
 11
148.00006150182315
 21
2.5999846778775009
 31
0.0
  0
LINE
  5
3AA
100
AcDbEntity
  8
0
  6
CONTINUOUS
 62
               7
100
AcDbLine
 10
70.00000023333331
 20
-7.8000030777577649
 30
0.0
 11
49.000000163333311
 21
-7.8000030777577649
 31
0.0
  0
LINE
  5
3AB
100
AcDbEntity
  8
0
  6
CONTINUOUS
 62
               7
100
AcDbLine
 10
70.00000023333331
 20
-5.6000061221823216
 30
0.0
 11
49.000000163333311
 21
-5.6000061221823216
 31
0.0
  0
LINE
  5
3AC
100
AcDbEntity
  8
0
  6
CONTINUOUS
 62
               7
100
AcDbLine
 10
70.00000023333331
 20
-32.400009263273432
 30
0.0
 11
49.000000163333311
 21
-32.400009263273432
 31
0.0
  0
LINE
  5
3AD
100
AcDbEntity
  8
0
  6
CONTINUOUS
 62
               7
100
AcDbLine
 10
70.00000023333331
 20
-38.000015385455754
 30
0.0
 11
70.00000023333331
 21
2.5999846778775009
 31
0.0
  0
LINE
  5
3AE
100
AcDbEntity
  8
0
  6
CONTINUOUS
 62
               7
100
AcDbLine
 10
146.6743779036542
 20
-5.1699981861786455
 30
0.0
 11
71.046447990727756
 21
-5.1699981861786455
 31
0.0
  0
LINE
  5
3AF
100
AcDbEntity
  8
0
  6
CONTINUOUS
 62
               2
100
AcDbLine
 10
153.16668749560779
 20
-19.000015322122408
 30
0.0
 11
-114.78875341640938
 21
-19.000015322122408
 31
0.0
  0
LINE
  5
3B0
100
AcDbEntity
  8
0
  6
CONTINUOUS
 62
               7
100
AcDbLine
 10
104.84997593543744
 20
28.575637912634875
 30
0.0
 11
104.84997593543744
 21
24.424362264031743
 31
0.0
  0
LINE
  5
3B1
100
AcDbEntity
  8
0
  6
CONTINUOUS
 62
               7
100
AcDbLine
 10
104.85000485047868
 20
28.575626876514207
 30
0.0
 11
104.00004110285607
 21
28.649989068622062
 31
0.0
  0
LINE
  5
3B2
100
AcDbEntity
  8
0
  6
CONTINUOUS
 62
               7
100
AcDbLine
 10
104.85003107061533
 20
24.424364816060233
 30
0.0
 11
104.00000652009209
 21
24.349997304387784
 31
0.0
  0
LINE
  5
3B3
100
AcDbEntity
  8
0
  6
CONTINUOUS
 62
               7
100
AcDbLine
 10
104.00000034666664
 20
-246.00001607878914
 30
0.0
 11
66.000000220000004
 21
-246.00001607878914
 31
0.0
  0
LINE
  5
3B4
100
AcDbEntity
  8
0
  6
CONTINUOUS
 62
               7
100
AcDbLine
 10
98.830017419277169
 20
99.854751893096477
 30
0.0
 11
98.830017419277169
 21
23.866134723108416
 31
0.0
  0
LINE
  5
3B5
100
AcDbEntity
  8
0
  6
CONTINUOUS
 62
               7
100
AcDbLine
 10
96.200012527697993
 20
23.000000076666652
 30
0.0
 11
96.200012527697993
 21
2.5999846778775009
 31
0.0
  0
LINE
  5
3B6
100
AcDbEntity
  8
0
  6
CONTINUOUS
 62
               7
100
AcDbLine
 10
104.00000034666664
 20
101.00000031000002
 30
0.0
 11
104.00000034666664
 21
2.5999846778775009
 31
0.0
  0
LINE
  5
3B7
100
AcDbEntity
  8
0
  6
CONTINUOUS
 62
               7
100
AcDbLine
 10
71.599975824604087
 20
-40.000015392122464
 30
0.0
 11
66.000000220000004
 21
-40.000015392122464
 31
0.0
  0
LINE
  5
3B8
100
AcDbEntity
  8
0
  6
CONTINUOUS
 62
               7
100
AcDbLine
 10
104.00000034666664
 20
101.00000031000002
 30
0.0
 11
63.400000283333384
 21
101.00000031000002
 31
0.0
  0
LINE
  5
3B9
100
AcDbEntity
  8
0
  6
CONTINUOUS
 62
               7
100
AcDbLine
 10
73.799988038968706
 20
23.000000076666652
 30
0.0
 11
73.799988038968706
 21
3.7928749979416807
 31
0.0
  0
LINE
  5
3BA
100
AcDbEntity
  8
0
  6
CONTINUOUS
 62
               7
100
AcDbLine
 10
71.599975824604087
 20
23.000000076666652
 30
0.0
 11
71.599975824604087
 21
3.5080618833173958
 31
0.0
  0
LINE
  5
3BB
100
AcDbEntity
  8
0
  6
CONTINUOUS
 62
               7
100
AcDbLine
 10
98.400024742062612
 20
23.000000076666652
 30
0.0
 11
98.400024742062612
 21
2.5999846778775009
 31
0.0
  0
LINE
  5
3BC
100
AcDbEntity
  8
0
  6
CONTINUOUS
 62
               7
100
AcDbLine
 10
104.00000034666664
 20
-40.000015392122464
 30
0.0
 11
98.400024742062612
 21
-40.000015392122464
 31
0.0
  0
LINE
  5
3BD
100
AcDbEntity
  8
0
  6
CONTINUOUS
 62
               7
100
AcDbLine
 10
104.00000034666664
 20
23.000000076666652
 30
0.0
 11
63.400000283333384
 21
23.000000076666652
 31
0.0
  0
LINE
  5
3BE
100
AcDbEntity
  8
0
  6
CONTINUOUS
 62
               7
100
AcDbLine
 10
71.16998314738953
 20
99.674408264565614
 30
0.0
 11
71.16998314738953
 21
24.04647835163928
 31
0.0
  0
LINE
  5
3BF
100
AcDbEntity
  8
0
  6
CONTINUOUS
 62
               2
100
AcDbLine
 10
85.00000028333335
 20
110.0
 30
0.0
 11
85.00000028333335
 21
-270.0
 31
0.0
  0
LINE
  5
3C0
100
AcDbEntity
  8
0
  6
CONTINUOUS
 62
               7
100
AcDbLine
 10
105.50000035166664
 20
-39.000015388789052
 30
0.0
 11
75.078512929151373
 21
-39.000015388789052
 31
0.0
  0
LINE
  5
3C1
100
AcDbEntity
  8
0
  6
CONTINUOUS
 62
               7
100
AcDbLine
 10
5.5000000183333668
 20
1.0000000033332981
 30
0.0
 11
5.5000000183333668
 21
0.0
 31
0.0
  0
LINE
  5
3C2
100
AcDbEntity
  8
0
  6
CONTINUOUS
 62
               7
100
AcDbLine
 10
46.00000015333336
 20
-41.800018449880326
 30
0.0
 11
46.00000015333336
 21
1.1999969522421452
 31
0.0
  0
LINE
  5
3C3
100
AcDbEntity
  8
0
  6
CONTINUOUS
 62
               7
100
AcDbLine
 10
10.000000033333379
 20
-41.800018449880326
 30
0.0
 11
10.000000033333379
 21
1.1999969522421452
 31
0.0
  0
LINE
  5
3C4
100
AcDbEntity
  8
0
  6
CONTINUOUS
 62
               7
100
AcDbLine
 10
7.0000000233333139
 20
1.1999969522421452
 30
0.0
 11
49.000000163333311
 21
1.1999969522421452
 31
0.0
  0
LINE
  5
3C5
100
AcDbEntity
  8
0
  6
CONTINUOUS
 62
               2
100
AcDbLine
 10
0.0
 20
6.6646939924459048
 30
0.0
 11
0.0
 21
-334.11536851707785
 31
0.0
  0
LINE
  5
3C6
100
AcDbEntity
  8
0
  6
CONTINUOUS
 62
               7
100
AcDbLine
 10
7.0000000233333139
 20
-44.800003201091158
 30
0.0
 11
7.0000000233333139
 21
1.1999969522421452
 31
0.0
  0
LINE
  5
3C7
100
AcDbEntity
  8
0
  6
CONTINUOUS
 62
               7
100
AcDbLine
 10
49.000000163333311
 20
-44.800003201091158
 30
0.0
 11
49.000000163333311
 21
1.1999969522421452
 31
0.0
  0
LINE
  5
3C8
100
AcDbEntity
  8
0
  6
CONTINUOUS
 62
               7
100
AcDbLine
 10
-105.00000034999982
 20
-314.0000163054558
 30
0.0
 11
105.00000034999999
 21
-314.0000163054558
 31
0.0
  0
LINE
  5
3C9
100
AcDbEntity
  8
0
  6
CONTINUOUS
 62
               7
100
AcDbLine
 10
71.921487560848675
 20
-39.000015388789052
 30
0.0
 11
49.000000163333311
 21
-39.000015388789052
 31
0.0
  0
LINE
  5
3CA
100
AcDbEntity
  8
0
  6
CONTINUOUS
 62
               7
100
AcDbLine
 10
66.000000220000004
 20
23.000000076666652
 30
0.0
 11
66.000000220000004
 21
4.000000013333306
 31
0.0
  0
LINE
  5
3CB
100
AcDbEntity
  8
0
  6
PHANTOM
 62
               2
100
AcDbLine
 10
-72.00000024000002
 20
-278.3000039794245
 30
0.0
 11
-72.00000024000002
 21
-78.300003312757838
 31
0.0
  0
LINE
  5
3CC
100
AcDbEntity
  8
0
  6
PHANTOM
 62
               2
100
AcDbLine
 10
28.000000093333369
 20
-278.3000039794245
 30
0.0
 11
-72.00000024000002
 21
-278.3000039794245
 31
0.0
  0
LINE
  5
3CD
100
AcDbEntity
  8
0
  6
PHANTOM
 62
               2
100
AcDbLine
 10
28.000000093333369
 20
-78.300003312757838
 30
0.0
 11
-72.00000024000002
 21
-78.300003312757838
 31
0.0
  0
LINE
  5
3CE
100
AcDbEntity
  8
0
  6
CONTINUOUS
 62
               2
100
AcDbLine
 10
28.000000093333369
 20
-78.300003312757838
 30
0.0
 11
28.000000093333369
 21
10.60030719161216
 31
0.0
  0
LINE
  5
3CF
100
AcDbEntity
  8
0
  6
CONTINUOUS
 62
               2
100
AcDbLine
 10
-72.00000024000002
 20
-78.223810775070035
 30
0.0
 11
-72.00000024000002
 21
10.0
 31
0.0
  0
CIRCLE
  5
3D0
100
AcDbEntity
  8
0
  6
CONTINUOUS
 62
               2
100
AcDbCircle
 10
10.000000033333379
 20
-131.00001569545577
 30
0.0
 40
1.5000000049999997
  0
CIRCLE
  5
3D1
100
AcDbEntity
  8
0
  6
CONTINUOUS
 62
               7
100
AcDbCircle
 10
10.000000033333379
 20
-131.00001569545577
 30
0.0
 40
1.2500000041666668
  0
LINE
  5
3D2
100
AcDbEntity
  8
0
  6
CONTINUOUS
 62
               2
100
AcDbLine
 10
13.000000043333387
 20
-131.00001569545577
 30
0.0
 11
7.0000000233333139
 21
-131.00001569545577
 31
0.0
  0
LINE
  5
3D3
100
AcDbEntity
  8
0
  6
CONTINUOUS
 62
               2
100
AcDbLine
 10
10.000000033333379
 20
-128.00001568545576
 30
0.0
 11
10.000000033333379
 21
-134.00001570545584
 31
0.0
  0
LINE
  5
3D4
100
AcDbEntity
  8
0
  6
CONTINUOUS
 62
               7
100
AcDbLine
 10
105.00000034999999
 20
-223.80000379775788
 30
0.0
 11
104.00000034666664
 21
-223.80000379775788
 31
0.0
  0
LINE
  5
3D5
100
AcDbEntity
  8
0
  6
CONTINUOUS
 62
               7
100
AcDbLine
 10
66.000000220000004
 20
-223.80000379775788
 30
0.0
 11
65.000000216666706
 21
-223.80000379775788
 31
0.0
  0
ENDBLK
  5
3D6
100
AcDbEntity
  8
0
100
AcDbBlockEnd
  0
BLOCK
  5
22
100
AcDbEntity
  8
0
  6
ByBlock
 62
               0
100
AcDbBlockBegin
  2
_OPEN30
 70
               2
 10
0.0
 20
0.0
 30
0.0
  3
_OPEN30
  1

  0
LINE
  5
23
100
AcDbEntity
  8
0
  6
ByBlock
 62
               0
100
AcDbLine
 10
-1.0
 20
0.267949
 30
0.0
 11
0.0
 21
0.0
 31
0.0
  0
LINE
  5
24
100
AcDbEntity
  8
0
  6
ByBlock
 62
               0
100
AcDbLine
 10
0.0
 20
0.0
 30
0.0
 11
-1.0
 21
-0.267949
 31
0.0
  0
LINE
  5
25
100
AcDbEntity
  8
0
  6
ByBlock
 62
               0
100
AcDbLine
 10
0.0
 20
0.0
 30
0.0
 11
-1.0
 21
0.0
 31
0.0
  0
ENDBLK
  5
26
100
AcDbEntity
  8
0
  6
ByBlock
 62
               0
100
AcDbBlockEnd
  0
BLOCK
  5
3DE
100
AcDbEntity
  8
0
  6
ByBlock
 62
               0
100
AcDbBlockBegin
  2
*D4
 70
               1
 10
0.0
 20
0.0
 30
0.0
  3
*D4
  1

  0
LINE
  5
3DF
100
AcDbEntity
  8
0
  6
CONTINUOUS
 62
               2
100
AcDbLine
 10
95.81388155328986
 20
105.7762048637191
 30
0.0
 11
95.81388155328986
 21
305.77620553038577
 31
0.0
  0
LINE
  5
3E0
100
AcDbEntity
  8
0
  6
CONTINUOUS
 62
               2
100
AcDbLine
 10
207.80622927057502
 20
105.7762048637191
 30
0.0
 11
94.31388155328986
 21
105.7762048637191
 31
0.0
  0
LINE
  5
3E1
100
AcDbEntity
  8
0
  6
CONTINUOUS
 62
               2
100
AcDbLine
 10
207.80622927057502
 20
305.77620553038577
 30
0.0
 11
94.31388155328986
 21
305.77620553038577
 31
0.0
  0
INSERT
  5
3E2
100
AcDbEntity
  8
0
  6
CONTINUOUS
 62
               2
100
AcDbBlockReference
  2
_OPEN30
 10
95.81388155328986
 20
105.7762048637191
 30
0.0
 41
8.3100000000000005
 42
8.3100000000000005
 43
8.3100000000000005
 50
270.0
  0
INSERT
  5
3E3
100
AcDbEntity
  8
0
  6
CONTINUOUS
 62
               2
100
AcDbBlockReference
  2
_OPEN30
 10
95.81388155328986
 20
305.77620553038577
 30
0.0
 41
8.3100000000000005
 42
8.3100000000000005
 43
8.3100000000000005
 50
90.0
  0
MTEXT
  5
3E5
100
AcDbEntity
  8
0
  6
CONTINUOUS
 62
               2
100
AcDbMText
 10
88.81388155328986
 20
204.41911868207848
 30
0.0
 40
12.0
 41
0.0
 71
               5
 72
               1
  1
\A1;Y-STROKE(200）
  7
MX_DIMTXSTY_2
 11
0.0000000000000001
 21
1.0
 31
0.0
  0
POINT
  5
3E6
100
AcDbEntity
  8
DEFPOINTS
  6
CONTINUOUS
 62
               0
100
AcDbPoint
 10
209.30622927057502
 20
105.7762048637191
 30
0.0
  0
POINT
  5
3E7
100
AcDbEntity
  8
DEFPOINTS
  6
CONTINUOUS
 62
               0
100
AcDbPoint
 10
209.30622927057502
 20
305.77620553038577
 30
0.0
  0
POINT
  5
3E8
100
AcDbEntity
  8
DEFPOINTS
  6
CONTINUOUS
 62
               0
100
AcDbPoint
 10
95.81388155328986
 20
305.77620553038577
 30
0.0
  0
ENDBLK
  5
3E9
100
AcDbEntity
  8
0
  6
ByBlock
 62
               0
100
AcDbBlockEnd
  0
BLOCK
  5
3EC
100
AcDbEntity
  8
0
  6
ByBlock
 62
               0
100
AcDbBlockBegin
  2
*D5
 70
               1
 10
0.0
 20
0.0
 30
0.0
  3
*D5
  1

  0
LINE
  5
3ED
100
AcDbEntity
  8
0
  6
CONTINUOUS
 62
               2
100
AcDbLine
 10
207.99999975999998
 20
470.1795870967743
 30
0.0
 11
308.00000009333331
 21
470.1795870967743
 31
0.0
  0
LINE
  5
3EE
100
AcDbEntity
  8
0
  6
CONTINUOUS
 62
               2
100
AcDbLine
 10
48.232040165273418
 20
470.1795870967743
 30
0.0
 11
207.99999975999998
 21
470.1795870967743
 31
0.0
  0
LINE
  5
3EF
100
AcDbEntity
  8
0
  6
CONTINUOUS
 62
               2
100
AcDbLine
 10
207.99999975999998
 20
365.36101409872742
 30
0.0
 11
207.99999975999998
 21
471.6795870967743
 31
0.0
  0
LINE
  5
3F0
100
AcDbEntity
  8
0
  6
CONTINUOUS
 62
               2
100
AcDbLine
 10
308.00000009333331
 20
365.36101409872742
 30
0.0
 11
308.00000009333331
 21
471.6795870967743
 31
0.0
  0
INSERT
  5
3F1
100
AcDbEntity
  8
0
  6
CONTINUOUS
 62
               2
100
AcDbBlockReference
  2
_OPEN30
 10
207.99999975999998
 20
470.1795870967743
 30
0.0
 41
8.3100000000000005
 42
8.3100000000000005
 43
8.3100000000000005
 50
180.0
  0
INSERT
  5
3F2
100
AcDbEntity
  8
0
  6
CONTINUOUS
 62
               2
100
AcDbBlockReference
  2
_OPEN30
 10
308.00000009333331
 20
470.1795870967743
 30
0.0
 41
8.3100000000000005
 42
8.3100000000000005
 43
8.3100000000000005
  0
MTEXT
  5
3F3
100
AcDbEntity
  8
0
  6
CONTINUOUS
 62
               2
100
AcDbMText
 10
126.23204016527342
 20
477.1795870967743
 30
0.0
 40
12.0
 41
0.0
 71
               5
 72
               1
  1
\A1;X-STROKE(100）
  7
MX_DIMTXSTY_2
  0
POINT
  5
3F4
100
AcDbEntity
  8
DEFPOINTS
  6
CONTINUOUS
 62
               0
100
AcDbPoint
 10
207.99999975999998
 20
363.86101409872742
 30
0.0
  0
POINT
  5
3F5
100
AcDbEntity
  8
DEFPOINTS
  6
CONTINUOUS
 62
               0
100
AcDbPoint
 10
308.00000009333331
 20
363.86101409872742
 30
0.0
  0
POINT
  5
3F6
100
AcDbEntity
  8
DEFPOINTS
  6
CONTINUOUS
 62
               0
100
AcDbPoint
 10
308.00000009333331
 20
470.1795870967743
 30
0.0
  0
ENDBLK
  5
3F7
100
AcDbEntity
  8
0
  6
ByBlock
 62
               0
100
AcDbBlockEnd
  0
BLOCK
  5
3FA
100
AcDbEntity
  8
0
  6
ByBlock
 62
               0
100
AcDbBlockBegin
  2
*D6
 70
               1
 10
0.0
 20
0.0
 30
0.0
  3
*D6
  1

  0
LINE
  5
3FB
100
AcDbEntity
  8
0
  6
CONTINUOUS
 62
               2
100
AcDbLine
 10
147.99999914750009
 20
-235.30001787638022
 30
0.0
 11
147.99999914750009
 21
-185.30001770971356
 31
0.0
  0
LINE
  5
3FC
100
AcDbEntity
  8
0
  6
CONTINUOUS
 62
               2
100
AcDbLine
 10
147.99999914750009
 20
-185.30001770971356
 30
0.0
 11
147.99999914750009
 21
-38.410750908606786
 31
0.0
  0
LINE
  5
3FD
100
AcDbEntity
  8
0
  6
CONTINUOUS
 62
               2
100
AcDbLine
 10
203.84451208695322
 20
-235.30001787638022
 30
0.0
 11
146.49999914750009
 21
-235.30001787638022
 31
0.0
  0
LINE
  5
3FE
100
AcDbEntity
  8
0
  6
CONTINUOUS
 62
               2
100
AcDbLine
 10
203.84451208695322
 20
-185.30001770971356
 30
0.0
 11
146.49999914750009
 21
-185.30001770971356
 31
0.0
  0
INSERT
  5
3FF
100
AcDbEntity
  8
0
  6
CONTINUOUS
 62
               2
100
AcDbBlockReference
  2
_OPEN30
 10
147.99999914750009
 20
-235.30001787638022
 30
0.0
 41
8.3100000000000005
 42
8.3100000000000005
 43
8.3100000000000005
 50
270.0
  0
INSERT
  5
400
100
AcDbEntity
  8
0
  6
CONTINUOUS
 62
               2
100
AcDbBlockReference
  2
_OPEN30
 10
147.99999914750009
 20
-185.30001770971356
 30
0.0
 41
8.3100000000000005
 42
8.3100000000000005
 43
8.3100000000000005
 50
90.0
  0
MTEXT
  5
401
100
AcDbEntity
  8
0
  6
CONTINUOUS
 62
               2
100
AcDbMText
 10
140.99999914750009
 20
-110.41075090860679
 30
0.0
 40
12.0
 41
0.0
 71
               5
 72
               1
  1
\A1;Z-STROKE(50)
  7
MX_DIMTXSTY_2
 11
0.0000000000000001
 21
1.0
 31
0.0
  0
POINT
  5
402
100
AcDbEntity
  8
DEFPOINTS
  6
CONTINUOUS
 62
               0
100
AcDbPoint
 10
205.34451208695322
 20
-235.30001787638022
 30
0.0
  0
POINT
  5
403
100
AcDbEntity
  8
DEFPOINTS
  6
CONTINUOUS
 62
               0
100
AcDbPoint
 10
205.34451208695322
 20
-185.30001770971356
 30
0.0
  0
POINT
  5
404
100
AcDbEntity
  8
DEFPOINTS
  6
CONTINUOUS
 62
               0
100
AcDbPoint
 10
147.99999914750009
 20
-185.30001770971356
 30
0.0
  0
ENDBLK
  5
405
100
AcDbEntity
  8
0
  6
ByBlock
 62
               0
100
AcDbBlockEnd
  0
ENDSEC
  0
SECTION
  2
ENTITIES
  0
INSERT
  5
3D7
100
AcDbEntity
  8
0
  6
ByBlock
100
AcDbBlockReference
  2
DTHB-CS3-3
 10
280.0
 20
384.0000163054558
 30
0.0
  0
INSERT
  5
3D8
100
AcDbEntity
  8
0
  6
ByBlock
100
AcDbBlockReference
  2
DTHB-CS3-2
 10
-400.0
 20
-500.0
 30
0.0
  0
INSERT
  5
3D9
100
AcDbEntity
  8
0
  6
ByBlock
100
AcDbBlockReference
  2
DTHB-CS3-1
 10
280.0
 20
-500.0
 30
0.0
  0
MTEXT
  5
3DA
100
AcDbEntity
  8
0
  6
CONTINUOUS
 62
               7
100
AcDbMText
 10
-678.5
 20
459.5
 30
0.0
 40
18.0
 41
0.0
 71
               4
 72
               1
  1
\A1;DTHB-CSL3
  0
MTEXT
  5
3DB
100
AcDbEntity
  8
0
  6
CONTINUOUS
 62
             255
100
AcDbMText
 10
-714.5
 20
537.0
 30
0.0
 40
18.0
 41
0.0
 71
               4
 72
               1
  1
\A1;DTHB-CS3
  0
MTEXT
  5
3DC
100
AcDbEntity
  8
0
  6
CONTINUOUS
 62
             255
100
AcDbMText
 10
-741.38679245283015
 20
562.0
 30
0.0
 40
18.0
 41
0.0
 71
               4
 72
               1
  1
\W1.038;\A1;CELL MASTER
  0
DIMENSION
  5
3EA
100
AcDbEntity
  8
0
  6
CONTINUOUS
 62
               2
100
AcDbDimension
  2
*D4
 10
95.81388155328986
 20
305.77620553038577
 30
0.0
 11
95.81388155328986
 21
204.41911868207848
 31
0.0
 70
             128
  1
Y-STROKE(200）
  3
MXDIMSTYLE
100
AcDbAlignedDimension
 13
209.30622927057502
 23
105.7762048637191
 33
0.0
 14
209.30622927057502
 24
305.77620553038577
 34
0.0
 50
90.0
100
AcDbRotatedDimension
1001
ACAD
1000
DSTYLE
1002
{
1070
              41
1040
8.3100000000000005
1070
             140
1040
12.0
1070
             340
1005
3E4
1002
}
  0
DIMENSION
  5
3F8
100
AcDbEntity
  8
0
  6
CONTINUOUS
 62
               2
100
AcDbDimension
  2
*D5
 10
308.00000009333331
 20
470.1795870967743
 30
0.0
 11
126.23204016527342
 21
470.1795870967743
 31
0.0
 70
             128
  1
X-STROKE(100）
  3
MXDIMSTYLE
100
AcDbAlignedDimension
 13
207.99999975999998
 23
363.86101409872742
 33
0.0
 14
308.00000009333331
 24
363.86101409872742
 34
0.0
100
AcDbRotatedDimension
1001
ACAD
1000
DSTYLE
1002
{
1070
              41
1040
8.3100000000000005
1070
             140
1040
12.0
1070
             340
1005
3E4
1002
}
  0
DIMENSION
  5
406
100
AcDbEntity
  8
0
  6
CONTINUOUS
 62
               2
100
AcDbDimension
  2
*D6
 10
147.99999914750009
 20
-185.30001770971356
 30
0.0
 11
147.99999914750009
 21
-110.41075090860679
 31
0.0
 70
             128
  1
Z-STROKE(50)
  3
MXDIMSTYLE
100
AcDbAlignedDimension
 13
205.34451208695322
 23
-235.30001787638022
 33
0.0
 14
205.34451208695322
 24
-185.30001770971356
 34
0.0
 50
90.0
100
AcDbRotatedDimension
1001
ACAD
1000
DSTYLE
1002
{
1070
              41
1040
8.3100000000000005
1070
             140
1040
12.0
1070
             340
1005
3E4
1002
}
  0
LINE
  5
407
100
AcDbEntity
  8
0
  6
CONTINUOUS
 62
               7
100
AcDbLine
 10
-820.5
 20
-574.5
 30
0.0
 11
820.5
 21
-574.5
 31
0.0
  0
LINE
  5
408
100
AcDbEntity
  8
0
  6
CONTINUOUS
 62
               7
100
AcDbLine
 10
-820.5
 20
574.5
 30
0.0
 11
-820.5
 21
-574.5
 31
0.0
  0
LINE
  5
409
100
AcDbEntity
  8
0
  6
CONTINUOUS
 62
               7
100
AcDbLine
 10
820.5
 20
574.5
 30
0.0
 11
820.5
 21
-574.5
 31
0.0
  0
LINE
  5
40A
100
AcDbEntity
  8
0
  6
CONTINUOUS
 62
               7
100
AcDbLine
 10
-820.5
 20
574.5
 30
0.0
 11
820.5
 21
574.5
 31
0.0
  0
LINE
  5
40B
100
AcDbEntity
  8
0
  6
CONTINUOUS
 62
               7
100
AcDbLine
 10
-820.5
 20
524.5
 30
0.0
 11
-470.5
 21
524.5
 31
0.0
  0
LINE
  5
40C
100
AcDbEntity
  8
0
  6
CONTINUOUS
 62
               7
100
AcDbLine
 10
470.5
 20
-524.5
 30
0.0
 11
820.5
 21
-524.5
 31
0.0
  0
LINE
  5
40D
100
AcDbEntity
  8
0
  6
CONTINUOUS
 62
               7
100
AcDbLine
 10
470.5
 20
574.5
 30
0.0
 11
470.5
 21
524.5
 31
0.0
  0
LINE
  5
40E
100
AcDbEntity
  8
0
  6
CONTINUOUS
 62
               7
100
AcDbLine
 10
-470.5
 20
574.5
 30
0.0
 11
-470.5
 21
524.5
 31
0.0
  0
LINE
  5
40F
100
AcDbEntity
  8
0
  6
CONTINUOUS
 62
               7
100
AcDbLine
 10
470.5
 20
-524.5
 30
0.0
 11
470.5
 21
-574.5
 31
0.0
  0
LINE
  5
410
100
AcDbEntity
  8
0
  6
CONTINUOUS
 62
               7
100
AcDbLine
 10
470.5
 20
524.5
 30
0.0
 11
820.5
 21
524.5
 31
0.0
  0
MTEXT
  5
411
100
AcDbEntity
  8
0
  6
CONTINUOUS
 62
               7
100
AcDbMText
 10
-786.35000000234697
 20
484.5
 30
0.0
 40
18.0
 41
0.0
 71
               4
 72
               1
  1
\W1.050;\A1;MODEL:DTHB-CS3
  0
MTEXT
  5
412
100
AcDbEntity
  8
0
  6
CONTINUOUS
 62
               7
100
AcDbMText
 10
487.66954021788825
 20
-549.5
 30
0.0
 40
25.0
 41
0.0
 71
               4
 72
               1
  1
\W1.121;\A1;KOGANEI CORP.
  0
MTEXT
  5
413
100
AcDbEntity
  8
0
  6
CONTINUOUS
 62
               7
100
AcDbMText
 10
577.43442619106395
 20
549.5
 30
0.0
 40
18.0
 41
0.0
 71
               4
 72
               1
  1
\W1.311;\A1;Ver. 1.0
  0
ENDSEC
  0
SECTION
  2
OBJECTS
  0
DICTIONARY
  5
19
100
AcDbDictionary
  3
ACAD_GROUP
350
1A
  3
ACAD_MLINESTYLE
350
1B
  0
DICTIONARY
  5
1A
102
{ACAD_REACTORS
330
19
102
}
100
AcDbDictionary
  0
DICTIONARY
  5
1B
102
{ACAD_REACTORS
330
19
102
}
100
AcDbDictionary
  3
STANDARD
350
1C
  0
MLINESTYLE
  5
1C
102
{ACAD_REACTORS
330
1B
102
}
100
AcDbMlineStyle
  2
Standard
 70
               0
  3

 62
               0
 51
90.0
 52
90.0
 71
               2
 49
0.5
 62
             256
  6
ByLayer
 49
-0.5
 62
             256
  6
ByLayer
  0
ENDSEC
  0
EOF
