  0
SECTION
  2
HEADER
  9
$ACADVER
  1
AC1012
  9
$DWGCODEPAGE
  3
dos932
  9
$INSBASE
 10
0.0
 20
0.0
 30
0.0
  9
$EXTMIN
 10
-564.5
 20
-400.5
 30
0.0
  9
$EXTMAX
 10
581.5
 20
402.375
 30
0.0
  9
$LIMMIN
 10
-599.50000000000011
 20
-415.50000000000006
  9
$LIMMAX
 10
589.50000000000011
 20
425.50000000000006
  9
$ORTHOMODE
 70
               0
  9
$REGENMODE
 70
               1
  9
$FILLMODE
 70
               1
  9
$QTEXTMODE
 70
               0
  9
$MIRRTEXT
 70
               1
  9
$DRAGMODE
 70
               2
  9
$LTSCALE
 40
1.0
  9
$OSMODE
 70
               0
  9
$ATTMODE
 70
               1
  9
$TEXTSIZE
 40
3.2000000476837158
  9
$TRACEWID
 40
0.05
  9
$TEXTSTYLE
  7
MX_NOTE_STANDARD
  9
$CLAYER
  8
0
  9
$CELTYPE
  6
CONTINUOUS
  9
$CECOLOR
 62
             256
  9
$CELTSCALE
 40
1.0
  9
$DELOBJ
 70
               1
  9
$DISPSILH
 70
               0
  9
$DIMSCALE
 40
1.0
  9
$DIMASZ
 40
2.5
  9
$DIMEXO
 40
1.5
  9
$DIMDLI
 40
3.75
  9
$DIMRND
 40
0.0
  9
$DIMDLE
 40
0.0
  9
$DIMEXE
 40
1.5
  9
$DIMTP
 40
0.0
  9
$DIMTM
 40
0.0
  9
$DIMTXT
 40
3.2000000476837158
  9
$DIMCEN
 40
2.5
  9
$DIMTSZ
 40
0.0
  9
$DIMTOL
 70
               0
  9
$DIMLIM
 70
               0
  9
$DIMTIH
 70
               0
  9
$DIMTOH
 70
               0
  9
$DIMSE1
 70
               0
  9
$DIMSE2
 70
               0
  9
$DIMTAD
 70
               1
  9
$DIMZIN
 70
               8
  9
$DIMBLK
  1

  9
$DIMASO
 70
               1
  9
$DIMSHO
 70
               1
  9
$DIMPOST
  1

  9
$DIMAPOST
  1

  9
$DIMALT
 70
               0
  9
$DIMALTD
 70
               4
  9
$DIMALTF
 40
0.03937007874016
  9
$DIMLFAC
 40
1.0
  9
$DIMTOFL
 70
               1
  9
$DIMTVP
 40
0.0
  9
$DIMTIX
 70
               0
  9
$DIMSOXD
 70
               0
  9
$DIMSAH
 70
               1
  9
$DIMBLK1
  1
_OPEN30
  9
$DIMBLK2
  1
_OPEN30
  9
$DIMSTYLE
  2
MXDIMSTYLE
  9
$DIMCLRD
 70
               0
  9
$DIMCLRE
 70
               0
  9
$DIMCLRT
 70
               0
  9
$DIMTFAC
 40
1.0
  9
$DIMGAP
 40
1.0
  9
$DIMJUST
 70
               0
  9
$DIMSD1
 70
               0
  9
$DIMSD2
 70
               0
  9
$DIMTOLJ
 70
               0
  9
$DIMTZIN
 70
               0
  9
$DIMALTZ
 70
               0
  9
$DIMALTTZ
 70
               0
  9
$DIMFIT
 70
               3
  9
$DIMUPT
 70
               1
  9
$DIMUNIT
 70
               2
  9
$DIMDEC
 70
               2
  9
$DIMTDEC
 70
               2
  9
$DIMALTU
 70
               2
  9
$DIMALTTD
 70
               4
  9
$DIMTXSTY
  7
MX_NOTE_STANDARD
  9
$DIMAUNIT
 70
               0
  9
$LUNITS
 70
               2
  9
$LUPREC
 70
               4
  9
$SKETCHINC
 40
0.1
  9
$FILLETRAD
 40
0.0
  9
$AUNITS
 70
               0
  9
$AUPREC
 70
               0
  9
$MENU
  1
acad
  9
$ELEVATION
 40
0.0
  9
$PELEVATION
 40
0.0
  9
$THICKNESS
 40
0.0
  9
$LIMCHECK
 70
               0
  9
$BLIPMODE
 70
               1
  9
$CHAMFERA
 40
0.0
  9
$CHAMFERB
 40
0.0
  9
$CHAMFERC
 40
0.0
  9
$CHAMFERD
 40
0.0
  9
$SKPOLY
 70
               0
  9
$TDCREATE
 40
2453916.737164352
  9
$TDUPDATE
 40
2453916.737164352
  9
$TDINDWG
 40
0.0000000000
  9
$TDUSRTIMER
 40
0.0000000000
  9
$USRTIMER
 70
               1
  9
$ANGBASE
 50
0.0
  9
$ANGDIR
 70
               0
  9
$PDMODE
 70
               0
  9
$PDSIZE
 40
0.0
  9
$PLINEWID
 40
0.0
  9
$COORDS
 70
               1
  9
$SPLFRAME
 70
               0
  9
$SPLINETYPE
 70
               6
  9
$SPLINESEGS
 70
               8
  9
$ATTDIA
 70
               0
  9
$ATTREQ
 70
               1
  9
$HANDLING
 70
               1
  9
$HANDSEED
  5
317
  9
$SURFTAB1
 70
               6
  9
$SURFTAB2
 70
               6
  9
$SURFTYPE
 70
               6
  9
$SURFU
 70
               6
  9
$SURFV
 70
               6
  9
$UCSNAME
  2

  9
$UCSORG
 10
0.0
 20
0.0
 30
0.0
  9
$UCSXDIR
 10
1.0
 20
0.0
 30
0.0
  9
$UCSYDIR
 10
0.0
 20
1.0
 30
0.0
  9
$PUCSNAME
  2

  9
$PUCSORG
 10
0.0
 20
0.0
 30
0.0
  9
$PUCSXDIR
 10
1.0
 20
0.0
 30
0.0
  9
$PUCSYDIR
 10
0.0
 20
1.0
 30
0.0
  9
$USERI1
 70
               0
  9
$USERI2
 70
               0
  9
$USERI3
 70
               0
  9
$USERI4
 70
               0
  9
$USERI5
 70
               0
  9
$USERR1
 40
0.0
  9
$USERR2
 40
0.0
  9
$USERR3
 40
0.0
  9
$USERR4
 40
0.0
  9
$USERR5
 40
0.0
  9
$WORLDVIEW
 70
               1
  9
$SHADEDGE
 70
               3
  9
$SHADEDIF
 70
              70
  9
$TILEMODE
 70
               1
  9
$MAXACTVP
 70
              16
  9
$PINSBASE
 10
0.0
 20
0.0
 30
0.0
  9
$PLIMCHECK
 70
               0
  9
$PEXTMIN
 10
1.0000000000000000E+20
 20
1.0000000000000000E+20
 30
1.0000000000000000E+20
  9
$PEXTMAX
 10
-1.0000000000000000E+20
 20
-1.0000000000000000E+20
 30
-1.0000000000000000E+20
  9
$PLIMMIN
 10
0.0
 20
0.0
  9
$PLIMMAX
 10
12.0
 20
9.0
  9
$UNITMODE
 70
               0
  9
$VISRETAIN
 70
               0
  9
$PLINEGEN
 70
               1
  9
$PSLTSCALE
 70
               0
  9
$TREEDEPTH
 70
            3020
  9
$PICKSTYLE
 70
               1
  9
$CMLSTYLE
  2
Standard
  9
$CMLJUST
 70
               0
  9
$CMLSCALE
 40
1.0
  9
$SAVEIMAGES
 70
               0
  0
ENDSEC
  0
SECTION
  2
CLASSES
  0
CLASS
  1
LWPOLYLINE
  2
AcDbPolyline
  3
"AutoCAD"
 90
    32768
280
               0
281
               1
  0
CLASS
  1
IMAGE
  2
AcDbRasterImage
  3
ISM
 90
    32895
280
               0
281
               1
  0
CLASS
  1
OLE2FRAME
  2
AcDbOle2Frame
  3
""
 90
    32768
280
               0
281
               1
  0
CLASS
  1
HATCH
  2
AcDbHatch
  3
"ACAD_SEDONA"
 90
    32768
280
               0
281
               1
  0
CLASS
  1
DICTIONARYVAR
  2
AcDbDictionaryVar
  3
"AutoCAD"
 90
    32768
280
               0
281
               0
  0
CLASS
  1
RASTERVARIABLES
  2
AcDbRasterVariables
  3
ISM
 90
    32768
280
               0
281
               0
  0
CLASS
  1
IMAGEDEF
  2
AcDbRasterImageDef
  3
ISM
 90
    32768
280
               0
281
               0
  0
CLASS
  1
IMAGEDEF_REACTOR
  2
AcDbRasterImageDefReactor
  3
ISM
 90
    32769
280
               0
281
               0
  0
CLASS
  1
IDBUFFER
  2
AcDbIdBuffer
  3
"Acad"
 90
    32768
280
               0
281
               0
  0
CLASS
  1
SPATIAL_FILTER
  2
AcDbSpatialFilter
  3
"Acad"
 90
    32768
280
               0
281
               0
  0
CLASS
  1
XRECORD
  2
AcDbXrecord
  3
"<Built In>"
 90
    32768
280
               0
281
               0
  0
CLASS
  1
SORTENTSTABLE
  2
AcDbSortentsTable
  3
"AutoCAD"
 90
    32768
280
               0
281
               0
  0
CLASS
  1
LAYER_INDEX
  2
AcDbLayerIndex
  3
"Acad"
 90
    32768
280
               0
281
               0
  0
CLASS
  1
SPATIAL_INDEX
  2
AcDbSpatialIndex
  3
"Acad"
 90
    32768
280
               0
281
               0
  0
CLASS
  1
OBJECT_PTR
  2
CAseDLPNTableRecord
  3
"ASE-LPNTableRecord"
 90
    32769
280
               0
281
               0
  0
CLASS
  1
LAYOUT
  2
AcDbLayout
  3
"AutoCAD 2000"
 90
    32768
280
               0
281
               0
  0
CLASS
  1
PLOTSETTINGS
  2
AcDbPlotSettings
  3
"AutoCAD 2000"
 90
    32768
280
               0
281
               0
  0
CLASS
  1
ACDBDICTIONARYWDFLT
  2
AcDbDictionaryWithDefault
  3
"AutoCAD 2000"
 90
    32768
280
               0
281
               0
  0
CLASS
  1
ACDBPLACEHOLDER
  2
AcDbPlaceHolder
  3
"AutoCAD 2000"
 90
    32768
280
               0
281
               0
  0
ENDSEC
  0
SECTION
  2
TABLES
  0
TABLE
  2
VPORT
  5
7
100
AcDbSymbolTable
 70
               1
  0
VPORT
  5
15
100
AcDbSymbolTableRecord
100
AcDbViewportTableRecord
  2
*ACTIVE
 70
               0
 10
0.0
 20
0.0
 11
1.0
 21
1.0
 12
-5.0
 22
5.0
 13
0.0
 23
0.0
 14
1.0
 24
1.0
 15
0.0
 25
0.0
 16
0.0
 26
0.0
 36
1.0
 17
0.0
 27
0.0
 37
0.0
 40
849.41000000000008
 41
1.7320508075688772
 42
50.0
 43
0.0
 44
0.0
 50
0.0
 51
0.0
 71
               0
 72
             100
 73
               1
 74
               1
 75
               0
 76
               0
 77
               0
 78
               0
  0
ENDTAB
  0
TABLE
  2
LTYPE
  5
4
100
AcDbSymbolTable
 70
               4
  0
LTYPE
  5
11
100
AcDbSymbolTableRecord
100
AcDbLinetypeTableRecord
  2
BYBLOCK
 70
              64
  3

 72
              65
 73
               0
 40
0.0
  0
LTYPE
  5
12
100
AcDbSymbolTableRecord
100
AcDbLinetypeTableRecord
  2
BYLAYER
 70
              64
  3

 72
              65
 73
               0
 40
0.0
  0
LTYPE
  5
13
100
AcDbSymbolTableRecord
100
AcDbLinetypeTableRecord
  2
CONTINUOUS
 70
              64
  3
Solid line
 72
              65
 73
               0
 40
0.0
  0
LTYPE
  5
2E0
100
AcDbSymbolTableRecord
100
AcDbLinetypeTableRecord
  2
PHANTOM
 70
              64
  3
Phantom ______  __  __  ______  __  __  ______
 72
              65
 73
               6
 40
63.500000000000007
 49
31.75
 74
               0
 49
-6.3499999999999996
 74
               0
 49
6.3499999999999996
 74
               0
 49
-6.3499999999999996
 74
               0
 49
6.3499999999999996
 74
               0
 49
-6.3499999999999996
 74
               0
  0
ENDTAB
  0
TABLE
  2
LAYER
  5
2
100
AcDbSymbolTable
 70
               2
  0
LAYER
  5
14
100
AcDbSymbolTableRecord
100
AcDbLayerTableRecord
  2
0
 70
               0
 62
               7
  6
CONTINUOUS
  0
LAYER
  5
1D
100
AcDbSymbolTableRecord
100
AcDbLayerTableRecord
  2
DEFPOINTS
 70
               0
 62
               7
  6
CONTINUOUS
  0
ENDTAB
  0
TABLE
  2
STYLE
  5
3
100
AcDbSymbolTable
 70
               2
  0
STYLE
  5
17
100
AcDbSymbolTableRecord
100
AcDbTextStyleTableRecord
  2
MX_NOTE_STANDARD
 70
               0
 40
0.0
 41
1.0
 50
0.0
 71
               0
 42
3.2000000476837158
  3
txt.shx
  4
extfont.shx
  0
STYLE
  5
2F4
100
AcDbSymbolTableRecord
100
AcDbTextStyleTableRecord
  2
MX_DIMTXSTY_2
 70
               0
 40
0.0
 41
1.05
 50
0.0
 71
               0
 42
3.2000000476837158
  3
txt.shx
  4
extfont.shx
  0
ENDTAB
  0
TABLE
  2
VIEW
  5
5
100
AcDbSymbolTable
 70
               0
  0
ENDTAB
  0
TABLE
  2
UCS
  5
6
100
AcDbSymbolTable
 70
               0
  0
ENDTAB
  0
TABLE
  2
APPID
  5
8
100
AcDbSymbolTable
 70
               1
  0
APPID
  5
16
100
AcDbSymbolTableRecord
100
AcDbRegAppTableRecord
  2
ACAD
 70
               0
  0
ENDTAB
  0
TABLE
  2
DIMSTYLE
  5
9
100
AcDbSymbolTable
 70
               1
  0
DIMSTYLE
105
18
100
AcDbSymbolTableRecord
100
AcDbDimStyleTableRecord
  2
MXDIMSTYLE
 70
               0
  3

  4

  5

  6
_OPEN30
  7
_OPEN30
 40
1.0
 41
2.5
 42
1.5
 43
3.75
 44
1.5
 45
0.0
 46
0.0
 47
0.0
 48
0.0
 71
               0
 72
               0
 73
               0
 74
               0
 75
               0
 76
               0
 77
               1
 78
               8
140
3.2000000476837158
141
2.5
142
0.0
143
0.03937007874016
144
1.0
145
0.0
146
1.0
147
1.0
170
               0
171
               4
172
               1
173
               1
174
               0
175
               0
176
               0
177
               0
178
               0
270
               2
271
               2
272
               2
273
               2
274
               4
275
               0
280
               0
281
               0
282
               0
283
               0
284
               0
285
               0
286
               0
287
               3
288
               1
340
17
  0
ENDTAB
  0
TABLE
  2
BLOCK_RECORD
  5
1
100
AcDbSymbolTable
 70
               6
  0
BLOCK_RECORD
  5
A
100
AcDbSymbolTableRecord
100
AcDbBlockTableRecord
  2
*MODEL_SPACE
  0
BLOCK_RECORD
  5
B
100
AcDbSymbolTableRecord
100
AcDbBlockTableRecord
  2
*PAPER_SPACE
  0
BLOCK_RECORD
  5
1E
100
AcDbSymbolTableRecord
100
AcDbBlockTableRecord
  2
DTHB-CS2-1
  0
BLOCK_RECORD
  5
1F
100
AcDbSymbolTableRecord
100
AcDbBlockTableRecord
  2
DTHB-CS2-2
  0
BLOCK_RECORD
  5
20
100
AcDbSymbolTableRecord
100
AcDbBlockTableRecord
  2
DTHB-CS2-3
  0
BLOCK_RECORD
  5
21
100
AcDbSymbolTableRecord
100
AcDbBlockTableRecord
  2
_OPEN30
  0
BLOCK_RECORD
  5
2EC
100
AcDbSymbolTableRecord
100
AcDbBlockTableRecord
  2
*D4
  0
BLOCK_RECORD
  5
2FB
100
AcDbSymbolTableRecord
100
AcDbBlockTableRecord
  2
*D5
  0
ENDTAB
  0
ENDSEC
  0
SECTION
  2
BLOCKS
  0
BLOCK
  5
D
100
AcDbEntity
  8
0
100
AcDbBlockBegin
  2
*MODEL_SPACE
 70
               0
 10
0.0
 20
0.0
 30
0.0
  3
*MODEL_SPACE
  1

  0
ENDBLK
  5
E
100
AcDbEntity
  8
0
100
AcDbBlockEnd
  0
BLOCK
  5
F
100
AcDbEntity
 67
               1
  8
0
100
AcDbBlockBegin
  2
*PAPER_SPACE
 70
               0
 10
0.0
 20
0.0
 30
0.0
  3
*PAPER_SPACE
  1

  0
ENDBLK
  5
10
100
AcDbEntity
 67
               1
  8
0
100
AcDbBlockEnd
  0
BLOCK
  5
27
100
AcDbEntity
  8
0
100
AcDbBlockBegin
  2
DTHB-CS2-1
 70
               0
 10
0.0
 20
0.0
 30
0.0
  3
DTHB-CS2-1
  1

  0
CIRCLE
  5
28
100
AcDbEntity
  8
0
  6
CONTINUOUS
 62
               7
100
AcDbCircle
 10
142.99999999999983
 20
252.69995143187498
 30
0.0
 40
1.7499999999999998
  0
LINE
  5
29
100
AcDbEntity
  8
0
  6
CONTINUOUS
 62
               7
100
AcDbLine
 10
66.004187880728466
 20
225.52159529819477
 30
0.0
 11
64.426484799077741
 21
223.94562289002118
 31
0.0
  0
LINE
  5
2A
100
AcDbEntity
  8
0
  6
CONTINUOUS
 62
               7
100
AcDbLine
 10
66.004187880728466
 20
224.81487624368992
 30
0.0
 11
64.77984411349513
 21
223.59187552972784
 31
0.0
  0
ARC
  5
2B
100
AcDbEntity
  8
0
  6
CONTINUOUS
 62
               7
100
AcDbCircle
 10
59.899999999999807
 20
203.69995753539055
 30
0.0
 40
1.0
100
AcDbArc
 50
180.0
 51
270.0
  0
LINE
  5
2C
100
AcDbEntity
  8
0
  6
CONTINUOUS
 62
               7
100
AcDbLine
 10
58.89999999999975
 20
216.69995753539058
 30
0.0
 11
58.89999999999975
 21
203.69995753539055
 31
0.0
  0
LINE
  5
2D
100
AcDbEntity
  8
0
  6
CONTINUOUS
 62
               7
100
AcDbLine
 10
63.39999999999975
 20
202.49994922484368
 30
0.0
 11
63.39999999999975
 21
198.19995753539058
 31
0.0
  0
LINE
  5
2E
100
AcDbEntity
  8
0
  6
CONTINUOUS
 62
               7
100
AcDbLine
 10
63.89999999999975
 20
198.19995753539058
 30
0.0
 11
63.89999999999975
 21
202.49994922484368
 31
0.0
  0
ARC
  5
2F
100
AcDbEntity
  8
0
  6
CONTINUOUS
 62
               7
100
AcDbCircle
 10
63.39999999999975
 20
202.19995753539058
 30
0.0
 40
3.4999999999999996
100
AcDbArc
 50
180.0
 51
270.0
  0
LINE
  5
30
100
AcDbEntity
  8
0
  6
CONTINUOUS
 62
               7
100
AcDbLine
 10
62.549999998487237
 20
222.27559599012875
 30
0.0
 11
63.400000004229184
 21
222.34996135441099
 31
0.0
  0
LINE
  5
31
100
AcDbEntity
  8
0
  6
CONTINUOUS
 62
               7
100
AcDbLine
 10
62.549999998487067
 20
218.12432687362116
 30
0.0
 11
63.4000000042289
 21
218.04996150933886
 31
0.0
  0
LINE
  5
32
100
AcDbEntity
  8
0
  6
CONTINUOUS
 62
               7
100
AcDbLine
 10
62.549999976157949
 20
218.12432671393364
 30
0.0
 11
62.549999976157949
 21
222.27559614981624
 31
0.0
  0
ARC
  5
33
100
AcDbEntity
  8
0
  6
CONTINUOUS
 62
               7
100
AcDbCircle
 10
68.529655838012502
 20
220.19996143187473
 30
0.0
 40
6.3296561241149902
100
AcDbArc
 50
160.85729086486964
 51
199.14270731389303
  0
ARC
  5
34
100
AcDbEntity
  8
0
  6
CONTINUOUS
 62
               7
100
AcDbCircle
 10
63.39999999999975
 20
218.19995753539058
 30
0.0
 40
3.4999999999999996
100
AcDbArc
 50
107.58284247057495
 51
180.0
  0
LINE
  5
35
100
AcDbEntity
  8
0
  6
CONTINUOUS
 62
               7
100
AcDbLine
 10
63.89999999999975
 20
215.8999736389062
 30
0.0
 11
63.89999999999975
 21
221.4693913679684
 31
0.0
  0
ARC
  5
36
100
AcDbEntity
  8
0
  6
CONTINUOUS
 62
               7
100
AcDbCircle
 10
66.899999999999807
 20
221.46939136796851
 30
0.0
 40
3.4999999999999996
100
AcDbArc
 50
134.9685572354158
 51
179.99999999999997
  0
ARC
  5
37
100
AcDbEntity
  8
0
  6
CONTINUOUS
 62
               7
100
AcDbCircle
 10
66.899999999999807
 20
221.4693913679684
 30
0.0
 40
2.9999999999999996
100
AcDbArc
 50
134.96855723541546
 51
180.0
  0
ARC
  5
38
100
AcDbEntity
  8
0
  6
CONTINUOUS
 62
               7
100
AcDbCircle
 10
59.899999999999807
 20
216.69995753539058
 30
0.0
 40
1.0
100
AcDbArc
 50
90.0
 51
180.0
  0
LINE
  5
39
100
AcDbEntity
  8
0
  6
CONTINUOUS
 62
               7
100
AcDbLine
 10
59.899999999999807
 20
202.19995753539058
 30
0.0
 11
59.899999999999807
 21
218.19995753539058
 31
0.0
  0
LINE
  5
3A
100
AcDbEntity
  8
0
  6
CONTINUOUS
 62
               7
100
AcDbLine
 10
63.39999999999975
 20
222.34996135441099
 30
0.0
 11
63.39999999999975
 21
215.8999736389062
 31
0.0
  0
LINE
  5
3B
100
AcDbEntity
  8
0
  6
CONTINUOUS
 62
               7
100
AcDbLine
 10
64.999999999999829
 20
195.1999819494531
 30
0.0
 11
104.99999999999983
 21
195.1999819494531
 31
0.0
  0
LINE
  5
3C
100
AcDbEntity
  8
0
  6
CONTINUOUS
 62
               7
100
AcDbLine
 10
-60.478504180908374
 20
16.250001531545593
 30
0.0
 11
-62.978504180908374
 21
16.250001531545593
 31
0.0
  0
LINE
  5
3D
100
AcDbEntity
  8
0
  6
CONTINUOUS
 62
               7
100
AcDbLine
 10
-62.978504180908374
 20
16.250001531545593
 30
0.0
 11
-62.978504180908374
 21
13.350001531545558
 31
0.0
  0
LINE
  5
3E
100
AcDbEntity
  8
0
  6
CONTINUOUS
 62
               7
100
AcDbLine
 10
-62.978504180908374
 20
13.350001531545558
 30
0.0
 11
-82.978506088257006
 21
13.350001531545558
 31
0.0
  0
LINE
  5
3F
100
AcDbEntity
  8
0
  6
CONTINUOUS
 62
               7
100
AcDbLine
 10
-82.978506088257006
 20
16.250001531545593
 30
0.0
 11
-82.978506088257006
 21
13.350001531545558
 31
0.0
  0
LINE
  5
40
100
AcDbEntity
  8
0
  6
CONTINUOUS
 62
               7
100
AcDbLine
 10
-85.478506088257006
 20
16.250001531545593
 30
0.0
 11
-82.978506088257006
 21
16.250001531545593
 31
0.0
  0
ARC
  5
41
100
AcDbEntity
  8
0
  6
CONTINUOUS
 62
               7
100
AcDbCircle
 10
-85.478506088257006
 20
19.750001531545593
 30
0.0
 40
3.4999999999999996
100
AcDbArc
 50
90.0
 51
270.0
  0
LINE
  5
42
100
AcDbEntity
  8
0
  6
CONTINUOUS
 62
               7
100
AcDbLine
 10
-85.478506088257006
 20
23.250001531545593
 30
0.0
 11
-82.978506088257006
 21
23.250001531545593
 31
0.0
  0
LINE
  5
43
100
AcDbEntity
  8
0
  6
CONTINUOUS
 62
               7
100
AcDbLine
 10
-82.978506088257006
 20
25.750001531545593
 30
0.0
 11
-82.978506088257006
 21
23.250001531545593
 31
0.0
  0
LINE
  5
44
100
AcDbEntity
  8
0
  6
CONTINUOUS
 62
               7
100
AcDbLine
 10
-62.978504180908374
 20
25.750001531545593
 30
0.0
 11
-82.978506088257006
 21
25.750001531545593
 31
0.0
  0
LINE
  5
45
100
AcDbEntity
  8
0
  6
CONTINUOUS
 62
               7
100
AcDbLine
 10
-62.978504180908374
 20
25.750001531545593
 30
0.0
 11
-62.978504180908374
 21
23.250001531545593
 31
0.0
  0
LINE
  5
46
100
AcDbEntity
  8
0
  6
CONTINUOUS
 62
               7
100
AcDbLine
 10
-60.478504180908374
 20
23.250001531545593
 30
0.0
 11
-62.978504180908374
 21
23.250001531545593
 31
0.0
  0
ARC
  5
47
100
AcDbEntity
  8
0
  6
CONTINUOUS
 62
               7
100
AcDbCircle
 10
-60.478504180908374
 20
19.750001531545593
 30
0.0
 40
3.4999999999999996
100
AcDbArc
 50
270.0
 51
90.0
  0
LINE
  5
48
100
AcDbEntity
  8
0
  6
CONTINUOUS
 62
               7
100
AcDbLine
 10
49.005000953674084
 20
23.849981695119766
 30
0.0
 11
49.005000953674084
 21
11.849981695119823
 31
0.0
  0
LINE
  5
49
100
AcDbEntity
  8
0
  6
CONTINUOUS
 62
               7
100
AcDbLine
 10
88.004999999999825
 20
23.849981695119766
 30
0.0
 11
88.004999999999825
 21
11.849981695119823
 31
0.0
  0
LINE
  5
4A
100
AcDbEntity
  8
0
  6
CONTINUOUS
 62
               7
100
AcDbLine
 10
49.005000953674084
 20
11.849981695119823
 30
0.0
 11
88.004999999999825
 21
11.849981695119823
 31
0.0
  0
LINE
  5
4B
100
AcDbEntity
  8
0
  6
CONTINUOUS
 62
               7
100
AcDbLine
 10
49.005000953674084
 20
23.849981695119766
 30
0.0
 11
88.004999999999825
 21
23.849981695119766
 31
0.0
  0
LINE
  5
4C
100
AcDbEntity
  8
0
  6
CONTINUOUS
 62
               7
100
AcDbLine
 10
61.999999999999602
 20
215.89999805296867
 30
0.0
 11
61.999999999999602
 21
202.49997363890617
 31
0.0
  0
LINE
  5
4D
100
AcDbEntity
  8
0
  6
CONTINUOUS
 62
               7
100
AcDbLine
 10
61.149999998487544
 20
215.27562040419127
 30
0.0
 11
62.000000004229321
 21
215.34998576847349
 31
0.0
  0
LINE
  5
4E
100
AcDbEntity
  8
0
  6
CONTINUOUS
 62
               7
100
AcDbLine
 10
61.14999999848709
 20
211.12435128768379
 30
0.0
 11
62.000000004228752
 21
211.04998592340147
 31
0.0
  0
LINE
  5
4F
100
AcDbEntity
  8
0
  6
CONTINUOUS
 62
               7
100
AcDbLine
 10
61.149999976157858
 20
211.12435112799631
 30
0.0
 11
61.149999976158313
 21
215.27562056387876
 31
0.0
  0
LINE
  5
50
100
AcDbEntity
  8
0
  6
CONTINUOUS
 62
               7
100
AcDbLine
 10
61.149999998487544
 20
207.27562040419116
 30
0.0
 11
62.000000004229321
 21
207.34998576847354
 31
0.0
  0
LINE
  5
51
100
AcDbEntity
  8
0
  6
CONTINUOUS
 62
               7
100
AcDbLine
 10
61.14999999848709
 20
203.12435128768374
 30
0.0
 11
62.000000004228752
 21
203.04998592340138
 31
0.0
  0
LINE
  5
52
100
AcDbEntity
  8
0
  6
CONTINUOUS
 62
               7
100
AcDbLine
 10
61.149999976157858
 20
203.12435112799619
 30
0.0
 11
61.149999976158313
 21
207.2756205638789
 31
0.0
  0
ARC
  5
53
100
AcDbEntity
  8
0
  6
CONTINUOUS
 62
               7
100
AcDbCircle
 10
67.129655838012582
 20
213.19998584593711
 30
0.0
 40
6.3296561241149902
100
AcDbArc
 50
160.85729086486762
 51
199.14270731389101
  0
ARC
  5
54
100
AcDbEntity
  8
0
  6
CONTINUOUS
 62
               7
100
AcDbCircle
 10
67.129655838012582
 20
205.19998584593716
 30
0.0
 40
6.3296561241149902
100
AcDbArc
 50
160.85729086486762
 51
199.14270731389101
  0
LINE
  5
55
100
AcDbEntity
  8
0
  6
CONTINUOUS
 62
               7
100
AcDbLine
 10
65.999999999999829
 20
215.89999805296867
 30
0.0
 11
61.999999999999602
 21
215.89999805296867
 31
0.0
  0
LINE
  5
56
100
AcDbEntity
  8
0
  6
CONTINUOUS
 62
               7
100
AcDbLine
 10
65.999999999999829
 20
202.49997363890617
 30
0.0
 11
61.999999999999602
 21
202.49997363890617
 31
0.0
  0
ARC
  5
57
100
AcDbEntity
  8
0
  6
CONTINUOUS
 62
               7
100
AcDbCircle
 10
98.870361328124773
 20
206.1999819494531
 30
0.0
 40
6.3296561241149902
100
AcDbArc
 50
340.85729006794099
 51
19.142706516964399
  0
ARC
  5
58
100
AcDbEntity
  8
0
  6
CONTINUOUS
 62
               7
100
AcDbCircle
 10
98.870361328124773
 20
220.19998194945308
 30
0.0
 40
6.3296561241149902
100
AcDbArc
 50
340.85729006794099
 51
19.142706516964399
  0
ARC
  5
59
100
AcDbEntity
  8
0
  6
CONTINUOUS
 62
               7
100
AcDbCircle
 10
96.499999999999829
 20
227.1999819494531
 30
0.0
 40
2.4000000953674316
100
AcDbArc
 50
331.17621921195268
 51
163.04248945089057
  0
ARC
  5
5A
100
AcDbEntity
  8
0
  6
CONTINUOUS
 62
               7
100
AcDbCircle
 10
73.499999999999829
 20
227.1999819494531
 30
0.0
 40
2.4000000953674316
100
AcDbArc
 50
16.957513850518463
 51
208.82378579700367
  0
ARC
  5
5B
100
AcDbEntity
  8
0
  6
CONTINUOUS
 62
               7
100
AcDbCircle
 10
100.99999999999983
 20
201.1999819494531
 30
0.0
 40
2.9999999999999996
100
AcDbArc
 50
269.99999749552182
 51
0.0
  0
ARC
  5
5C
100
AcDbEntity
  8
0
  6
CONTINUOUS
 62
               7
100
AcDbCircle
 10
97.999999999999773
 20
228.6999819494531
 30
0.0
 40
2.0
100
AcDbArc
 50
60.000001669652114
 51
90.000002504478161
  0
ARC
  5
5D
100
AcDbEntity
  8
0
  6
CONTINUOUS
 62
               7
100
AcDbCircle
 10
71.999999999999886
 20
228.6999819494531
 30
0.0
 40
2.0
100
AcDbArc
 50
90.000002504478161
 51
120.00000333930423
  0
ARC
  5
5E
100
AcDbEntity
  8
0
  6
CONTINUOUS
 62
               7
100
AcDbCircle
 10
95.792907714843579
 20
225.59997584593748
 30
0.0
 40
2.2999999523162842
100
AcDbArc
 50
45.00000125223908
 51
90.000002504478161
  0
ARC
  5
5F
100
AcDbEntity
  8
0
  6
CONTINUOUS
 62
               7
100
AcDbCircle
 10
69.499999999999886
 20
219.19580104124995
 30
0.0
 40
3.4999999999999996
100
AcDbArc
 50
135.00000034162267
 51
180.00000500895632
  0
ARC
  5
60
100
AcDbEntity
  8
0
  6
CONTINUOUS
 62
               7
100
AcDbCircle
 10
100.49999999999977
 20
219.19580104124995
 30
0.0
 40
3.4999999999999996
100
AcDbArc
 50
0.0000000000000509
 51
45.00000125223908
  0
ARC
  5
61
100
AcDbEntity
  8
0
  6
CONTINUOUS
 62
               7
100
AcDbCircle
 10
74.207092285156079
 20
225.59997584593748
 30
0.0
 40
2.2999999523162842
100
AcDbArc
 50
90.000002504478161
 51
135.00000034162267
  0
ARC
  5
62
100
AcDbEntity
  8
0
  6
CONTINUOUS
 62
               7
100
AcDbCircle
 10
68.999999999999829
 20
201.1999819494531
 30
0.0
 40
2.9999999999999996
100
AcDbArc
 50
179.99999499104368
 51
269.99999749552182
  0
ARC
  5
63
100
AcDbEntity
  8
0
  6
CONTINUOUS
 62
               7
100
AcDbCircle
 10
97.999999999999773
 20
228.6999819494531
 30
0.0
 40
1.4999999999999998
100
AcDbArc
 50
45.00000125223908
 51
90.000002504478161
  0
ARC
  5
64
100
AcDbEntity
  8
0
  6
CONTINUOUS
 62
               7
100
AcDbCircle
 10
103.49999999999983
 20
231.19995143187498
 30
0.0
 40
0.5
100
AcDbArc
 50
7.4208451464152363
 51
90.000002504478161
  0
ARC
  5
65
100
AcDbEntity
  8
0
  6
CONTINUOUS
 62
               7
100
AcDbCircle
 10
71.999999999999886
 20
228.6999819494531
 30
0.0
 40
1.4999999999999998
100
AcDbArc
 50
90.000002504478161
 51
135.00000034162267
  0
ARC
  5
66
100
AcDbEntity
  8
0
  6
CONTINUOUS
 62
               7
100
AcDbCircle
 10
99.499999999999886
 20
231.19995143187498
 30
0.0
 40
0.5
100
AcDbArc
 50
90.000002504478161
 51
180.00000500895632
  0
ARC
  5
67
100
AcDbEntity
  8
0
  6
CONTINUOUS
 62
               7
100
AcDbCircle
 10
70.499999999999773
 20
231.19995143187498
 30
0.0
 40
0.5
100
AcDbArc
 50
0.0
 51
90.000002504478161
  0
ARC
  5
68
100
AcDbEntity
  8
0
  6
CONTINUOUS
 62
               7
100
AcDbCircle
 10
66.499999999999829
 20
231.19995143187498
 30
0.0
 40
0.5
100
AcDbArc
 50
89.999995674288996
 51
172.57915473989922
  0
CIRCLE
  5
69
100
AcDbEntity
  8
0
  6
CONTINUOUS
 62
               7
100
AcDbCircle
 10
73.499999999999829
 20
258.69995143187498
 30
0.0
 40
2.0750000476837158
  0
CIRCLE
  5
6A
100
AcDbEntity
  8
0
  6
CONTINUOUS
 62
               7
100
AcDbCircle
 10
73.499999999999829
 20
258.69995143187498
 30
0.0
 40
2.1500000953674316
  0
CIRCLE
  5
6B
100
AcDbEntity
  8
0
  6
CONTINUOUS
 62
               7
100
AcDbCircle
 10
73.499999999999829
 20
244.69995143187498
 30
0.0
 40
2.0750000476837158
  0
CIRCLE
  5
6C
100
AcDbEntity
  8
0
  6
CONTINUOUS
 62
               7
100
AcDbCircle
 10
73.499999999999829
 20
244.69995143187498
 30
0.0
 40
2.1500000953674316
  0
ARC
  5
6D
100
AcDbEntity
  8
0
  6
CONTINUOUS
 62
               7
100
AcDbCircle
 10
-101.45025634765642
 20
261.39996363890623
 30
0.0
 40
5.0
100
AcDbArc
 50
90.000002504478161
 51
140.58004632746963
  0
ARC
  5
6E
100
AcDbEntity
  8
0
  6
CONTINUOUS
 62
               7
100
AcDbCircle
 10
-57.000000000000142
 20
248.69995143187498
 30
0.0
 40
50.0
100
AcDbArc
 50
161.77401403899248
 51
191.03970806633964
  0
ARC
  5
6F
100
AcDbEntity
  8
0
  6
CONTINUOUS
 62
               7
100
AcDbCircle
 10
-104.02777099609392
 20
242.69995143187498
 30
0.0
 40
5.9999999999999991
100
AcDbArc
 50
198.4084749552519
 51
269.99999749552182
  0
ARC
  5
70
100
AcDbEntity
  8
0
  6
CONTINUOUS
 62
               7
100
AcDbCircle
 10
-103.13024902343767
 20
239.69995143187498
 30
0.0
 40
2.9999999999999996
100
AcDbArc
 50
191.03971170880533
 51
269.99999749552182
  0
ARC
  5
71
100
AcDbEntity
  8
0
  6
CONTINUOUS
 62
               7
100
AcDbCircle
 10
-86.000000000000171
 20
248.69995143187498
 30
0.0
 40
25.0
100
AcDbArc
 50
140.58004632746963
 51
198.40848497316458
  0
ARC
  5
72
100
AcDbEntity
  8
0
  6
CONTINUOUS
 62
               7
100
AcDbCircle
 10
-101.64202880859389
 20
263.39996363890623
 30
0.0
 40
2.9999999999999996
100
AcDbArc
 50
90.000002504478161
 51
161.77401403899248
  0
LINE
  5
73
100
AcDbEntity
  8
0
  6
CONTINUOUS
 62
               7
100
AcDbLine
 10
13.250045062584604
 20
228.70000126200557
 30
0.0
 11
12.750054352025245
 21
229.19999007599563
 31
0.0
  0
LINE
  5
74
100
AcDbEntity
  8
0
  6
CONTINUOUS
 62
               7
100
AcDbLine
 10
12.749999999999829
 20
231.69995143187498
 30
0.0
 11
12.749999999999829
 21
229.19995143187498
 31
0.0
  0
LINE
  5
75
100
AcDbEntity
  8
0
  6
CONTINUOUS
 62
               7
100
AcDbLine
 10
18.249999999999829
 20
229.19995143187498
 30
0.0
 11
12.749999999999829
 21
229.19995143187498
 31
0.0
  0
LINE
  5
76
100
AcDbEntity
  8
0
  6
CONTINUOUS
 62
               7
100
AcDbLine
 10
18.250009102606612
 20
229.19995179709895
 30
0.0
 11
17.750018392047252
 21
228.69996298310889
 31
0.0
  0
LINE
  5
77
100
AcDbEntity
  8
0
  6
CONTINUOUS
 62
               7
100
AcDbLine
 10
18.249999999999829
 20
229.19995143187498
 30
0.0
 11
18.249999999999829
 21
231.69995143187498
 31
0.0
  0
LINE
  5
78
100
AcDbEntity
  8
0
  6
CONTINUOUS
 62
               7
100
AcDbLine
 10
17.749999999999829
 20
228.69995143187498
 30
0.0
 11
13.249999999999829
 21
228.69995143187498
 31
0.0
  0
LINE
  5
79
100
AcDbEntity
  8
0
  6
CONTINUOUS
 62
               7
100
AcDbLine
 10
43.250035016466256
 20
228.69997184348267
 30
0.0
 11
42.750022726679049
 21
229.19998223661878
 31
0.0
  0
LINE
  5
7A
100
AcDbEntity
  8
0
  6
CONTINUOUS
 62
               7
100
AcDbLine
 10
42.749999999999829
 20
231.69995143187498
 30
0.0
 11
42.749999999999829
 21
229.19995143187498
 31
0.0
  0
LINE
  5
7B
100
AcDbEntity
  8
0
  6
CONTINUOUS
 62
               7
100
AcDbLine
 10
48.249999999999886
 20
229.19995143187498
 30
0.0
 11
42.749999999999829
 21
229.19995143187498
 31
0.0
  0
LINE
  5
7C
100
AcDbEntity
  8
0
  6
CONTINUOUS
 62
               7
100
AcDbLine
 10
48.249999056488207
 20
229.19998121562185
 30
0.0
 11
47.750008345928848
 21
228.69999240163179
 31
0.0
  0
LINE
  5
7D
100
AcDbEntity
  8
0
  6
CONTINUOUS
 62
               7
100
AcDbLine
 10
48.249999999999886
 20
229.19995143187498
 30
0.0
 11
48.249999999999886
 21
231.69995143187498
 31
0.0
  0
LINE
  5
7E
100
AcDbEntity
  8
0
  6
CONTINUOUS
 62
               7
100
AcDbLine
 10
47.749999999999829
 20
228.69995143187498
 30
0.0
 11
43.249999999999886
 21
228.69995143187498
 31
0.0
  0
LINE
  5
7F
100
AcDbEntity
  8
0
  6
CONTINUOUS
 62
               7
100
AcDbLine
 10
69.999999999999829
 20
249.89996363890623
 30
0.0
 11
-99.000000000000171
 21
249.89996363890623
 31
0.0
  0
LINE
  5
80
100
AcDbEntity
  8
0
  6
CONTINUOUS
 62
               7
100
AcDbLine
 10
69.999999999999829
 20
246.49996974242183
 30
0.0
 11
-99.000000000000171
 21
246.49996974242183
 31
0.0
  0
LINE
  5
81
100
AcDbEntity
  8
0
  6
CONTINUOUS
 62
               7
100
AcDbLine
 10
104.84997558593727
 20
208.27560450804685
 30
0.0
 11
104.84997558593727
 21
204.12432887328123
 31
0.0
  0
LINE
  5
82
100
AcDbEntity
  8
0
  6
CONTINUOUS
 62
               7
100
AcDbLine
 10
104.85001881611862
 20
208.27558720553043
 30
0.0
 11
103.99999426842879
 21
208.34995471695493
 31
0.0
  0
LINE
  5
83
100
AcDbEntity
  8
0
  6
CONTINUOUS
 62
               7
100
AcDbLine
 10
104.85007153451329
 20
204.12435448129051
 30
0.0
 11
104.00004698682346
 21
204.04998696986601
 31
0.0
  0
LINE
  5
84
100
AcDbEntity
  8
0
  6
CONTINUOUS
 62
               7
100
AcDbLine
 10
104.84997558593727
 20
222.27560450804685
 30
0.0
 11
104.84997558593727
 21
218.1243288732812
 31
0.0
  0
LINE
  5
85
100
AcDbEntity
  8
0
  6
CONTINUOUS
 62
               7
100
AcDbLine
 10
104.85004979592378
 20
222.27563657364226
 30
0.0
 11
104.00002524823395
 21
222.35000408506676
 31
0.0
  0
LINE
  5
86
100
AcDbEntity
  8
0
  6
CONTINUOUS
 62
               7
100
AcDbLine
 10
104.84998507137226
 20
218.12433772693748
 30
0.0
 11
104.00008212948325
 21
218.04998085464194
 31
0.0
  0
LINE
  5
87
100
AcDbEntity
  8
0
  6
CONTINUOUS
 62
               7
100
AcDbLine
 10
97.999999999999773
 20
230.6999819494531
 30
0.0
 11
71.999999999999886
 21
230.6999819494531
 31
0.0
  0
LINE
  5
88
100
AcDbEntity
  8
0
  6
CONTINUOUS
 62
               7
100
AcDbLine
 10
67.025101282395326
 20
221.67066602242176
 30
0.0
 11
72.580749052414717
 21
227.22631379244103
 31
0.0
  0
LINE
  5
89
100
AcDbEntity
  8
0
  6
CONTINUOUS
 62
               7
100
AcDbLine
 10
102.97483841689223
 20
221.67064444323569
 30
0.0
 11
97.419212226059074
 21
227.2262706340689
 31
0.0
  0
LINE
  5
8A
100
AcDbEntity
  8
0
  6
CONTINUOUS
 62
               7
100
AcDbLine
 10
70.999999999999829
 20
231.19995143187498
 30
0.0
 11
70.999999999999829
 21
225.64553859007808
 31
0.0
  0
LINE
  5
8B
100
AcDbEntity
  8
0
  6
CONTINUOUS
 62
               7
100
AcDbLine
 10
95.792907714843579
 20
227.89996363890623
 30
0.0
 11
74.207092285156079
 21
227.89996363890623
 31
0.0
  0
LINE
  5
8C
100
AcDbEntity
  8
0
  6
CONTINUOUS
 62
               7
100
AcDbLine
 10
97.999999999999773
 20
230.1999819494531
 30
0.0
 11
71.999999999999886
 21
230.1999819494531
 31
0.0
  0
LINE
  5
8D
100
AcDbEntity
  8
0
  6
CONTINUOUS
 62
               7
100
AcDbLine
 10
98.999999999999829
 20
231.19995143187498
 30
0.0
 11
98.999999999999829
 21
225.64553859007808
 31
0.0
  0
LINE
  5
8E
100
AcDbEntity
  8
0
  6
CONTINUOUS
 62
               7
100
AcDbLine
 10
-103.00000000000017
 20
250.69995143187495
 30
0.0
 11
-103.00000000000017
 21
250.19995143187498
 31
0.0
  0
LINE
  5
8F
100
AcDbEntity
  8
0
  6
CONTINUOUS
 62
               7
100
AcDbLine
 10
-99.000000000000171
 20
250.19995143187498
 30
0.0
 11
-103.00000000000017
 21
250.19995143187498
 31
0.0
  0
LINE
  5
90
100
AcDbEntity
  8
0
  6
CONTINUOUS
 62
               7
100
AcDbLine
 10
-99.000000000000171
 20
256.19995143187498
 30
0.0
 11
-103.00000000000017
 21
256.19995143187498
 31
0.0
  0
LINE
  5
91
100
AcDbEntity
  8
0
  6
CONTINUOUS
 62
               7
100
AcDbLine
 10
-103.00000000000017
 20
256.19995143187498
 30
0.0
 11
-103.00000000000017
 21
255.69995143187495
 31
0.0
  0
LINE
  5
92
100
AcDbEntity
  8
0
  6
CONTINUOUS
 62
               7
100
AcDbLine
 10
-99.000000000000171
 20
255.69995143187495
 30
0.0
 11
-103.00000000000017
 21
255.69995143187495
 31
0.0
  0
LINE
  5
93
100
AcDbEntity
  8
0
  6
CONTINUOUS
 62
               7
100
AcDbLine
 10
-99.000000000000171
 20
250.69995143187495
 30
0.0
 11
-103.00000000000017
 21
250.69995143187495
 31
0.0
  0
LINE
  5
94
100
AcDbEntity
  8
0
  6
CONTINUOUS
 62
               7
100
AcDbLine
 10
-99.000000000000171
 20
266.39996363890623
 30
0.0
 11
-101.45025634765642
 21
266.39996363890623
 31
0.0
  0
LINE
  5
95
100
AcDbEntity
  8
0
  6
CONTINUOUS
 62
               7
100
AcDbLine
 10
6.9999999999998295
 20
262.56445338499998
 30
0.0
 11
-99.000000000000171
 21
262.56445338499998
 31
0.0
  0
LINE
  5
96
100
AcDbEntity
  8
0
  6
CONTINUOUS
 62
               7
100
AcDbLine
 10
147.99999999999983
 20
236.69995143187498
 30
0.0
 11
-104.02777099609392
 21
236.69995143187498
 31
0.0
  0
LINE
  5
97
100
AcDbEntity
  8
0
  6
CONTINUOUS
 62
               7
100
AcDbLine
 10
48.999999999999829
 20
270.19995143187498
 30
0.0
 11
6.9999999999998295
 21
270.19995143187498
 31
0.0
  0
LINE
  5
98
100
AcDbEntity
  8
0
  6
CONTINUOUS
 62
               7
100
AcDbLine
 10
69.999999999999829
 20
257.69995143187498
 30
0.0
 11
-99.000000000000171
 21
257.69995143187498
 31
0.0
  0
LINE
  5
99
100
AcDbEntity
  8
0
  6
CONTINUOUS
 62
               7
100
AcDbLine
 10
69.999999999999829
 20
269.19995143187498
 30
0.0
 11
69.999999999999829
 21
236.69995143187498
 31
0.0
  0
LINE
  5
9A
100
AcDbEntity
  8
0
  6
CONTINUOUS
 62
               7
100
AcDbLine
 10
69.999999999999829
 20
259.64636256468748
 30
0.0
 11
48.999999999999829
 21
259.64636256468748
 31
0.0
  0
LINE
  5
9B
100
AcDbEntity
  8
0
  6
CONTINUOUS
 62
               7
100
AcDbLine
 10
69.999999999999829
 20
262.56445338499998
 30
0.0
 11
48.999999999999829
 21
262.56445338499998
 31
0.0
  0
LINE
  5
9C
100
AcDbEntity
  8
0
  6
CONTINUOUS
 62
               7
100
AcDbLine
 10
6.9999999999998295
 20
270.19995143187498
 30
0.0
 11
6.9999999999998295
 21
258.59997584593748
 31
0.0
  0
LINE
  5
9D
100
AcDbEntity
  8
0
  6
CONTINUOUS
 62
               7
100
AcDbLine
 10
6.9999999999998295
 20
265.09997584593748
 30
0.0
 11
-99.000000000000171
 21
265.09997584593748
 31
0.0
  0
LINE
  5
9E
100
AcDbEntity
  8
0
  6
CONTINUOUS
 62
               7
100
AcDbLine
 10
69.999999999999829
 20
265.09997584593748
 30
0.0
 11
48.999999999999829
 21
265.09997584593748
 31
0.0
  0
LINE
  5
9F
100
AcDbEntity
  8
0
  6
CONTINUOUS
 62
               7
100
AcDbLine
 10
-99.000000000000171
 20
266.39996363890623
 30
0.0
 11
-99.000000000000171
 21
236.69995143187498
 31
0.0
  0
LINE
  5
A0
100
AcDbEntity
  8
0
  6
CONTINUOUS
 62
               7
100
AcDbLine
 10
147.99999999999983
 20
269.19995143187498
 30
0.0
 11
69.999999999999829
 21
269.19995143187498
 31
0.0
  0
LINE
  5
A1
100
AcDbEntity
  8
0
  6
CONTINUOUS
 62
               7
100
AcDbLine
 10
147.99999999999983
 20
269.19995143187498
 30
0.0
 11
147.99999999999983
 21
236.69995143187498
 31
0.0
  0
LINE
  5
A2
100
AcDbEntity
  8
0
  6
CONTINUOUS
 62
               2
100
AcDbLine
 10
40.999999999999829
 20
272.31408717406248
 30
0.0
 11
40.999999999999829
 21
265.6305764571224
 31
0.0
  0
LINE
  5
A3
100
AcDbEntity
  8
0
  6
CONTINUOUS
 62
               7
100
AcDbLine
 10
147.06762695312483
 20
264.02838160765623
 30
0.0
 11
70.742919921874773
 21
264.02838160765623
 31
0.0
  0
LINE
  5
A4
100
AcDbEntity
  8
0
  6
CONTINUOUS
 62
               7
100
AcDbLine
 10
48.999999999999829
 20
258.59997584593748
 30
0.0
 11
6.9999999999998295
 21
258.59997584593748
 31
0.0
  0
LINE
  5
A5
100
AcDbEntity
  8
0
  6
CONTINUOUS
 62
               7
100
AcDbLine
 10
48.999999999999829
 20
270.19995143187498
 30
0.0
 11
48.999999999999829
 21
258.59997584593748
 31
0.0
  0
LINE
  5
A6
100
AcDbEntity
  8
0
  6
CONTINUOUS
 62
               7
100
AcDbLine
 10
6.9999999999998295
 20
259.64636256468748
 30
0.0
 11
-99.000000000000171
 21
259.64636256468748
 31
0.0
  0
LINE
  5
A7
100
AcDbEntity
  8
0
  6
CONTINUOUS
 62
               2
100
AcDbLine
 10
14.999999999999829
 20
272.31408717406248
 30
0.0
 11
14.999999999999829
 21
265.6305764571224
 31
0.0
  0
LINE
  5
A8
100
AcDbEntity
  8
0
  6
CONTINUOUS
 62
               2
100
AcDbLine
 10
45.499999999999773
 20
234.26928043496494
 30
0.0
 11
45.499999999999773
 21
226.94401421081136
 31
0.0
  0
LINE
  5
A9
100
AcDbEntity
  8
0
  6
CONTINUOUS
 62
               2
100
AcDbLine
 10
15.499999999999773
 20
234.26928043496494
 30
0.0
 11
15.499999999999773
 21
226.94401421081136
 31
0.0
  0
LINE
  5
AA
100
AcDbEntity
  8
0
  6
CONTINUOUS
 62
               7
100
AcDbLine
 10
5.4999999999997726
 20
236.69995143187498
 30
0.0
 11
5.4999999999997726
 21
231.69995143187498
 31
0.0
  0
LINE
  5
AB
100
AcDbEntity
  8
0
  6
CONTINUOUS
 62
               2
100
AcDbLine
 10
68.499999999999829
 20
235.41385328248896
 30
0.0
 11
68.499999999999829
 21
229.23315990585937
 31
0.0
  0
LINE
  5
AC
100
AcDbEntity
  8
0
  6
CONTINUOUS
 62
               7
100
AcDbLine
 10
105.49999999999977
 20
236.69995143187498
 30
0.0
 11
105.49999999999977
 21
231.69995143187498
 31
0.0
  0
LINE
  5
AD
100
AcDbEntity
  8
0
  6
CONTINUOUS
 62
               2
100
AcDbLine
 10
101.49999999999983
 20
235.41385328248896
 30
0.0
 11
101.49999999999983
 21
229.23315990585937
 31
0.0
  0
LINE
  5
AE
100
AcDbEntity
  8
0
  6
CONTINUOUS
 62
               7
100
AcDbLine
 10
5.4999999999997726
 20
231.69995143187498
 30
0.0
 11
105.49999999999977
 21
231.69995143187498
 31
0.0
  0
LINE
  5
AF
100
AcDbEntity
  8
0
  6
CONTINUOUS
 62
               7
100
AcDbLine
 10
97.150024414062329
 20
188.1999819494531
 30
0.0
 11
97.150024414062329
 21
78.199981949453104
 31
0.0
  0
LINE
  5
B0
100
AcDbEntity
  8
0
  6
CONTINUOUS
 62
               7
100
AcDbLine
 10
92.849975585937329
 20
188.1999819494531
 30
0.0
 11
92.849975585937329
 21
78.199981949453104
 31
0.0
  0
LINE
  5
B1
100
AcDbEntity
  8
0
  6
CONTINUOUS
 62
               7
100
AcDbLine
 10
77.150024414062329
 20
188.1999819494531
 30
0.0
 11
77.150024414062329
 21
78.199981949453104
 31
0.0
  0
LINE
  5
B2
100
AcDbEntity
  8
0
  6
CONTINUOUS
 62
               7
100
AcDbLine
 10
72.849975585937329
 20
188.1999819494531
 30
0.0
 11
72.849975585937329
 21
78.199981949453104
 31
0.0
  0
LINE
  5
B3
100
AcDbEntity
  8
0
  6
CONTINUOUS
 62
               7
100
AcDbLine
 10
64.999999999999829
 20
188.1999819494531
 30
0.0
 11
104.99999999999983
 21
188.1999819494531
 31
0.0
  0
LINE
  5
B4
100
AcDbEntity
  8
0
  6
CONTINUOUS
 62
               7
100
AcDbLine
 10
104.99999999999983
 20
78.199981949453104
 30
0.0
 11
104.99999999999983
 21
198.1999819494531
 31
0.0
  0
LINE
  5
B5
100
AcDbEntity
  8
0
  6
CONTINUOUS
 62
               7
100
AcDbLine
 10
64.999999999999829
 20
78.199981949453104
 30
0.0
 11
64.999999999999829
 21
198.1999819494531
 31
0.0
  0
LINE
  5
B6
100
AcDbEntity
  8
0
  6
CONTINUOUS
 62
               7
100
AcDbLine
 10
63.39999999999975
 20
198.1999819494531
 30
0.0
 11
104.99999999999983
 21
198.1999819494531
 31
0.0
  0
LINE
  5
B7
100
AcDbEntity
  8
0
  6
CONTINUOUS
 62
               7
100
AcDbLine
 10
65.999999999999829
 20
231.19995143187498
 30
0.0
 11
65.999999999999829
 21
198.1999819494531
 31
0.0
  0
LINE
  5
B8
100
AcDbEntity
  8
0
  6
CONTINUOUS
 62
               7
100
AcDbLine
 10
103.99999999999983
 20
231.19995143187498
 30
0.0
 11
103.99999999999983
 21
198.1999819494531
 31
0.0
  0
LINE
  5
B9
100
AcDbEntity
  8
0
  6
CONTINUOUS
 62
               2
100
AcDbLine
 10
27.999999999999829
 20
229.89905514671281
 30
0.0
 11
27.999999999999829
 21
275.99389797778554
 31
0.0
  0
LINE
  5
BA
100
AcDbEntity
  8
0
  6
CONTINUOUS
 62
               2
100
AcDbLine
 10
-72.000000000000142
 20
229.89905514671281
 30
0.0
 11
-72.000000000000142
 21
275.99389797778554
 31
0.0
  0
LINE
  5
BB
100
AcDbEntity
  8
0
  6
CONTINUOUS
 62
               2
100
AcDbLine
 10
-0.0000000000001705
 20
96.08087135279834
 30
0.0
 11
-0.0000000000001705
 21
-10.596336438585638
 31
0.0
  0
ARC
  5
BC
100
AcDbEntity
  8
0
  6
CONTINUOUS
 62
               7
100
AcDbCircle
 10
50.000000166666609
 20
60.899963571239539
 30
0.0
 40
1.0000000033333334
100
AcDbArc
 50
179.99999499104368
 51
269.99999749552182
  0
ARC
  5
BD
100
AcDbEntity
  8
0
  6
CONTINUOUS
 62
               7
100
AcDbCircle
 10
80.000000266666518
 20
60.899963571239539
 30
0.0
 40
1.0000000033333334
100
AcDbArc
 50
269.99999749552182
 51
0.0
  0
ARC
  5
BE
100
AcDbEntity
  8
0
  6
CONTINUOUS
 62
               7
100
AcDbCircle
 10
80.000000266666518
 20
69.899963601239506
 30
0.0
 40
1.0000000033333334
100
AcDbArc
 50
0.0
 51
90.000002504478161
  0
ARC
  5
BF
100
AcDbEntity
  8
0
  6
CONTINUOUS
 62
               7
100
AcDbCircle
 10
50.000000166666609
 20
69.899963601239506
 30
0.0
 40
1.0000000033333334
100
AcDbArc
 50
90.000002504478161
 51
180.00000500895632
  0
ARC
  5
C0
100
AcDbEntity
  8
0
  6
CONTINUOUS
 62
               7
100
AcDbCircle
 10
-49.000000163333596
 20
71.39996360623951
 30
0.0
 40
1.0000000033333334
100
AcDbArc
 50
0.0
 51
90.000002504478161
  0
ARC
  5
C1
100
AcDbEntity
  8
0
  6
CONTINUOUS
 62
               7
100
AcDbCircle
 10
-49.000000163333596
 20
59.399963566239535
 30
0.0
 40
1.0000000033333334
100
AcDbArc
 50
269.99999749552182
 51
0.0
  0
ARC
  5
C2
100
AcDbEntity
  8
0
  6
CONTINUOUS
 62
               7
100
AcDbCircle
 10
-97.000000323333552
 20
59.399963566239535
 30
0.0
 40
1.0000000033333334
100
AcDbArc
 50
179.99999499104368
 51
269.99999749552182
  0
ARC
  5
C3
100
AcDbEntity
  8
0
  6
CONTINUOUS
 62
               7
100
AcDbCircle
 10
-97.000000323333552
 20
71.39996360623951
 30
0.0
 40
1.0000000033333334
100
AcDbArc
 50
90.000002504478161
 51
180.00000500895632
  0
ARC
  5
C4
100
AcDbEntity
  8
0
  6
CONTINUOUS
 62
               7
100
AcDbCircle
 10
48.000000159999729
 20
36.849975698104117
 30
0.0
 40
1.0000000033333334
100
AcDbArc
 50
179.99999499104368
 51
269.99999749552182
  0
CIRCLE
  5
C5
100
AcDbEntity
  8
0
  6
CONTINUOUS
 62
               7
100
AcDbCircle
 10
-36.000000120000209
 20
44.499969620088507
 30
0.0
 40
2.5999999132992344
  0
ARC
  5
C6
100
AcDbEntity
  8
0
  6
CONTINUOUS
 62
               7
100
AcDbCircle
 10
82.000000273333399
 20
49.349975739770798
 30
0.0
 40
1.0000000033333334
100
AcDbArc
 50
0.0
 51
90.000002504478161
  0
CIRCLE
  5
C7
100
AcDbEntity
  8
0
  6
CONTINUOUS
 62
               7
100
AcDbCircle
 10
-46.000000153333531
 20
44.499969620088507
 30
0.0
 40
2.5999999132992344
  0
ARC
  5
C8
100
AcDbEntity
  8
0
  6
CONTINUOUS
 62
               7
100
AcDbCircle
 10
48.000000159999729
 20
49.349975739770798
 30
0.0
 40
1.0000000033333334
100
AcDbArc
 50
90.000002504478161
 51
180.00000500895632
  0
ARC
  5
C9
100
AcDbEntity
  8
0
  6
CONTINUOUS
 62
               7
100
AcDbCircle
 10
-56.500000188333559
 20
36.499969593421838
 30
0.0
 40
1.0000000033333334
100
AcDbArc
 50
269.99999749552182
 51
0.0
  0
ARC
  5
CA
100
AcDbEntity
  8
0
  6
CONTINUOUS
 62
               7
100
AcDbCircle
 10
-89.500000298333589
 20
52.499969646755176
 30
0.0
 40
1.0000000033333334
100
AcDbArc
 50
90.000002504478161
 51
180.00000500895632
  0
ARC
  5
CB
100
AcDbEntity
  8
0
  6
CONTINUOUS
 62
               7
100
AcDbCircle
 10
-89.500000298333589
 20
36.499969593421838
 30
0.0
 40
1.0000000033333334
100
AcDbArc
 50
179.99999499104368
 51
269.99999749552182
  0
ARC
  5
CC
100
AcDbEntity
  8
0
  6
CONTINUOUS
 62
               7
100
AcDbCircle
 10
-56.500000188333559
 20
52.499969646755176
 30
0.0
 40
1.0000000033333334
100
AcDbArc
 50
0.0
 51
90.000002504478161
  0
ARC
  5
CD
100
AcDbEntity
  8
0
  6
CONTINUOUS
 62
               7
100
AcDbCircle
 10
82.000000273333399
 20
36.849975698104117
 30
0.0
 40
1.0000000033333334
100
AcDbArc
 50
269.99999749552182
 51
0.0
  0
ARC
  5
CE
100
AcDbEntity
  8
0
  6
CONTINUOUS
 62
               7
100
AcDbCircle
 10
-103.00000034333354
 20
32.399963476239463
 30
0.0
 40
2.0000000066666668
100
AcDbArc
 50
179.99999499104368
 51
269.99999749552182
  0
CIRCLE
  5
CF
100
AcDbEntity
  8
0
  6
CONTINUOUS
 62
               7
100
AcDbCircle
 10
-36.000000120000209
 20
44.499969620088507
 30
0.0
 40
2.0999999116325681
  0
ARC
  5
D0
100
AcDbEntity
  8
0
  6
CONTINUOUS
 62
               7
100
AcDbCircle
 10
103.00000034333306
 20
76.199981932786443
 30
0.0
 40
2.0000000066666668
100
AcDbArc
 50
0.0
 51
90.000002504478161
  0
CIRCLE
  5
D1
100
AcDbEntity
  8
0
  6
CONTINUOUS
 62
               7
100
AcDbCircle
 10
-46.000000153333531
 20
44.499969620088507
 30
0.0
 40
2.0999999116325681
  0
ARC
  5
D2
100
AcDbEntity
  8
0
  6
CONTINUOUS
 62
               7
100
AcDbCircle
 10
103.00000034333306
 20
32.399963476239463
 30
0.0
 40
2.0000000066666668
100
AcDbArc
 50
269.99999749552182
 51
0.0
  0
ARC
  5
D3
100
AcDbEntity
  8
0
  6
CONTINUOUS
 62
               7
100
AcDbCircle
 10
-103.00000034333354
 20
76.199981932786443
 30
0.0
 40
2.0000000066666668
100
AcDbArc
 50
90.000002504478161
 51
180.00000500895632
  0
ARC
  5
D4
100
AcDbEntity
  8
0
  6
CONTINUOUS
 62
               7
100
AcDbCircle
 10
-0.0000000000001705
 20
397.61569345339092
 30
0.0
 40
321.46008407934619
100
AcDbArc
 50
263.53482729513291
 51
276.46523860507483
  0
LINE
  5
D5
100
AcDbEntity
  8
0
  6
CONTINUOUS
 62
               7
100
AcDbLine
 10
49.000000163333084
 20
60.899963571239539
 30
0.0
 11
49.000000163333084
 21
69.899963601239506
 31
0.0
  0
LINE
  5
D6
100
AcDbEntity
  8
0
  6
CONTINUOUS
 62
               7
100
AcDbLine
 10
81.000000269999816
 20
60.899963571239539
 30
0.0
 11
81.000000269999816
 21
69.899963601239506
 31
0.0
  0
LINE
  5
D7
100
AcDbEntity
  8
0
  6
CONTINUOUS
 62
               7
100
AcDbLine
 10
80.000000266666518
 20
70.899963604572861
 30
0.0
 11
50.000000166666609
 21
70.899963604572861
 31
0.0
  0
LINE
  5
D8
100
AcDbEntity
  8
0
  6
CONTINUOUS
 62
               7
100
AcDbLine
 10
80.000000266666518
 20
59.899963567906127
 30
0.0
 11
50.000000166666609
 21
59.899963567906127
 31
0.0
  0
LINE
  5
D9
100
AcDbEntity
  8
0
  6
CONTINUOUS
 62
               7
100
AcDbLine
 10
-49.000000163333596
 20
72.399963609572808
 30
0.0
 11
-97.000000323333552
 21
72.399963609572808
 31
0.0
  0
LINE
  5
DA
100
AcDbEntity
  8
0
  6
CONTINUOUS
 62
               7
100
AcDbLine
 10
-49.000000163333596
 20
58.39996356290618
 30
0.0
 11
-97.000000323333552
 21
58.39996356290618
 31
0.0
  0
LINE
  5
DB
100
AcDbEntity
  8
0
  6
CONTINUOUS
 62
               7
100
AcDbLine
 10
-98.00000032666685
 20
59.399963566239535
 30
0.0
 11
-98.00000032666685
 21
71.39996360623951
 31
0.0
  0
LINE
  5
DC
100
AcDbEntity
  8
0
  6
CONTINUOUS
 62
               7
100
AcDbLine
 10
-48.000000160000297
 20
59.399963566239535
 30
0.0
 11
-48.000000160000297
 21
71.39996360623951
 31
0.0
  0
LINE
  5
DD
100
AcDbEntity
  8
0
  6
CONTINUOUS
 62
               7
100
AcDbLine
 10
47.000000156666317
 20
49.349975739770798
 30
0.0
 11
47.000000156666317
 21
36.849975698104117
 31
0.0
  0
LINE
  5
DE
100
AcDbEntity
  8
0
  6
CONTINUOUS
 62
               7
100
AcDbLine
 10
83.000000276666412
 20
49.349975739770798
 30
0.0
 11
83.000000276666412
 21
36.849975698104117
 31
0.0
  0
LINE
  5
DF
100
AcDbEntity
  8
0
  6
CONTINUOUS
 62
               7
100
AcDbLine
 10
82.000000273333399
 20
35.849975694770762
 30
0.0
 11
48.000000159999729
 21
35.849975694770762
 31
0.0
  0
LINE
  5
E0
100
AcDbEntity
  8
0
  6
CONTINUOUS
 62
               7
100
AcDbLine
 10
82.000000273333399
 20
50.349975743104153
 30
0.0
 11
48.000000159999729
 21
50.349975743104153
 31
0.0
  0
LINE
  5
E1
100
AcDbEntity
  8
0
  6
CONTINUOUS
 62
               7
100
AcDbLine
 10
-90.500000301666859
 20
52.499969646755176
 30
0.0
 11
-90.500000301666859
 21
36.499969593421838
 31
0.0
  0
LINE
  5
E2
100
AcDbEntity
  8
0
  6
CONTINUOUS
 62
               7
100
AcDbLine
 10
-56.500000188333559
 20
35.499969590088426
 30
0.0
 11
-89.500000298333589
 21
35.499969590088426
 31
0.0
  0
LINE
  5
E3
100
AcDbEntity
  8
0
  6
CONTINUOUS
 62
               7
100
AcDbLine
 10
-56.500000188333559
 20
53.499969650088417
 30
0.0
 11
-89.500000298333589
 21
53.499969650088417
 31
0.0
  0
LINE
  5
E4
100
AcDbEntity
  8
0
  6
CONTINUOUS
 62
               7
100
AcDbLine
 10
-55.500000185000317
 20
52.499969646755176
 30
0.0
 11
-55.500000185000317
 21
36.499969593421838
 31
0.0
  0
LINE
  5
E5
100
AcDbEntity
  8
0
  6
CONTINUOUS
 62
               7
100
AcDbLine
 10
-105.00000035000022
 20
4.1999816927864231
 30
0.0
 11
-105.00000035000022
 21
76.199981932786443
 31
0.0
  0
LINE
  5
E6
100
AcDbEntity
  8
0
  6
CONTINUOUS
 62
               7
100
AcDbLine
 10
36.196531523686076
 20
78.199981939453096
 30
0.0
 11
105.00000034999994
 21
78.199981939453096
 31
0.0
  0
LINE
  5
E7
100
AcDbEntity
  8
0
  6
CONTINUOUS
 62
               7
100
AcDbLine
 10
103.00000034333306
 20
30.39996346957281
 30
0.0
 11
-103.00000034333354
 21
30.39996346957281
 31
0.0
  0
LINE
  5
E8
100
AcDbEntity
  8
0
  6
CONTINUOUS
 62
               7
100
AcDbLine
 10
-25.000026331476306
 20
81.199973903750049
 30
0.0
 11
-36.196193676418943
 21
78.199969880204492
 31
0.0
  0
LINE
  5
E9
100
AcDbEntity
  8
0
  6
CONTINUOUS
 62
               7
100
AcDbLine
 10
-103.0000004307563
 20
78.199981939453096
 30
0.0
 11
-36.196167112841579
 21
78.199981939453096
 31
0.0
  0
LINE
  5
EA
100
AcDbEntity
  8
0
  6
CONTINUOUS
 62
               7
100
AcDbLine
 10
25.000026331475965
 20
81.199981949453104
 30
0.0
 11
-25.000000083333532
 21
81.199981949453104
 31
0.0
  0
LINE
  5
EB
100
AcDbEntity
  8
0
  6
CONTINUOUS
 62
               7
100
AcDbLine
 10
105.00000034999994
 20
4.1999816927864231
 30
0.0
 11
105.00000034999994
 21
76.199981932786443
 31
0.0
  0
LINE
  5
EC
100
AcDbEntity
  8
0
  6
CONTINUOUS
 62
               7
100
AcDbLine
 10
-56.500000188333559
 20
36.499969593421838
 30
0.0
 11
-89.500000298333589
 21
36.499969593421838
 31
0.0
  0
LINE
  5
ED
100
AcDbEntity
  8
0
  6
CONTINUOUS
 62
               7
100
AcDbLine
 10
-89.500000298333589
 20
52.499969646755176
 30
0.0
 11
-89.500000298333589
 21
36.499969593421838
 31
0.0
  0
LINE
  5
EE
100
AcDbEntity
  8
0
  6
CONTINUOUS
 62
               7
100
AcDbLine
 10
-56.500000188333559
 20
52.499969646755176
 30
0.0
 11
-89.500000298333589
 21
52.499969646755176
 31
0.0
  0
LINE
  5
EF
100
AcDbEntity
  8
0
  6
CONTINUOUS
 62
               7
100
AcDbLine
 10
82.000000273333399
 20
49.349975739770798
 30
0.0
 11
48.000000159999729
 21
49.349975739770798
 31
0.0
  0
LINE
  5
F0
100
AcDbEntity
  8
0
  6
CONTINUOUS
 62
               7
100
AcDbLine
 10
82.000000273333399
 20
36.849975698104117
 30
0.0
 11
48.000000159999729
 21
36.849975698104117
 31
0.0
  0
LINE
  5
F1
100
AcDbEntity
  8
0
  6
CONTINUOUS
 62
               7
100
AcDbLine
 10
48.000000159999729
 20
49.349975739770798
 30
0.0
 11
48.000000159999729
 21
36.849975698104117
 31
0.0
  0
LINE
  5
F2
100
AcDbEntity
  8
0
  6
CONTINUOUS
 62
               7
100
AcDbLine
 10
82.000000273333399
 20
49.349975739770798
 30
0.0
 11
82.000000273333399
 21
36.849975698104117
 31
0.0
  0
LINE
  5
F3
100
AcDbEntity
  8
0
  6
CONTINUOUS
 62
               7
100
AcDbLine
 10
102.30000034099987
 20
4.8999816951198341
 30
0.0
 11
-102.30000034100019
 21
4.8999816951198341
 31
0.0
  0
LINE
  5
F4
100
AcDbEntity
  8
0
  6
CONTINUOUS
 62
               7
100
AcDbLine
 10
-103.30000034433351
 20
5.8999816984530753
 30
0.0
 11
-103.30000034433351
 21
30.422591476319667
 31
0.0
  0
LINE
  5
F5
100
AcDbEntity
  8
0
  6
CONTINUOUS
 62
               7
100
AcDbLine
 10
103.30000034433328
 20
5.8999816984530753
 30
0.0
 11
103.30000034433328
 21
30.422591476319838
 31
0.0
  0
LINE
  5
F6
100
AcDbEntity
  8
0
  6
CONTINUOUS
 62
               7
100
AcDbLine
 10
104.00000034666641
 20
3.1999816894530682
 30
0.0
 11
80.000000266666518
 21
3.1999816894530682
 31
0.0
  0
LINE
  5
F7
100
AcDbEntity
  8
0
  6
CONTINUOUS
 62
               7
100
AcDbLine
 10
-106.30001200421518
 20
15.236241918837436
 30
0.0
 11
-105.00004598918031
 21
15.349974207789842
 31
0.0
  0
LINE
  5
F8
100
AcDbEntity
  8
0
  6
CONTINUOUS
 62
               7
100
AcDbLine
 10
-106.29998814730229
 20
9.1637176712463315
 30
0.0
 11
-106.29998814730229
 21
15.236257974691284
 31
0.0
  0
ARC
  5
F9
100
AcDbEntity
  8
0
  6
CONTINUOUS
 62
               7
100
AcDbCircle
 10
-98.917602868788066
 20
12.199972564179632
 30
0.0
 40
7.982419517422275
100
AcDbArc
 50
157.64345713842727
 51
202.35653921910705
  0
LINE
  5
FA
100
AcDbEntity
  8
0
  6
CONTINUOUS
 62
               7
100
AcDbLine
 10
-106.30000847503371
 20
9.16372612551163
 30
0.0
 11
-104.99998165709823
 21
9.0499885169946879
 31
0.0
  0
ARC
  5
FB
100
AcDbEntity
  8
0
  6
CONTINUOUS
 62
               7
100
AcDbCircle
 10
98.91760286878764
 20
12.199972564179632
 30
0.0
 40
7.982419517422275
100
AcDbArc
 50
337.64346078089295
 51
22.356542861572724
  0
LINE
  5
FC
100
AcDbEntity
  8
0
  6
CONTINUOUS
 62
               7
100
AcDbLine
 10
106.30001200421475
 20
15.236241918837436
 30
0.0
 11
105.00004598917985
 21
15.349974207789842
 31
0.0
  0
LINE
  5
FD
100
AcDbEntity
  8
0
  6
CONTINUOUS
 62
               7
100
AcDbLine
 10
106.30000847503317
 20
9.16372612551163
 30
0.0
 11
104.99998165709769
 21
9.0499885169946879
 31
0.0
  0
LINE
  5
FE
100
AcDbEntity
  8
0
  6
CONTINUOUS
 62
               7
100
AcDbLine
 10
106.29998814730186
 20
9.1637176712463315
 30
0.0
 11
106.29998814730186
 21
15.236257974691284
 31
0.0
  0
LINE
  5
FF
100
AcDbEntity
  8
0
  6
CONTINUOUS
 62
               7
100
AcDbLine
 10
80.000000266666518
 20
3.1999816894530682
 30
0.0
 11
80.000000266666518
 21
4.8999816951198341
 31
0.0
  0
LINE
  5
100
100
AcDbEntity
  8
0
  6
CONTINUOUS
 62
               7
100
AcDbLine
 10
-80.000000266666916
 20
3.1999816894530682
 30
0.0
 11
-80.000000266666916
 21
4.8999816951198341
 31
0.0
  0
LINE
  5
101
100
AcDbEntity
  8
0
  6
CONTINUOUS
 62
               7
100
AcDbLine
 10
-80.000000266666916
 20
3.1999816894530682
 30
0.0
 11
-104.00000034666692
 21
3.1999816894530682
 31
0.0
  0
ARC
  5
102
100
AcDbEntity
  8
0
  6
CONTINUOUS
 62
               7
100
AcDbCircle
 10
-102.30000034100019
 20
5.8999816984530753
 30
0.0
 40
1.0000000033333334
100
AcDbArc
 50
180.0
 51
270.0
  0
ARC
  5
103
100
AcDbEntity
  8
0
  6
CONTINUOUS
 62
               7
100
AcDbCircle
 10
-104.00000034666692
 20
4.1999816927864231
 30
0.0
 40
1.0000000033333334
100
AcDbArc
 50
180.0
 51
270.0
  0
ARC
  5
104
100
AcDbEntity
  8
0
  6
CONTINUOUS
 62
               7
100
AcDbCircle
 10
102.30000034099987
 20
5.8999816984530753
 30
0.0
 40
1.0000000033333334
100
AcDbArc
 50
270.0
 51
0.0
  0
ARC
  5
105
100
AcDbEntity
  8
0
  6
CONTINUOUS
 62
               7
100
AcDbCircle
 10
104.00000034666641
 20
4.1999816927864231
 30
0.0
 40
1.0000000033333334
100
AcDbArc
 50
270.0
 51
0.0
  0
LINE
  5
106
100
AcDbEntity
  8
0
  6
CONTINUOUS
 62
               7
100
AcDbLine
 10
25.000026331475965
 20
81.199973903750049
 30
0.0
 11
36.196193676418602
 21
78.199969880204492
 31
0.0
  0
LINE
  5
107
100
AcDbEntity
  8
0
  6
CONTINUOUS
 62
               7
100
AcDbLine
 10
-81.999999466666821
 20
0.0
 30
0.0
 11
-93.999999466666821
 21
0.0
 31
0.0
  0
LINE
  5
108
100
AcDbEntity
  8
0
  6
CONTINUOUS
 62
               7
100
AcDbLine
 10
-93.999999466666821
 20
0.0
 30
0.0
 11
-93.999999466666821
 21
3.1999816894530682
 31
0.0
  0
LINE
  5
109
100
AcDbEntity
  8
0
  6
CONTINUOUS
 62
               7
100
AcDbLine
 10
-81.999999466666821
 20
0.0
 30
0.0
 11
-81.999999466666821
 21
3.1999816894530682
 31
0.0
  0
LINE
  5
10A
100
AcDbEntity
  8
0
  6
CONTINUOUS
 62
               7
100
AcDbLine
 10
82.00000053333315
 20
0.0
 30
0.0
 11
82.00000053333315
 21
3.1999816894530682
 31
0.0
  0
LINE
  5
10B
100
AcDbEntity
  8
0
  6
CONTINUOUS
 62
               7
100
AcDbLine
 10
82.00000053333315
 20
0.0
 30
0.0
 11
94.000000533333207
 21
0.0
 31
0.0
  0
LINE
  5
10C
100
AcDbEntity
  8
0
  6
CONTINUOUS
 62
               7
100
AcDbLine
 10
94.000000533333207
 20
0.0
 30
0.0
 11
94.000000533333207
 21
3.1999816894530682
 31
0.0
  0
LINE
  5
10D
100
AcDbEntity
  8
0
  6
CONTINUOUS
 62
               2
100
AcDbLine
 10
72.43933982822
 20
257.63929126009515
 30
0.0
 11
74.560660171779659
 21
259.76061160365481
 31
0.0
  0
LINE
  5
10E
100
AcDbEntity
  8
0
  6
CONTINUOUS
 62
               2
100
AcDbLine
 10
74.560660171779659
 20
257.63929126009515
 30
0.0
 11
72.43933982822
 21
259.76061160365481
 31
0.0
  0
LINE
  5
10F
100
AcDbEntity
  8
0
  6
CONTINUOUS
 62
               2
100
AcDbLine
 10
72.43933982822
 20
243.63929126009515
 30
0.0
 11
74.560660171779659
 21
245.76061160365478
 31
0.0
  0
LINE
  5
110
100
AcDbEntity
  8
0
  6
CONTINUOUS
 62
               2
100
AcDbLine
 10
74.560660171779659
 20
243.63929126009515
 30
0.0
 11
72.43933982822
 21
245.76061160365481
 31
0.0
  0
ENDBLK
  5
111
100
AcDbEntity
  8
0
100
AcDbBlockEnd
  0
BLOCK
  5
112
100
AcDbEntity
  8
0
100
AcDbBlockBegin
  2
DTHB-CS2-2
 70
               0
 10
0.0
 20
0.0
 30
0.0
  3
DTHB-CS2-2
  1

  0
CIRCLE
  5
113
100
AcDbEntity
  8
0
  6
CONTINUOUS
 62
               7
100
AcDbCircle
 10
6.0000152787891352
 20
9.2000009019306503
 30
0.0
 40
3.1499999999999995
  0
CIRCLE
  5
114
100
AcDbEntity
  8
0
  6
CONTINUOUS
 62
               7
100
AcDbCircle
 10
148.50001575378917
 20
9.2000009019306503
 30
0.0
 40
3.1499999999999995
  0
CIRCLE
  5
115
100
AcDbEntity
  8
0
  6
CONTINUOUS
 62
               7
100
AcDbCircle
 10
291.00001622878926
 20
9.2000009019306503
 30
0.0
 40
3.1499999999999995
  0
LINE
  5
116
100
AcDbEntity
  8
0
  6
CONTINUOUS
 62
               7
100
AcDbLine
 10
0.0000152587891762
 20
3.2000122070311363
 30
0.0
 11
298.00001625212246
 21
3.2000122070311363
 31
0.0
  0
ARC
  5
117
100
AcDbEntity
  8
0
  6
CONTINUOUS
 62
               7
100
AcDbCircle
 10
304.58220011195363
 20
35.39999400381754
 30
0.0
 40
5.0000000166666672
100
AcDbArc
 50
269.99999749552182
 51
354.62440334723948
  0
ARC
  5
118
100
AcDbEntity
  8
0
  6
CONTINUOUS
 62
               7
100
AcDbCircle
 10
300.11418251893525
 20
33.399993997150943
 30
0.0
 40
3.0000000099999999
100
AcDbArc
 50
269.99999749552182
 51
355.14609020783729
  0
LINE
  5
119
100
AcDbEntity
  8
0
  6
CONTINUOUS
 62
               7
100
AcDbLine
 10
119.05001870738027
 20
21.250007045612961
 30
0.0
 11
110.95001257686471
 21
21.250007045612961
 31
0.0
  0
ARC
  5
11A
100
AcDbEntity
  8
0
  6
CONTINUOUS
 62
               7
100
AcDbCircle
 10
118.95002174688386
 20
20.200010093870787
 30
0.0
 40
1.0499969517421859
100
AcDbArc
 50
270.0
 51
90.0
  0
LINE
  5
11B
100
AcDbEntity
  8
0
  6
CONTINUOUS
 62
               7
100
AcDbLine
 10
110.95001257686471
 20
19.150013142128557
 30
0.0
 11
119.05001870738027
 21
19.150013142128557
 31
0.0
  0
ARC
  5
11C
100
AcDbEntity
  8
0
  6
CONTINUOUS
 62
               7
100
AcDbCircle
 10
111.05000953736112
 20
20.200010093870787
 30
0.0
 40
1.0499969517421859
100
AcDbArc
 50
90.0
 51
270.0
  0
LINE
  5
11D
100
AcDbEntity
  8
0
  6
CONTINUOUS
 62
               7
100
AcDbLine
 10
104.05001865738035
 20
21.250007045612961
 30
0.0
 11
95.950012526864782
 21
21.250007045612961
 31
0.0
  0
ARC
  5
11E
100
AcDbEntity
  8
0
  6
CONTINUOUS
 62
               7
100
AcDbCircle
 10
103.95002169688388
 20
20.200010093870787
 30
0.0
 40
1.0499969517421859
100
AcDbArc
 50
270.0
 51
90.0
  0
LINE
  5
11F
100
AcDbEntity
  8
0
  6
CONTINUOUS
 62
               7
100
AcDbLine
 10
95.950012526864782
 20
19.150013142128557
 30
0.0
 11
104.05001865738035
 21
19.150013142128557
 31
0.0
  0
ARC
  5
120
100
AcDbEntity
  8
0
  6
CONTINUOUS
 62
               7
100
AcDbCircle
 10
96.050009487361137
 20
20.200010093870787
 30
0.0
 40
1.0499969517421859
100
AcDbArc
 50
90.0
 51
270.0
  0
LINE
  5
121
100
AcDbEntity
  8
0
  6
CONTINUOUS
 62
               7
100
AcDbLine
 10
89.050018607380309
 20
21.250007045612961
 30
0.0
 11
80.950012476864629
 21
21.250007045612961
 31
0.0
  0
ARC
  5
122
100
AcDbEntity
  8
0
  6
CONTINUOUS
 62
               7
100
AcDbCircle
 10
88.950021646883897
 20
20.200010093870787
 30
0.0
 40
1.0499969517421859
100
AcDbArc
 50
270.0
 51
90.0
  0
LINE
  5
123
100
AcDbEntity
  8
0
  6
CONTINUOUS
 62
               7
100
AcDbLine
 10
80.950012476864629
 20
19.150013142128557
 30
0.0
 11
89.050018607380309
 21
19.150013142128557
 31
0.0
  0
ARC
  5
124
100
AcDbEntity
  8
0
  6
CONTINUOUS
 62
               7
100
AcDbCircle
 10
81.050009437361211
 20
20.200010093870787
 30
0.0
 40
1.0499969517421859
100
AcDbArc
 50
90.0
 51
270.0
  0
LINE
  5
125
100
AcDbEntity
  8
0
  6
CONTINUOUS
 62
               7
100
AcDbLine
 10
74.05001855738027
 20
21.250007045612961
 30
0.0
 11
65.950012426864703
 21
21.250007045612961
 31
0.0
  0
ARC
  5
126
100
AcDbEntity
  8
0
  6
CONTINUOUS
 62
               7
100
AcDbCircle
 10
73.950021596883857
 20
20.200010093870787
 30
0.0
 40
1.0499969517421859
100
AcDbArc
 50
270.0
 51
90.0
  0
LINE
  5
127
100
AcDbEntity
  8
0
  6
CONTINUOUS
 62
               7
100
AcDbLine
 10
65.950012426864703
 20
19.150013142128557
 30
0.0
 11
74.05001855738027
 21
19.150013142128557
 31
0.0
  0
ARC
  5
128
100
AcDbEntity
  8
0
  6
CONTINUOUS
 62
               7
100
AcDbCircle
 10
66.050009387361058
 20
20.200010093870787
 30
0.0
 40
1.0499969517421859
100
AcDbArc
 50
90.0
 51
270.0
  0
LINE
  5
129
100
AcDbEntity
  8
0
  6
CONTINUOUS
 62
               7
100
AcDbLine
 10
81.550018582380289
 20
26.250007062279622
 30
0.0
 11
73.450012451864666
 21
26.250007062279622
 31
0.0
  0
ARC
  5
12A
100
AcDbEntity
  8
0
  6
CONTINUOUS
 62
               7
100
AcDbCircle
 10
81.450021621883877
 20
25.200010110537448
 30
0.0
 40
1.0499969517421859
100
AcDbArc
 50
270.0
 51
90.0
  0
LINE
  5
12B
100
AcDbEntity
  8
0
  6
CONTINUOUS
 62
               7
100
AcDbLine
 10
73.450012451864666
 20
24.150013158795275
 30
0.0
 11
81.550018582380289
 21
24.150013158795275
 31
0.0
  0
ARC
  5
12C
100
AcDbEntity
  8
0
  6
CONTINUOUS
 62
               7
100
AcDbCircle
 10
73.550009412361135
 20
25.200010110537448
 30
0.0
 40
1.0499969517421859
100
AcDbArc
 50
90.0
 51
270.0
  0
LINE
  5
12D
100
AcDbEntity
  8
0
  6
CONTINUOUS
 62
               7
100
AcDbLine
 10
96.550018632380272
 20
26.250007062279622
 30
0.0
 11
88.450012501864705
 21
26.250007062279622
 31
0.0
  0
ARC
  5
12E
100
AcDbEntity
  8
0
  6
CONTINUOUS
 62
               7
100
AcDbCircle
 10
96.45002167188386
 20
25.200010110537448
 30
0.0
 40
1.0499969517421859
100
AcDbArc
 50
270.0
 51
90.0
  0
LINE
  5
12F
100
AcDbEntity
  8
0
  6
CONTINUOUS
 62
               7
100
AcDbLine
 10
88.450012501864705
 20
24.150013158795275
 30
0.0
 11
96.550018632380272
 21
24.150013158795275
 31
0.0
  0
ARC
  5
130
100
AcDbEntity
  8
0
  6
CONTINUOUS
 62
               7
100
AcDbCircle
 10
88.550009462361174
 20
25.200010110537448
 30
0.0
 40
1.0499969517421859
100
AcDbArc
 50
90.0
 51
270.0
  0
LINE
  5
131
100
AcDbEntity
  8
0
  6
CONTINUOUS
 62
               7
100
AcDbLine
 10
111.55001868238026
 20
26.250007062279622
 30
0.0
 11
103.45001255186463
 21
26.250007062279622
 31
0.0
  0
ARC
  5
132
100
AcDbEntity
  8
0
  6
CONTINUOUS
 62
               7
100
AcDbCircle
 10
111.45002172188379
 20
25.200010110537448
 30
0.0
 40
1.0499969517421859
100
AcDbArc
 50
270.0
 51
90.0
  0
LINE
  5
133
100
AcDbEntity
  8
0
  6
CONTINUOUS
 62
               7
100
AcDbLine
 10
103.45001255186463
 20
24.150013158795275
 30
0.0
 11
111.55001868238026
 21
24.150013158795275
 31
0.0
  0
ARC
  5
134
100
AcDbEntity
  8
0
  6
CONTINUOUS
 62
               7
100
AcDbCircle
 10
103.5500095123611
 20
25.200010110537448
 30
0.0
 40
1.0499969517421859
100
AcDbArc
 50
90.0
 51
270.0
  0
LINE
  5
135
100
AcDbEntity
  8
0
  6
CONTINUOUS
 62
               7
100
AcDbLine
 10
119.05001870738027
 20
31.250007078946282
 30
0.0
 11
110.95001257686471
 21
31.250007078946282
 31
0.0
  0
ARC
  5
136
100
AcDbEntity
  8
0
  6
CONTINUOUS
 62
               7
100
AcDbCircle
 10
118.95002174688386
 20
30.200010127204166
 30
0.0
 40
1.0499969517421859
100
AcDbArc
 50
270.0
 51
90.0
  0
LINE
  5
137
100
AcDbEntity
  8
0
  6
CONTINUOUS
 62
               7
100
AcDbLine
 10
110.95001257686471
 20
29.150013175461936
 30
0.0
 11
119.05001870738027
 21
29.150013175461936
 31
0.0
  0
ARC
  5
138
100
AcDbEntity
  8
0
  6
CONTINUOUS
 62
               7
100
AcDbCircle
 10
111.05000953736112
 20
30.200010127204166
 30
0.0
 40
1.0499969517421859
100
AcDbArc
 50
90.0
 51
270.0
  0
LINE
  5
139
100
AcDbEntity
  8
0
  6
CONTINUOUS
 62
               7
100
AcDbLine
 10
104.05001865738035
 20
31.250007078946282
 30
0.0
 11
95.950012526864782
 21
31.250007078946282
 31
0.0
  0
ARC
  5
13A
100
AcDbEntity
  8
0
  6
CONTINUOUS
 62
               7
100
AcDbCircle
 10
103.95002169688388
 20
30.200010127204166
 30
0.0
 40
1.0499969517421859
100
AcDbArc
 50
270.0
 51
90.0
  0
LINE
  5
13B
100
AcDbEntity
  8
0
  6
CONTINUOUS
 62
               7
100
AcDbLine
 10
95.950012526864782
 20
29.150013175461936
 30
0.0
 11
104.05001865738035
 21
29.150013175461936
 31
0.0
  0
ARC
  5
13C
100
AcDbEntity
  8
0
  6
CONTINUOUS
 62
               7
100
AcDbCircle
 10
96.050009487361137
 20
30.200010127204166
 30
0.0
 40
1.0499969517421859
100
AcDbArc
 50
90.0
 51
270.0
  0
LINE
  5
13D
100
AcDbEntity
  8
0
  6
CONTINUOUS
 62
               7
100
AcDbLine
 10
74.05001855738027
 20
31.250007078946282
 30
0.0
 11
65.950012426864703
 21
31.250007078946282
 31
0.0
  0
ARC
  5
13E
100
AcDbEntity
  8
0
  6
CONTINUOUS
 62
               7
100
AcDbCircle
 10
73.950021596883857
 20
30.200010127204166
 30
0.0
 40
1.0499969517421859
100
AcDbArc
 50
270.0
 51
90.0
  0
LINE
  5
13F
100
AcDbEntity
  8
0
  6
CONTINUOUS
 62
               7
100
AcDbLine
 10
65.950012426864703
 20
29.150013175461936
 30
0.0
 11
74.05001855738027
 21
29.150013175461936
 31
0.0
  0
ARC
  5
140
100
AcDbEntity
  8
0
  6
CONTINUOUS
 62
               7
100
AcDbCircle
 10
66.050009387361058
 20
30.200010127204166
 30
0.0
 40
1.0499969517421859
100
AcDbArc
 50
90.0
 51
270.0
  0
LINE
  5
141
100
AcDbEntity
  8
0
  6
CONTINUOUS
 62
               7
100
AcDbLine
 10
89.050018607380309
 20
31.250007078946282
 30
0.0
 11
80.950012476864629
 21
31.250007078946282
 31
0.0
  0
ARC
  5
142
100
AcDbEntity
  8
0
  6
CONTINUOUS
 62
               7
100
AcDbCircle
 10
88.950021646883897
 20
30.200010127204166
 30
0.0
 40
1.0499969517421859
100
AcDbArc
 50
270.0
 51
90.0
  0
LINE
  5
143
100
AcDbEntity
  8
0
  6
CONTINUOUS
 62
               7
100
AcDbLine
 10
80.950012476864629
 20
29.150013175461936
 30
0.0
 11
89.050018607380309
 21
29.150013175461936
 31
0.0
  0
ARC
  5
144
100
AcDbEntity
  8
0
  6
CONTINUOUS
 62
               7
100
AcDbCircle
 10
81.050009437361211
 20
30.200010127204166
 30
0.0
 40
1.0499969517421859
100
AcDbArc
 50
90.0
 51
270.0
  0
LINE
  5
145
100
AcDbEntity
  8
0
  6
CONTINUOUS
 62
               7
100
AcDbLine
 10
81.550018582380289
 20
36.250007095612943
 30
0.0
 11
73.450012451864666
 21
36.250007095612943
 31
0.0
  0
ARC
  5
146
100
AcDbEntity
  8
0
  6
CONTINUOUS
 62
               7
100
AcDbCircle
 10
81.450021621883877
 20
35.20001014387077
 30
0.0
 40
1.0499969517421859
100
AcDbArc
 50
270.0
 51
90.0
  0
LINE
  5
147
100
AcDbEntity
  8
0
  6
CONTINUOUS
 62
               7
100
AcDbLine
 10
73.450012451864666
 20
34.150013192128597
 30
0.0
 11
81.550018582380289
 21
34.150013192128597
 31
0.0
  0
ARC
  5
148
100
AcDbEntity
  8
0
  6
CONTINUOUS
 62
               7
100
AcDbCircle
 10
73.550009412361135
 20
35.20001014387077
 30
0.0
 40
1.0499969517421859
100
AcDbArc
 50
90.0
 51
270.0
  0
LINE
  5
149
100
AcDbEntity
  8
0
  6
CONTINUOUS
 62
               7
100
AcDbLine
 10
74.05001855738027
 20
41.250007112279604
 30
0.0
 11
65.950012426864703
 21
41.250007112279604
 31
0.0
  0
ARC
  5
14A
100
AcDbEntity
  8
0
  6
CONTINUOUS
 62
               7
100
AcDbCircle
 10
73.950021596883857
 20
40.200010160537431
 30
0.0
 40
1.0499969517421859
100
AcDbArc
 50
270.0
 51
90.0
  0
LINE
  5
14B
100
AcDbEntity
  8
0
  6
CONTINUOUS
 62
               7
100
AcDbLine
 10
65.950012426864703
 20
39.150013208795258
 30
0.0
 11
74.05001855738027
 21
39.150013208795258
 31
0.0
  0
ARC
  5
14C
100
AcDbEntity
  8
0
  6
CONTINUOUS
 62
               7
100
AcDbCircle
 10
66.050009387361058
 20
40.200010160537431
 30
0.0
 40
1.0499969517421859
100
AcDbArc
 50
90.0
 51
270.0
  0
LINE
  5
14D
100
AcDbEntity
  8
0
  6
CONTINUOUS
 62
               7
100
AcDbLine
 10
89.050018607380309
 20
41.250007112279604
 30
0.0
 11
80.950012476864629
 21
41.250007112279604
 31
0.0
  0
ARC
  5
14E
100
AcDbEntity
  8
0
  6
CONTINUOUS
 62
               7
100
AcDbCircle
 10
88.950021646883897
 20
40.200010160537431
 30
0.0
 40
1.0499969517421859
100
AcDbArc
 50
270.0
 51
90.0
  0
LINE
  5
14F
100
AcDbEntity
  8
0
  6
CONTINUOUS
 62
               7
100
AcDbLine
 10
80.950012476864629
 20
39.150013208795258
 30
0.0
 11
89.050018607380309
 21
39.150013208795258
 31
0.0
  0
ARC
  5
150
100
AcDbEntity
  8
0
  6
CONTINUOUS
 62
               7
100
AcDbCircle
 10
81.050009437361211
 20
40.200010160537431
 30
0.0
 40
1.0499969517421859
100
AcDbArc
 50
90.0
 51
270.0
  0
LINE
  5
151
100
AcDbEntity
  8
0
  6
CONTINUOUS
 62
               7
100
AcDbLine
 10
96.550018632380272
 20
36.250007095612943
 30
0.0
 11
88.450012501864705
 21
36.250007095612943
 31
0.0
  0
ARC
  5
152
100
AcDbEntity
  8
0
  6
CONTINUOUS
 62
               7
100
AcDbCircle
 10
96.45002167188386
 20
35.20001014387077
 30
0.0
 40
1.0499969517421859
100
AcDbArc
 50
270.0
 51
90.0
  0
LINE
  5
153
100
AcDbEntity
  8
0
  6
CONTINUOUS
 62
               7
100
AcDbLine
 10
88.450012501864705
 20
34.150013192128597
 30
0.0
 11
96.550018632380272
 21
34.150013192128597
 31
0.0
  0
ARC
  5
154
100
AcDbEntity
  8
0
  6
CONTINUOUS
 62
               7
100
AcDbCircle
 10
88.550009462361174
 20
35.20001014387077
 30
0.0
 40
1.0499969517421859
100
AcDbArc
 50
90.0
 51
270.0
  0
LINE
  5
155
100
AcDbEntity
  8
0
  6
CONTINUOUS
 62
               7
100
AcDbLine
 10
111.55001868238026
 20
36.250007095612943
 30
0.0
 11
103.45001255186463
 21
36.250007095612943
 31
0.0
  0
ARC
  5
156
100
AcDbEntity
  8
0
  6
CONTINUOUS
 62
               7
100
AcDbCircle
 10
111.45002172188379
 20
35.20001014387077
 30
0.0
 40
1.0499969517421859
100
AcDbArc
 50
270.0
 51
90.0
  0
LINE
  5
157
100
AcDbEntity
  8
0
  6
CONTINUOUS
 62
               7
100
AcDbLine
 10
103.45001255186463
 20
34.150013192128597
 30
0.0
 11
111.55001868238026
 21
34.150013192128597
 31
0.0
  0
ARC
  5
158
100
AcDbEntity
  8
0
  6
CONTINUOUS
 62
               7
100
AcDbCircle
 10
103.5500095123611
 20
35.20001014387077
 30
0.0
 40
1.0499969517421859
100
AcDbArc
 50
90.0
 51
270.0
  0
LINE
  5
159
100
AcDbEntity
  8
0
  6
CONTINUOUS
 62
               7
100
AcDbLine
 10
104.05001865738035
 20
41.250007112279604
 30
0.0
 11
95.950012526864782
 21
41.250007112279604
 31
0.0
  0
ARC
  5
15A
100
AcDbEntity
  8
0
  6
CONTINUOUS
 62
               7
100
AcDbCircle
 10
103.95002169688388
 20
40.200010160537431
 30
0.0
 40
1.0499969517421859
100
AcDbArc
 50
270.0
 51
90.0
  0
LINE
  5
15B
100
AcDbEntity
  8
0
  6
CONTINUOUS
 62
               7
100
AcDbLine
 10
95.950012526864782
 20
39.150013208795258
 30
0.0
 11
104.05001865738035
 21
39.150013208795258
 31
0.0
  0
ARC
  5
15C
100
AcDbEntity
  8
0
  6
CONTINUOUS
 62
               7
100
AcDbCircle
 10
96.050009487361137
 20
40.200010160537431
 30
0.0
 40
1.0499969517421859
100
AcDbArc
 50
90.0
 51
270.0
  0
ARC
  5
15D
100
AcDbEntity
  8
0
  6
CONTINUOUS
 62
               7
100
AcDbCircle
 10
111.05000953736112
 20
40.200010160537431
 30
0.0
 40
1.0499969517421859
100
AcDbArc
 50
90.0
 51
270.0
  0
ARC
  5
15E
100
AcDbEntity
  8
0
  6
CONTINUOUS
 62
               7
100
AcDbCircle
 10
118.95002174688386
 20
40.200010160537431
 30
0.0
 40
1.0499969517421859
100
AcDbArc
 50
270.0
 51
90.0
  0
LINE
  5
15F
100
AcDbEntity
  8
0
  6
CONTINUOUS
 62
               7
100
AcDbLine
 10
298.00001625212246
 20
30.399993987150879
 30
0.0
 11
298.00001625212246
 21
3.2000122070311363
 31
0.0
  0
LINE
  5
160
100
AcDbEntity
  8
0
  6
CONTINUOUS
 62
               7
100
AcDbLine
 10
298.00001625212246
 20
30.399993987150879
 30
0.0
 11
304.58221515218588
 21
30.399993987150879
 31
0.0
  0
LINE
  5
161
100
AcDbEntity
  8
0
  6
CONTINUOUS
 62
               7
100
AcDbLine
 10
110.95001257686471
 20
39.150013208795258
 30
0.0
 11
119.05001870738027
 21
39.150013208795258
 31
0.0
  0
LINE
  5
162
100
AcDbEntity
  8
0
  6
CONTINUOUS
 62
               7
100
AcDbLine
 10
119.05001870738027
 20
41.250007112279604
 30
0.0
 11
110.95001257686471
 21
41.250007112279604
 31
0.0
  0
LINE
  5
163
100
AcDbEntity
  8
0
  6
CONTINUOUS
 62
               7
100
AcDbLine
 10
11.000064086913994
 20
3.2000122070311363
 30
0.0
 11
11.000064086913994
 21
0.0
 31
0.0
  0
LINE
  5
164
100
AcDbEntity
  8
0
  6
CONTINUOUS
 62
               7
100
AcDbLine
 10
23.000064086914165
 20
3.2000122070311363
 30
0.0
 11
23.000064086914165
 21
0.0
 31
0.0
  0
LINE
  5
165
100
AcDbEntity
  8
0
  6
CONTINUOUS
 62
               7
100
AcDbLine
 10
277.00006408691411
 20
3.2000122070311363
 30
0.0
 11
277.00006408691411
 21
0.0
 31
0.0
  0
LINE
  5
166
100
AcDbEntity
  8
0
  6
CONTINUOUS
 62
               7
100
AcDbLine
 10
289.00006408691388
 20
3.2000122070311363
 30
0.0
 11
289.00006408691388
 21
0.0
 31
0.0
  0
LINE
  5
167
100
AcDbEntity
  8
0
  6
CONTINUOUS
 62
               7
100
AcDbLine
 10
277.00006408691411
 20
0.0
 30
0.0
 11
289.00006408691388
 21
0.0
 31
0.0
  0
LINE
  5
168
100
AcDbEntity
  8
0
  6
CONTINUOUS
 62
               7
100
AcDbLine
 10
11.000064086913994
 20
0.0
 30
0.0
 11
23.000064086914165
 21
0.0
 31
0.0
  0
LINE
  5
169
100
AcDbEntity
  8
0
  6
CONTINUOUS
 62
               2
100
AcDbLine
 10
4.9393551070093054
 20
8.1393407301508205
 30
0.0
 11
7.0606754505689651
 21
10.26066107371048
 31
0.0
  0
LINE
  5
16A
100
AcDbEntity
  8
0
  6
CONTINUOUS
 62
               2
100
AcDbLine
 10
7.0606754505689651
 20
8.1393407301508205
 30
0.0
 11
4.9393551070093054
 21
10.26066107371048
 31
0.0
  0
LINE
  5
16B
100
AcDbEntity
  8
0
  6
CONTINUOUS
 62
               2
100
AcDbLine
 10
147.43935558200934
 20
8.1393407301508205
 30
0.0
 11
149.560675925569
 21
10.26066107371048
 31
0.0
  0
LINE
  5
16C
100
AcDbEntity
  8
0
  6
CONTINUOUS
 62
               2
100
AcDbLine
 10
149.560675925569
 20
8.1393407301508205
 30
0.0
 11
147.43935558200934
 21
10.26066107371048
 31
0.0
  0
LINE
  5
16D
100
AcDbEntity
  8
0
  6
CONTINUOUS
 62
               2
100
AcDbLine
 10
289.93935605700943
 20
8.1393407301508205
 30
0.0
 11
292.06067640056909
 21
10.26066107371048
 31
0.0
  0
LINE
  5
16E
100
AcDbEntity
  8
0
  6
CONTINUOUS
 62
               2
100
AcDbLine
 10
292.06067640056909
 20
8.1393407301508205
 30
0.0
 11
289.93935605700943
 21
10.26066107371048
 31
0.0
  0
CIRCLE
  5
16F
100
AcDbEntity
  8
0
  6
CONTINUOUS
 62
               7
100
AcDbCircle
 10
-101.99996948242187
 20
210.20001464685819
 30
0.0
 40
11.499999999999998
  0
CIRCLE
  5
170
100
AcDbEntity
  8
0
  6
CONTINUOUS
 62
               7
100
AcDbCircle
 10
-101.99996948242187
 20
210.20001464685819
 30
0.0
 40
5.5
  0
CIRCLE
  5
171
100
AcDbEntity
  8
0
  6
CONTINUOUS
 62
               7
100
AcDbCircle
 10
-101.99996948242187
 20
210.20001464685819
 30
0.0
 40
7.5
  0
LINE
  5
172
100
AcDbEntity
  8
0
  6
CONTINUOUS
 62
               7
100
AcDbLine
 10
-16.600000000000023
 20
241.00001243982692
 30
0.0
 11
-16.600000000000023
 21
236.7000207503738
 31
0.0
  0
LINE
  5
173
100
AcDbEntity
  8
0
  6
CONTINUOUS
 62
               7
100
AcDbLine
 10
-16.100000000000023
 20
236.7000207503738
 30
0.0
 11
-16.100000000000023
 21
241.00001243982692
 31
0.0
  0
ARC
  5
174
100
AcDbEntity
  8
0
  6
CONTINUOUS
 62
               7
100
AcDbCircle
 10
-20.100000000000023
 20
242.2000207503738
 30
0.0
 40
1.0
100
AcDbArc
 50
180.0
 51
270.0
  0
ARC
  5
175
100
AcDbEntity
  8
0
  6
CONTINUOUS
 62
               7
100
AcDbCircle
 10
-16.600000000000023
 20
240.7000207503738
 30
0.0
 40
3.4999999999999996
100
AcDbArc
 50
180.0
 51
270.0
  0
LINE
  5
176
100
AcDbEntity
  8
0
  6
CONTINUOUS
 62
               7
100
AcDbLine
 10
-21.100000000000023
 20
255.2000207503738
 30
0.0
 11
-21.100000000000023
 21
242.2000207503738
 31
0.0
  0
LINE
  5
177
100
AcDbEntity
  8
0
  6
CONTINUOUS
 62
               7
100
AcDbLine
 10
-13.995812119271363
 20
263.31493945867317
 30
0.0
 11
-15.220155886504642
 21
262.09193874471111
 31
0.0
  0
LINE
  5
178
100
AcDbEntity
  8
0
  6
CONTINUOUS
 62
               7
100
AcDbLine
 10
-17.450000001512535
 20
260.77565920511199
 30
0.0
 11
-16.599999995770645
 21
260.85002456939424
 31
0.0
  0
LINE
  5
179
100
AcDbEntity
  8
0
  6
CONTINUOUS
 62
               7
100
AcDbLine
 10
-17.450000001512706
 20
256.6243900886044
 30
0.0
 11
-16.599999995770872
 21
256.55002472432204
 31
0.0
  0
LINE
  5
17A
100
AcDbEntity
  8
0
  6
CONTINUOUS
 62
               7
100
AcDbLine
 10
-17.450000023841881
 20
256.62438992891691
 30
0.0
 11
-17.450000023841881
 21
260.77565936479948
 31
0.0
  0
ARC
  5
17B
100
AcDbEntity
  8
0
  6
CONTINUOUS
 62
               7
100
AcDbCircle
 10
-11.470344161987327
 20
258.70002464685797
 30
0.0
 40
6.3296561241149902
100
AcDbArc
 50
160.85729086486964
 51
199.14270731389303
  0
ARC
  5
17C
100
AcDbEntity
  8
0
  6
CONTINUOUS
 62
               7
100
AcDbCircle
 10
-16.600000000000023
 20
256.70002075037382
 30
0.0
 40
3.4999999999999996
100
AcDbArc
 50
107.58284247057495
 51
180.0
  0
ARC
  5
17D
100
AcDbEntity
  8
0
  6
CONTINUOUS
 62
               7
100
AcDbCircle
 10
-13.100000000000023
 20
259.9694545829517
 30
0.0
 40
3.4999999999999996
100
AcDbArc
 50
134.9685572354158
 51
179.99999999999997
  0
LINE
  5
17E
100
AcDbEntity
  8
0
  6
CONTINUOUS
 62
               7
100
AcDbLine
 10
-16.100000000000023
 20
254.40003685388942
 30
0.0
 11
-16.100000000000023
 21
259.96945458295164
 31
0.0
  0
ARC
  5
17F
100
AcDbEntity
  8
0
  6
CONTINUOUS
 62
               7
100
AcDbCircle
 10
-13.100000000000023
 20
259.96945458295164
 30
0.0
 40
2.9999999999999996
100
AcDbArc
 50
134.96855723541546
 51
180.0
  0
LINE
  5
180
100
AcDbEntity
  8
0
  6
CONTINUOUS
 62
               7
100
AcDbLine
 10
-13.995812119271363
 20
264.02165851317801
 30
0.0
 11
-15.573515200922088
 21
262.44568610500437
 31
0.0
  0
ARC
  5
181
100
AcDbEntity
  8
0
  6
CONTINUOUS
 62
               7
100
AcDbCircle
 10
-20.100000000000023
 20
255.2000207503738
 30
0.0
 40
1.0
100
AcDbArc
 50
90.0
 51
180.0
  0
LINE
  5
182
100
AcDbEntity
  8
0
  6
CONTINUOUS
 62
               7
100
AcDbLine
 10
-20.100000000000023
 20
240.7000207503738
 30
0.0
 11
-20.100000000000023
 21
256.70002075037382
 31
0.0
  0
LINE
  5
183
100
AcDbEntity
  8
0
  6
CONTINUOUS
 62
               7
100
AcDbLine
 10
-16.600000000000023
 20
260.85002456939424
 30
0.0
 11
-16.600000000000023
 21
254.40003685388942
 31
0.0
  0
LINE
  5
184
100
AcDbEntity
  8
0
  6
CONTINUOUS
 62
               7
100
AcDbLine
 10
0.0
 20
195.20001464685822
 30
0.0
 11
2.9999999999999432
 21
198.20001464685816
 31
0.0
  0
LINE
  5
185
100
AcDbEntity
  8
0
  6
CONTINUOUS
 62
               7
100
AcDbLine
 10
207.00001525878906
 20
198.20001464685819
 30
0.0
 11
210.00001525878909
 21
195.20001464685819
 31
0.0
  0
LINE
  5
186
100
AcDbEntity
  8
0
  6
CONTINUOUS
 62
               7
100
AcDbLine
 10
24.850011794591865
 20
246.77566711465838
 30
0.0
 11
24.000002447627196
 21
246.85003329619175
 31
0.0
  0
CIRCLE
  5
187
100
AcDbEntity
  8
0
  6
CONTINUOUS
 62
               7
100
AcDbCircle
 10
-24.500030517578068
 20
205.20001464685799
 30
0.0
 40
0.8
  0
CIRCLE
  5
188
100
AcDbEntity
  8
0
  6
CONTINUOUS
 62
               7
100
AcDbCircle
 10
-24.500030517578068
 20
213.20001464685819
 30
0.0
 40
0.8
  0
LINE
  5
189
100
AcDbEntity
  8
0
  6
CONTINUOUS
 62
               7
100
AcDbLine
 10
-37.499999999999943
 20
202.00000243982691
 30
0.0
 11
-36.999999999999886
 21
202.00000243982691
 31
0.0
  0
ARC
  5
18A
100
AcDbEntity
  8
0
  6
CONTINUOUS
 62
               7
100
AcDbCircle
 10
-32.000030517578068
 20
203.20001464685816
 30
0.0
 40
1.5
100
AcDbArc
 50
207.81866648709104
 51
269.99999749552188
  0
LINE
  5
18B
100
AcDbEntity
  8
0
  6
CONTINUOUS
 62
               7
100
AcDbLine
 10
-28.000030517578068
 20
201.70001464685816
 30
0.0
 11
-32.000030517578068
 21
201.70001464685816
 31
0.0
  0
LINE
  5
18C
100
AcDbEntity
  8
0
  6
CONTINUOUS
 62
               7
100
AcDbLine
 10
-37.500030517578125
 20
202.50000243982686
 30
0.0
 11
-27.000030517578068
 21
202.50000243982686
 31
0.0
  0
LINE
  5
18D
100
AcDbEntity
  8
0
  6
CONTINUOUS
 62
               7
100
AcDbLine
 10
-37.000030284244929
 20
202.00000243982691
 30
0.0
 11
-37.000030284244929
 21
198.19999927973566
 31
0.0
  0
LINE
  5
18E
100
AcDbEntity
  8
0
  6
CONTINUOUS
 62
               7
100
AcDbLine
 10
-38.959707819925029
 20
207.70001464685799
 30
0.0
 11
-37.499999999999943
 21
207.70001464685799
 31
0.0
  0
LINE
  5
18F
100
AcDbEntity
  8
0
  6
CONTINUOUS
 62
               7
100
AcDbLine
 10
-39.121595124790872
 20
207.85001464685809
 30
0.0
 11
-37.499999999999943
 21
207.85001464685809
 31
0.0
  0
LINE
  5
190
100
AcDbEntity
  8
0
  6
CONTINUOUS
 62
               7
100
AcDbLine
 10
-37.499999999999943
 20
216.40002685388941
 30
0.0
 11
-36.999999999999886
 21
216.40002685388941
 31
0.0
  0
LINE
  5
191
100
AcDbEntity
  8
0
  6
CONTINUOUS
 62
               7
100
AcDbLine
 10
-37.499999999999943
 20
216.40002685388941
 30
0.0
 11
-37.499999999999943
 21
213.98907869329611
 31
0.0
  0
LINE
  5
192
100
AcDbEntity
  8
0
  6
CONTINUOUS
 62
               7
100
AcDbLine
 10
-45.958902861515867
 20
207.85001464685809
 30
0.0
 11
-41.878435392787082
 21
207.85001464685809
 31
0.0
  0
LINE
  5
193
100
AcDbEntity
  8
0
  6
CONTINUOUS
 62
               7
100
AcDbLine
 10
-46.611096276459705
 20
210.55001464685807
 30
0.0
 11
-37.500030517578125
 21
210.55001464685807
 31
0.0
  0
LINE
  5
194
100
AcDbEntity
  8
0
  6
CONTINUOUS
 62
               7
100
AcDbLine
 10
-45.250030517578068
 20
207.70001464685799
 30
0.0
 11
-42.040322697652982
 21
207.70001464685799
 31
0.0
  0
ARC
  5
195
100
AcDbEntity
  8
0
  6
CONTINUOUS
 62
               7
100
AcDbCircle
 10
-45.250030517578068
 20
209.45001464685819
 30
0.0
 40
1.7500000000000002
100
AcDbArc
 50
90.0
 51
270.0
  0
LINE
  5
196
100
AcDbEntity
  8
0
  6
CONTINUOUS
 62
               7
100
AcDbLine
 10
-45.250030517578068
 20
211.20001464685805
 30
0.0
 11
-37.500030517578125
 21
211.20001464685805
 31
0.0
  0
LINE
  5
197
100
AcDbEntity
  8
0
  6
CONTINUOUS
 62
               7
100
AcDbLine
 10
-26.500030517578068
 20
203.20001464685816
 30
0.0
 11
-26.500030517578068
 21
215.20001464685799
 31
0.0
  0
LINE
  5
198
100
AcDbEntity
  8
0
  6
CONTINUOUS
 62
               7
100
AcDbLine
 10
-28.0
 20
216.70001464685799
 30
0.0
 11
-31.999999999999886
 21
216.70001464685799
 31
0.0
  0
ARC
  5
199
100
AcDbEntity
  8
0
  6
CONTINUOUS
 62
               7
100
AcDbCircle
 10
-28.000030517578068
 20
215.20001464685799
 30
0.0
 40
1.5
100
AcDbArc
 50
0.0000000000000509
 51
90.000002504478218
  0
ARC
  5
19A
100
AcDbEntity
  8
0
  6
CONTINUOUS
 62
               7
100
AcDbCircle
 10
-32.000030517578068
 20
215.20001464685799
 30
0.0
 40
1.5
100
AcDbArc
 50
90.000002504478218
 51
152.18133351290896
  0
LINE
  5
19B
100
AcDbEntity
  8
0
  6
CONTINUOUS
 62
               7
100
AcDbLine
 10
-37.500030517578125
 20
215.9000268538893
 30
0.0
 11
-27.000030517578068
 21
215.9000268538893
 31
0.0
  0
CIRCLE
  5
19C
100
AcDbEntity
  8
0
  6
CONTINUOUS
 62
               7
100
AcDbCircle
 10
-35.500030517578068
 20
213.20001464685819
 30
0.0
 40
2.0749999999999997
  0
CIRCLE
  5
19D
100
AcDbEntity
  8
0
  6
CONTINUOUS
 62
               7
100
AcDbCircle
 10
-35.500030517578068
 20
213.20001464685819
 30
0.0
 40
2.1499999999999999
  0
CIRCLE
  5
19E
100
AcDbEntity
  8
0
  6
CONTINUOUS
 62
               7
100
AcDbCircle
 10
-35.500030517578068
 20
205.20001464685799
 30
0.0
 40
2.0749999999999997
  0
LINE
  5
19F
100
AcDbEntity
  8
0
  6
CONTINUOUS
 62
               7
100
AcDbLine
 10
-37.499999999999943
 20
212.41095060042016
 30
0.0
 11
-37.499999999999943
 21
205.98907869329599
 31
0.0
  0
LINE
  5
1A0
100
AcDbEntity
  8
0
  6
CONTINUOUS
 62
               7
100
AcDbLine
 10
-37.499999999999943
 20
204.41095060042005
 30
0.0
 11
-37.499999999999943
 21
202.00000243982691
 31
0.0
  0
CIRCLE
  5
1A1
100
AcDbEntity
  8
0
  6
CONTINUOUS
 62
               7
100
AcDbCircle
 10
-35.500030517578068
 20
205.20001464685799
 30
0.0
 40
2.1499999999999999
  0
ARC
  5
1A2
100
AcDbEntity
  8
0
  6
CONTINUOUS
 62
               7
100
AcDbCircle
 10
-28.000030517578068
 20
203.20001464685816
 30
0.0
 40
1.5
100
AcDbArc
 50
269.99999749552188
 51
0.0000000000000509
  0
LINE
  5
1A3
100
AcDbEntity
  8
0
  6
CONTINUOUS
 62
               7
100
AcDbLine
 10
-27.000030517578068
 20
202.50000243982686
 30
0.0
 11
-27.000030517578068
 21
215.9000268538893
 31
0.0
  0
LINE
  5
1A4
100
AcDbEntity
  8
0
  6
CONTINUOUS
 62
               7
100
AcDbLine
 10
-36.999999999999886
 20
230.70001464685819
 30
0.0
 11
-36.999999999999886
 21
216.40002685388941
 31
0.0
  0
LINE
  5
1A5
100
AcDbEntity
  8
0
  6
CONTINUOUS
 62
               7
100
AcDbLine
 10
-113.99996948242182
 20
223.20001464685819
 30
0.0
 11
-38.000030517578068
 21
223.20001464685819
 31
0.0
  0
LINE
  5
1A6
100
AcDbEntity
  8
0
  6
CONTINUOUS
 62
               7
100
AcDbLine
 10
-18.000000000000114
 20
254.40006126795191
 30
0.0
 11
-18.000000000000114
 21
241.00003685388938
 31
0.0
  0
LINE
  5
1A7
100
AcDbEntity
  8
0
  6
CONTINUOUS
 62
               7
100
AcDbLine
 10
-18.850000001512228
 20
253.77568361917452
 30
0.0
 11
-17.999999995770395
 21
253.8500489834567
 31
0.0
  0
LINE
  5
1A8
100
AcDbEntity
  8
0
  6
CONTINUOUS
 62
               7
100
AcDbLine
 10
-18.850000001512683
 20
249.62441450266704
 30
0.0
 11
-17.999999995770963
 21
249.55004913838468
 31
0.0
  0
LINE
  5
1A9
100
AcDbEntity
  8
0
  6
CONTINUOUS
 62
               7
100
AcDbLine
 10
-18.850000023841915
 20
249.62441434297955
 30
0.0
 11
-18.85000002384146
 21
253.775683778862
 31
0.0
  0
LINE
  5
1AA
100
AcDbEntity
  8
0
  6
CONTINUOUS
 62
               7
100
AcDbLine
 10
-18.850000001512228
 20
245.7756836191744
 30
0.0
 11
-17.999999995770395
 21
245.85004898345676
 31
0.0
  0
LINE
  5
1AB
100
AcDbEntity
  8
0
  6
CONTINUOUS
 62
               7
100
AcDbLine
 10
-18.850000001512683
 20
241.62441450266695
 30
0.0
 11
-17.999999995770963
 21
241.55004913838462
 31
0.0
  0
LINE
  5
1AC
100
AcDbEntity
  8
0
  6
CONTINUOUS
 62
               7
100
AcDbLine
 10
-18.850000023841915
 20
241.62441434297943
 30
0.0
 11
-18.85000002384146
 21
245.77568377886212
 31
0.0
  0
ARC
  5
1AD
100
AcDbEntity
  8
0
  6
CONTINUOUS
 62
               7
100
AcDbCircle
 10
-12.870344161987191
 20
251.70004906092032
 30
0.0
 40
6.3296561241149902
100
AcDbArc
 50
160.85729086486762
 51
199.14270731389101
  0
ARC
  5
1AE
100
AcDbEntity
  8
0
  6
CONTINUOUS
 62
               7
100
AcDbCircle
 10
-12.870344161987191
 20
243.70004906092038
 30
0.0
 40
6.3296561241149902
100
AcDbArc
 50
160.85729086486762
 51
199.14270731389101
  0
LINE
  5
1AF
100
AcDbEntity
  8
0
  6
CONTINUOUS
 62
               7
100
AcDbLine
 10
-13.999999999999943
 20
254.40006126795191
 30
0.0
 11
-18.000000000000114
 21
254.40006126795191
 31
0.0
  0
LINE
  5
1B0
100
AcDbEntity
  8
0
  6
CONTINUOUS
 62
               7
100
AcDbLine
 10
-13.999999999999943
 20
241.00003685388938
 30
0.0
 11
-18.000000000000114
 21
241.00003685388938
 31
0.0
  0
ARC
  5
1B1
100
AcDbEntity
  8
0
  6
CONTINUOUS
 62
               7
100
AcDbCircle
 10
18.870346069335938
 20
244.70001464685819
 30
0.0
 40
6.3296561241149902
100
AcDbArc
 50
340.85729006794099
 51
19.142706516964399
  0
ARC
  5
1B2
100
AcDbEntity
  8
0
  6
CONTINUOUS
 62
               7
100
AcDbCircle
 10
18.870346069335938
 20
258.70001464685816
 30
0.0
 40
6.3296561241149902
100
AcDbArc
 50
340.85729006794099
 51
19.142706516964399
  0
ARC
  5
1B3
100
AcDbEntity
  8
0
  6
CONTINUOUS
 62
               7
100
AcDbCircle
 10
16.500015258789063
 20
265.70001464685822
 30
0.0
 40
2.4000000953674316
100
AcDbArc
 50
331.17621921195268
 51
163.04248945089057
  0
ARC
  5
1B4
100
AcDbEntity
  8
0
  6
CONTINUOUS
 62
               7
100
AcDbCircle
 10
-6.4999999999999432
 20
265.70001464685822
 30
0.0
 40
2.4000000953674316
100
AcDbArc
 50
16.957513850518463
 51
208.82378579700367
  0
ARC
  5
1B5
100
AcDbEntity
  8
0
  6
CONTINUOUS
 62
               7
100
AcDbCircle
 10
21.000015258789063
 20
239.70001464685819
 30
0.0
 40
2.9999999999999996
100
AcDbArc
 50
269.99999749552182
 51
0.0
  0
ARC
  5
1B6
100
AcDbEntity
  8
0
  6
CONTINUOUS
 62
               7
100
AcDbCircle
 10
18.000015258789119
 20
267.20001464685822
 30
0.0
 40
2.0
100
AcDbArc
 50
60.000001669652114
 51
90.000002504478161
  0
ARC
  5
1B7
100
AcDbEntity
  8
0
  6
CONTINUOUS
 62
               7
100
AcDbCircle
 10
-8.0
 20
267.20001464685822
 30
0.0
 40
2.0
100
AcDbArc
 50
90.000002504478161
 51
120.00000333930423
  0
ARC
  5
1B8
100
AcDbEntity
  8
0
  6
CONTINUOUS
 62
               7
100
AcDbCircle
 10
15.792892456054744
 20
264.1000085433426
 30
0.0
 40
2.2999999523162842
100
AcDbArc
 50
45.00000125223908
 51
90.000002504478161
  0
ARC
  5
1B9
100
AcDbEntity
  8
0
  6
CONTINUOUS
 62
               7
100
AcDbCircle
 10
-10.5
 20
257.69583373865504
 30
0.0
 40
3.4999999999999996
100
AcDbArc
 50
135.00000034162267
 51
180.00000500895632
  0
ARC
  5
1BA
100
AcDbEntity
  8
0
  6
CONTINUOUS
 62
               7
100
AcDbCircle
 10
20.500015258789119
 20
257.69583373865504
 30
0.0
 40
3.4999999999999996
100
AcDbArc
 50
0.0000000000000509
 51
45.00000125223908
  0
ARC
  5
1BB
100
AcDbEntity
  8
0
  6
CONTINUOUS
 62
               7
100
AcDbCircle
 10
-5.7928924560546875
 20
264.1000085433426
 30
0.0
 40
2.2999999523162842
100
AcDbArc
 50
90.000002504478161
 51
135.00000034162267
  0
ARC
  5
1BC
100
AcDbEntity
  8
0
  6
CONTINUOUS
 62
               7
100
AcDbCircle
 10
-10.999999999999943
 20
239.70001464685819
 30
0.0
 40
2.9999999999999996
100
AcDbArc
 50
179.99999499104368
 51
269.99999749552182
  0
ARC
  5
1BD
100
AcDbEntity
  8
0
  6
CONTINUOUS
 62
               7
100
AcDbCircle
 10
18.000015258789119
 20
267.20001464685822
 30
0.0
 40
1.4999999999999998
100
AcDbArc
 50
45.00000125223908
 51
90.000002504478161
  0
ARC
  5
1BE
100
AcDbEntity
  8
0
  6
CONTINUOUS
 62
               7
100
AcDbCircle
 10
23.500015258789063
 20
269.70001464685822
 30
0.0
 40
0.5
100
AcDbArc
 50
7.4208451464152363
 51
90.000002504478161
  0
ARC
  5
1BF
100
AcDbEntity
  8
0
  6
CONTINUOUS
 62
               7
100
AcDbCircle
 10
-8.0
 20
267.20001464685822
 30
0.0
 40
1.4999999999999998
100
AcDbArc
 50
90.000002504478161
 51
135.00000034162267
  0
ARC
  5
1C0
100
AcDbEntity
  8
0
  6
CONTINUOUS
 62
               7
100
AcDbCircle
 10
19.500015258789119
 20
269.70001464685822
 30
0.0
 40
0.5
100
AcDbArc
 50
90.000002504478161
 51
180.00000500895632
  0
ARC
  5
1C1
100
AcDbEntity
  8
0
  6
CONTINUOUS
 62
               7
100
AcDbCircle
 10
-9.4999999999999432
 20
269.70001464685822
 30
0.0
 40
0.5
100
AcDbArc
 50
0.0
 51
90.000002504478161
  0
ARC
  5
1C2
100
AcDbEntity
  8
0
  6
CONTINUOUS
 62
               7
100
AcDbCircle
 10
-13.499999999999943
 20
269.70001464685822
 30
0.0
 40
0.5
100
AcDbArc
 50
89.999995674288996
 51
172.57915473989922
  0
CIRCLE
  5
1C3
100
AcDbEntity
  8
0
  6
CONTINUOUS
 62
               7
100
AcDbCircle
 10
-40.5
 20
220.20001464685816
 30
0.0
 40
2.0750000476837158
  0
CIRCLE
  5
1C4
100
AcDbEntity
  8
0
  6
CONTINUOUS
 62
               7
100
AcDbCircle
 10
-40.5
 20
220.20001464685816
 30
0.0
 40
2.1500000953674316
  0
CIRCLE
  5
1C5
100
AcDbEntity
  8
0
  6
CONTINUOUS
 62
               7
100
AcDbCircle
 10
-40.5
 20
206.20001464685822
 30
0.0
 40
2.0750000476837158
  0
CIRCLE
  5
1C6
100
AcDbEntity
  8
0
  6
CONTINUOUS
 62
               7
100
AcDbCircle
 10
-40.5
 20
206.20001464685822
 30
0.0
 40
2.1500000953674316
  0
LINE
  5
1C7
100
AcDbEntity
  8
0
  6
CONTINUOUS
 62
               7
100
AcDbLine
 10
-26.500030517578068
 20
208.00000243982691
 30
0.0
 11
232.00001525878906
 21
208.00000243982691
 31
0.0
  0
LINE
  5
1C8
100
AcDbEntity
  8
0
  6
CONTINUOUS
 62
               7
100
AcDbLine
 10
-26.500030517578068
 20
211.40002685388944
 30
0.0
 11
232.00001525878906
 21
211.40002685388944
 31
0.0
  0
LINE
  5
1C9
100
AcDbEntity
  8
0
  6
CONTINUOUS
 62
               7
100
AcDbLine
 10
155.25001535182585
 20
185.20005858678326
 30
0.0
 11
154.75001654905603
 21
185.70005549295306
 31
0.0
  0
LINE
  5
1CA
100
AcDbEntity
  8
0
  6
CONTINUOUS
 62
               7
100
AcDbLine
 10
154.75001525878909
 20
188.20004516443635
 30
0.0
 11
154.75001525878909
 21
185.70004516443635
 31
0.0
  0
LINE
  5
1CB
100
AcDbEntity
  8
0
  6
CONTINUOUS
 62
               7
100
AcDbLine
 10
160.24998474121097
 20
185.70004516443635
 30
0.0
 11
154.75001525878909
 21
185.70004516443635
 31
0.0
  0
LINE
  5
1CC
100
AcDbEntity
  8
0
  6
CONTINUOUS
 62
               7
100
AcDbLine
 10
160.25002478422996
 20
185.70007423873915
 30
0.0
 11
159.74999091521479
 21
185.20004226645699
 31
0.0
  0
LINE
  5
1CD
100
AcDbEntity
  8
0
  6
CONTINUOUS
 62
               7
100
AcDbLine
 10
160.25001525878909
 20
185.70004516443635
 30
0.0
 11
160.25001525878909
 21
188.20004516443635
 31
0.0
  0
LINE
  5
1CE
100
AcDbEntity
  8
0
  6
CONTINUOUS
 62
               7
100
AcDbLine
 10
159.74998474121097
 20
185.20004516443632
 30
0.0
 11
155.25001525878909
 21
185.20004516443632
 31
0.0
  0
LINE
  5
1CF
100
AcDbEntity
  8
0
  6
CONTINUOUS
 62
               7
100
AcDbLine
 10
35.250006983364131
 20
185.20005218045765
 30
0.0
 11
34.750005483190819
 21
185.70005178402073
 31
0.0
  0
LINE
  5
1D0
100
AcDbEntity
  8
0
  6
CONTINUOUS
 62
               7
100
AcDbLine
 10
34.750000000000057
 20
188.20004516443635
 30
0.0
 11
34.750000000000057
 21
185.70004516443635
 31
0.0
  0
LINE
  5
1D1
100
AcDbEntity
  8
0
  6
CONTINUOUS
 62
               7
100
AcDbLine
 10
40.250000000000057
 20
185.70004516443635
 30
0.0
 11
34.750000000000057
 21
185.70004516443635
 31
0.0
  0
LINE
  5
1D2
100
AcDbEntity
  8
0
  6
CONTINUOUS
 62
               7
100
AcDbLine
 10
40.250005626133827
 20
185.70005906589824
 30
0.0
 11
39.749993336346563
 21
185.20004867276211
 31
0.0
  0
LINE
  5
1D3
100
AcDbEntity
  8
0
  6
CONTINUOUS
 62
               7
100
AcDbLine
 10
40.250000000000057
 20
185.70004516443635
 30
0.0
 11
40.250000000000057
 21
188.20004516443635
 31
0.0
  0
LINE
  5
1D4
100
AcDbEntity
  8
0
  6
CONTINUOUS
 62
               7
100
AcDbLine
 10
39.750000000000057
 20
185.20004516443632
 30
0.0
 11
35.250015258789063
 21
185.20004516443632
 31
0.0
  0
LINE
  5
1D5
100
AcDbEntity
  8
0
  6
CONTINUOUS
 62
               7
100
AcDbLine
 10
15.750028401267684
 20
228.70003804765483
 30
0.0
 11
15.250026901094316
 21
229.20003765121791
 31
0.0
  0
LINE
  5
1D6
100
AcDbEntity
  8
0
  6
CONTINUOUS
 62
               7
100
AcDbLine
 10
15.250015258789063
 20
231.70001464685819
 30
0.0
 11
15.250015258789063
 21
229.20001464685819
 31
0.0
  0
LINE
  5
1D7
100
AcDbEntity
  8
0
  6
CONTINUOUS
 62
               7
100
AcDbLine
 10
20.749984741210994
 20
229.20001464685819
 30
0.0
 11
15.250015258789063
 21
229.20001464685819
 31
0.0
  0
LINE
  5
1D8
100
AcDbEntity
  8
0
  6
CONTINUOUS
 62
               7
100
AcDbLine
 10
20.75001941538585
 20
229.2000397489729
 30
0.0
 11
20.249985546370738
 21
228.70000777669074
 31
0.0
  0
LINE
  5
1D9
100
AcDbEntity
  8
0
  6
CONTINUOUS
 62
               7
100
AcDbLine
 10
20.750015258789119
 20
229.20001464685819
 30
0.0
 11
20.750015258789119
 21
231.70001464685819
 31
0.0
  0
LINE
  5
1DA
100
AcDbEntity
  8
0
  6
CONTINUOUS
 62
               7
100
AcDbLine
 10
20.249984741210994
 20
228.70001464685819
 30
0.0
 11
15.750015258789119
 21
228.70001464685819
 31
0.0
  0
LINE
  5
1DB
100
AcDbEntity
  8
0
  6
CONTINUOUS
 62
               7
100
AcDbLine
 10
-10.249989506346537
 20
228.70002110458981
 30
0.0
 11
-10.749991006519792
 21
229.20002070815289
 31
0.0
  0
LINE
  5
1DC
100
AcDbEntity
  8
0
  6
CONTINUOUS
 62
               7
100
AcDbLine
 10
-10.749999999999943
 20
231.70001464685819
 30
0.0
 11
-10.749999999999943
 21
229.20001464685819
 31
0.0
  0
LINE
  5
1DD
100
AcDbEntity
  8
0
  6
CONTINUOUS
 62
               7
100
AcDbLine
 10
-5.2500152587890625
 20
229.20001464685819
 30
0.0
 11
-10.749999999999943
 21
229.20001464685819
 31
0.0
  0
LINE
  5
1DE
100
AcDbEntity
  8
0
  6
CONTINUOUS
 62
               7
100
AcDbLine
 10
-5.2499930974826725
 20
229.20002971804396
 30
0.0
 11
-5.7500053872699937
 21
228.70001932490786
 31
0.0
  0
LINE
  5
1DF
100
AcDbEntity
  8
0
  6
CONTINUOUS
 62
               7
100
AcDbLine
 10
-5.2499847412109375
 20
229.20001464685819
 30
0.0
 11
-5.2499847412109375
 21
231.70001464685819
 31
0.0
  0
LINE
  5
1E0
100
AcDbEntity
  8
0
  6
CONTINUOUS
 62
               7
100
AcDbLine
 10
-5.7499999999999432
 20
228.70001464685819
 30
0.0
 11
-10.249984741210937
 21
228.70001464685819
 31
0.0
  0
LINE
  5
1E1
100
AcDbEntity
  8
0
  6
CONTINUOUS
 62
               7
100
AcDbLine
 10
24.849990844726619
 20
246.77563720545194
 30
0.0
 11
24.849990844726619
 21
242.62436157068632
 31
0.0
  0
LINE
  5
1E2
100
AcDbEntity
  8
0
  6
CONTINUOUS
 62
               7
100
AcDbLine
 10
24.849996147151217
 20
242.62436615443548
 30
0.0
 11
24.000002000911536
 21
242.55000130279322
 31
0.0
  0
LINE
  5
1E3
100
AcDbEntity
  8
0
  6
CONTINUOUS
 62
               7
100
AcDbLine
 10
24.849990844726619
 20
260.77563720545197
 30
0.0
 11
24.849990844726619
 21
256.62436157068629
 31
0.0
  0
LINE
  5
1E4
100
AcDbEntity
  8
0
  6
CONTINUOUS
 62
               7
100
AcDbLine
 10
24.850011794591865
 20
260.7756671146584
 30
0.0
 11
24.000002447627196
 21
260.85003329619173
 31
0.0
  0
LINE
  5
1E5
100
AcDbEntity
  8
0
  6
CONTINUOUS
 62
               7
100
AcDbLine
 10
24.849998228578443
 20
256.62438778087937
 30
0.0
 11
24.000004082338876
 21
256.55002292923712
 31
0.0
  0
LINE
  5
1E6
100
AcDbEntity
  8
0
  6
CONTINUOUS
 62
               7
100
AcDbLine
 10
18.000015258789119
 20
269.20001464685822
 30
0.0
 11
-8.0
 21
269.20001464685822
 31
0.0
  0
LINE
  5
1E7
100
AcDbEntity
  8
0
  6
CONTINUOUS
 62
               7
100
AcDbLine
 10
-12.974868298583715
 20
260.17071801183658
 30
0.0
 11
-7.4192636869365742
 21
265.72632262348367
 31
0.0
  0
LINE
  5
1E8
100
AcDbEntity
  8
0
  6
CONTINUOUS
 62
               7
100
AcDbLine
 10
22.974868835913185
 20
260.17069643265052
 30
0.0
 11
17.419231855486998
 21
265.72633341307676
 31
0.0
  0
LINE
  5
1E9
100
AcDbEntity
  8
0
  6
CONTINUOUS
 62
               2
100
AcDbLine
 10
-11.499999999999943
 20
271.22763305506129
 30
0.0
 11
-11.499999999999943
 21
266.10827919066446
 31
0.0
  0
LINE
  5
1EA
100
AcDbEntity
  8
0
  6
CONTINUOUS
 62
               7
100
AcDbLine
 10
-8.9999999999999432
 20
269.70001464685822
 30
0.0
 11
-8.9999999999999432
 21
264.14557128748316
 31
0.0
  0
LINE
  5
1EB
100
AcDbEntity
  8
0
  6
CONTINUOUS
 62
               7
100
AcDbLine
 10
15.792892456054744
 20
266.39999633631135
 30
0.0
 11
-5.7928924560546875
 21
266.39999633631135
 31
0.0
  0
LINE
  5
1EC
100
AcDbEntity
  8
0
  6
CONTINUOUS
 62
               7
100
AcDbLine
 10
19.500015258789119
 20
270.20001464685822
 30
0.0
 11
23.500015258789063
 21
270.20001464685822
 31
0.0
  0
LINE
  5
1ED
100
AcDbEntity
  8
0
  6
CONTINUOUS
 62
               7
100
AcDbLine
 10
18.000015258789119
 20
268.70001464685816
 30
0.0
 11
-8.0
 21
268.70001464685816
 31
0.0
  0
LINE
  5
1EE
100
AcDbEntity
  8
0
  6
CONTINUOUS
 62
               7
100
AcDbLine
 10
-9.4999999999999432
 20
270.20001464685822
 30
0.0
 11
-13.499999999999943
 21
270.20001464685822
 31
0.0
  0
LINE
  5
1EF
100
AcDbEntity
  8
0
  6
CONTINUOUS
 62
               7
100
AcDbLine
 10
19.000015258789063
 20
269.70001464685822
 30
0.0
 11
19.000015258789063
 21
264.14557128748316
 31
0.0
  0
LINE
  5
1F0
100
AcDbEntity
  8
0
  6
CONTINUOUS
 62
               7
100
AcDbLine
 10
26.000015258789063
 20
224.06451659998319
 30
0.0
 11
232.00001525878906
 21
224.06451659998319
 31
0.0
  0
LINE
  5
1F1
100
AcDbEntity
  8
0
  6
CONTINUOUS
 62
               7
100
AcDbLine
 10
-114.99996948242187
 20
198.20001464685819
 30
0.0
 11
237.02775547503637
 21
198.20001464685819
 31
0.0
  0
LINE
  5
1F2
100
AcDbEntity
  8
0
  6
CONTINUOUS
 62
               7
100
AcDbLine
 10
-15.999999999999943
 20
231.70001464685819
 30
0.0
 11
26.000015258789063
 21
231.70001464685819
 31
0.0
  0
LINE
  5
1F3
100
AcDbEntity
  8
0
  6
CONTINUOUS
 62
               7
100
AcDbLine
 10
-36.999999999999943
 20
219.20001464685819
 30
0.0
 11
232.00001525878906
 21
219.20001464685819
 31
0.0
  0
LINE
  5
1F4
100
AcDbEntity
  8
0
  6
CONTINUOUS
 62
               7
100
AcDbLine
 10
-36.999999999999943
 20
221.14642577967069
 30
0.0
 11
-15.999999999999943
 21
221.14642577967069
 31
0.0
  0
LINE
  5
1F5
100
AcDbEntity
  8
0
  6
CONTINUOUS
 62
               7
100
AcDbLine
 10
-36.999999999999943
 20
224.06451659998319
 30
0.0
 11
-15.999999999999943
 21
224.06451659998319
 31
0.0
  0
LINE
  5
1F6
100
AcDbEntity
  8
0
  6
CONTINUOUS
 62
               7
100
AcDbLine
 10
26.000015258789063
 20
231.70001464685819
 30
0.0
 11
26.000015258789063
 21
220.1000085433426
 31
0.0
  0
LINE
  5
1F7
100
AcDbEntity
  8
0
  6
CONTINUOUS
 62
               7
100
AcDbLine
 10
26.000015258789063
 20
226.60000854334257
 30
0.0
 11
232.00001525878906
 21
226.60000854334257
 31
0.0
  0
LINE
  5
1F8
100
AcDbEntity
  8
0
  6
CONTINUOUS
 62
               7
100
AcDbLine
 10
-36.999999999999943
 20
226.60000854334257
 30
0.0
 11
-15.999999999999943
 21
226.60000854334257
 31
0.0
  0
LINE
  5
1F9
100
AcDbEntity
  8
0
  6
CONTINUOUS
 62
               7
100
AcDbLine
 10
-114.99996948242187
 20
230.70001464685819
 30
0.0
 11
-36.999969482421875
 21
230.70001464685819
 31
0.0
  0
LINE
  5
1FA
100
AcDbEntity
  8
0
  6
CONTINUOUS
 62
               7
100
AcDbLine
 10
-114.99996948242187
 20
230.70001464685819
 30
0.0
 11
-114.99996948242187
 21
198.20001464685819
 31
0.0
  0
LINE
  5
1FB
100
AcDbEntity
  8
0
  6
CONTINUOUS
 62
               2
100
AcDbLine
 10
-8.0
 20
233.25360351404569
 30
0.0
 11
-8.0
 21
226.90352454638702
 31
0.0
  0
LINE
  5
1FC
100
AcDbEntity
  8
0
  6
CONTINUOUS
 62
               7
100
AcDbLine
 10
-15.999999999999943
 20
220.1000085433426
 30
0.0
 11
26.000015258789063
 21
220.1000085433426
 31
0.0
  0
LINE
  5
1FD
100
AcDbEntity
  8
0
  6
CONTINUOUS
 62
               7
100
AcDbLine
 10
-15.999999999999943
 20
231.70001464685819
 30
0.0
 11
-15.999999999999943
 21
220.1000085433426
 31
0.0
  0
LINE
  5
1FE
100
AcDbEntity
  8
0
  6
CONTINUOUS
 62
               7
100
AcDbLine
 10
26.000015258789063
 20
221.14642577967069
 30
0.0
 11
232.00001525878906
 21
221.14642577967069
 31
0.0
  0
LINE
  5
1FF
100
AcDbEntity
  8
0
  6
CONTINUOUS
 62
               2
100
AcDbLine
 10
18.000015258789119
 20
233.25360351404569
 30
0.0
 11
18.000015258789119
 21
226.90352454638702
 31
0.0
  0
LINE
  5
200
100
AcDbEntity
  8
0
  6
CONTINUOUS
 62
               7
100
AcDbLine
 10
25.000015258789119
 20
236.70001464685819
 30
0.0
 11
25.000015258789119
 21
231.70001464685819
 31
0.0
  0
LINE
  5
201
100
AcDbEntity
  8
0
  6
CONTINUOUS
 62
               7
100
AcDbLine
 10
-15.0
 20
236.70001464685819
 30
0.0
 11
-15.0
 21
231.70001464685819
 31
0.0
  0
LINE
  5
202
100
AcDbEntity
  8
0
  6
CONTINUOUS
 62
               7
100
AcDbLine
 10
-16.600000000000023
 20
236.70001464685819
 30
0.0
 11
25.000015258789119
 21
236.70001464685819
 31
0.0
  0
LINE
  5
203
100
AcDbEntity
  8
0
  6
CONTINUOUS
 62
               7
100
AcDbLine
 10
197.84999084472659
 20
188.20001464685819
 30
0.0
 11
197.84999084472659
 21
78.200012457031164
 31
0.0
  0
LINE
  5
204
100
AcDbEntity
  8
0
  6
CONTINUOUS
 62
               7
100
AcDbLine
 10
202.15000915527347
 20
188.20001464685819
 30
0.0
 11
202.15000915527347
 21
78.200012457031164
 31
0.0
  0
LINE
  5
205
100
AcDbEntity
  8
0
  6
CONTINUOUS
 62
               7
100
AcDbLine
 10
7.8500061035156818
 20
188.20001464685819
 30
0.0
 11
7.8500061035156818
 21
78.200012457031164
 31
0.0
  0
LINE
  5
206
100
AcDbEntity
  8
0
  6
CONTINUOUS
 62
               7
100
AcDbLine
 10
12.149993896484375
 20
188.20001464685819
 30
0.0
 11
12.149993896484375
 21
78.200012457031164
 31
0.0
  0
LINE
  5
207
100
AcDbEntity
  8
0
  6
CONTINUOUS
 62
               2
100
AcDbLine
 10
21.500015258789063
 20
271.46153886096738
 30
0.0
 11
21.500015258789063
 21
266.10827919066446
 31
0.0
  0
LINE
  5
208
100
AcDbEntity
  8
0
  6
CONTINUOUS
 62
               2
100
AcDbLine
 10
157.50001525878909
 20
190.37539973726109
 30
0.0
 11
157.50001525878909
 21
183.39003802611913
 31
0.0
  0
LINE
  5
209
100
AcDbEntity
  8
0
  6
CONTINUOUS
 62
               2
100
AcDbLine
 10
37.5
 20
190.37539973726109
 30
0.0
 11
37.5
 21
183.39003802611913
 31
0.0
  0
LINE
  5
20A
100
AcDbEntity
  8
0
  6
CONTINUOUS
 62
               7
100
AcDbLine
 10
20.0
 20
188.20001464685819
 30
0.0
 11
20.0
 21
78.200012457031164
 31
0.0
  0
LINE
  5
20B
100
AcDbEntity
  8
0
  6
CONTINUOUS
 62
               7
100
AcDbLine
 10
190.00001525878909
 20
188.20001464685819
 30
0.0
 11
190.00001525878909
 21
78.200012457031164
 31
0.0
  0
LINE
  5
20C
100
AcDbEntity
  8
0
  6
CONTINUOUS
 62
               7
100
AcDbLine
 10
210.00001525878909
 20
188.20001464685819
 30
0.0
 11
0.0
 21
188.20001464685819
 31
0.0
  0
LINE
  5
20D
100
AcDbEntity
  8
0
  6
CONTINUOUS
 62
               7
100
AcDbLine
 10
210.00001525878909
 20
195.20001464685819
 30
0.0
 11
210.00001525878909
 21
78.200012457031164
 31
0.0
  0
LINE
  5
20E
100
AcDbEntity
  8
0
  6
CONTINUOUS
 62
               7
100
AcDbLine
 10
-13.999999999999943
 20
269.70001464685822
 30
0.0
 11
-13.999999999999943
 21
236.70001464685819
 31
0.0
  0
LINE
  5
20F
100
AcDbEntity
  8
0
  6
CONTINUOUS
 62
               7
100
AcDbLine
 10
24.000015258789063
 20
269.70001464685822
 30
0.0
 11
24.000015258789063
 21
236.70001464685819
 31
0.0
  0
LINE
  5
210
100
AcDbEntity
  8
0
  6
CONTINUOUS
 62
               7
100
AcDbLine
 10
232.00001525878909
 20
227.90002685388944
 30
0.0
 11
232.00001525878909
 21
198.20001464685819
 31
0.0
  0
LINE
  5
211
100
AcDbEntity
  8
0
  6
CONTINUOUS
 62
               7
100
AcDbLine
 10
232.00001525878909
 20
227.90002685388944
 30
0.0
 11
234.45024108886722
 21
227.90002685388944
 31
0.0
  0
LINE
  5
212
100
AcDbEntity
  8
0
  6
CONTINUOUS
 62
               7
100
AcDbLine
 10
232.00001525878909
 20
212.20001464685816
 30
0.0
 11
236.00001525878909
 21
212.20001464685816
 31
0.0
  0
LINE
  5
213
100
AcDbEntity
  8
0
  6
CONTINUOUS
 62
               7
100
AcDbLine
 10
232.00001525878909
 20
217.20001464685816
 30
0.0
 11
236.00001525878909
 21
217.20001464685816
 31
0.0
  0
LINE
  5
214
100
AcDbEntity
  8
0
  6
CONTINUOUS
 62
               7
100
AcDbLine
 10
236.00001525878909
 20
217.70001464685816
 30
0.0
 11
236.00001525878909
 21
217.20001464685816
 31
0.0
  0
LINE
  5
215
100
AcDbEntity
  8
0
  6
CONTINUOUS
 62
               7
100
AcDbLine
 10
232.00001525878909
 20
211.70001464685819
 30
0.0
 11
236.00001525878909
 21
211.70001464685819
 31
0.0
  0
LINE
  5
216
100
AcDbEntity
  8
0
  6
CONTINUOUS
 62
               7
100
AcDbLine
 10
232.00001525878909
 20
217.70001464685816
 30
0.0
 11
236.00001525878909
 21
217.70001464685816
 31
0.0
  0
LINE
  5
217
100
AcDbEntity
  8
0
  6
CONTINUOUS
 62
               7
100
AcDbLine
 10
236.00001525878909
 20
212.20001464685816
 30
0.0
 11
236.00001525878909
 21
211.70001464685819
 31
0.0
  0
ARC
  5
218
100
AcDbEntity
  8
0
  6
CONTINUOUS
 62
               7
100
AcDbCircle
 10
234.64201354980472
 20
224.89999633631132
 30
0.0
 40
2.9999999999999996
100
AcDbArc
 50
18.225985847321969
 51
90.000002504478161
  0
ARC
  5
219
100
AcDbEntity
  8
0
  6
CONTINUOUS
 62
               7
100
AcDbCircle
 10
219.00001525878909
 20
210.20001464685816
 30
0.0
 40
25.0
100
AcDbArc
 50
341.59152003579175
 51
39.419948436202937
  0
ARC
  5
21A
100
AcDbEntity
  8
0
  6
CONTINUOUS
 62
               7
100
AcDbCircle
 10
236.13026428222659
 20
201.20001464685822
 30
0.0
 40
2.9999999999999996
100
AcDbArc
 50
269.99999749552182
 51
348.96028584355929
  0
ARC
  5
21B
100
AcDbEntity
  8
0
  6
CONTINUOUS
 62
               7
100
AcDbCircle
 10
237.02775573730472
 20
204.20001464685822
 30
0.0
 40
5.9999999999999991
100
AcDbArc
 50
269.99999749552182
 51
341.59152003579175
  0
ARC
  5
21C
100
AcDbEntity
  8
0
  6
CONTINUOUS
 62
               7
100
AcDbCircle
 10
190.00001525878909
 20
210.20001464685816
 30
0.0
 40
50.0
100
AcDbArc
 50
348.96028584355929
 51
18.225985847321969
  0
ARC
  5
21D
100
AcDbEntity
  8
0
  6
CONTINUOUS
 62
               7
100
AcDbCircle
 10
234.45024108886722
 20
222.89999633631132
 30
0.0
 40
5.0
100
AcDbArc
 50
39.419948436202937
 51
90.000002504478161
  0
LINE
  5
21E
100
AcDbEntity
  8
0
  6
CONTINUOUS
 62
               7
100
AcDbLine
 10
300.00000099999994
 20
81.200012467031172
 30
0.0
 11
300.88340859571809
 21
81.200012467031172
 31
0.0
  0
LINE
  5
21F
100
AcDbEntity
  8
0
  6
CONTINUOUS
 62
               7
100
AcDbLine
 10
0.0
 20
78.200012457031164
 30
0.0
 11
301.94667153871546
 21
78.200012457031164
 31
0.0
  0
ARC
  5
220
100
AcDbEntity
  8
0
  6
CONTINUOUS
 62
               7
100
AcDbCircle
 10
301.94667153871546
 20
75.200012447031156
 30
0.0
 40
3.0000000099999999
100
AcDbArc
 50
18.575665919617233
 51
90.000002504478161
  0
ARC
  5
221
100
AcDbEntity
  8
0
  6
CONTINUOUS
 62
               7
100
AcDbCircle
 10
300.88340859571809
 20
78.200012457031164
 30
0.0
 40
3.0000000099999999
100
AcDbArc
 50
20.455793309426426
 51
90.000002504478161
  0
ARC
  5
222
100
AcDbEntity
  8
0
  6
CONTINUOUS
 62
               7
100
AcDbCircle
 10
300.11418251893525
 20
75.200012447031156
 30
0.0
 40
3.0000000099999999
100
AcDbArc
 50
4.8539097921627041
 51
90.000002504478161
  0
LINE
  5
223
100
AcDbEntity
  8
0
  6
CONTINUOUS
 62
               7
100
AcDbLine
 10
289.80000020306051
 20
56.200012383697867
 30
0.0
 11
292.2000017369395
 21
56.200012383697867
 31
0.0
  0
LINE
  5
224
100
AcDbEntity
  8
0
  6
CONTINUOUS
 62
               7
100
AcDbLine
 10
289.80000020306051
 20
66.600006314848883
 30
0.0
 11
292.2000017369395
 21
66.600006314848883
 31
0.0
  0
LINE
  5
225
100
AcDbEntity
  8
0
  6
CONTINUOUS
 62
               7
100
AcDbLine
 10
289.80000020306051
 20
66.600006314848883
 30
0.0
 11
289.80000020306051
 21
56.200012383697867
 31
0.0
  0
LINE
  5
226
100
AcDbEntity
  8
0
  6
CONTINUOUS
 62
               7
100
AcDbLine
 10
292.2000017369395
 20
66.600006314848883
 30
0.0
 11
292.2000017369395
 21
56.200012383697867
 31
0.0
  0
LINE
  5
227
100
AcDbEntity
  8
0
  6
CONTINUOUS
 62
               2
100
AcDbLine
 10
-41.56066017177983
 20
219.13935447507833
 30
0.0
 11
-39.43933982822017
 21
221.26067481863799
 31
0.0
  0
LINE
  5
228
100
AcDbEntity
  8
0
  6
CONTINUOUS
 62
               2
100
AcDbLine
 10
-39.43933982822017
 20
219.13935447507833
 30
0.0
 11
-41.56066017177983
 21
221.26067481863799
 31
0.0
  0
LINE
  5
229
100
AcDbEntity
  8
0
  6
CONTINUOUS
 62
               2
100
AcDbLine
 10
-36.560690689357898
 20
212.13935447507836
 30
0.0
 11
-34.439370345798238
 21
214.26067481863802
 31
0.0
  0
LINE
  5
22A
100
AcDbEntity
  8
0
  6
CONTINUOUS
 62
               2
100
AcDbLine
 10
-34.439370345798238
 20
212.13935447507836
 30
0.0
 11
-36.560690689357898
 21
214.26067481863802
 31
0.0
  0
LINE
  5
22B
100
AcDbEntity
  8
0
  6
CONTINUOUS
 62
               2
100
AcDbLine
 10
-36.560690689357898
 20
204.13935447507816
 30
0.0
 11
-34.439370345798238
 21
206.26067481863782
 31
0.0
  0
LINE
  5
22C
100
AcDbEntity
  8
0
  6
CONTINUOUS
 62
               2
100
AcDbLine
 10
-34.439370345798238
 20
204.13935447507816
 30
0.0
 11
-36.560690689357898
 21
206.26067481863782
 31
0.0
  0
LINE
  5
22D
100
AcDbEntity
  8
0
  6
CONTINUOUS
 62
               2
100
AcDbLine
 10
-41.56066017177983
 20
205.13935447507839
 30
0.0
 11
-39.43933982822017
 21
207.26067481863805
 31
0.0
  0
LINE
  5
22E
100
AcDbEntity
  8
0
  6
CONTINUOUS
 62
               2
100
AcDbLine
 10
-39.43933982822017
 20
205.13935447507839
 30
0.0
 11
-41.56066017177983
 21
207.26067481863805
 31
0.0
  0
LINE
  5
22F
100
AcDbEntity
  8
0
  6
CONTINUOUS
 62
               7
100
AcDbLine
 10
0.0
 20
3.2000143868581858
 30
0.0
 11
0.0
 21
195.20001464685822
 31
0.0
  0
LINE
  5
230
100
AcDbEntity
  8
0
  6
CONTINUOUS
 62
               7
100
AcDbLine
 10
300.00001625878912
 20
30.399993987150879
 30
0.0
 11
300.00001625878912
 21
81.200012467031172
 31
0.0
  0
ARC
  5
231
100
AcDbEntity
  8
0
  6
CONTINUOUS
 62
               7
100
AcDbCircle
 10
54.000015438789092
 20
54.300018480880169
 30
0.0
 40
250.00000083333333
100
AcDbArc
 50
355.14609020783729
 51
4.8539097921627041
  0
ARC
  5
232
100
AcDbEntity
  8
0
  6
CONTINUOUS
 62
               7
100
AcDbCircle
 10
210.00001595878905
 20
44.30001844754679
 30
0.0
 40
100.00000033333335
100
AcDbArc
 50
354.62440334723948
 51
20.455793309426426
  0
ENDBLK
  5
233
100
AcDbEntity
  8
0
100
AcDbBlockEnd
  0
BLOCK
  5
234
100
AcDbEntity
  8
0
100
AcDbBlockBegin
  2
DTHB-CS2-3
 70
               0
 10
0.0
 20
0.0
 30
0.0
  3
DTHB-CS2-3
  1

  0
LINE
  5
235
100
AcDbEntity
  8
0
  6
CONTINUOUS
 62
               7
100
AcDbLine
 10
62.549999998487237
 20
24.424365441746431
 30
0.0
 11
63.400000004229014
 21
24.350000077464188
 31
0.0
  0
LINE
  5
236
100
AcDbEntity
  8
0
  6
CONTINUOUS
 62
               7
100
AcDbLine
 10
62.549999998487465
 20
28.575634558254023
 30
0.0
 11
63.400000004229355
 21
28.649999922536267
 31
0.0
  0
LINE
  5
237
100
AcDbEntity
  8
0
  6
CONTINUOUS
 62
               7
100
AcDbLine
 10
62.549999976158006
 20
24.424365282058943
 30
0.0
 11
62.549999976158006
 21
28.575634717941512
 31
0.0
  0
ARC
  5
238
100
AcDbEntity
  8
0
  6
CONTINUOUS
 62
               7
100
AcDbCircle
 10
68.529655838012332
 20
26.5
 30
0.0
 40
6.3296561241149902
100
AcDbArc
 50
160.85729086486964
 51
199.14270731389303
  0
LINE
  5
239
100
AcDbEntity
  8
0
  6
CONTINUOUS
 62
               7
100
AcDbLine
 10
141.50006103515625
 20
7.1000038146972884
 30
0.0
 11
128.50006103515625
 21
7.1000038146972884
 31
0.0
  0
LINE
  5
23A
100
AcDbEntity
  8
0
  6
CONTINUOUS
 62
               7
100
AcDbLine
 10
127.00006103515625
 20
6.1000038146972884
 30
0.0
 11
143.00006103515625
 21
6.1000038146972884
 31
0.0
  0
ARC
  5
23B
100
AcDbEntity
  8
0
  6
CONTINUOUS
 62
               7
100
AcDbCircle
 10
141.50006103515625
 20
6.1000038146972884
 30
0.0
 40
1.0
100
AcDbArc
 50
0.0
 51
90.0
  0
ARC
  5
23C
100
AcDbEntity
  8
0
  6
CONTINUOUS
 62
               7
100
AcDbCircle
 10
127.00006103515625
 20
2.6000038146972884
 30
0.0
 40
3.4999999999999996
100
AcDbArc
 50
90.0
 51
180.0
  0
ARC
  5
23D
100
AcDbEntity
  8
0
  6
CONTINUOUS
 62
               7
100
AcDbCircle
 10
128.50006103515625
 20
6.1000038146972884
 30
0.0
 40
1.0
100
AcDbArc
 50
90.0
 51
180.0
  0
ARC
  5
23E
100
AcDbEntity
  8
0
  6
CONTINUOUS
 62
               7
100
AcDbCircle
 10
143.00006103515625
 20
2.6000038146972884
 30
0.0
 40
3.4999999999999996
100
AcDbArc
 50
0.0
 51
90.0
  0
LINE
  5
23F
100
AcDbEntity
  8
0
  6
CONTINUOUS
 62
               2
100
AcDbLine
 10
135.00006103515625
 20
0.8501961987542472
 30
0.0
 11
135.00006103515625
 21
9.7369139822203579
 31
0.0
  0
LINE
  5
240
100
AcDbEntity
  8
0
  6
CONTINUOUS
 62
               7
100
AcDbLine
 10
148.00006103515625
 20
2.5999847412109602
 30
0.0
 11
70.00006103515625
 21
2.5999847412109602
 31
0.0
  0
LINE
  5
241
100
AcDbEntity
  8
0
  6
CONTINUOUS
 62
               7
100
AcDbLine
 10
58.899980926513592
 20
94.5
 30
0.0
 11
58.899980926513592
 21
81.5
 31
0.0
  0
LINE
  5
242
100
AcDbEntity
  8
0
  6
CONTINUOUS
 62
               7
100
AcDbLine
 10
59.899980926513649
 20
80.0
 30
0.0
 11
59.899980926513649
 21
96.0
 31
0.0
  0
ARC
  5
243
100
AcDbEntity
  8
0
  6
CONTINUOUS
 62
               7
100
AcDbCircle
 10
59.899980926513649
 20
94.5
 30
0.0
 40
1.0
100
AcDbArc
 50
90.0
 51
180.0
  0
ARC
  5
244
100
AcDbEntity
  8
0
  6
CONTINUOUS
 62
               7
100
AcDbCircle
 10
63.399980926513649
 20
80.0
 30
0.0
 40
3.4999999999999996
100
AcDbArc
 50
180.0
 51
270.0
  0
ARC
  5
245
100
AcDbEntity
  8
0
  6
CONTINUOUS
 62
               7
100
AcDbCircle
 10
59.899980926513649
 20
81.5
 30
0.0
 40
1.0
100
AcDbArc
 50
180.0
 51
270.0
  0
ARC
  5
246
100
AcDbEntity
  8
0
  6
CONTINUOUS
 62
               7
100
AcDbCircle
 10
63.399980926513649
 20
96.0
 30
0.0
 40
3.4999999999999996
100
AcDbArc
 50
90.0
 51
180.0
  0
LINE
  5
247
100
AcDbEntity
  8
0
  6
CONTINUOUS
 62
               2
100
AcDbLine
 10
65.14978854245669
 20
88.0
 30
0.0
 11
56.26307075899058
 21
88.0
 31
0.0
  0
LINE
  5
248
100
AcDbEntity
  8
0
  6
CONTINUOUS
 62
               7
100
AcDbLine
 10
63.399999999999977
 20
101.0
 30
0.0
 11
63.399999999999977
 21
23.0
 31
0.0
  0
CIRCLE
  5
249
100
AcDbEntity
  8
0
  6
CONTINUOUS
 62
               7
100
AcDbCircle
 10
-10.0
 20
-101.20002746582037
 30
0.0
 40
5.0
  0
CIRCLE
  5
24A
100
AcDbEntity
  8
0
  6
CONTINUOUS
 62
               7
100
AcDbCircle
 10
10.0
 20
-101.20002746582037
 30
0.0
 40
5.0
  0
CIRCLE
  5
24B
100
AcDbEntity
  8
0
  6
CONTINUOUS
 62
               7
100
AcDbCircle
 10
-10.0
 20
-221.20002746582031
 30
0.0
 40
5.0
  0
CIRCLE
  5
24C
100
AcDbEntity
  8
0
  6
CONTINUOUS
 62
               7
100
AcDbCircle
 10
10.0
 20
-221.20002746582031
 30
0.0
 40
5.0
  0
CIRCLE
  5
24D
100
AcDbEntity
  8
0
  6
CONTINUOUS
 62
               7
100
AcDbCircle
 10
-95.0
 20
-44.200027465820313
 30
0.0
 40
5.0
  0
CIRCLE
  5
24E
100
AcDbEntity
  8
0
  6
CONTINUOUS
 62
               7
100
AcDbCircle
 10
-74.999999999999972
 20
-44.200027465820313
 30
0.0
 40
5.0
  0
CIRCLE
  5
24F
100
AcDbEntity
  8
0
  6
CONTINUOUS
 62
               7
100
AcDbCircle
 10
-95.0
 20
-214.20002746582031
 30
0.0
 40
5.0
  0
CIRCLE
  5
250
100
AcDbEntity
  8
0
  6
CONTINUOUS
 62
               7
100
AcDbCircle
 10
-74.999999999999972
 20
-214.20002746582031
 30
0.0
 40
5.0
  0
CIRCLE
  5
251
100
AcDbEntity
  8
0
  6
CONTINUOUS
 62
               7
100
AcDbCircle
 10
-95.0
 20
-234.20002746582031
 30
0.0
 40
5.0
  0
CIRCLE
  5
252
100
AcDbEntity
  8
0
  6
CONTINUOUS
 62
               7
100
AcDbCircle
 10
-74.999999999999972
 20
-234.20002746582031
 30
0.0
 40
5.0
  0
ARC
  5
253
100
AcDbEntity
  8
0
  6
CONTINUOUS
 62
               7
100
AcDbCircle
 10
67.129665374755632
 20
21.500000000000341
 30
0.0
 40
6.3296561241149902
100
AcDbArc
 50
160.85729268610575
 51
199.14270913512914
  0
LINE
  5
254
100
AcDbEntity
  8
0
  6
CONTINUOUS
 62
               7
100
AcDbLine
 10
62.00000953674288
 20
13.000000000000114
 30
0.0
 11
62.00000953674288
 21
23.649999922536381
 31
0.0
  0
LINE
  5
255
100
AcDbEntity
  8
0
  6
CONTINUOUS
 62
               7
100
AcDbLine
 10
61.150009512901079
 20
23.575634717941625
 30
0.0
 11
61.150009512901249
 21
19.424365282058943
 31
0.0
  0
LINE
  5
256
100
AcDbEntity
  8
0
  6
CONTINUOUS
 62
               7
100
AcDbLine
 10
61.150009535230481
 20
23.575634558254023
 30
0.0
 11
62.000009540972258
 21
23.649999922536381
 31
0.0
  0
LINE
  5
257
100
AcDbEntity
  8
0
  6
CONTINUOUS
 62
               7
100
AcDbLine
 10
61.150009535230311
 20
19.424365441746204
 30
0.0
 11
62.000009540972258
 21
19.35000007746396
 31
0.0
  0
LINE
  5
258
100
AcDbEntity
  8
0
  6
CONTINUOUS
 62
               7
100
AcDbLine
 10
62.650009155273153
 20
24.415615774304456
 30
0.0
 11
62.650009155273153
 21
23.500000000000341
 31
0.0
  0
LINE
  5
259
100
AcDbEntity
  8
0
  6
CONTINUOUS
 62
               7
100
AcDbLine
 10
66.000009536742937
 20
13.000000000000114
 30
0.0
 11
62.00000953674288
 21
13.000000000000114
 31
0.0
  0
ARC
  5
25A
100
AcDbEntity
  8
0
  6
CONTINUOUS
 62
               7
100
AcDbCircle
 10
69.00000953674305
 20
28.000000000000114
 30
0.0
 40
6.3499999999999996
100
AcDbArc
 50
151.8713540313704
 51
174.69811631459788
  0
LINE
  5
25B
100
AcDbEntity
  8
0
  6
CONTINUOUS
 62
               7
100
AcDbLine
 10
62.00000953674288
 20
23.500000000000341
 30
0.0
 11
63.399999999999977
 21
23.500000000000341
 31
0.0
  0
ARC
  5
25C
100
AcDbEntity
  8
0
  6
CONTINUOUS
 62
               7
100
AcDbCircle
 10
73.500061035156136
 20
-2.529671096801394
 30
0.0
 40
6.3296561241149902
100
AcDbArc
 50
70.857290864869654
 51
109.14270731389304
  0
LINE
  5
25D
100
AcDbEntity
  8
0
  6
CONTINUOUS
 62
               7
100
AcDbLine
 10
71.424426317215193
 20
3.4499847650530455
 30
0.0
 11
75.575695753097762
 21
3.4499847650530455
 31
0.0
  0
LINE
  5
25E
100
AcDbEntity
  8
0
  6
CONTINUOUS
 62
               7
100
AcDbLine
 10
71.424426476902681
 20
3.4499847427238137
 30
0.0
 11
71.350061112620438
 21
2.5999847369819236
 31
0.0
  0
LINE
  5
25F
100
AcDbEntity
  8
0
  6
CONTINUOUS
 62
               7
100
AcDbLine
 10
75.575695593410273
 20
3.4499847427234727
 30
0.0
 11
75.650060957692517
 21
2.5999847369816962
 31
0.0
  0
ARC
  5
260
100
AcDbEntity
  8
0
  6
CONTINUOUS
 62
               7
100
AcDbCircle
 10
68.500061035156591
 20
-1.1296806335445808
 30
0.0
 40
6.3296561241149902
100
AcDbArc
 50
70.857292686105737
 51
109.14270913512912
  0
LINE
  5
261
100
AcDbEntity
  8
0
  6
CONTINUOUS
 62
               7
100
AcDbLine
 10
60.000061035156364
 20
3.9999752044681145
 30
0.0
 11
70.650060957692517
 21
3.9999752044681145
 31
0.0
  0
LINE
  5
262
100
AcDbEntity
  8
0
  6
CONTINUOUS
 62
               7
100
AcDbLine
 10
70.500061035156591
 20
3.9999752044681145
 30
0.0
 11
70.500061035156591
 21
2.5999847412109602
 31
0.0
  0
ARC
  5
263
100
AcDbEntity
  8
0
  6
CONTINUOUS
 62
               7
100
AcDbCircle
 10
75.000061035156364
 20
-3.0000247955319992
 30
0.0
 40
6.3499999999999996
100
AcDbArc
 50
61.871354031369258
 51
84.698116314597883
  0
LINE
  5
264
100
AcDbEntity
  8
0
  6
CONTINUOUS
 62
               7
100
AcDbLine
 10
70.575695753097875
 20
4.8499752283098587
 30
0.0
 11
66.424426317215193
 21
4.849975228309745
 31
0.0
  0
LINE
  5
265
100
AcDbEntity
  8
0
  6
CONTINUOUS
 62
               7
100
AcDbLine
 10
70.575695593410273
 20
4.8499752059805132
 30
0.0
 11
70.650060957692517
 21
3.9999752002387368
 31
0.0
  0
LINE
  5
266
100
AcDbEntity
  8
0
  6
CONTINUOUS
 62
               7
100
AcDbLine
 10
66.42442647690234
 20
4.8499752059806269
 30
0.0
 11
66.35006111262021
 21
3.9999752002387368
 31
0.0
  0
LINE
  5
267
100
AcDbEntity
  8
0
  6
CONTINUOUS
 62
               7
100
AcDbLine
 10
71.415676809460706
 20
3.3499755859378411
 30
0.0
 11
70.500061035156591
 21
3.3499755859378411
 31
0.0
  0
LINE
  5
268
100
AcDbEntity
  8
0
  6
CONTINUOUS
 62
               7
100
AcDbLine
 10
60.000061035156364
 20
-0.0000247955318855
 30
0.0
 11
60.000061035156364
 21
3.9999752044681145
 31
0.0
  0
CIRCLE
  5
269
100
AcDbEntity
  8
0
  6
CONTINUOUS
 62
               2
100
AcDbCircle
 10
-10.0
 20
-191.20002746582031
 30
0.0
 40
1.4999999999999998
  0
CIRCLE
  5
26A
100
AcDbEntity
  8
0
  6
CONTINUOUS
 62
               7
100
AcDbCircle
 10
-10.0
 20
-191.20002746582031
 30
0.0
 40
1.25
  0
CIRCLE
  5
26B
100
AcDbEntity
  8
0
  6
CONTINUOUS
 62
               2
100
AcDbCircle
 10
10.0
 20
-191.20002746582031
 30
0.0
 40
1.4999999999999998
  0
CIRCLE
  5
26C
100
AcDbEntity
  8
0
  6
CONTINUOUS
 62
               7
100
AcDbCircle
 10
10.0
 20
-191.20002746582031
 30
0.0
 40
1.25
  0
CIRCLE
  5
26D
100
AcDbEntity
  8
0
  6
CONTINUOUS
 62
               2
100
AcDbCircle
 10
-10.0
 20
-131.20002746582037
 30
0.0
 40
1.4999999999999998
  0
CIRCLE
  5
26E
100
AcDbEntity
  8
0
  6
CONTINUOUS
 62
               7
100
AcDbCircle
 10
-10.0
 20
-131.20002746582037
 30
0.0
 40
1.25
  0
ARC
  5
26F
100
AcDbEntity
  8
0
  6
CONTINUOUS
 62
               7
100
AcDbCircle
 10
73.5
 20
-32.870346069335937
 30
0.0
 40
6.3296561241149902
100
AcDbArc
 50
250.85729006794102
 51
289.14270651696438
  0
ARC
  5
270
100
AcDbEntity
  8
0
  6
CONTINUOUS
 62
               7
100
AcDbCircle
 10
98.870361328125
 20
26.5
 30
0.0
 40
6.3296561241149902
100
AcDbArc
 50
340.85729086487191
 51
19.142707313895272
  0
ARC
  5
271
100
AcDbEntity
  8
0
  6
CONTINUOUS
 62
               7
100
AcDbCircle
 10
102.0
 20
-252.67530822753906
 30
0.0
 40
2.0
100
AcDbArc
 50
292.13135824114102
 51
0.0000025044781673
  0
ARC
  5
272
100
AcDbEntity
  8
0
  6
CONTINUOUS
 62
               7
100
AcDbCircle
 10
68.0
 20
-252.67530822753906
 30
0.0
 40
2.0
100
AcDbArc
 50
179.99999749552182
 51
247.86864175885896
  0
ARC
  5
273
100
AcDbEntity
  8
0
  6
CONTINUOUS
 62
               7
100
AcDbCircle
 10
68.0
 20
-248.95201110839844
 30
0.0
 40
2.0
100
AcDbArc
 50
179.99999749552182
 51
260.84681653571539
  0
ARC
  5
274
100
AcDbEntity
  8
0
  6
CONTINUOUS
 62
               7
100
AcDbCircle
 10
102.0
 20
-248.95201110839844
 30
0.0
 40
2.0
100
AcDbArc
 50
279.15318346428461
 51
0.0000025044781673
  0
ARC
  5
275
100
AcDbEntity
  8
0
  6
CONTINUOUS
 62
               7
100
AcDbCircle
 10
85.0
 20
-210.87501525878906
 30
0.0
 40
47.125
100
AcDbArc
 50
247.86864175885896
 51
292.13135824114102
  0
ARC
  5
276
100
AcDbEntity
  8
0
  6
CONTINUOUS
 62
               7
100
AcDbCircle
 10
85.0
 20
-143.44468688964849
 30
0.0
 40
108.86813354492186
100
AcDbArc
 50
260.84681653571539
 51
279.15318346428461
  0
ARC
  5
277
100
AcDbEntity
  8
0
  6
CONTINUOUS
 62
               7
100
AcDbCircle
 10
-105.67529296875
 20
-36.000015258789062
 30
0.0
 40
2.0
100
AcDbArc
 50
202.13136085930475
 51
270.0
  0
ARC
  5
278
100
AcDbEntity
  8
0
  6
CONTINUOUS
 62
               7
100
AcDbCircle
 10
-105.67529296875
 20
-2.0
 30
0.0
 40
2.0
100
AcDbArc
 50
90.000005008956336
 51
157.86863048927324
  0
ARC
  5
279
100
AcDbEntity
  8
0
  6
CONTINUOUS
 62
               7
100
AcDbCircle
 10
-101.9520263671875
 20
-2.0
 30
0.0
 40
2.0
100
AcDbArc
 50
90.000005008956336
 51
170.84680953499787
  0
ARC
  5
27A
100
AcDbEntity
  8
0
  6
CONTINUOUS
 62
               7
100
AcDbCircle
 10
-101.9520263671875
 20
-36.000015258789062
 30
0.0
 40
2.0
100
AcDbArc
 50
189.15318181358012
 51
270.0
  0
ARC
  5
27B
100
AcDbEntity
  8
0
  6
CONTINUOUS
 62
               7
100
AcDbCircle
 10
-63.874999999999972
 20
-19.000015258789063
 30
0.0
 40
47.125
100
AcDbArc
 50
157.86864096192809
 51
202.13136085930475
  0
ARC
  5
27C
100
AcDbEntity
  8
0
  6
CONTINUOUS
 62
               7
100
AcDbCircle
 10
3.5552978515625
 20
-19.000015258789063
 30
0.0
 40
108.86813354492186
100
AcDbArc
 50
170.84681317746356
 51
189.15318181358012
  0
CIRCLE
  5
27D
100
AcDbEntity
  8
0
  6
CONTINUOUS
 62
               7
100
AcDbCircle
 10
15.0
 20
-2.5
 30
0.0
 40
1.25
  0
CIRCLE
  5
27E
100
AcDbEntity
  8
0
  6
CONTINUOUS
 62
               2
100
AcDbCircle
 10
15.0
 20
-2.5
 30
0.0
 40
1.4999999999999998
  0
CIRCLE
  5
27F
100
AcDbEntity
  8
0
  6
CONTINUOUS
 62
               7
100
AcDbCircle
 10
41.0
 20
-2.5
 30
0.0
 40
1.25
  0
CIRCLE
  5
280
100
AcDbEntity
  8
0
  6
CONTINUOUS
 62
               2
100
AcDbCircle
 10
41.0
 20
-2.5
 30
0.0
 40
1.4999999999999998
  0
CIRCLE
  5
281
100
AcDbEntity
  8
0
  6
CONTINUOUS
 62
               7
100
AcDbCircle
 10
41.0
 20
-35.500015258789063
 30
0.0
 40
1.25
  0
CIRCLE
  5
282
100
AcDbEntity
  8
0
  6
CONTINUOUS
 62
               2
100
AcDbCircle
 10
41.0
 20
-35.500015258789063
 30
0.0
 40
1.4999999999999998
  0
CIRCLE
  5
283
100
AcDbEntity
  8
0
  6
CONTINUOUS
 62
               7
100
AcDbCircle
 10
15.0
 20
-35.500015258789063
 30
0.0
 40
1.25
  0
CIRCLE
  5
284
100
AcDbEntity
  8
0
  6
CONTINUOUS
 62
               2
100
AcDbCircle
 10
15.0
 20
-35.500015258789063
 30
0.0
 40
1.4999999999999998
  0
ARC
  5
285
100
AcDbEntity
  8
0
  6
CONTINUOUS
 62
               7
100
AcDbCircle
 10
18.5
 20
-8.5000152587890625
 30
0.0
 40
3.25
100
AcDbArc
 50
63.164683533596474
 51
116.8353264843162
  0
ARC
  5
286
100
AcDbEntity
  8
0
  6
CONTINUOUS
 62
               7
100
AcDbCircle
 10
37.5
 20
-8.5000152587890625
 30
0.0
 40
3.25
100
AcDbArc
 50
63.164683533596474
 51
116.8353264843162
  0
ARC
  5
287
100
AcDbEntity
  8
0
  6
CONTINUOUS
 62
               7
100
AcDbCircle
 10
18.5
 20
-29.500015258789062
 30
0.0
 40
3.25
100
AcDbArc
 50
243.16467852464015
 51
296.83532147535988
  0
ARC
  5
288
100
AcDbEntity
  8
0
  6
CONTINUOUS
 62
               7
100
AcDbCircle
 10
37.5
 20
-29.500015258789062
 30
0.0
 40
3.25
100
AcDbArc
 50
243.16467852464015
 51
296.83532147535988
  0
ARC
  5
289
100
AcDbEntity
  8
0
  6
CONTINUOUS
 62
               7
100
AcDbCircle
 10
0.0
 20
-183.06358337402344
 30
0.0
 40
135.72679138183594
100
AcDbArc
 50
255.0562291149291
 51
284.94377088507088
  0
ARC
  5
28A
100
AcDbEntity
  8
0
  6
CONTINUOUS
 62
               7
100
AcDbCircle
 10
104.0
 20
-315.99205017089844
 30
0.0
 40
1.0
100
AcDbArc
 50
271.98128483929463
 51
0.0000025044781673
  0
ARC
  5
28B
100
AcDbEntity
  8
0
  6
CONTINUOUS
 62
               7
100
AcDbCircle
 10
-104.0
 20
-315.99205017089844
 30
0.0
 40
1.0
100
AcDbArc
 50
179.99999749552182
 51
268.01871516070537
  0
ARC
  5
28C
100
AcDbEntity
  8
0
  6
CONTINUOUS
 62
               7
100
AcDbCircle
 10
0.0
 20
2690.3327484130859
 30
0.0
 40
3009.123046875
100
AcDbArc
 50
268.01871516070537
 51
271.98128483929463
  0
ARC
  5
28D
100
AcDbEntity
  8
0
  6
CONTINUOUS
 62
               7
100
AcDbCircle
 10
104.0
 20
-317.00001525878906
 30
0.0
 40
1.0
100
AcDbArc
 50
270.0
 51
0.0000025044781673
  0
ARC
  5
28E
100
AcDbEntity
  8
0
  6
CONTINUOUS
 62
               7
100
AcDbCircle
 10
104.0
 20
-317.09638977050781
 30
0.0
 40
1.0
100
AcDbArc
 50
276.49788211075821
 51
0.0000025044781673
  0
ARC
  5
28F
100
AcDbEntity
  8
0
  6
CONTINUOUS
 62
               7
100
AcDbCircle
 10
-104.0
 20
-317.09638977050781
 30
0.0
 40
1.0
100
AcDbArc
 50
179.99999749552182
 51
263.50211788924179
  0
ARC
  5
290
100
AcDbEntity
  8
0
  6
CONTINUOUS
 62
               7
100
AcDbCircle
 10
0.0
 20
595.99998474121094
 30
0.0
 40
920.0
100
AcDbArc
 50
263.50211788924179
 51
276.49788211075821
  0
LINE
  5
291
100
AcDbEntity
  8
0
  6
CONTINUOUS
 62
               2
100
AcDbLine
 10
-7.0
 20
-191.20002746582031
 30
0.0
 11
-13.0
 21
-191.20002746582031
 31
0.0
  0
LINE
  5
292
100
AcDbEntity
  8
0
  6
CONTINUOUS
 62
               2
100
AcDbLine
 10
-10.0
 20
-194.20002746582031
 30
0.0
 11
-10.0
 21
-188.20002746582031
 31
0.0
  0
LINE
  5
293
100
AcDbEntity
  8
0
  6
CONTINUOUS
 62
               2
100
AcDbLine
 10
13.0
 20
-191.20002746582031
 30
0.0
 11
7.0
 21
-191.20002746582031
 31
0.0
  0
LINE
  5
294
100
AcDbEntity
  8
0
  6
CONTINUOUS
 62
               2
100
AcDbLine
 10
10.0
 20
-194.20002746582031
 30
0.0
 11
10.0
 21
-188.20002746582031
 31
0.0
  0
LINE
  5
295
100
AcDbEntity
  8
0
  6
CONTINUOUS
 62
               2
100
AcDbLine
 10
-7.0
 20
-131.20002746582037
 30
0.0
 11
-13.0
 21
-131.20002746582037
 31
0.0
  0
LINE
  5
296
100
AcDbEntity
  8
0
  6
CONTINUOUS
 62
               2
100
AcDbLine
 10
-10.0
 20
-134.20002746582037
 30
0.0
 11
-10.0
 21
-128.20002746582037
 31
0.0
  0
LINE
  5
297
100
AcDbEntity
  8
0
  6
CONTINUOUS
 62
               7
100
AcDbLine
 10
104.0
 20
-224.20002746582031
 30
0.0
 11
105.0
 21
-224.20002746582031
 31
0.0
  0
LINE
  5
298
100
AcDbEntity
  8
0
  6
CONTINUOUS
 62
               7
100
AcDbLine
 10
-25.0
 20
-38.000015258789062
 30
0.0
 11
-25.0
 21
-314.20002746582031
 31
0.0
  0
LINE
  5
299
100
AcDbEntity
  8
0
  6
CONTINUOUS
 62
               7
100
AcDbLine
 10
105.5
 20
-38.000015258789062
 30
0.0
 11
105.5
 21
-39.000015258789063
 31
0.0
  0
LINE
  5
29A
100
AcDbEntity
  8
0
  6
CONTINUOUS
 62
               7
100
AcDbLine
 10
105.0
 20
-39.000015258789063
 30
0.0
 11
105.0
 21
-317.00001525878906
 31
0.0
  0
LINE
  5
29B
100
AcDbEntity
  8
0
  6
CONTINUOUS
 62
               7
100
AcDbLine
 10
104.0
 20
-39.000015258789063
 30
0.0
 11
104.0
 21
-252.67530814011627
 31
0.0
  0
LINE
  5
29C
100
AcDbEntity
  8
0
  6
CONTINUOUS
 62
               7
100
AcDbLine
 10
99.0
 20
-39.000015258789063
 30
0.0
 11
99.0
 21
-40.000015258789063
 31
0.0
  0
LINE
  5
29D
100
AcDbEntity
  8
0
  6
CONTINUOUS
 62
               7
100
AcDbLine
 10
98.4000244140625
 20
-39.000015258789063
 30
0.0
 11
98.4000244140625
 21
-246.00001525878901
 31
0.0
  0
LINE
  5
29E
100
AcDbEntity
  8
0
  6
CONTINUOUS
 62
               7
100
AcDbLine
 10
96.20001220703125
 20
-39.000015258789063
 30
0.0
 11
96.20001220703125
 21
-246.00001525878901
 31
0.0
  0
LINE
  5
29F
100
AcDbEntity
  8
0
  6
CONTINUOUS
 62
               7
100
AcDbLine
 10
71.0
 20
-39.000015258789063
 30
0.0
 11
71.0
 21
-40.000015258789063
 31
0.0
  0
LINE
  5
2A0
100
AcDbEntity
  8
0
  6
CONTINUOUS
 62
               7
100
AcDbLine
 10
73.79998779296875
 20
-39.192889384617843
 30
0.0
 11
73.79998779296875
 21
-246.00001525878901
 31
0.0
  0
LINE
  5
2A1
100
AcDbEntity
  8
0
  6
CONTINUOUS
 62
               7
100
AcDbLine
 10
71.5999755859375
 20
-39.000015258789063
 30
0.0
 11
71.5999755859375
 21
-246.00001525878901
 31
0.0
  0
LINE
  5
2A2
100
AcDbEntity
  8
0
  6
CONTINUOUS
 62
               7
100
AcDbLine
 10
66.0
 20
-39.000015258789063
 30
0.0
 11
66.0
 21
-252.67530814011627
 31
0.0
  0
LINE
  5
2A3
100
AcDbEntity
  8
0
  6
CONTINUOUS
 62
               7
100
AcDbLine
 10
65.0
 20
-39.000015258789063
 30
0.0
 11
65.0
 21
-224.20002746582031
 31
0.0
  0
LINE
  5
2A4
100
AcDbEntity
  8
0
  6
CONTINUOUS
 62
               7
100
AcDbLine
 10
60.000061035156364
 20
1.0
 30
0.0
 11
5.5
 21
1.0
 31
0.0
  0
LINE
  5
2A5
100
AcDbEntity
  8
0
  6
CONTINUOUS
 62
               7
100
AcDbLine
 10
25.0
 20
-39.000015258789063
 30
0.0
 11
25.0
 21
-314.20002746582031
 31
0.0
  0
LINE
  5
2A6
100
AcDbEntity
  8
0
  6
CONTINUOUS
 62
               7
100
AcDbLine
 10
5.5
 20
-38.000015258789062
 30
0.0
 11
5.5
 21
-39.000015258789063
 31
0.0
  0
LINE
  5
2A7
100
AcDbEntity
  8
0
  6
CONTINUOUS
 62
               7
100
AcDbLine
 10
-105.0
 20
-38.000015258789062
 30
0.0
 11
-105.0
 21
-317.09638977050781
 31
0.0
  0
LINE
  5
2A8
100
AcDbEntity
  8
0
  6
CONTINUOUS
 62
               7
100
AcDbLine
 10
75.57562255859375
 20
-38.849990844726563
 30
0.0
 11
71.42437744140625
 21
-38.849990844726563
 31
0.0
  0
LINE
  5
2A9
100
AcDbEntity
  8
0
  6
CONTINUOUS
 62
               7
100
AcDbLine
 10
75.575636758394921
 20
-38.850009917030548
 30
0.0
 11
75.650002939928299
 21
-38.000000570065822
 31
0.0
  0
LINE
  5
2AA
100
AcDbEntity
  8
0
  6
CONTINUOUS
 62
               7
100
AcDbLine
 10
71.424389155957215
 20
-38.850012647082622
 30
0.0
 11
71.350024304314957
 21
-38.000018500842998
 31
0.0
  0
LINE
  5
2AB
100
AcDbEntity
  8
0
  6
CONTINUOUS
 62
               7
100
AcDbLine
 10
104.8499755859375
 20
28.575637817382813
 30
0.0
 11
104.8499755859375
 21
24.424362182617188
 31
0.0
  0
LINE
  5
2AC
100
AcDbEntity
  8
0
  6
CONTINUOUS
 62
               7
100
AcDbLine
 10
104.85000450097868
 20
28.575626781262145
 30
0.0
 11
104.00004075618926
 21
28.649988973122163
 31
0.0
  0
LINE
  5
2AD
100
AcDbEntity
  8
0
  6
CONTINUOUS
 62
               7
100
AcDbLine
 10
104.85003072111522
 20
24.424364734645678
 30
0.0
 11
104.00000617342539
 21
24.34999722322118
 31
0.0
  0
LINE
  5
2AE
100
AcDbEntity
  8
0
  6
CONTINUOUS
 62
               7
100
AcDbLine
 10
104.0
 20
-246.00001525878901
 30
0.0
 11
66.0
 21
-246.00001525878901
 31
0.0
  0
LINE
  5
2AF
100
AcDbEntity
  8
0
  6
CONTINUOUS
 62
               7
100
AcDbLine
 10
98.83001708984375
 20
99.854751586914063
 30
0.0
 11
98.83001708984375
 21
23.866134643554687
 31
0.0
  0
LINE
  5
2B0
100
AcDbEntity
  8
0
  6
CONTINUOUS
 62
               7
100
AcDbLine
 10
66.0
 20
23.0
 30
0.0
 11
66.0
 21
4.0
 31
0.0
  0
LINE
  5
2B1
100
AcDbEntity
  8
0
  6
CONTINUOUS
 62
               7
100
AcDbLine
 10
96.20001220703125
 20
23.0
 30
0.0
 11
96.20001220703125
 21
2.5999847412109602
 31
0.0
  0
LINE
  5
2B2
100
AcDbEntity
  8
0
  6
CONTINUOUS
 62
               7
100
AcDbLine
 10
104.0
 20
101.0
 30
0.0
 11
104.0
 21
2.5999847412109602
 31
0.0
  0
LINE
  5
2B3
100
AcDbEntity
  8
0
  6
CONTINUOUS
 62
               7
100
AcDbLine
 10
71.5999755859375
 20
-40.000015258789063
 30
0.0
 11
66.0
 21
-40.000015258789063
 31
0.0
  0
LINE
  5
2B4
100
AcDbEntity
  8
0
  6
CONTINUOUS
 62
               7
100
AcDbLine
 10
104.0
 20
101.0
 30
0.0
 11
63.399999999999977
 21
101.0
 31
0.0
  0
LINE
  5
2B5
100
AcDbEntity
  8
0
  6
CONTINUOUS
 62
               7
100
AcDbLine
 10
73.79998779296875
 20
23.0
 30
0.0
 11
73.79998779296875
 21
3.7928751141404291
 31
0.0
  0
LINE
  5
2B6
100
AcDbEntity
  8
0
  6
CONTINUOUS
 62
               7
100
AcDbLine
 10
71.5999755859375
 20
23.0
 30
0.0
 11
71.5999755859375
 21
3.5080620817362842
 31
0.0
  0
LINE
  5
2B7
100
AcDbEntity
  8
0
  6
CONTINUOUS
 62
               7
100
AcDbLine
 10
98.4000244140625
 20
23.0
 30
0.0
 11
98.4000244140625
 21
2.5999847412109602
 31
0.0
  0
LINE
  5
2B8
100
AcDbEntity
  8
0
  6
CONTINUOUS
 62
               7
100
AcDbLine
 10
104.0
 20
-40.000015258789063
 30
0.0
 11
98.4000244140625
 21
-40.000015258789063
 31
0.0
  0
LINE
  5
2B9
100
AcDbEntity
  8
0
  6
CONTINUOUS
 62
               7
100
AcDbLine
 10
104.0
 20
23.0
 30
0.0
 11
63.399999999999977
 21
23.0
 31
0.0
  0
LINE
  5
2BA
100
AcDbEntity
  8
0
  6
CONTINUOUS
 62
               7
100
AcDbLine
 10
71.16998291015625
 20
99.674407958984375
 30
0.0
 11
71.16998291015625
 21
24.046478271484375
 31
0.0
  0
LINE
  5
2BB
100
AcDbEntity
  8
0
  6
CONTINUOUS
 62
               2
100
AcDbLine
 10
85.0
 20
107.09270946734455
 30
0.0
 11
85.0
 21
-262.47335988852564
 31
0.0
  0
LINE
  5
2BC
100
AcDbEntity
  8
0
  6
CONTINUOUS
 62
               7
100
AcDbLine
 10
49.0
 20
-5.600006103515625
 30
0.0
 11
49.0
 21
0.0
 31
0.0
  0
LINE
  5
2BD
100
AcDbEntity
  8
0
  6
CONTINUOUS
 62
               7
100
AcDbLine
 10
-99.0
 20
-38.000015258789062
 30
0.0
 11
-99.0
 21
0.0
 31
0.0
  0
LINE
  5
2BE
100
AcDbEntity
  8
0
  6
CONTINUOUS
 62
               7
100
AcDbLine
 10
49.0
 20
-5.0
 30
0.0
 11
7.0
 21
-5.0
 31
0.0
  0
LINE
  5
2BF
100
AcDbEntity
  8
0
  6
CONTINUOUS
 62
               7
100
AcDbLine
 10
146.85479736328125
 20
-32.830001831054687
 30
0.0
 11
70.86614990234375
 21
-32.830001831054687
 31
0.0
  0
LINE
  5
2C0
100
AcDbEntity
  8
0
  6
CONTINUOUS
 62
               7
100
AcDbLine
 10
70.0
 20
0.0
 30
0.0
 11
-105.67529296875
 21
0.0
 31
0.0
  0
LINE
  5
2C1
100
AcDbEntity
  8
0
  6
CONTINUOUS
 62
               7
100
AcDbLine
 10
70.0
 20
-30.199996948242188
 30
0.0
 11
-99.0
 21
-30.199996948242188
 31
0.0
  0
LINE
  5
2C2
100
AcDbEntity
  8
0
  6
CONTINUOUS
 62
               7
100
AcDbLine
 10
148.00006103515625
 20
-38.000015258789062
 30
0.0
 11
-105.67529296875
 21
-38.000015258789062
 31
0.0
  0
LINE
  5
2C3
100
AcDbEntity
  8
0
  6
CONTINUOUS
 62
               7
100
AcDbLine
 10
7.0
 20
-5.600006103515625
 30
0.0
 11
7.0
 21
0.0
 31
0.0
  0
LINE
  5
2C4
100
AcDbEntity
  8
0
  6
CONTINUOUS
 62
               7
100
AcDbLine
 10
148.00006103515625
 20
-38.000015258789062
 30
0.0
 11
148.00006103515625
 21
2.5999847412109602
 31
0.0
  0
LINE
  5
2C5
100
AcDbEntity
  8
0
  6
CONTINUOUS
 62
               7
100
AcDbLine
 10
70.0
 20
-7.8000030517578125
 30
0.0
 11
-99.0
 21
-7.8000030517578125
 31
0.0
  0
LINE
  5
2C6
100
AcDbEntity
  8
0
  6
CONTINUOUS
 62
               7
100
AcDbLine
 10
70.0
 20
-5.600006103515625
 30
0.0
 11
-99.0
 21
-5.600006103515625
 31
0.0
  0
LINE
  5
2C7
100
AcDbEntity
  8
0
  6
CONTINUOUS
 62
               2
100
AcDbLine
 10
15.0
 20
-5.0
 30
0.0
 11
15.0
 21
0.0
 31
0.0
  0
LINE
  5
2C8
100
AcDbEntity
  8
0
  6
CONTINUOUS
 62
               2
100
AcDbLine
 10
12.5
 20
-2.5
 30
0.0
 11
17.5
 21
-2.5
 31
0.0
  0
LINE
  5
2C9
100
AcDbEntity
  8
0
  6
CONTINUOUS
 62
               2
100
AcDbLine
 10
41.0
 20
-5.0
 30
0.0
 11
41.0
 21
0.0
 31
0.0
  0
LINE
  5
2CA
100
AcDbEntity
  8
0
  6
CONTINUOUS
 62
               2
100
AcDbLine
 10
38.5
 20
-2.5
 30
0.0
 11
43.5
 21
-2.5
 31
0.0
  0
LINE
  5
2CB
100
AcDbEntity
  8
0
  6
CONTINUOUS
 62
               2
100
AcDbLine
 10
41.0
 20
-38.000015258789062
 30
0.0
 11
41.0
 21
-33.000015258789063
 31
0.0
  0
LINE
  5
2CC
100
AcDbEntity
  8
0
  6
CONTINUOUS
 62
               2
100
AcDbLine
 10
38.5
 20
-35.500015258789063
 30
0.0
 11
43.5
 21
-35.500015258789063
 31
0.0
  0
LINE
  5
2CD
100
AcDbEntity
  8
0
  6
CONTINUOUS
 62
               2
100
AcDbLine
 10
15.0
 20
-38.000015258789062
 30
0.0
 11
15.0
 21
-33.000015258789063
 31
0.0
  0
LINE
  5
2CE
100
AcDbEntity
  8
0
  6
CONTINUOUS
 62
               2
100
AcDbLine
 10
12.5
 20
-35.500015258789063
 30
0.0
 11
17.5
 21
-35.500015258789063
 31
0.0
  0
LINE
  5
2CF
100
AcDbEntity
  8
0
  6
CONTINUOUS
 62
               7
100
AcDbLine
 10
70.0
 20
-32.400009155273438
 30
0.0
 11
-99.0
 21
-32.400009155273438
 31
0.0
  0
LINE
  5
2D0
100
AcDbEntity
  8
0
  6
CONTINUOUS
 62
               7
100
AcDbLine
 10
7.0
 20
-38.000015258789062
 30
0.0
 11
7.0
 21
-32.400009155273438
 31
0.0
  0
LINE
  5
2D1
100
AcDbEntity
  8
0
  6
CONTINUOUS
 62
               7
100
AcDbLine
 10
49.0
 20
-38.000015258789062
 30
0.0
 11
49.0
 21
-32.400009155273438
 31
0.0
  0
LINE
  5
2D2
100
AcDbEntity
  8
0
  6
CONTINUOUS
 62
               7
100
AcDbLine
 10
70.0
 20
-38.000015258789062
 30
0.0
 11
70.0
 21
2.5999847412109602
 31
0.0
  0
LINE
  5
2D3
100
AcDbEntity
  8
0
  6
CONTINUOUS
 62
               7
100
AcDbLine
 10
146.67437744140625
 20
-5.1699981689453125
 30
0.0
 11
71.04644775390625
 21
-5.1699981689453125
 31
0.0
  0
LINE
  5
2D4
100
AcDbEntity
  8
0
  6
CONTINUOUS
 62
               2
100
AcDbLine
 10
153.00006103515625
 20
-19.000015258789063
 30
0.0
 11
28.0
 21
-19.000015258789063
 31
0.0
  0
LINE
  5
2D5
100
AcDbEntity
  8
0
  6
CONTINUOUS
 62
               7
100
AcDbLine
 10
49.0
 20
-33.000015258789063
 30
0.0
 11
7.0
 21
-33.000015258789063
 31
0.0
  0
LINE
  5
2D6
100
AcDbEntity
  8
0
  6
CONTINUOUS
 62
               7
100
AcDbLine
 10
105.5
 20
-39.000015258789063
 30
0.0
 11
75.078512678889638
 21
-39.000015258789063
 31
0.0
  0
LINE
  5
2D7
100
AcDbEntity
  8
0
  6
CONTINUOUS
 62
               7
100
AcDbLine
 10
5.5
 20
1.0
 30
0.0
 11
5.5
 21
0.0
 31
0.0
  0
LINE
  5
2D8
100
AcDbEntity
  8
0
  6
CONTINUOUS
 62
               7
100
AcDbLine
 10
65.0
 20
-224.20002746582031
 30
0.0
 11
66.0
 21
-224.20002746582031
 31
0.0
  0
LINE
  5
2D9
100
AcDbEntity
  8
0
  6
CONTINUOUS
 62
               2
100
AcDbLine
 10
0.0
 20
11.050413928201237
 30
0.0
 11
0.0
 21
-330.0
 31
0.0
  0
LINE
  5
2DA
100
AcDbEntity
  8
0
  6
CONTINUOUS
 62
               7
100
AcDbLine
 10
-105.0
 20
-314.20002746582031
 30
0.0
 11
105.0
 21
-314.20002746582031
 31
0.0
  0
LINE
  5
2DB
100
AcDbEntity
  8
0
  6
CONTINUOUS
 62
               2
100
AcDbLine
 10
7.0
 20
-131.20002746582037
 30
0.0
 11
13.0
 21
-131.20002746582037
 31
0.0
  0
LINE
  5
2DC
100
AcDbEntity
  8
0
  6
CONTINUOUS
 62
               2
100
AcDbLine
 10
10.0
 20
-134.20002746582037
 30
0.0
 11
10.0
 21
-128.20002746582037
 31
0.0
  0
CIRCLE
  5
2DD
100
AcDbEntity
  8
0
  6
CONTINUOUS
 62
               7
100
AcDbCircle
 10
10.0
 20
-131.20002746582037
 30
0.0
 40
1.25
  0
CIRCLE
  5
2DE
100
AcDbEntity
  8
0
  6
CONTINUOUS
 62
               2
100
AcDbCircle
 10
10.0
 20
-131.20002746582037
 30
0.0
 40
1.4999999999999998
  0
LINE
  5
2DF
100
AcDbEntity
  8
0
  6
CONTINUOUS
 62
               7
100
AcDbLine
 10
71.921487321110362
 20
-39.000015258789063
 30
0.0
 11
5.5
 21
-39.000015258789063
 31
0.0
  0
LINE
  5
2E1
100
AcDbEntity
  8
0
  6
PHANTOM
 62
               2
100
AcDbLine
 10
28.0
 20
-219.00001525878906
 30
0.0
 11
-72.0
 21
-219.00001525878906
 31
0.0
  0
LINE
  5
2E2
100
AcDbEntity
  8
0
  6
PHANTOM
 62
               2
100
AcDbLine
 10
28.0
 20
-19.000015258789063
 30
0.0
 11
28.0
 21
-219.00001525878906
 31
0.0
  0
LINE
  5
2E3
100
AcDbEntity
  8
0
  6
PHANTOM
 62
               2
100
AcDbLine
 10
-72.0
 20
-19.000015258789063
 30
0.0
 11
-72.0
 21
-219.00001525878906
 31
0.0
  0
LINE
  5
2E4
100
AcDbEntity
  8
0
  6
CONTINUOUS
 62
               2
100
AcDbLine
 10
-72.0
 20
-19.000015258789063
 30
0.0
 11
-115.0
 21
-19.000015258789063
 31
0.0
  0
LINE
  5
2E5
100
AcDbEntity
  8
0
  6
PHANTOM
 62
               2
100
AcDbLine
 10
28.0
 20
-19.000015258789063
 30
0.0
 11
-72.0
 21
-19.000015258789063
 31
0.0
  0
ENDBLK
  5
2E6
100
AcDbEntity
  8
0
100
AcDbBlockEnd
  0
BLOCK
  5
22
100
AcDbEntity
  8
0
  6
ByBlock
 62
               0
100
AcDbBlockBegin
  2
_OPEN30
 70
               2
 10
0.0
 20
0.0
 30
0.0
  3
_OPEN30
  1

  0
LINE
  5
23
100
AcDbEntity
  8
0
  6
ByBlock
 62
               0
100
AcDbLine
 10
-1.0
 20
0.267949
 30
0.0
 11
0.0
 21
0.0
 31
0.0
  0
LINE
  5
24
100
AcDbEntity
  8
0
  6
ByBlock
 62
               0
100
AcDbLine
 10
0.0
 20
0.0
 30
0.0
 11
-1.0
 21
-0.267949
 31
0.0
  0
LINE
  5
25
100
AcDbEntity
  8
0
  6
ByBlock
 62
               0
100
AcDbLine
 10
0.0
 20
0.0
 30
0.0
 11
-1.0
 21
0.0
 31
0.0
  0
ENDBLK
  5
26
100
AcDbEntity
  8
0
  6
ByBlock
 62
               0
100
AcDbBlockEnd
  0
BLOCK
  5
2ED
100
AcDbEntity
  8
0
  6
ByBlock
 62
               0
100
AcDbBlockBegin
  2
*D4
 70
               1
 10
0.0
 20
0.0
 30
0.0
  3
*D4
  1

  0
LINE
  5
2EE
100
AcDbEntity
  8
0
  6
CONTINUOUS
 62
               2
100
AcDbLine
 10
107.99999992181225
 20
338.85333458896986
 30
0.0
 11
207.99999992181228
 21
338.85333458896986
 31
0.0
  0
LINE
  5
2EF
100
AcDbEntity
  8
0
  6
CONTINUOUS
 62
               2
100
AcDbLine
 10
-9.2455902881486907
 20
338.85333458896986
 30
0.0
 11
107.99999992181225
 21
338.85333458896986
 31
0.0
  0
LINE
  5
2F0
100
AcDbEntity
  8
0
  6
CONTINUOUS
 62
               2
100
AcDbLine
 10
107.99999992181225
 20
256.49996392246595
 30
0.0
 11
107.99999992181225
 21
340.35333458896986
 31
0.0
  0
LINE
  5
2F1
100
AcDbEntity
  8
0
  6
CONTINUOUS
 62
               2
100
AcDbLine
 10
207.99999992181228
 20
256.49996392246595
 30
0.0
 11
207.99999992181228
 21
340.35333458896986
 31
0.0
  0
INSERT
  5
2F2
100
AcDbEntity
  8
0
  6
CONTINUOUS
 62
               2
100
AcDbBlockReference
  2
_OPEN30
 10
107.99999992181225
 20
338.85333458896986
 30
0.0
 41
8.3100000000000005
 42
8.3100000000000005
 43
8.3100000000000005
 50
180.0
  0
INSERT
  5
2F3
100
AcDbEntity
  8
0
  6
CONTINUOUS
 62
               2
100
AcDbBlockReference
  2
_OPEN30
 10
207.99999992181228
 20
338.85333458896986
 30
0.0
 41
8.3100000000000005
 42
8.3100000000000005
 43
8.3100000000000005
  0
MTEXT
  5
2F5
100
AcDbEntity
  8
0
  6
CONTINUOUS
 62
               2
100
AcDbMText
 10
49.254409711851309
 20
344.35333458896986
 30
0.0
 40
9.0
 41
0.0
 71
               5
 72
               1
  1
\A1;X-STROKE(100）
  7
MX_DIMTXSTY_2
  0
POINT
  5
2F6
100
AcDbEntity
  8
DEFPOINTS
  6
CONTINUOUS
 62
               0
100
AcDbPoint
 10
107.99999992181225
 20
254.99996392246595
 30
0.0
  0
POINT
  5
2F7
100
AcDbEntity
  8
DEFPOINTS
  6
CONTINUOUS
 62
               0
100
AcDbPoint
 10
207.99999992181228
 20
254.99996392246595
 30
0.0
  0
POINT
  5
2F8
100
AcDbEntity
  8
DEFPOINTS
  6
CONTINUOUS
 62
               0
100
AcDbPoint
 10
207.99999992181228
 20
338.85333458896986
 30
0.0
  0
ENDBLK
  5
2F9
100
AcDbEntity
  8
0
  6
ByBlock
 62
               0
100
AcDbBlockEnd
  0
BLOCK
  5
2FC
100
AcDbEntity
  8
0
  6
ByBlock
 62
               0
100
AcDbBlockBegin
  2
*D5
 70
               1
 10
0.0
 20
0.0
 30
0.0
  3
*D5
  1

  0
LINE
  5
2FD
100
AcDbEntity
  8
0
  6
CONTINUOUS
 62
               2
100
AcDbLine
 10
362.00006095696853
 20
254.99997000000008
 30
0.0
 11
362.00006095696853
 21
54.999970000000175
 31
0.0
  0
LINE
  5
2FE
100
AcDbEntity
  8
0
  6
CONTINUOUS
 62
               2
100
AcDbLine
 10
334.50006095696853
 20
254.99997000000008
 30
0.0
 11
363.50006095696853
 21
254.99997000000008
 31
0.0
  0
LINE
  5
2FF
100
AcDbEntity
  8
0
  6
CONTINUOUS
 62
               2
100
AcDbLine
 10
209.49999992181228
 20
54.999970000000175
 30
0.0
 11
363.50006095696853
 21
54.999970000000175
 31
0.0
  0
INSERT
  5
300
100
AcDbEntity
  8
0
  6
CONTINUOUS
 62
               2
100
AcDbBlockReference
  2
_OPEN30
 10
362.00006095696853
 20
254.99997000000008
 30
0.0
 41
8.3100000000000005
 42
8.3100000000000005
 43
8.3100000000000005
 50
90.0
  0
INSERT
  5
301
100
AcDbEntity
  8
0
  6
CONTINUOUS
 62
               2
100
AcDbBlockReference
  2
_OPEN30
 10
362.00006095696853
 20
54.999970000000175
 30
0.0
 41
8.3100000000000005
 42
8.3100000000000005
 43
8.3100000000000005
 50
270.0
  0
MTEXT
  5
302
100
AcDbEntity
  8
0
  6
CONTINUOUS
 62
               2
100
AcDbMText
 10
356.50006095696853
 20
154.99997000000008
 30
0.0
 40
9.0
 41
0.0
 71
               5
 72
               1
  1
\A1;Y-STROKE(200）
  7
MX_DIMTXSTY_2
 11
-0.0000000000000001
 21
1.0
 31
0.0
  0
POINT
  5
303
100
AcDbEntity
  8
DEFPOINTS
  6
CONTINUOUS
 62
               0
100
AcDbPoint
 10
333.00006095696853
 20
254.99997000000008
 30
0.0
  0
POINT
  5
304
100
AcDbEntity
  8
DEFPOINTS
  6
CONTINUOUS
 62
               0
100
AcDbPoint
 10
207.99999992181228
 20
54.999970000000175
 30
0.0
  0
POINT
  5
305
100
AcDbEntity
  8
DEFPOINTS
  6
CONTINUOUS
 62
               0
100
AcDbPoint
 10
362.00006095696853
 20
54.999970000000175
 30
0.0
  0
ENDBLK
  5
306
100
AcDbEntity
  8
0
  6
ByBlock
 62
               0
100
AcDbBlockEnd
  0
ENDSEC
  0
SECTION
  2
ENTITIES
  0
INSERT
  5
2E7
100
AcDbEntity
  8
0
  6
ByBlock
100
AcDbBlockReference
  2
DTHB-CS2-3
 10
180.0
 20
273.99998525878914
 30
0.0
  0
INSERT
  5
2E8
100
AcDbEntity
  8
0
  6
ByBlock
100
AcDbBlockReference
  2
DTHB-CS2-2
 10
-390.0
 20
-360.0
 30
0.0
  0
INSERT
  5
2E9
100
AcDbEntity
  8
0
  6
ByBlock
100
AcDbBlockReference
  2
DTHB-CS2-1
 10
180.00003051757847
 20
-359.99996948242193
 30
0.0
  0
MTEXT
  5
2EA
100
AcDbEntity
  8
0
  6
CONTINUOUS
 62
             255
100
AcDbMText
 10
-497.41667429606122
 20
378.0
 30
0.0
 40
12.5
 41
0.0
 71
               4
 72
               1
  1
\A1;DTHB-CS2
  0
MTEXT
  5
2EB
100
AcDbEntity
  8
0
  6
CONTINUOUS
 62
             255
100
AcDbMText
 10
-516.08806047499559
 20
393.0
 30
0.0
 40
12.5
 41
0.0
 71
               4
 72
               1
  1
\W1.038;\A1;CELL MASTER
  0
DIMENSION
  5
2FA
100
AcDbEntity
  8
0
  6
CONTINUOUS
 62
               2
100
AcDbDimension
  2
*D4
 10
207.99999992181228
 20
338.85333458896986
 30
0.0
 11
49.254409711851309
 21
338.85333458896986
 31
0.0
 70
             128
  1
X-STROKE(100）
  3
MXDIMSTYLE
100
AcDbAlignedDimension
 13
107.99999992181225
 23
254.99996392246595
 33
0.0
 14
207.99999992181228
 24
254.99996392246595
 34
0.0
100
AcDbRotatedDimension
1001
ACAD
1000
DSTYLE
1002
{
1070
              41
1040
8.3100000000000005
1070
             140
1040
9.0
1070
             340
1005
2F4
1002
}
  0
DIMENSION
  5
307
100
AcDbEntity
  8
0
  6
CONTINUOUS
 62
               2
100
AcDbDimension
  2
*D5
 10
362.00006095696853
 20
54.999970000000175
 30
0.0
 11
362.00006095696853
 21
154.99997000000008
 31
0.0
 70
             128
  1
Y-STROKE(200）
  3
MXDIMSTYLE
100
AcDbAlignedDimension
 13
333.00006095696853
 23
254.99997000000008
 33
0.0
 14
207.99999992181228
 24
54.999970000000175
 34
0.0
 50
90.0
100
AcDbRotatedDimension
1001
ACAD
1000
DSTYLE
1002
{
1070
              41
1040
8.3100000000000005
1070
             140
1040
9.0
1070
             340
1005
2F4
1002
}
  0
LINE
  5
308
100
AcDbEntity
  8
0
  6
CONTINUOUS
 62
               7
100
AcDbLine
 10
-564.5
 20
370.5
 30
0.0
 11
-334.5
 21
370.5
 31
0.0
  0
LINE
  5
309
100
AcDbEntity
  8
0
  6
CONTINUOUS
 62
               7
100
AcDbLine
 10
-334.5
 20
400.5
 30
0.0
 11
-334.5
 21
370.5
 31
0.0
  0
LINE
  5
30A
100
AcDbEntity
  8
0
  6
CONTINUOUS
 62
               7
100
AcDbLine
 10
344.5
 20
-370.5
 30
0.0
 11
574.5
 21
-370.5
 31
0.0
  0
LINE
  5
30B
100
AcDbEntity
  8
0
  6
CONTINUOUS
 62
               7
100
AcDbLine
 10
344.5
 20
-370.5
 30
0.0
 11
344.5
 21
-400.5
 31
0.0
  0
MTEXT
  5
30C
100
AcDbEntity
  8
0
  6
CONTINUOUS
 62
               7
100
AcDbMText
 10
350.86206895687951
 20
-385.5
 30
0.0
 40
18.0
 41
0.0
 71
               4
 72
               1
  1
\W1.121;\A1;KOGANEI CORP.
  0
LINE
  5
30D
100
AcDbEntity
  8
0
  6
CONTINUOUS
 62
               7
100
AcDbLine
 10
344.5
 20
370.5
 30
0.0
 11
574.5
 21
370.5
 31
0.0
  0
LINE
  5
30E
100
AcDbEntity
  8
0
  6
CONTINUOUS
 62
               7
100
AcDbLine
 10
344.5
 20
400.5
 30
0.0
 11
344.5
 21
370.5
 31
0.0
  0
MTEXT
  5
30F
100
AcDbEntity
  8
0
  6
CONTINUOUS
 62
               7
100
AcDbMText
 10
412.2322331979733
 20
385.5
 30
0.0
 40
12.5
 41
0.0
 71
               4
 72
               1
  1
\W1.311;\A1;Ver. 1.0
  0
LINE
  5
310
100
AcDbEntity
  8
0
  6
CONTINUOUS
 62
               7
100
AcDbLine
 10
574.5
 20
400.5
 30
0.0
 11
574.5
 21
-400.5
 31
0.0
  0
LINE
  5
311
100
AcDbEntity
  8
0
  6
CONTINUOUS
 62
               7
100
AcDbLine
 10
-564.5
 20
400.5
 30
0.0
 11
574.5
 21
400.5
 31
0.0
  0
LINE
  5
312
100
AcDbEntity
  8
0
  6
CONTINUOUS
 62
               7
100
AcDbLine
 10
-564.5
 20
-400.5
 30
0.0
 11
574.5
 21
-400.5
 31
0.0
  0
LINE
  5
313
100
AcDbEntity
  8
0
  6
CONTINUOUS
 62
               7
100
AcDbLine
 10
-564.5
 20
400.5
 30
0.0
 11
-564.5
 21
-400.5
 31
0.0
  0
MTEXT
  5
314
100
AcDbEntity
  8
0
  6
CONTINUOUS
 62
               7
100
AcDbMText
 10
-538.5625006215181
 20
340.5
 30
0.0
 40
12.5
 41
0.0
 71
               4
 72
               1
  1
\W1.050;\A1;MODEL:DTHB-CS2
  0
ENDSEC
  0
SECTION
  2
OBJECTS
  0
DICTIONARY
  5
19
100
AcDbDictionary
  3
ACAD_GROUP
350
1A
  3
ACAD_MLINESTYLE
350
1B
  0
DICTIONARY
  5
1A
102
{ACAD_REACTORS
330
19
102
}
100
AcDbDictionary
  0
DICTIONARY
  5
1B
102
{ACAD_REACTORS
330
19
102
}
100
AcDbDictionary
  3
STANDARD
350
1C
  0
MLINESTYLE
  5
1C
102
{ACAD_REACTORS
330
1B
102
}
100
AcDbMlineStyle
  2
Standard
 70
               0
  3

 62
               0
 51
90.0
 52
90.0
 71
               2
 49
0.5
 62
             256
  6
ByLayer
 49
-0.5
 62
             256
  6
ByLayer
  0
ENDSEC
  0
EOF
