  0
SECTION
  2
HEADER
  9
$ACADVER
  1
AC1012
  9
$DWGCODEPAGE
  3
dos932
  9
$INSBASE
 10
0.0
 20
0.0
 30
0.0
  9
$EXTMIN
 10
-820.5
 20
-574.5
 30
0.0
  9
$EXTMAX
 10
820.5
 20
575.5
 30
0.0
  9
$LIMMIN
 10
-840.50000000000011
 20
-594.5
  9
$LIMMAX
 10
840.50000000000011
 20
594.5
  9
$ORTHOMODE
 70
               0
  9
$REGENMODE
 70
               1
  9
$FILLMODE
 70
               1
  9
$QTEXTMODE
 70
               0
  9
$MIRRTEXT
 70
               1
  9
$DRAGMODE
 70
               2
  9
$LTSCALE
 40
1.0
  9
$OSMODE
 70
               0
  9
$ATTMODE
 70
               1
  9
$TEXTSIZE
 40
3.2000000476837158
  9
$TRACEWID
 40
0.05
  9
$TEXTSTYLE
  7
MX_NOTE_STANDARD
  9
$CLAYER
  8
0
  9
$CELTYPE
  6
CONTINUOUS
  9
$CECOLOR
 62
             256
  9
$CELTSCALE
 40
1.0
  9
$DELOBJ
 70
               1
  9
$DISPSILH
 70
               0
  9
$DIMSCALE
 40
1.0
  9
$DIMASZ
 40
2.5
  9
$DIMEXO
 40
1.5
  9
$DIMDLI
 40
3.75
  9
$DIMRND
 40
0.0
  9
$DIMDLE
 40
0.0
  9
$DIMEXE
 40
1.5
  9
$DIMTP
 40
0.0
  9
$DIMTM
 40
0.0
  9
$DIMTXT
 40
3.2000000476837158
  9
$DIMCEN
 40
2.5
  9
$DIMTSZ
 40
0.0
  9
$DIMTOL
 70
               0
  9
$DIMLIM
 70
               0
  9
$DIMTIH
 70
               0
  9
$DIMTOH
 70
               0
  9
$DIMSE1
 70
               0
  9
$DIMSE2
 70
               0
  9
$DIMTAD
 70
               1
  9
$DIMZIN
 70
               8
  9
$DIMBLK
  1

  9
$DIMASO
 70
               1
  9
$DIMSHO
 70
               1
  9
$DIMPOST
  1

  9
$DIMAPOST
  1

  9
$DIMALT
 70
               0
  9
$DIMALTD
 70
               4
  9
$DIMALTF
 40
0.03937007874016
  9
$DIMLFAC
 40
1.0
  9
$DIMTOFL
 70
               1
  9
$DIMTVP
 40
0.0
  9
$DIMTIX
 70
               0
  9
$DIMSOXD
 70
               0
  9
$DIMSAH
 70
               1
  9
$DIMBLK1
  1
_OPEN30
  9
$DIMBLK2
  1
_OPEN30
  9
$DIMSTYLE
  2
MXDIMSTYLE
  9
$DIMCLRD
 70
               0
  9
$DIMCLRE
 70
               0
  9
$DIMCLRT
 70
               0
  9
$DIMTFAC
 40
1.0
  9
$DIMGAP
 40
1.0
  9
$DIMJUST
 70
               0
  9
$DIMSD1
 70
               0
  9
$DIMSD2
 70
               0
  9
$DIMTOLJ
 70
               0
  9
$DIMTZIN
 70
               0
  9
$DIMALTZ
 70
               0
  9
$DIMALTTZ
 70
               0
  9
$DIMFIT
 70
               3
  9
$DIMUPT
 70
               1
  9
$DIMUNIT
 70
               2
  9
$DIMDEC
 70
               2
  9
$DIMTDEC
 70
               2
  9
$DIMALTU
 70
               2
  9
$DIMALTTD
 70
               4
  9
$DIMTXSTY
  7
MX_NOTE_STANDARD
  9
$DIMAUNIT
 70
               0
  9
$LUNITS
 70
               2
  9
$LUPREC
 70
               4
  9
$SKETCHINC
 40
0.1
  9
$FILLETRAD
 40
0.0
  9
$AUNITS
 70
               0
  9
$AUPREC
 70
               0
  9
$MENU
  1
acad
  9
$ELEVATION
 40
0.0
  9
$PELEVATION
 40
0.0
  9
$THICKNESS
 40
0.0
  9
$LIMCHECK
 70
               0
  9
$BLIPMODE
 70
               1
  9
$CHAMFERA
 40
0.0
  9
$CHAMFERB
 40
0.0
  9
$CHAMFERC
 40
0.0
  9
$CHAMFERD
 40
0.0
  9
$SKPOLY
 70
               0
  9
$TDCREATE
 40
2453916.737164352
  9
$TDUPDATE
 40
2453916.737164352
  9
$TDINDWG
 40
0.0000000000
  9
$TDUSRTIMER
 40
0.0000000000
  9
$USRTIMER
 70
               1
  9
$ANGBASE
 50
0.0
  9
$ANGDIR
 70
               0
  9
$PDMODE
 70
               0
  9
$PDSIZE
 40
0.0
  9
$PLINEWID
 40
0.0
  9
$COORDS
 70
               1
  9
$SPLFRAME
 70
               0
  9
$SPLINETYPE
 70
               6
  9
$SPLINESEGS
 70
               8
  9
$ATTDIA
 70
               0
  9
$ATTREQ
 70
               1
  9
$HANDLING
 70
               1
  9
$HANDSEED
  5
3A5
  9
$SURFTAB1
 70
               6
  9
$SURFTAB2
 70
               6
  9
$SURFTYPE
 70
               6
  9
$SURFU
 70
               6
  9
$SURFV
 70
               6
  9
$UCSNAME
  2

  9
$UCSORG
 10
0.0
 20
0.0
 30
0.0
  9
$UCSXDIR
 10
1.0
 20
0.0
 30
0.0
  9
$UCSYDIR
 10
0.0
 20
1.0
 30
0.0
  9
$PUCSNAME
  2

  9
$PUCSORG
 10
0.0
 20
0.0
 30
0.0
  9
$PUCSXDIR
 10
1.0
 20
0.0
 30
0.0
  9
$PUCSYDIR
 10
0.0
 20
1.0
 30
0.0
  9
$USERI1
 70
               0
  9
$USERI2
 70
               0
  9
$USERI3
 70
               0
  9
$USERI4
 70
               0
  9
$USERI5
 70
               0
  9
$USERR1
 40
0.0
  9
$USERR2
 40
0.0
  9
$USERR3
 40
0.0
  9
$USERR4
 40
0.0
  9
$USERR5
 40
0.0
  9
$WORLDVIEW
 70
               1
  9
$SHADEDGE
 70
               3
  9
$SHADEDIF
 70
              70
  9
$TILEMODE
 70
               1
  9
$MAXACTVP
 70
              16
  9
$PINSBASE
 10
0.0
 20
0.0
 30
0.0
  9
$PLIMCHECK
 70
               0
  9
$PEXTMIN
 10
1.0000000000000000E+20
 20
1.0000000000000000E+20
 30
1.0000000000000000E+20
  9
$PEXTMAX
 10
-1.0000000000000000E+20
 20
-1.0000000000000000E+20
 30
-1.0000000000000000E+20
  9
$PLIMMIN
 10
0.0
 20
0.0
  9
$PLIMMAX
 10
12.0
 20
9.0
  9
$UNITMODE
 70
               0
  9
$VISRETAIN
 70
               0
  9
$PLINEGEN
 70
               1
  9
$PSLTSCALE
 70
               0
  9
$TREEDEPTH
 70
            3020
  9
$PICKSTYLE
 70
               1
  9
$CMLSTYLE
  2
Standard
  9
$CMLJUST
 70
               0
  9
$CMLSCALE
 40
1.0
  9
$SAVEIMAGES
 70
               0
  0
ENDSEC
  0
SECTION
  2
CLASSES
  0
CLASS
  1
LWPOLYLINE
  2
AcDbPolyline
  3
"AutoCAD"
 90
    32768
280
               0
281
               1
  0
CLASS
  1
IMAGE
  2
AcDbRasterImage
  3
ISM
 90
    32895
280
               0
281
               1
  0
CLASS
  1
OLE2FRAME
  2
AcDbOle2Frame
  3
""
 90
    32768
280
               0
281
               1
  0
CLASS
  1
HATCH
  2
AcDbHatch
  3
"ACAD_SEDONA"
 90
    32768
280
               0
281
               1
  0
CLASS
  1
DICTIONARYVAR
  2
AcDbDictionaryVar
  3
"AutoCAD"
 90
    32768
280
               0
281
               0
  0
CLASS
  1
RASTERVARIABLES
  2
AcDbRasterVariables
  3
ISM
 90
    32768
280
               0
281
               0
  0
CLASS
  1
IMAGEDEF
  2
AcDbRasterImageDef
  3
ISM
 90
    32768
280
               0
281
               0
  0
CLASS
  1
IMAGEDEF_REACTOR
  2
AcDbRasterImageDefReactor
  3
ISM
 90
    32769
280
               0
281
               0
  0
CLASS
  1
IDBUFFER
  2
AcDbIdBuffer
  3
"Acad"
 90
    32768
280
               0
281
               0
  0
CLASS
  1
SPATIAL_FILTER
  2
AcDbSpatialFilter
  3
"Acad"
 90
    32768
280
               0
281
               0
  0
CLASS
  1
XRECORD
  2
AcDbXrecord
  3
"<Built In>"
 90
    32768
280
               0
281
               0
  0
CLASS
  1
SORTENTSTABLE
  2
AcDbSortentsTable
  3
"AutoCAD"
 90
    32768
280
               0
281
               0
  0
CLASS
  1
LAYER_INDEX
  2
AcDbLayerIndex
  3
"Acad"
 90
    32768
280
               0
281
               0
  0
CLASS
  1
SPATIAL_INDEX
  2
AcDbSpatialIndex
  3
"Acad"
 90
    32768
280
               0
281
               0
  0
CLASS
  1
OBJECT_PTR
  2
CAseDLPNTableRecord
  3
"ASE-LPNTableRecord"
 90
    32769
280
               0
281
               0
  0
CLASS
  1
LAYOUT
  2
AcDbLayout
  3
"AutoCAD 2000"
 90
    32768
280
               0
281
               0
  0
CLASS
  1
PLOTSETTINGS
  2
AcDbPlotSettings
  3
"AutoCAD 2000"
 90
    32768
280
               0
281
               0
  0
CLASS
  1
ACDBDICTIONARYWDFLT
  2
AcDbDictionaryWithDefault
  3
"AutoCAD 2000"
 90
    32768
280
               0
281
               0
  0
CLASS
  1
ACDBPLACEHOLDER
  2
AcDbPlaceHolder
  3
"AutoCAD 2000"
 90
    32768
280
               0
281
               0
  0
ENDSEC
  0
SECTION
  2
TABLES
  0
TABLE
  2
VPORT
  5
7
100
AcDbSymbolTable
 70
               1
  0
VPORT
  5
15
100
AcDbSymbolTableRecord
100
AcDbViewportTableRecord
  2
*ACTIVE
 70
               0
 10
0.0
 20
0.0
 11
1.0
 21
1.0
 12
0.0
 22
0.0
 13
0.0
 23
0.0
 14
1.0
 24
1.0
 15
0.0
 25
0.0
 16
0.0
 26
0.0
 36
1.0
 17
0.0
 27
0.0
 37
0.0
 40
1200.8900000000001
 41
1.7320508075688772
 42
50.0
 43
0.0
 44
0.0
 50
0.0
 51
0.0
 71
               0
 72
             100
 73
               1
 74
               1
 75
               0
 76
               0
 77
               0
 78
               0
  0
ENDTAB
  0
TABLE
  2
LTYPE
  5
4
100
AcDbSymbolTable
 70
               5
  0
LTYPE
  5
11
100
AcDbSymbolTableRecord
100
AcDbLinetypeTableRecord
  2
BYBLOCK
 70
              64
  3

 72
              65
 73
               0
 40
0.0
  0
LTYPE
  5
12
100
AcDbSymbolTableRecord
100
AcDbLinetypeTableRecord
  2
BYLAYER
 70
              64
  3

 72
              65
 73
               0
 40
0.0
  0
LTYPE
  5
13
100
AcDbSymbolTableRecord
100
AcDbLinetypeTableRecord
  2
CONTINUOUS
 70
              64
  3
Solid line
 72
              65
 73
               0
 40
0.0
  0
LTYPE
  5
CB
100
AcDbSymbolTableRecord
100
AcDbLinetypeTableRecord
  2
PHANTOM
 70
              64
  3
Phantom ______  __  __  ______  __  __  ______
 72
              65
 73
               6
 40
63.500000000000007
 49
31.75
 74
               0
 49
-6.3499999999999996
 74
               0
 49
6.3499999999999996
 74
               0
 49
-6.3499999999999996
 74
               0
 49
6.3499999999999996
 74
               0
 49
-6.3499999999999996
 74
               0
  0
LTYPE
  5
200
100
AcDbSymbolTableRecord
100
AcDbLinetypeTableRecord
  2
CENTER
 70
              64
  3
Center ____ _ ____ _ ____ _ ____ _ ____ _ ____
 72
              65
 73
               4
 40
50.800000000000004
 49
31.75
 74
               0
 49
-6.3499999999999996
 74
               0
 49
6.3499999999999996
 74
               0
 49
-6.3499999999999996
 74
               0
  0
ENDTAB
  0
TABLE
  2
LAYER
  5
2
100
AcDbSymbolTable
 70
               2
  0
LAYER
  5
14
100
AcDbSymbolTableRecord
100
AcDbLayerTableRecord
  2
0
 70
               0
 62
               7
  6
CONTINUOUS
  0
LAYER
  5
1D
100
AcDbSymbolTableRecord
100
AcDbLayerTableRecord
  2
DEFPOINTS
 70
               0
 62
               7
  6
CONTINUOUS
  0
ENDTAB
  0
TABLE
  2
STYLE
  5
3
100
AcDbSymbolTable
 70
               3
  0
STYLE
  5
17
100
AcDbSymbolTableRecord
100
AcDbTextStyleTableRecord
  2
MX_NOTE_STANDARD
 70
               0
 40
0.0
 41
1.0
 50
0.0
 71
               0
 42
3.2000000476837158
  3
txt.shx
  4
extfont.shx
  0
STYLE
  5
370
100
AcDbSymbolTableRecord
100
AcDbTextStyleTableRecord
  2
MX_DIMTXSTY_2
 70
               0
 40
0.0
 41
1.1000000000000001
 50
0.0
 71
               0
 42
3.2000000476837158
  3
txt.shx
  4
extfont.shx
  0
STYLE
  5
37E
100
AcDbSymbolTableRecord
100
AcDbTextStyleTableRecord
  2
MX_DIMTXSTY_3
 70
               0
 40
0.0
 41
1.05
 50
0.0
 71
               0
 42
3.2000000476837158
  3
txt.shx
  4
extfont.shx
  0
ENDTAB
  0
TABLE
  2
VIEW
  5
5
100
AcDbSymbolTable
 70
               0
  0
ENDTAB
  0
TABLE
  2
UCS
  5
6
100
AcDbSymbolTable
 70
               0
  0
ENDTAB
  0
TABLE
  2
APPID
  5
8
100
AcDbSymbolTable
 70
               1
  0
APPID
  5
16
100
AcDbSymbolTableRecord
100
AcDbRegAppTableRecord
  2
ACAD
 70
               0
  0
ENDTAB
  0
TABLE
  2
DIMSTYLE
  5
9
100
AcDbSymbolTable
 70
               1
  0
DIMSTYLE
105
18
100
AcDbSymbolTableRecord
100
AcDbDimStyleTableRecord
  2
MXDIMSTYLE
 70
               0
  3

  4

  5

  6
_OPEN30
  7
_OPEN30
 40
1.0
 41
2.5
 42
1.5
 43
3.75
 44
1.5
 45
0.0
 46
0.0
 47
0.0
 48
0.0
 71
               0
 72
               0
 73
               0
 74
               0
 75
               0
 76
               0
 77
               1
 78
               8
140
3.2000000476837158
141
2.5
142
0.0
143
0.03937007874016
144
1.0
145
0.0
146
1.0
147
1.0
170
               0
171
               4
172
               1
173
               1
174
               0
175
               0
176
               0
177
               0
178
               0
270
               2
271
               2
272
               2
273
               2
274
               4
275
               0
280
               0
281
               0
282
               0
283
               0
284
               0
285
               0
286
               0
287
               3
288
               1
340
17
  0
ENDTAB
  0
TABLE
  2
BLOCK_RECORD
  5
1
100
AcDbSymbolTable
 70
               7
  0
BLOCK_RECORD
  5
A
100
AcDbSymbolTableRecord
100
AcDbBlockTableRecord
  2
*MODEL_SPACE
  0
BLOCK_RECORD
  5
B
100
AcDbSymbolTableRecord
100
AcDbBlockTableRecord
  2
*PAPER_SPACE
  0
BLOCK_RECORD
  5
1E
100
AcDbSymbolTableRecord
100
AcDbBlockTableRecord
  2
DTHB-AS3-1
  0
BLOCK_RECORD
  5
1F
100
AcDbSymbolTableRecord
100
AcDbBlockTableRecord
  2
DTHB-AS3-2
  0
BLOCK_RECORD
  5
20
100
AcDbSymbolTableRecord
100
AcDbBlockTableRecord
  2
DTHB-AS3-3
  0
BLOCK_RECORD
  5
21
100
AcDbSymbolTableRecord
100
AcDbBlockTableRecord
  2
_OPEN30
  0
BLOCK_RECORD
  5
369
100
AcDbSymbolTableRecord
100
AcDbBlockTableRecord
  2
*D4
  0
BLOCK_RECORD
  5
377
100
AcDbSymbolTableRecord
100
AcDbBlockTableRecord
  2
*D5
  0
BLOCK_RECORD
  5
385
100
AcDbSymbolTableRecord
100
AcDbBlockTableRecord
  2
*D6
  0
ENDTAB
  0
ENDSEC
  0
SECTION
  2
BLOCKS
  0
BLOCK
  5
D
100
AcDbEntity
  8
0
100
AcDbBlockBegin
  2
*MODEL_SPACE
 70
               0
 10
0.0
 20
0.0
 30
0.0
  3
*MODEL_SPACE
  1

  0
ENDBLK
  5
E
100
AcDbEntity
  8
0
100
AcDbBlockEnd
  0
BLOCK
  5
F
100
AcDbEntity
 67
               1
  8
0
100
AcDbBlockBegin
  2
*PAPER_SPACE
 70
               0
 10
0.0
 20
0.0
 30
0.0
  3
*PAPER_SPACE
  1

  0
ENDBLK
  5
10
100
AcDbEntity
 67
               1
  8
0
100
AcDbBlockEnd
  0
BLOCK
  5
27
100
AcDbEntity
  8
0
100
AcDbBlockBegin
  2
DTHB-AS3-1
 70
               0
 10
0.0
 20
0.0
 30
0.0
  3
DTHB-AS3-1
  1

  0
LINE
  5
28
100
AcDbEntity
  8
0
  6
CONTINUOUS
 62
               7
100
AcDbLine
 10
56.000000186666682
 20
317.70004352294302
 30
0.0
 11
56.000000186666682
 21
192.0247196176972
 31
0.0
  0
LINE
  5
29
100
AcDbEntity
  8
0
  6
CONTINUOUS
 62
               7
100
AcDbLine
 10
48.900000186666716
 20
389.20004375627627
 30
0.0
 11
48.900000186666716
 21
376.20004375627627
 31
0.0
  0
LINE
  5
2A
100
AcDbEntity
  8
0
  6
CONTINUOUS
 62
               7
100
AcDbLine
 10
49.900000186666773
 20
374.70004375627639
 30
0.0
 11
49.900000186666773
 21
390.70004375627639
 31
0.0
  0
ARC
  5
2B
100
AcDbEntity
  8
0
  6
CONTINUOUS
 62
               7
100
AcDbCircle
 10
49.900000186666773
 20
389.20004375627627
 30
0.0
 40
1.0
100
AcDbArc
 50
90.0
 51
180.0
  0
ARC
  5
2C
100
AcDbEntity
  8
0
  6
CONTINUOUS
 62
               7
100
AcDbCircle
 10
49.900000186666773
 20
376.20004375627627
 30
0.0
 40
1.0
100
AcDbArc
 50
180.0
 51
270.0
  0
ARC
  5
2D
100
AcDbEntity
  8
0
  6
CONTINUOUS
 62
               7
100
AcDbCircle
 10
53.400000186666716
 20
374.70004375627639
 30
0.0
 40
3.5000000000000004
100
AcDbArc
 50
180.0
 51
270.0
  0
ARC
  5
2E
100
AcDbEntity
  8
0
  6
CONTINUOUS
 62
               7
100
AcDbCircle
 10
53.400000186666716
 20
390.70004375627639
 30
0.0
 40
3.5000000000000004
100
AcDbArc
 50
90.0
 51
180.0
  0
LINE
  5
2F
100
AcDbEntity
  8
0
  6
CONTINUOUS
 62
               2
100
AcDbLine
 10
55.149807802609701
 20
382.70004375627627
 30
0.0
 11
46.263090019143647
 21
382.70004375627627
 31
0.0
  0
CIRCLE
  5
30
100
AcDbEntity
  8
0
  6
CONTINUOUS
 62
               7
100
AcDbCircle
 10
190.00000062333334
 20
214.19998208945321
 30
0.0
 40
1.7500000000000002
  0
LINE
  5
31
100
AcDbEntity
  8
0
  6
CONTINUOUS
 62
               7
100
AcDbLine
 10
-102.00000034999997
 20
198.19998208945321
 30
0.0
 11
-105.00000034999999
 21
195.19998208945321
 31
0.0
  0
LINE
  5
32
100
AcDbEntity
  8
0
  6
CONTINUOUS
 62
               7
100
AcDbLine
 10
102.00000035000005
 20
198.19998208945321
 30
0.0
 11
105.00000035000005
 21
195.19998208945367
 31
0.0
  0
LINE
  5
33
100
AcDbEntity
  8
0
  6
CONTINUOUS
 62
               7
100
AcDbLine
 10
-82.978506088256808
 20
16.250001525879043
 30
0.0
 11
-82.978506088256808
 21
13.350001525879179
 31
0.0
  0
LINE
  5
34
100
AcDbEntity
  8
0
  6
CONTINUOUS
 62
               7
100
AcDbLine
 10
-85.478506088256808
 20
16.250001525879043
 30
0.0
 11
-82.978506088256808
 21
16.250001525879043
 31
0.0
  0
LINE
  5
35
100
AcDbEntity
  8
0
  6
CONTINUOUS
 62
               7
100
AcDbLine
 10
-85.478506088256808
 20
23.250001525879043
 30
0.0
 11
-82.978506088256808
 21
23.250001525879043
 31
0.0
  0
ARC
  5
36
100
AcDbEntity
  8
0
  6
CONTINUOUS
 62
               7
100
AcDbCircle
 10
-85.478506088256808
 20
19.750001525879043
 30
0.0
 40
3.5000000000000004
100
AcDbArc
 50
90.0
 51
270.0
  0
LINE
  5
37
100
AcDbEntity
  8
0
  6
CONTINUOUS
 62
               7
100
AcDbLine
 10
-82.978506088256808
 20
25.750001525879043
 30
0.0
 11
-82.978506088256808
 21
23.250001525879043
 31
0.0
  0
LINE
  5
38
100
AcDbEntity
  8
0
  6
CONTINUOUS
 62
               7
100
AcDbLine
 10
-62.978504180908146
 20
25.750001525879043
 30
0.0
 11
-62.978504180908146
 21
23.250001525879043
 31
0.0
  0
LINE
  5
39
100
AcDbEntity
  8
0
  6
CONTINUOUS
 62
               7
100
AcDbLine
 10
-62.978504180908146
 20
16.250001525879043
 30
0.0
 11
-62.978504180908146
 21
13.350001525879179
 31
0.0
  0
LINE
  5
3A
100
AcDbEntity
  8
0
  6
CONTINUOUS
 62
               7
100
AcDbLine
 10
-62.978504180908146
 20
13.350001525879179
 30
0.0
 11
-82.978506088256808
 21
13.350001525879179
 31
0.0
  0
LINE
  5
3B
100
AcDbEntity
  8
0
  6
CONTINUOUS
 62
               7
100
AcDbLine
 10
-62.978504180908146
 20
25.750001525879043
 30
0.0
 11
-82.978506088256808
 21
25.750001525879043
 31
0.0
  0
ARC
  5
3C
100
AcDbEntity
  8
0
  6
CONTINUOUS
 62
               7
100
AcDbCircle
 10
-60.478504180908146
 20
19.750001525879043
 30
0.0
 40
3.5000000000000004
100
AcDbArc
 50
270.0
 51
90.0
  0
LINE
  5
3D
100
AcDbEntity
  8
0
  6
CONTINUOUS
 62
               7
100
AcDbLine
 10
-60.478504180908146
 20
16.250001525879043
 30
0.0
 11
-62.978504180908146
 21
16.250001525879043
 31
0.0
  0
LINE
  5
3E
100
AcDbEntity
  8
0
  6
CONTINUOUS
 62
               7
100
AcDbLine
 10
-60.478504180908146
 20
23.250001525879043
 30
0.0
 11
-62.978504180908146
 21
23.250001525879043
 31
0.0
  0
LINE
  5
3F
100
AcDbEntity
  8
0
  6
CONTINUOUS
 62
               7
100
AcDbLine
 10
49.005000953674369
 20
23.849981689453216
 30
0.0
 11
49.005000953674369
 21
11.849981689453216
 31
0.0
  0
LINE
  5
40
100
AcDbEntity
  8
0
  6
CONTINUOUS
 62
               7
100
AcDbLine
 10
49.005000953674369
 20
11.849981689453216
 30
0.0
 11
88.004999999999995
 21
11.849981689453216
 31
0.0
  0
LINE
  5
41
100
AcDbEntity
  8
0
  6
CONTINUOUS
 62
               7
100
AcDbLine
 10
88.004999999999995
 20
23.849981689453216
 30
0.0
 11
88.004999999999995
 21
11.849981689453216
 31
0.0
  0
LINE
  5
42
100
AcDbEntity
  8
0
  6
CONTINUOUS
 62
               7
100
AcDbLine
 10
49.005000953674369
 20
23.849981689453216
 30
0.0
 11
88.004999999999995
 21
23.849981689453216
 31
0.0
  0
LINE
  5
43
100
AcDbEntity
  8
0
  6
CONTINUOUS
 62
               7
100
AcDbLine
 10
-14.0
 20
83.199981689453125
 30
0.0
 11
14.0
 21
83.199981689453125
 31
0.0
  0
LINE
  5
44
100
AcDbEntity
  8
0
  6
CONTINUOUS
 62
               7
100
AcDbLine
 10
19.0
 20
83.199981689453125
 30
0.0
 11
25.0
 21
83.199981689453125
 31
0.0
  0
ARC
  5
45
100
AcDbEntity
  8
0
  6
CONTINUOUS
 62
               7
100
AcDbCircle
 10
-98.9176025390625
 20
12.199972534179778
 30
0.0
 40
7.982419490814209
100
AcDbArc
 50
157.64345713842727
 51
202.35653921910705
  0
LINE
  5
46
100
AcDbEntity
  8
0
  6
CONTINUOUS
 62
               7
100
AcDbLine
 10
-106.29998779296872
 20
9.1637176513672784
 30
0.0
 11
-106.29998779296872
 21
15.236257934570403
 31
0.0
  0
LINE
  5
47
100
AcDbEntity
  8
0
  6
CONTINUOUS
 62
               7
100
AcDbLine
 10
-106.30000812070006
 20
9.1637261056325769
 30
0.0
 11
-104.99998130709801
 21
9.0499884974947236
 31
0.0
  0
LINE
  5
48
100
AcDbEntity
  8
0
  6
CONTINUOUS
 62
               7
100
AcDbLine
 10
-106.30001164988153
 20
15.236241878716555
 30
0.0
 11
-105.00004563917992
 21
15.349974167289929
 31
0.0
  0
LINE
  5
49
100
AcDbEntity
  8
0
  6
CONTINUOUS
 62
               7
100
AcDbLine
 10
94.000000313333373
 20
395.70004375627639
 30
0.0
 11
53.400000186666716
 21
395.70004375627639
 31
0.0
  0
ARC
  5
4A
100
AcDbEntity
  8
0
  6
CONTINUOUS
 62
               7
100
AcDbCircle
 10
58.529656151345648
 20
321.20004375627627
 30
0.0
 40
6.3296561241149902
100
AcDbArc
 50
160.85729086486964
 51
199.14270731389303
  0
LINE
  5
4B
100
AcDbEntity
  8
0
  6
CONTINUOUS
 62
               7
100
AcDbLine
 10
52.550000289491322
 20
319.12440903833522
 30
0.0
 11
52.550000289491322
 21
323.27567831257682
 31
0.0
  0
LINE
  5
4C
100
AcDbEntity
  8
0
  6
CONTINUOUS
 62
               7
100
AcDbLine
 10
52.550000311820554
 20
319.1244091980227
 30
0.0
 11
53.400000317562331
 21
319.05004383374057
 31
0.0
  0
LINE
  5
4D
100
AcDbEntity
  8
0
  6
CONTINUOUS
 62
               7
100
AcDbLine
 10
52.550000311820781
 20
323.2756783145303
 30
0.0
 11
53.400000317562672
 21
323.35004367881254
 31
0.0
  0
ARC
  5
4E
100
AcDbEntity
  8
0
  6
CONTINUOUS
 62
               7
100
AcDbCircle
 10
57.129665688088949
 20
316.20004375627661
 30
0.0
 40
6.3296561241149902
100
AcDbArc
 50
160.85729268610575
 51
199.14270913512914
  0
LINE
  5
4F
100
AcDbEntity
  8
0
  6
CONTINUOUS
 62
               7
100
AcDbLine
 10
52.000009850076253
 20
307.70004375627639
 30
0.0
 11
52.000009850076253
 21
318.35004367881265
 31
0.0
  0
LINE
  5
50
100
AcDbEntity
  8
0
  6
CONTINUOUS
 62
               7
100
AcDbLine
 10
52.000009850076253
 20
318.20004375627661
 30
0.0
 11
53.400000186666716
 21
318.20004375627661
 31
0.0
  0
ARC
  5
51
100
AcDbEntity
  8
0
  6
CONTINUOUS
 62
               7
100
AcDbCircle
 10
59.000009850076367
 20
322.70004375627639
 30
0.0
 40
6.3499999999999996
100
AcDbArc
 50
151.87135645559479
 51
174.69811631459788
  0
LINE
  5
52
100
AcDbEntity
  8
0
  6
CONTINUOUS
 62
               7
100
AcDbLine
 10
51.150009826234452
 20
318.2756784742179
 30
0.0
 11
51.150009826234623
 21
314.12440903833522
 31
0.0
  0
LINE
  5
53
100
AcDbEntity
  8
0
  6
CONTINUOUS
 62
               7
100
AcDbLine
 10
51.150009848563855
 20
318.2756783145303
 30
0.0
 11
52.000009854305631
 21
318.35004367881265
 31
0.0
  0
LINE
  5
54
100
AcDbEntity
  8
0
  6
CONTINUOUS
 62
               7
100
AcDbLine
 10
51.150009848563684
 20
314.12440919802248
 30
0.0
 11
52.000009854305631
 21
314.05004383374023
 31
0.0
  0
LINE
  5
55
100
AcDbEntity
  8
0
  6
CONTINUOUS
 62
               7
100
AcDbLine
 10
56.000009850076253
 20
307.70004375627639
 30
0.0
 11
52.000009850076253
 21
307.70004375627639
 31
0.0
  0
LINE
  5
56
100
AcDbEntity
  8
0
  6
CONTINUOUS
 62
               7
100
AcDbLine
 10
52.650009468606527
 20
319.11565953058073
 30
0.0
 11
52.650009468606527
 21
318.20004375627661
 31
0.0
  0
CIRCLE
  5
57
100
AcDbEntity
  8
0
  6
CONTINUOUS
 62
               7
100
AcDbCircle
 10
120.50000040166668
 20
206.19998211611994
 30
0.0
 40
2.0750000546003822
  0
CIRCLE
  5
58
100
AcDbEntity
  8
0
  6
CONTINUOUS
 62
               7
100
AcDbCircle
 10
120.50000040166668
 20
206.19998211611994
 30
0.0
 40
2.1500001025340985
  0
CIRCLE
  5
59
100
AcDbEntity
  8
0
  6
CONTINUOUS
 62
               7
100
AcDbCircle
 10
120.50000040166668
 20
220.19998216278657
 30
0.0
 40
2.0750000546003822
  0
CIRCLE
  5
5A
100
AcDbEntity
  8
0
  6
CONTINUOUS
 62
               7
100
AcDbCircle
 10
120.50000040166668
 20
220.19998216278657
 30
0.0
 40
2.1500001025340985
  0
ARC
  5
5B
100
AcDbEntity
  8
0
  6
CONTINUOUS
 62
               7
100
AcDbCircle
 10
88.870361624359475
 20
321.20004353460968
 30
0.0
 40
6.3296561452138436
100
AcDbArc
 50
340.85729006794099
 51
19.142706516964399
  0
ARC
  5
5C
100
AcDbEntity
  8
0
  6
CONTINUOUS
 62
               7
100
AcDbCircle
 10
92.00000030666672
 20
192.0247196176972
 30
0.0
 40
2.0000000066666663
100
AcDbArc
 50
292.13136085930472
 51
0.0
  0
ARC
  5
5D
100
AcDbEntity
  8
0
  6
CONTINUOUS
 62
               7
100
AcDbCircle
 10
58.000000193333278
 20
192.0247196176972
 30
0.0
 40
2.0000000066666663
100
AcDbArc
 50
180.00000500895632
 51
247.86863048927324
  0
ARC
  5
5E
100
AcDbEntity
  8
0
  6
CONTINUOUS
 62
               7
100
AcDbCircle
 10
58.000000193333278
 20
195.74798623167055
 30
0.0
 40
2.0000000066666663
100
AcDbArc
 50
180.00000500895632
 51
260.84680953499787
  0
ARC
  5
5F
100
AcDbEntity
  8
0
  6
CONTINUOUS
 62
               7
100
AcDbCircle
 10
92.00000030666672
 20
195.74798623167055
 30
0.0
 40
2.0000000066666663
100
AcDbArc
 50
279.15318181358009
 51
0.0
  0
ARC
  5
60
100
AcDbEntity
  8
0
  6
CONTINUOUS
 62
               7
100
AcDbCircle
 10
75.000000249999971
 20
233.82501272578145
 30
0.0
 40
47.125000157083328
100
AcDbArc
 50
247.86864096192809
 51
292.13136085930472
  0
ARC
  5
61
100
AcDbEntity
  8
0
  6
CONTINUOUS
 62
               7
100
AcDbCircle
 10
75.000000249999971
 20
301.25534131968982
 30
0.0
 40
108.86813390781568
100
AcDbArc
 50
260.84681317746356
 51
279.15318181358009
  0
CIRCLE
  5
62
100
AcDbEntity
  8
0
  6
CONTINUOUS
 62
               7
100
AcDbCircle
 10
58.500000195000041
 20
262.70001282203145
 30
0.0
 40
1.2500000041666668
  0
CIRCLE
  5
63
100
AcDbEntity
  8
0
  6
CONTINUOUS
 62
               2
100
AcDbCircle
 10
58.500000195000041
 20
262.70001282203145
 30
0.0
 40
1.500000005
  0
CIRCLE
  5
64
100
AcDbEntity
  8
0
  6
CONTINUOUS
 62
               7
100
AcDbCircle
 10
58.500000195000041
 20
288.70004342627635
 30
0.0
 40
1.2500000041666668
  0
CIRCLE
  5
65
100
AcDbEntity
  8
0
  6
CONTINUOUS
 62
               2
100
AcDbCircle
 10
58.500000195000041
 20
288.70004342627635
 30
0.0
 40
1.500000005
  0
CIRCLE
  5
66
100
AcDbEntity
  8
0
  6
CONTINUOUS
 62
               7
100
AcDbCircle
 10
91.500000305000015
 20
288.70004342627635
 30
0.0
 40
1.2500000041666668
  0
CIRCLE
  5
67
100
AcDbEntity
  8
0
  6
CONTINUOUS
 62
               2
100
AcDbCircle
 10
91.500000305000015
 20
288.70004342627635
 30
0.0
 40
1.500000005
  0
CIRCLE
  5
68
100
AcDbEntity
  8
0
  6
CONTINUOUS
 62
               7
100
AcDbCircle
 10
91.500000305000015
 20
262.70001282203145
 30
0.0
 40
1.2500000041666668
  0
CIRCLE
  5
69
100
AcDbEntity
  8
0
  6
CONTINUOUS
 62
               2
100
AcDbCircle
 10
91.500000305000015
 20
262.70001282203145
 30
0.0
 40
1.500000005
  0
ARC
  5
6A
100
AcDbEntity
  8
0
  6
CONTINUOUS
 62
               7
100
AcDbCircle
 10
64.500000215000057
 20
266.20001283369811
 30
0.0
 40
3.2500000108333333
100
AcDbArc
 50
153.16468353359647
 51
206.8353264843162
  0
ARC
  5
6B
100
AcDbEntity
  8
0
  6
CONTINUOUS
 62
               7
100
AcDbCircle
 10
64.500000215000057
 20
285.20001289703146
 30
0.0
 40
3.2500000108333333
100
AcDbArc
 50
153.16468353359647
 51
206.8353264843162
  0
ARC
  5
6C
100
AcDbEntity
  8
0
  6
CONTINUOUS
 62
               7
100
AcDbCircle
 10
85.500000284999942
 20
266.20001283369811
 30
0.0
 40
3.2500000108333333
100
AcDbArc
 50
333.16467852464012
 51
26.835321475359859
  0
ARC
  5
6D
100
AcDbEntity
  8
0
  6
CONTINUOUS
 62
               7
100
AcDbCircle
 10
85.500000284999942
 20
285.20001289703146
 30
0.0
 40
3.2500000108333333
100
AcDbArc
 50
333.16467852464012
 51
26.835321475359859
  0
ARC
  5
6E
100
AcDbEntity
  8
0
  6
CONTINUOUS
 62
               7
100
AcDbCircle
 10
-104.45025669582378
 20
222.8999638612396
 30
0.0
 40
5.0000000166666672
100
AcDbArc
 50
90.000002504478161
 51
140.58004632746963
  0
ARC
  5
6F
100
AcDbEntity
  8
0
  6
CONTINUOUS
 62
               7
100
AcDbCircle
 10
-60.000000199999988
 20
210.19998212945325
 30
0.0
 40
50.000000166666666
100
AcDbArc
 50
161.77401403899248
 51
191.03970806633964
  0
ARC
  5
70
100
AcDbEntity
  8
0
  6
CONTINUOUS
 62
               7
100
AcDbCircle
 10
-107.02777135285297
 20
204.19998210945323
 30
0.0
 40
6.0000000199999999
100
AcDbArc
 50
198.4084749552519
 51
269.99999749552182
  0
ARC
  5
71
100
AcDbEntity
  8
0
  6
CONTINUOUS
 62
               7
100
AcDbCircle
 10
-106.13024937720499
 20
201.19998209945322
 30
0.0
 40
3.0000000099999999
100
AcDbArc
 50
191.03971170880533
 51
269.99999749552182
  0
ARC
  5
72
100
AcDbEntity
  8
0
  6
CONTINUOUS
 62
               7
100
AcDbCircle
 10
-89.000000296666656
 20
210.19998212945325
 30
0.0
 40
25.000000083333333
100
AcDbArc
 50
140.58004632746963
 51
198.40848497316458
  0
ARC
  5
73
100
AcDbEntity
  8
0
  6
CONTINUOUS
 62
               7
100
AcDbCircle
 10
-104.64202915740049
 20
224.89996386790631
 30
0.0
 40
3.0000000099999999
100
AcDbArc
 50
90.000002504478161
 51
161.77401403899248
  0
LINE
  5
74
100
AcDbEntity
  8
0
  6
CONTINUOUS
 62
               7
100
AcDbLine
 10
-54.749945160304037
 20
185.20003673355086
 30
0.0
 11
-55.24995745175795
 21
185.70004712835362
 31
0.0
  0
LINE
  5
75
100
AcDbEntity
  8
0
  6
CONTINUOUS
 62
               7
100
AcDbLine
 10
-55.250000184166595
 20
188.20001257369813
 30
0.0
 11
-55.250000184166595
 21
185.70001256536477
 31
0.0
  0
LINE
  5
76
100
AcDbEntity
  8
0
  6
CONTINUOUS
 62
               7
100
AcDbLine
 10
-49.750000165833285
 20
185.70001256536477
 30
0.0
 11
-55.250000184166595
 21
185.70001256536477
 31
0.0
  0
LINE
  5
77
100
AcDbEntity
  8
0
  6
CONTINUOUS
 62
               7
100
AcDbLine
 10
-49.749973474841283
 20
185.70001470784325
 30
0.0
 11
-50.249964187067292
 21
185.20002589218655
 31
0.0
  0
LINE
  5
78
100
AcDbEntity
  8
0
  6
CONTINUOUS
 62
               7
100
AcDbLine
 10
-49.750000165833285
 20
185.70001256536477
 30
0.0
 11
-49.750000165833285
 21
188.20001257369813
 31
0.0
  0
LINE
  5
79
100
AcDbEntity
  8
0
  6
CONTINUOUS
 62
               7
100
AcDbLine
 10
-50.250000167499934
 20
185.20001256369812
 30
0.0
 11
-54.750000182499946
 21
185.20001256369812
 31
0.0
  0
LINE
  5
7A
100
AcDbEntity
  8
0
  6
CONTINUOUS
 62
               7
100
AcDbLine
 10
65.250015055058554
 20
185.20000537620706
 30
0.0
 11
64.750002763604471
 21
185.70001577100993
 31
0.0
  0
LINE
  5
7B
100
AcDbEntity
  8
0
  6
CONTINUOUS
 62
               7
100
AcDbLine
 10
64.750000215833325
 20
187.82823958782444
 30
0.0
 11
64.750000215833325
 21
185.70001256536477
 31
0.0
  0
LINE
  5
7C
100
AcDbEntity
  8
0
  6
CONTINUOUS
 62
               7
100
AcDbLine
 10
70.250000234166691
 20
185.70001256536477
 30
0.0
 11
64.750000215833325
 21
185.70001256536477
 31
0.0
  0
LINE
  5
7D
100
AcDbEntity
  8
0
  6
CONTINUOUS
 62
               7
100
AcDbLine
 10
70.250008319667359
 20
185.70002448595915
 30
0.0
 11
69.75001760744135
 21
185.20003567030244
 31
0.0
  0
LINE
  5
7E
100
AcDbEntity
  8
0
  6
CONTINUOUS
 62
               7
100
AcDbLine
 10
70.250000234166691
 20
185.70001256536477
 30
0.0
 11
70.250000234166691
 21
186.94001363593725
 31
0.0
  0
LINE
  5
7F
100
AcDbEntity
  8
0
  6
CONTINUOUS
 62
               7
100
AcDbLine
 10
69.750000232500042
 20
185.20001256369812
 30
0.0
 11
65.250000217500087
 21
185.20001256369812
 31
0.0
  0
LINE
  5
80
100
AcDbEntity
  8
0
  6
CONTINUOUS
 62
               7
100
AcDbLine
 10
94.84997590210412
 20
323.27566610012218
 30
0.0
 11
94.84997590210412
 21
319.1243599339407
 31
0.0
  0
LINE
  5
81
100
AcDbEntity
  8
0
  6
CONTINUOUS
 62
               7
100
AcDbLine
 10
94.850003036678515
 20
323.27565807350766
 30
0.0
 11
94.000039289055906
 21
323.35002026561551
 31
0.0
  0
LINE
  5
82
100
AcDbEntity
  8
0
  6
CONTINUOUS
 62
               7
100
AcDbLine
 10
94.850003031568974
 20
319.12438295100344
 30
0.0
 11
94.000039283946307
 21
319.05002075889558
 31
0.0
  0
LINE
  5
83
100
AcDbEntity
  8
0
  6
CONTINUOUS
 62
               7
100
AcDbLine
 10
56.000000186666682
 20
211.39999434048445
 30
0.0
 11
-102.00000033999999
 21
211.39999434048445
 31
0.0
  0
LINE
  5
84
100
AcDbEntity
  8
0
  6
CONTINUOUS
 62
               7
100
AcDbLine
 10
117.00000039000008
 20
211.39999434048445
 30
0.0
 11
94.000000313333373
 21
211.39999434048445
 31
0.0
  0
LINE
  5
85
100
AcDbEntity
  8
0
  6
CONTINUOUS
 62
               7
100
AcDbLine
 10
117.00000039000008
 20
207.99996991508863
 30
0.0
 11
94.000000313333373
 21
207.99996991508863
 31
0.0
  0
LINE
  5
86
100
AcDbEntity
  8
0
  6
CONTINUOUS
 62
               7
100
AcDbLine
 10
56.000000186666682
 20
207.99996991508863
 30
0.0
 11
-102.00000033999999
 21
207.99996991508863
 31
0.0
  0
LINE
  5
87
100
AcDbEntity
  8
0
  6
CONTINUOUS
 62
               7
100
AcDbLine
 10
94.000000313333373
 20
281.69998236611991
 30
0.0
 11
96.000000320000026
 21
281.69998236611991
 31
0.0
  0
LINE
  5
88
100
AcDbEntity
  8
0
  6
CONTINUOUS
 62
               7
100
AcDbLine
 10
96.000000320000026
 20
226.59997608060428
 30
0.0
 11
117.00000039000008
 21
226.59997608060428
 31
0.0
  0
LINE
  5
89
100
AcDbEntity
  8
0
  6
CONTINUOUS
 62
               7
100
AcDbLine
 10
56.000000186666682
 20
198.19998208945321
 30
0.0
 11
-107.02777161512131
 21
198.19998208945321
 31
0.0
  0
LINE
  5
8A
100
AcDbEntity
  8
0
  6
CONTINUOUS
 62
               7
100
AcDbLine
 10
56.000000186666682
 20
231.69998220111995
 30
0.0
 11
54.000000180000029
 21
231.69998220111995
 31
0.0
  0
LINE
  5
8B
100
AcDbEntity
  8
0
  6
CONTINUOUS
 62
               7
100
AcDbLine
 10
56.000000186666682
 20
219.19998215945316
 30
0.0
 11
-102.00000033999999
 21
219.19998215945316
 31
0.0
  0
LINE
  5
8C
100
AcDbEntity
  8
0
  6
CONTINUOUS
 62
               7
100
AcDbLine
 10
56.000000186666682
 20
220.09997605893761
 30
0.0
 11
54.000000180000029
 21
220.09997605893761
 31
0.0
  0
LINE
  5
8D
100
AcDbEntity
  8
0
  6
CONTINUOUS
 62
               7
100
AcDbLine
 10
63.204992144977496
 20
188.19998205611989
 30
0.0
 11
-105.00000034999999
 21
188.19998205611989
 31
0.0
  0
LINE
  5
8E
100
AcDbEntity
  8
0
  6
CONTINUOUS
 62
               7
100
AcDbLine
 10
61.599975791270708
 20
296.70004345294296
 30
0.0
 11
56.000000186666682
 21
296.70004345294296
 31
0.0
  0
LINE
  5
8F
100
AcDbEntity
  8
0
  6
CONTINUOUS
 62
               7
100
AcDbLine
 10
94.000000313333373
 20
198.7000126086981
 30
0.0
 11
56.000000186666682
 21
198.7000126086981
 31
0.0
  0
LINE
  5
90
100
AcDbEntity
  8
0
  6
CONTINUOUS
 62
               7
100
AcDbLine
 10
61.000000203333286
 20
296.70004345294296
 30
0.0
 11
61.000000203333286
 21
254.70001279536484
 31
0.0
  0
LINE
  5
91
100
AcDbEntity
  8
0
  6
CONTINUOUS
 62
               7
100
AcDbLine
 10
88.830017385943904
 20
394.55478008058378
 30
0.0
 11
88.830017385943904
 21
318.56613239301748
 31
0.0
  0
LINE
  5
92
100
AcDbEntity
  8
0
  6
CONTINUOUS
 62
               7
100
AcDbLine
 10
53.400000186666716
 20
395.70004375627639
 30
0.0
 11
53.400000186666716
 21
317.70004352294302
 31
0.0
  0
LINE
  5
93
100
AcDbEntity
  8
0
  6
CONTINUOUS
 62
               7
100
AcDbLine
 10
86.200012494364614
 20
317.70004352294302
 30
0.0
 11
86.200012494364614
 21
198.7000126086981
 31
0.0
  0
LINE
  5
94
100
AcDbEntity
  8
0
  6
CONTINUOUS
 62
               7
100
AcDbLine
 10
94.000000313333373
 20
395.70004375627639
 30
0.0
 11
94.000000313333373
 21
192.0247196176972
 31
0.0
  0
LINE
  5
95
100
AcDbEntity
  8
0
  6
CONTINUOUS
 62
               7
100
AcDbLine
 10
61.599975791270708
 20
254.70001279536484
 30
0.0
 11
56.000000186666682
 21
254.70001279536484
 31
0.0
  0
LINE
  5
96
100
AcDbEntity
  8
0
  6
CONTINUOUS
 62
               7
100
AcDbLine
 10
63.799988005635328
 20
317.70004352294302
 30
0.0
 11
63.799988005635328
 21
198.7000126086981
 31
0.0
  0
LINE
  5
97
100
AcDbEntity
  8
0
  6
CONTINUOUS
 62
               7
100
AcDbLine
 10
61.599975791270708
 20
317.70004352294302
 30
0.0
 11
61.599975791270708
 21
198.7000126086981
 31
0.0
  0
LINE
  5
98
100
AcDbEntity
  8
0
  6
CONTINUOUS
 62
               2
100
AcDbLine
 10
61.000000203333286
 20
262.70001282203145
 30
0.0
 11
56.000000186666682
 21
262.70001282203145
 31
0.0
  0
LINE
  5
99
100
AcDbEntity
  8
0
  6
CONTINUOUS
 62
               2
100
AcDbLine
 10
58.500000195000041
 20
260.20001281369809
 30
0.0
 11
58.500000195000041
 21
265.20001283036481
 31
0.0
  0
LINE
  5
9A
100
AcDbEntity
  8
0
  6
CONTINUOUS
 62
               2
100
AcDbLine
 10
61.000000203333286
 20
288.70004342627635
 30
0.0
 11
56.000000186666682
 21
288.70004342627635
 31
0.0
  0
LINE
  5
9B
100
AcDbEntity
  8
0
  6
CONTINUOUS
 62
               2
100
AcDbLine
 10
58.500000195000041
 20
286.20004341794299
 30
0.0
 11
58.500000195000041
 21
291.20004343460971
 31
0.0
  0
LINE
  5
9C
100
AcDbEntity
  8
0
  6
CONTINUOUS
 62
               2
100
AcDbLine
 10
94.000000313333373
 20
288.70004342627635
 30
0.0
 11
89.000000296666713
 21
288.70004342627635
 31
0.0
  0
LINE
  5
9D
100
AcDbEntity
  8
0
  6
CONTINUOUS
 62
               2
100
AcDbLine
 10
91.500000305000015
 20
286.20004341794299
 30
0.0
 11
91.500000305000015
 21
291.20004343460971
 31
0.0
  0
LINE
  5
9E
100
AcDbEntity
  8
0
  6
CONTINUOUS
 62
               2
100
AcDbLine
 10
94.000000313333373
 20
262.70001282203145
 30
0.0
 11
89.000000296666713
 21
262.70001282203145
 31
0.0
  0
LINE
  5
9F
100
AcDbEntity
  8
0
  6
CONTINUOUS
 62
               2
100
AcDbLine
 10
91.500000305000015
 20
260.20001281369809
 30
0.0
 11
91.500000305000015
 21
265.20001283036481
 31
0.0
  0
LINE
  5
A0
100
AcDbEntity
  8
0
  6
CONTINUOUS
 62
               7
100
AcDbLine
 10
88.400024708729234
 20
317.70004352294302
 30
0.0
 11
88.400024708729234
 21
198.7000126086981
 31
0.0
  0
LINE
  5
A1
100
AcDbEntity
  8
0
  6
CONTINUOUS
 62
               7
100
AcDbLine
 10
94.000000313333373
 20
254.70001279536484
 30
0.0
 11
88.400024708729234
 21
254.70001279536484
 31
0.0
  0
LINE
  5
A2
100
AcDbEntity
  8
0
  6
CONTINUOUS
 62
               7
100
AcDbLine
 10
94.000000313333373
 20
296.70004345294296
 30
0.0
 11
88.400024708729234
 21
296.70004345294296
 31
0.0
  0
LINE
  5
A3
100
AcDbEntity
  8
0
  6
CONTINUOUS
 62
               7
100
AcDbLine
 10
94.000000313333373
 20
317.70004352294302
 30
0.0
 11
53.400000186666716
 21
317.70004352294302
 31
0.0
  0
LINE
  5
A4
100
AcDbEntity
  8
0
  6
CONTINUOUS
 62
               7
100
AcDbLine
 10
61.169983114056265
 20
394.37442119326386
 30
0.0
 11
61.169983114056265
 21
318.74649128033741
 31
0.0
  0
LINE
  5
A5
100
AcDbEntity
  8
0
  6
CONTINUOUS
 62
               7
100
AcDbLine
 10
89.000000296666713
 20
296.70004345294296
 30
0.0
 11
89.000000296666713
 21
254.70001279536484
 31
0.0
  0
LINE
  5
A6
100
AcDbEntity
  8
0
  6
CONTINUOUS
 62
               7
100
AcDbLine
 10
-106.00000035333332
 20
212.19998213611996
 30
0.0
 11
-106.00000035333332
 21
211.69998213445319
 31
0.0
  0
LINE
  5
A7
100
AcDbEntity
  8
0
  6
CONTINUOUS
 62
               7
100
AcDbLine
 10
-102.00000033999999
 20
211.69998213445319
 30
0.0
 11
-106.00000035333332
 21
211.69998213445319
 31
0.0
  0
LINE
  5
A8
100
AcDbEntity
  8
0
  6
CONTINUOUS
 62
               7
100
AcDbLine
 10
-102.00000033999999
 20
217.69998215445321
 30
0.0
 11
-106.00000035333332
 21
217.69998215445321
 31
0.0
  0
LINE
  5
A9
100
AcDbEntity
  8
0
  6
CONTINUOUS
 62
               7
100
AcDbLine
 10
-106.00000035333332
 20
217.69998215445321
 30
0.0
 11
-106.00000035333332
 21
217.19998215278656
 31
0.0
  0
LINE
  5
AA
100
AcDbEntity
  8
0
  6
CONTINUOUS
 62
               7
100
AcDbLine
 10
-102.00000033999999
 20
217.19998215278656
 30
0.0
 11
-106.00000035333332
 21
217.19998215278656
 31
0.0
  0
LINE
  5
AB
100
AcDbEntity
  8
0
  6
CONTINUOUS
 62
               7
100
AcDbLine
 10
-102.00000033999999
 20
212.19998213611996
 30
0.0
 11
-106.00000035333332
 21
212.19998213611996
 31
0.0
  0
LINE
  5
AC
100
AcDbEntity
  8
0
  6
CONTINUOUS
 62
               7
100
AcDbLine
 10
-102.00000033999999
 20
227.89999439548455
 30
0.0
 11
-104.45025669582378
 21
227.89999439548455
 31
0.0
  0
LINE
  5
AD
100
AcDbEntity
  8
0
  6
CONTINUOUS
 62
               7
100
AcDbLine
 10
54.000000180000029
 20
224.0644841287932
 30
0.0
 11
-102.00000033999999
 21
224.0644841287932
 31
0.0
  0
LINE
  5
AE
100
AcDbEntity
  8
0
  6
CONTINUOUS
 62
               7
100
AcDbLine
 10
195.00000062333334
 20
198.19998208945321
 30
0.0
 11
94.000000313333373
 21
198.19998208945321
 31
0.0
  0
LINE
  5
AF
100
AcDbEntity
  8
0
  6
CONTINUOUS
 62
               7
100
AcDbLine
 10
96.000000320000026
 20
231.69998220111995
 30
0.0
 11
94.000000313333373
 21
231.69998220111995
 31
0.0
  0
LINE
  5
B0
100
AcDbEntity
  8
0
  6
CONTINUOUS
 62
               7
100
AcDbLine
 10
117.00000039000008
 20
219.19998215945316
 30
0.0
 11
94.000000313333373
 21
219.19998215945316
 31
0.0
  0
LINE
  5
B1
100
AcDbEntity
  8
0
  6
CONTINUOUS
 62
               7
100
AcDbLine
 10
117.00000039000008
 20
230.69998219778654
 30
0.0
 11
117.00000039000008
 21
198.19998208945321
 31
0.0
  0
LINE
  5
B2
100
AcDbEntity
  8
0
  6
CONTINUOUS
 62
               7
100
AcDbLine
 10
117.00000039000008
 20
221.14639329875376
 30
0.0
 11
96.000000320000026
 21
221.14639329875376
 31
0.0
  0
LINE
  5
B3
100
AcDbEntity
  8
0
  6
CONTINUOUS
 62
               7
100
AcDbLine
 10
117.00000039000008
 20
224.0644841287932
 30
0.0
 11
96.000000320000026
 21
224.0644841287932
 31
0.0
  0
LINE
  5
B4
100
AcDbEntity
  8
0
  6
CONTINUOUS
 62
               7
100
AcDbLine
 10
54.000000180000029
 20
226.59997608060428
 30
0.0
 11
-102.00000033999999
 21
226.59997608060428
 31
0.0
  0
LINE
  5
B5
100
AcDbEntity
  8
0
  6
CONTINUOUS
 62
               7
100
AcDbLine
 10
-102.00000033999999
 20
227.89999439548455
 30
0.0
 11
-102.00000033999999
 21
198.19998208945321
 31
0.0
  0
LINE
  5
B6
100
AcDbEntity
  8
0
  6
CONTINUOUS
 62
               7
100
AcDbLine
 10
195.00000062333334
 20
230.69998219778654
 30
0.0
 11
117.00000039000008
 21
230.69998219778654
 31
0.0
  0
LINE
  5
B7
100
AcDbEntity
  8
0
  6
CONTINUOUS
 62
               7
100
AcDbLine
 10
195.00000062333334
 20
230.69998219778654
 30
0.0
 11
195.00000062333334
 21
198.19998208945321
 31
0.0
  0
LINE
  5
B8
100
AcDbEntity
  8
0
  6
CONTINUOUS
 62
               7
100
AcDbLine
 10
194.06762757335036
 20
225.52841235632923
 30
0.0
 11
117.74292031435141
 21
225.52841235632923
 31
0.0
  0
LINE
  5
B9
100
AcDbEntity
  8
0
  6
CONTINUOUS
 62
               7
100
AcDbLine
 10
96.000000320000026
 20
220.09997605893761
 30
0.0
 11
94.000000313333373
 21
220.09997605893761
 31
0.0
  0
LINE
  5
BA
100
AcDbEntity
  8
0
  6
CONTINUOUS
 62
               7
100
AcDbLine
 10
54.000000180000029
 20
221.14639329875376
 30
0.0
 11
-102.00000033999999
 21
221.14639329875376
 31
0.0
  0
LINE
  5
BB
100
AcDbEntity
  8
0
  6
CONTINUOUS
 62
               7
100
AcDbLine
 10
92.84997589543741
 20
188.19998205611989
 30
0.0
 11
92.84997589543741
 21
78.199981689453125
 31
0.0
  0
LINE
  5
BC
100
AcDbEntity
  8
0
  6
CONTINUOUS
 62
               7
100
AcDbLine
 10
97.15002473789599
 20
188.19998205611989
 30
0.0
 11
97.15002473789599
 21
78.199981689453125
 31
0.0
  0
LINE
  5
BD
100
AcDbEntity
  8
0
  6
CONTINUOUS
 62
               7
100
AcDbLine
 10
-97.150024737895905
 20
188.19998205611989
 30
0.0
 11
-97.150024737895905
 21
78.199981689453125
 31
0.0
  0
LINE
  5
BE
100
AcDbEntity
  8
0
  6
CONTINUOUS
 62
               7
100
AcDbLine
 10
-92.849975895437382
 20
188.19998205611989
 30
0.0
 11
-92.849975895437382
 21
78.199981689453125
 31
0.0
  0
LINE
  5
BF
100
AcDbEntity
  8
0
  6
CONTINUOUS
 62
               7
100
AcDbLine
 10
54.000000180000029
 20
281.69998236611991
 30
0.0
 11
56.000000186666682
 21
281.69998236611991
 31
0.0
  0
LINE
  5
C0
100
AcDbEntity
  8
0
  6
CONTINUOUS
 62
               2
100
AcDbLine
 10
67.500000225000065
 20
189.38842043657007
 30
0.0
 11
67.500000225000065
 21
183.38061698055617
 31
0.0
  0
LINE
  5
C1
100
AcDbEntity
  8
0
  6
CONTINUOUS
 62
               2
100
AcDbLine
 10
-52.500000174999968
 20
191.22613012182831
 30
0.0
 11
-52.500000174999968
 21
183.69443750620701
 31
0.0
  0
LINE
  5
C2
100
AcDbEntity
  8
0
  6
CONTINUOUS
 62
               7
100
AcDbLine
 10
-85.000000283333293
 20
188.19998205611989
 30
0.0
 11
-85.000000283333293
 21
78.199981689453125
 31
0.0
  0
LINE
  5
C3
100
AcDbEntity
  8
0
  6
CONTINUOUS
 62
               7
100
AcDbLine
 10
85.00000028333335
 20
187.77324143369719
 30
0.0
 11
85.00000028333335
 21
78.199981689453125
 31
0.0
  0
LINE
  5
C4
100
AcDbEntity
  8
0
  6
CONTINUOUS
 62
               7
100
AcDbLine
 10
105.00000035000005
 20
188.19998205611989
 30
0.0
 11
86.795008355022446
 21
188.19998205611989
 31
0.0
  0
LINE
  5
C5
100
AcDbEntity
  8
0
  6
CONTINUOUS
 62
               7
100
AcDbLine
 10
105.00000035000005
 20
195.19998208945367
 30
0.0
 11
105.00000035000005
 21
78.199981689453125
 31
0.0
  0
LINE
  5
C6
100
AcDbEntity
  8
0
  6
CONTINUOUS
 62
               7
100
AcDbLine
 10
-105.00000034999999
 20
195.19998208945321
 30
0.0
 11
-105.00000034999999
 21
78.199981689453125
 31
0.0
  0
LINE
  5
C7
100
AcDbEntity
  8
0
  6
CONTINUOUS
 62
               7
100
AcDbLine
 10
54.000000180000029
 20
281.69998236611991
 30
0.0
 11
54.000000180000029
 21
220.09997605893761
 31
0.0
  0
LINE
  5
C8
100
AcDbEntity
  8
0
  6
CONTINUOUS
 62
               7
100
AcDbLine
 10
96.000000320000026
 20
281.69998236611991
 30
0.0
 11
96.000000320000026
 21
220.09997605893761
 31
0.0
  0
LINE
  5
C9
100
AcDbEntity
  8
0
  6
CONTINUOUS
 62
               2
100
AcDbLine
 10
75.000000249999971
 20
400.86673078521744
 30
0.0
 11
75.000000249999971
 21
275.70002812415396
 31
0.0
  0
LINE
  5
CA
100
AcDbEntity
  8
0
  6
CONTINUOUS
 62
               2
100
AcDbLine
 10
75.000000249999971
 20
225.70002795748724
 30
0.0
 11
75.000000249999971
 21
169.91016211375586
 31
0.0
  0
LINE
  5
CC
100
AcDbEntity
  8
0
  6
PHANTOM
 62
               2
100
AcDbLine
 10
75.000000249999971
 20
275.70002812415396
 30
0.0
 11
75.000000249999971
 21
225.70002795748724
 31
0.0
  0
LINE
  5
CD
100
AcDbEntity
  8
0
  6
CONTINUOUS
 62
               2
100
AcDbLine
 10
-75.000000249999999
 20
225.70002795748724
 30
0.0
 11
-75.000000249999999
 21
169.91016211375586
 31
0.0
  0
LINE
  5
CE
100
AcDbEntity
  8
0
  6
CONTINUOUS
 62
               2
100
AcDbLine
 10
75.000000249999971
 20
275.70002812415396
 30
0.0
 11
98.846143551137573
 21
275.70002812415396
 31
0.0
  0
LINE
  5
CF
100
AcDbEntity
  8
0
  6
CONTINUOUS
 62
               2
100
AcDbLine
 10
75.000000249999971
 20
225.70002795748724
 30
0.0
 11
98.846143551137573
 21
225.70002795748724
 31
0.0
  0
LINE
  5
D0
100
AcDbEntity
  8
0
  6
PHANTOM
 62
               2
100
AcDbLine
 10
-75.000000249999999
 20
275.70002812415396
 30
0.0
 11
-75.000000249999999
 21
225.70002795748724
 31
0.0
  0
LINE
  5
D1
100
AcDbEntity
  8
0
  6
PHANTOM
 62
               2
100
AcDbLine
 10
-75.000000249999999
 20
225.70002795748724
 30
0.0
 11
75.000000249999971
 21
225.70002795748724
 31
0.0
  0
LINE
  5
D2
100
AcDbEntity
  8
0
  6
PHANTOM
 62
               2
100
AcDbLine
 10
75.000000249999971
 20
275.70002812415396
 30
0.0
 11
-75.000000249999999
 21
275.70002812415396
 31
0.0
  0
LINE
  5
D3
100
AcDbEntity
  8
0
  6
CONTINUOUS
 62
               2
100
AcDbLine
 10
0.0
 20
96.08087104319543
 30
0.0
 11
0.0
 21
-11.236635978939148
 31
0.0
  0
ARC
  5
D4
100
AcDbEntity
  8
0
  6
CONTINUOUS
 62
               7
100
AcDbCircle
 10
104.00000000000006
 20
4.199981689453125
 30
0.0
 40
1.0
100
AcDbArc
 50
270.0
 51
0.0
  0
ARC
  5
D5
100
AcDbEntity
  8
0
  6
CONTINUOUS
 62
               7
100
AcDbCircle
 10
102.30000000000007
 20
5.8999816894531705
 30
0.0
 40
1.0
100
AcDbArc
 50
270.0
 51
0.0
  0
ARC
  5
D6
100
AcDbEntity
  8
0
  6
CONTINUOUS
 62
               7
100
AcDbCircle
 10
-104.0
 20
4.199981689453125
 30
0.0
 40
1.0
100
AcDbArc
 50
180.0
 51
270.0
  0
ARC
  5
D7
100
AcDbEntity
  8
0
  6
CONTINUOUS
 62
               7
100
AcDbCircle
 10
-102.29999999999993
 20
5.8999816894531705
 30
0.0
 40
1.0
100
AcDbArc
 50
180.0
 51
270.0
  0
LINE
  5
D8
100
AcDbEntity
  8
0
  6
CONTINUOUS
 62
               7
100
AcDbLine
 10
-79.999999999999972
 20
3.199981689453125
 30
0.0
 11
-104.0
 21
3.199981689453125
 31
0.0
  0
LINE
  5
D9
100
AcDbEntity
  8
0
  6
CONTINUOUS
 62
               7
100
AcDbLine
 10
-79.999999999999972
 20
3.199981689453125
 30
0.0
 11
-79.999999999999972
 21
4.8999816894533978
 31
0.0
  0
LINE
  5
DA
100
AcDbEntity
  8
0
  6
CONTINUOUS
 62
               7
100
AcDbLine
 10
80.000000000000057
 20
3.199981689453125
 30
0.0
 11
80.000000000000057
 21
4.8999816894533978
 31
0.0
  0
LINE
  5
DB
100
AcDbEntity
  8
0
  6
CONTINUOUS
 62
               7
100
AcDbLine
 10
106.29998779296875
 20
9.1637176513672784
 30
0.0
 11
106.29998779296875
 21
15.236257934570403
 31
0.0
  0
LINE
  5
DC
100
AcDbEntity
  8
0
  6
CONTINUOUS
 62
               7
100
AcDbLine
 10
106.30000812070011
 20
9.1637261056325769
 30
0.0
 11
104.99998130709804
 21
9.0499884974947236
 31
0.0
  0
LINE
  5
DD
100
AcDbEntity
  8
0
  6
CONTINUOUS
 62
               7
100
AcDbLine
 10
106.30001164988158
 20
15.236241878716555
 30
0.0
 11
105.00004563917997
 21
15.349974167289929
 31
0.0
  0
ARC
  5
DE
100
AcDbEntity
  8
0
  6
CONTINUOUS
 62
               7
100
AcDbCircle
 10
98.917602539062557
 20
12.199972534179778
 30
0.0
 40
7.982419490814209
100
AcDbArc
 50
337.64346078089295
 51
22.356542861572724
  0
LINE
  5
DF
100
AcDbEntity
  8
0
  6
CONTINUOUS
 62
               7
100
AcDbLine
 10
104.00000000000006
 20
3.199981689453125
 30
0.0
 11
80.000000000000057
 21
3.199981689453125
 31
0.0
  0
LINE
  5
E0
100
AcDbEntity
  8
0
  6
CONTINUOUS
 62
               7
100
AcDbLine
 10
103.30000000000013
 20
5.8999816894531705
 30
0.0
 11
103.30000000000013
 21
30.422591385577789
 31
0.0
  0
LINE
  5
E1
100
AcDbEntity
  8
0
  6
CONTINUOUS
 62
               7
100
AcDbLine
 10
-103.29999999999993
 20
5.8999816894531705
 30
0.0
 11
-103.29999999999993
 21
30.422591385577789
 31
0.0
  0
LINE
  5
E2
100
AcDbEntity
  8
0
  6
CONTINUOUS
 62
               7
100
AcDbLine
 10
102.30000000000007
 20
4.8999816894533978
 30
0.0
 11
-102.29999999999993
 21
4.8999816894533978
 31
0.0
  0
LINE
  5
E3
100
AcDbEntity
  8
0
  6
CONTINUOUS
 62
               2
100
AcDbLine
 10
16.5
 20
90.097900390625227
 30
0.0
 11
16.5
 21
79.588230926088727
 31
0.0
  0
LINE
  5
E4
100
AcDbEntity
  8
0
  6
CONTINUOUS
 62
               2
100
AcDbLine
 10
-16.5
 20
89.36712646484375
 30
0.0
 11
-16.5
 21
79.588230926088727
 31
0.0
  0
LINE
  5
E5
100
AcDbEntity
  8
0
  6
CONTINUOUS
 62
               7
100
AcDbLine
 10
-14.0
 20
83.199981689453125
 30
0.0
 11
-14.0
 21
81.199981689453125
 31
0.0
  0
LINE
  5
E6
100
AcDbEntity
  8
0
  6
CONTINUOUS
 62
               7
100
AcDbLine
 10
-19.0
 20
83.199981689453125
 30
0.0
 11
-19.0
 21
81.199981689453125
 31
0.0
  0
LINE
  5
E7
100
AcDbEntity
  8
0
  6
CONTINUOUS
 62
               7
100
AcDbLine
 10
19.0
 20
83.199981689453125
 30
0.0
 11
19.0
 21
81.199981689453125
 31
0.0
  0
LINE
  5
E8
100
AcDbEntity
  8
0
  6
CONTINUOUS
 62
               7
100
AcDbLine
 10
14.0
 20
83.199981689453125
 30
0.0
 11
14.0
 21
81.199981689453125
 31
0.0
  0
LINE
  5
E9
100
AcDbEntity
  8
0
  6
CONTINUOUS
 62
               7
100
AcDbLine
 10
25.0
 20
87.199981689453125
 30
0.0
 11
-25.0
 21
87.199981689453125
 31
0.0
  0
LINE
  5
EA
100
AcDbEntity
  8
0
  6
CONTINUOUS
 62
               7
100
AcDbLine
 10
25.0
 20
87.199981689453125
 30
0.0
 11
25.0
 21
83.199981689453125
 31
0.0
  0
LINE
  5
EB
100
AcDbEntity
  8
0
  6
CONTINUOUS
 62
               7
100
AcDbLine
 10
-25.0
 20
87.199981689453125
 30
0.0
 11
-25.0
 21
83.199981689453125
 31
0.0
  0
LINE
  5
EC
100
AcDbEntity
  8
0
  6
CONTINUOUS
 62
               7
100
AcDbLine
 10
82.000000000000171
 20
49.349975585937727
 30
0.0
 11
82.000000000000171
 21
36.849975585937727
 31
0.0
  0
LINE
  5
ED
100
AcDbEntity
  8
0
  6
CONTINUOUS
 62
               7
100
AcDbLine
 10
48.0
 20
49.349975585937727
 30
0.0
 11
48.0
 21
36.849975585937727
 31
0.0
  0
LINE
  5
EE
100
AcDbEntity
  8
0
  6
CONTINUOUS
 62
               7
100
AcDbLine
 10
82.000000000000171
 20
36.849975585937727
 30
0.0
 11
48.0
 21
36.849975585937727
 31
0.0
  0
LINE
  5
EF
100
AcDbEntity
  8
0
  6
CONTINUOUS
 62
               7
100
AcDbLine
 10
82.000000000000171
 20
49.349975585937727
 30
0.0
 11
48.0
 21
49.349975585937727
 31
0.0
  0
LINE
  5
F0
100
AcDbEntity
  8
0
  6
CONTINUOUS
 62
               7
100
AcDbLine
 10
-56.5
 20
52.499969482421875
 30
0.0
 11
-89.5
 21
52.499969482421875
 31
0.0
  0
LINE
  5
F1
100
AcDbEntity
  8
0
  6
CONTINUOUS
 62
               7
100
AcDbLine
 10
-89.5
 20
52.499969482421875
 30
0.0
 11
-89.5
 21
36.499969482421875
 31
0.0
  0
LINE
  5
F2
100
AcDbEntity
  8
0
  6
CONTINUOUS
 62
               7
100
AcDbLine
 10
-56.5
 20
36.499969482421875
 30
0.0
 11
-89.5
 21
36.499969482421875
 31
0.0
  0
LINE
  5
F3
100
AcDbEntity
  8
0
  6
CONTINUOUS
 62
               7
100
AcDbLine
 10
-56.5
 20
52.499969482421875
 30
0.0
 11
-56.5
 21
36.499969482421875
 31
0.0
  0
LINE
  5
F4
100
AcDbEntity
  8
0
  6
CONTINUOUS
 62
               7
100
AcDbLine
 10
105.00000000000006
 20
4.199981689453125
 30
0.0
 11
105.00000000000006
 21
76.199981689453125
 31
0.0
  0
LINE
  5
F5
100
AcDbEntity
  8
0
  6
CONTINUOUS
 62
               7
100
AcDbLine
 10
25.0
 20
81.199981689453125
 30
0.0
 11
-25.0
 21
81.199981689453125
 31
0.0
  0
LINE
  5
F6
100
AcDbEntity
  8
0
  6
CONTINUOUS
 62
               7
100
AcDbLine
 10
-105.0
 20
78.199981689453125
 30
0.0
 11
-36.1961669921875
 21
78.199981689453125
 31
0.0
  0
LINE
  5
F7
100
AcDbEntity
  8
0
  6
CONTINUOUS
 62
               7
100
AcDbLine
 10
25.0000067142646
 20
81.199981710284419
 30
0.0
 11
36.196115066453785
 21
78.199993493799639
 31
0.0
  0
LINE
  5
F8
100
AcDbEntity
  8
0
  6
CONTINUOUS
 62
               7
100
AcDbLine
 10
-25.000026248142603
 20
81.199973643750127
 30
0.0
 11
-36.196193555764694
 21
78.199969630204805
 31
0.0
  0
LINE
  5
F9
100
AcDbEntity
  8
0
  6
CONTINUOUS
 62
               7
100
AcDbLine
 10
103.0
 20
30.39996337890625
 30
0.0
 11
-102.99999999999994
 21
30.39996337890625
 31
0.0
  0
LINE
  5
FA
100
AcDbEntity
  8
0
  6
CONTINUOUS
 62
               7
100
AcDbLine
 10
36.196166992187443
 20
78.199981689453125
 30
0.0
 11
105.00000000000006
 21
78.199981689453125
 31
0.0
  0
LINE
  5
FB
100
AcDbEntity
  8
0
  6
CONTINUOUS
 62
               7
100
AcDbLine
 10
-105.0
 20
4.199981689453125
 30
0.0
 11
-105.0
 21
76.199981689453125
 31
0.0
  0
LINE
  5
FC
100
AcDbEntity
  8
0
  6
CONTINUOUS
 62
               7
100
AcDbLine
 10
-55.500000000000057
 20
52.499969482421875
 30
0.0
 11
-55.500000000000057
 21
36.499969482421875
 31
0.0
  0
LINE
  5
FD
100
AcDbEntity
  8
0
  6
CONTINUOUS
 62
               7
100
AcDbLine
 10
-56.5
 20
53.499969482421875
 30
0.0
 11
-89.5
 21
53.499969482421875
 31
0.0
  0
LINE
  5
FE
100
AcDbEntity
  8
0
  6
CONTINUOUS
 62
               7
100
AcDbLine
 10
-56.5
 20
35.499969482422102
 30
0.0
 11
-89.5
 21
35.499969482422102
 31
0.0
  0
LINE
  5
FF
100
AcDbEntity
  8
0
  6
CONTINUOUS
 62
               7
100
AcDbLine
 10
-90.499999999999943
 20
52.499969482421875
 30
0.0
 11
-90.499999999999943
 21
36.499969482421875
 31
0.0
  0
LINE
  5
100
100
AcDbEntity
  8
0
  6
CONTINUOUS
 62
               7
100
AcDbLine
 10
82.000000000000171
 20
50.349975585937727
 30
0.0
 11
48.0
 21
50.349975585937727
 31
0.0
  0
LINE
  5
101
100
AcDbEntity
  8
0
  6
CONTINUOUS
 62
               7
100
AcDbLine
 10
82.000000000000171
 20
35.8499755859375
 30
0.0
 11
48.0
 21
35.8499755859375
 31
0.0
  0
LINE
  5
102
100
AcDbEntity
  8
0
  6
CONTINUOUS
 62
               7
100
AcDbLine
 10
83.0
 20
49.349975585937727
 30
0.0
 11
83.0
 21
36.849975585937727
 31
0.0
  0
LINE
  5
103
100
AcDbEntity
  8
0
  6
CONTINUOUS
 62
               7
100
AcDbLine
 10
46.999999999999943
 20
49.349975585937727
 30
0.0
 11
46.999999999999943
 21
36.849975585937727
 31
0.0
  0
LINE
  5
104
100
AcDbEntity
  8
0
  6
CONTINUOUS
 62
               7
100
AcDbLine
 10
-25.0
 20
83.199981689453125
 30
0.0
 11
-19.0
 21
83.199981689453125
 31
0.0
  0
LINE
  5
105
100
AcDbEntity
  8
0
  6
CONTINUOUS
 62
               7
100
AcDbLine
 10
-48.000000000000057
 20
59.399963378906477
 30
0.0
 11
-48.000000000000057
 21
71.39996337890625
 31
0.0
  0
LINE
  5
106
100
AcDbEntity
  8
0
  6
CONTINUOUS
 62
               7
100
AcDbLine
 10
-97.999999999999943
 20
59.399963378906477
 30
0.0
 11
-97.999999999999943
 21
71.39996337890625
 31
0.0
  0
LINE
  5
107
100
AcDbEntity
  8
0
  6
CONTINUOUS
 62
               7
100
AcDbLine
 10
-49.0
 20
58.399963378906477
 30
0.0
 11
-96.999999999999972
 21
58.399963378906477
 31
0.0
  0
LINE
  5
108
100
AcDbEntity
  8
0
  6
CONTINUOUS
 62
               7
100
AcDbLine
 10
-49.0
 20
72.39996337890625
 30
0.0
 11
-96.999999999999972
 21
72.39996337890625
 31
0.0
  0
LINE
  5
109
100
AcDbEntity
  8
0
  6
CONTINUOUS
 62
               7
100
AcDbLine
 10
80.000000000000057
 20
59.89996337890625
 30
0.0
 11
50.000000000000057
 21
59.89996337890625
 31
0.0
  0
LINE
  5
10A
100
AcDbEntity
  8
0
  6
CONTINUOUS
 62
               7
100
AcDbLine
 10
80.000000000000057
 20
70.899963378906477
 30
0.0
 11
50.000000000000057
 21
70.899963378906477
 31
0.0
  0
LINE
  5
10B
100
AcDbEntity
  8
0
  6
CONTINUOUS
 62
               7
100
AcDbLine
 10
81.0
 20
60.899963378906477
 30
0.0
 11
81.0
 21
69.89996337890625
 31
0.0
  0
LINE
  5
10C
100
AcDbEntity
  8
0
  6
CONTINUOUS
 62
               7
100
AcDbLine
 10
49.000000000000057
 20
60.899963378906477
 30
0.0
 11
49.000000000000057
 21
69.89996337890625
 31
0.0
  0
ARC
  5
10D
100
AcDbEntity
  8
0
  6
CONTINUOUS
 62
               7
100
AcDbCircle
 10
0.0
 20
397.61569213867199
 30
0.0
 40
321.46008300781256
100
AcDbArc
 50
263.53482729513291
 51
276.46516769591074
  0
ARC
  5
10E
100
AcDbEntity
  8
0
  6
CONTINUOUS
 62
               7
100
AcDbCircle
 10
-102.99999999999994
 20
76.199981689453125
 30
0.0
 40
2.0
100
AcDbArc
 50
90.000002504478161
 51
180.00000500895632
  0
ARC
  5
10F
100
AcDbEntity
  8
0
  6
CONTINUOUS
 62
               7
100
AcDbCircle
 10
103.0
 20
32.39996337890625
 30
0.0
 40
2.0
100
AcDbArc
 50
269.99999749552182
 51
0.0
  0
CIRCLE
  5
110
100
AcDbEntity
  8
0
  6
CONTINUOUS
 62
               7
100
AcDbCircle
 10
-46.0
 20
44.499969482422102
 30
0.0
 40
2.0999999046325684
  0
ARC
  5
111
100
AcDbEntity
  8
0
  6
CONTINUOUS
 62
               7
100
AcDbCircle
 10
103.0
 20
76.199981689453125
 30
0.0
 40
2.0
100
AcDbArc
 50
0.0
 51
90.000002504478161
  0
CIRCLE
  5
112
100
AcDbEntity
  8
0
  6
CONTINUOUS
 62
               7
100
AcDbCircle
 10
-36.0
 20
44.499969482422102
 30
0.0
 40
2.0999999046325684
  0
ARC
  5
113
100
AcDbEntity
  8
0
  6
CONTINUOUS
 62
               7
100
AcDbCircle
 10
-102.99999999999994
 20
32.39996337890625
 30
0.0
 40
2.0
100
AcDbArc
 50
179.99999499104368
 51
269.99999749552182
  0
ARC
  5
114
100
AcDbEntity
  8
0
  6
CONTINUOUS
 62
               7
100
AcDbCircle
 10
82.000000000000171
 20
36.849975585937727
 30
0.0
 40
1.0
100
AcDbArc
 50
269.99999749552182
 51
0.0
  0
ARC
  5
115
100
AcDbEntity
  8
0
  6
CONTINUOUS
 62
               7
100
AcDbCircle
 10
-56.5
 20
52.499969482421875
 30
0.0
 40
1.0
100
AcDbArc
 50
0.0
 51
90.000002504478161
  0
ARC
  5
116
100
AcDbEntity
  8
0
  6
CONTINUOUS
 62
               7
100
AcDbCircle
 10
-89.5
 20
36.499969482421875
 30
0.0
 40
1.0
100
AcDbArc
 50
179.99999499104368
 51
269.99999749552182
  0
ARC
  5
117
100
AcDbEntity
  8
0
  6
CONTINUOUS
 62
               7
100
AcDbCircle
 10
-89.5
 20
52.499969482421875
 30
0.0
 40
1.0
100
AcDbArc
 50
90.000002504478161
 51
180.00000500895632
  0
ARC
  5
118
100
AcDbEntity
  8
0
  6
CONTINUOUS
 62
               7
100
AcDbCircle
 10
-56.5
 20
36.499969482421875
 30
0.0
 40
1.0
100
AcDbArc
 50
269.99999749552182
 51
0.0
  0
ARC
  5
119
100
AcDbEntity
  8
0
  6
CONTINUOUS
 62
               7
100
AcDbCircle
 10
48.0
 20
49.349975585937727
 30
0.0
 40
1.0
100
AcDbArc
 50
90.000002504478161
 51
180.00000500895632
  0
CIRCLE
  5
11A
100
AcDbEntity
  8
0
  6
CONTINUOUS
 62
               7
100
AcDbCircle
 10
-46.0
 20
44.499969482422102
 30
0.0
 40
2.5999999046325679
  0
ARC
  5
11B
100
AcDbEntity
  8
0
  6
CONTINUOUS
 62
               7
100
AcDbCircle
 10
82.000000000000171
 20
49.349975585937727
 30
0.0
 40
1.0
100
AcDbArc
 50
0.0
 51
90.000002504478161
  0
CIRCLE
  5
11C
100
AcDbEntity
  8
0
  6
CONTINUOUS
 62
               7
100
AcDbCircle
 10
-36.0
 20
44.499969482422102
 30
0.0
 40
2.5999999046325679
  0
ARC
  5
11D
100
AcDbEntity
  8
0
  6
CONTINUOUS
 62
               7
100
AcDbCircle
 10
48.0
 20
36.849975585937727
 30
0.0
 40
1.0
100
AcDbArc
 50
179.99999499104368
 51
269.99999749552182
  0
ARC
  5
11E
100
AcDbEntity
  8
0
  6
CONTINUOUS
 62
               7
100
AcDbCircle
 10
-96.999999999999972
 20
71.39996337890625
 30
0.0
 40
1.0
100
AcDbArc
 50
90.000002504478161
 51
180.00000500895632
  0
ARC
  5
11F
100
AcDbEntity
  8
0
  6
CONTINUOUS
 62
               7
100
AcDbCircle
 10
-96.999999999999972
 20
59.399963378906477
 30
0.0
 40
1.0
100
AcDbArc
 50
179.99999499104368
 51
269.99999749552182
  0
ARC
  5
120
100
AcDbEntity
  8
0
  6
CONTINUOUS
 62
               7
100
AcDbCircle
 10
-49.0
 20
59.399963378906477
 30
0.0
 40
1.0
100
AcDbArc
 50
269.99999749552182
 51
0.0
  0
ARC
  5
121
100
AcDbEntity
  8
0
  6
CONTINUOUS
 62
               7
100
AcDbCircle
 10
-49.0
 20
71.39996337890625
 30
0.0
 40
1.0
100
AcDbArc
 50
0.0
 51
90.000002504478161
  0
ARC
  5
122
100
AcDbEntity
  8
0
  6
CONTINUOUS
 62
               7
100
AcDbCircle
 10
50.000000000000057
 20
69.89996337890625
 30
0.0
 40
1.0
100
AcDbArc
 50
90.000002504478161
 51
180.00000500895632
  0
ARC
  5
123
100
AcDbEntity
  8
0
  6
CONTINUOUS
 62
               7
100
AcDbCircle
 10
80.000000000000057
 20
69.89996337890625
 30
0.0
 40
1.0
100
AcDbArc
 50
0.0
 51
90.000002504478161
  0
ARC
  5
124
100
AcDbEntity
  8
0
  6
CONTINUOUS
 62
               7
100
AcDbCircle
 10
80.000000000000057
 20
60.899963378906477
 30
0.0
 40
1.0
100
AcDbArc
 50
269.99999749552182
 51
0.0
  0
ARC
  5
125
100
AcDbEntity
  8
0
  6
CONTINUOUS
 62
               7
100
AcDbCircle
 10
50.000000000000057
 20
60.899963378906477
 30
0.0
 40
1.0
100
AcDbArc
 50
179.99999499104368
 51
269.99999749552182
  0
LINE
  5
126
100
AcDbEntity
  8
0
  6
CONTINUOUS
 62
               7
100
AcDbLine
 10
-93.999999733333311
 20
0.0
 30
0.0
 11
-93.999999733333311
 21
3.199981689453125
 31
0.0
  0
LINE
  5
127
100
AcDbEntity
  8
0
  6
CONTINUOUS
 62
               7
100
AcDbLine
 10
-81.999999733333283
 20
0.0
 30
0.0
 11
-93.999999733333311
 21
0.0
 31
0.0
  0
LINE
  5
128
100
AcDbEntity
  8
0
  6
CONTINUOUS
 62
               7
100
AcDbLine
 10
-81.999999733333283
 20
0.0
 30
0.0
 11
-81.999999733333283
 21
3.199981689453125
 31
0.0
  0
LINE
  5
129
100
AcDbEntity
  8
0
  6
CONTINUOUS
 62
               7
100
AcDbLine
 10
82.000000266666746
 20
0.0
 30
0.0
 11
82.000000266666746
 21
3.199981689453125
 31
0.0
  0
LINE
  5
12A
100
AcDbEntity
  8
0
  6
CONTINUOUS
 62
               7
100
AcDbLine
 10
82.000000266666746
 20
0.0
 30
0.0
 11
94.000000266666802
 21
0.0
 31
0.0
  0
LINE
  5
12B
100
AcDbEntity
  8
0
  6
CONTINUOUS
 62
               7
100
AcDbLine
 10
94.000000266666802
 20
0.0
 30
0.0
 11
94.000000266666802
 21
3.199981689453125
 31
0.0
  0
LINE
  5
12C
100
AcDbEntity
  8
0
  6
CONTINUOUS
 62
               2
100
AcDbLine
 10
121.56066057933907
 20
205.13932193844755
 30
0.0
 11
119.43934022399435
 21
207.26064229379233
 31
0.0
  0
LINE
  5
12D
100
AcDbEntity
  8
0
  6
CONTINUOUS
 62
               2
100
AcDbLine
 10
121.56066057933919
 20
207.26064229379244
 30
0.0
 11
119.43934022399441
 21
205.13932193844767
 31
0.0
  0
LINE
  5
12E
100
AcDbEntity
  8
0
  6
CONTINUOUS
 62
               2
100
AcDbLine
 10
121.56066057933907
 20
219.13932198511418
 30
0.0
 11
119.43934022399435
 21
221.26064234045896
 31
0.0
  0
LINE
  5
12F
100
AcDbEntity
  8
0
  6
CONTINUOUS
 62
               2
100
AcDbLine
 10
121.56066057933919
 20
221.26064234045907
 30
0.0
 11
119.43934022399441
 21
219.13932198511429
 31
0.0
  0
ENDBLK
  5
130
100
AcDbEntity
  8
0
100
AcDbBlockEnd
  0
BLOCK
  5
131
100
AcDbEntity
  8
0
100
AcDbBlockBegin
  2
DTHB-AS3-2
 70
               0
 10
0.0
 20
0.0
 30
0.0
  3
DTHB-AS3-2
  1

  0
CIRCLE
  5
132
100
AcDbEntity
  8
0
  6
CONTINUOUS
 62
               7
100
AcDbCircle
 10
-38.500000145000001
 20
56.200012343698063
 30
0.0
 40
11.5
  0
CIRCLE
  5
133
100
AcDbEntity
  8
0
  6
CONTINUOUS
 62
               7
100
AcDbCircle
 10
-38.500000145000001
 20
56.200012343698063
 30
0.0
 40
5.5
  0
CIRCLE
  5
134
100
AcDbEntity
  8
0
  6
CONTINUOUS
 62
               7
100
AcDbCircle
 10
-38.500000145000001
 20
56.200012343698063
 30
0.0
 40
7.5
  0
LINE
  5
135
100
AcDbEntity
  8
0
  6
CONTINUOUS
 62
               7
100
AcDbLine
 10
-50.500000145000001
 20
69.20002771082045
 30
0.0
 11
0.0
 21
69.20002771082045
 31
0.0
  0
CIRCLE
  5
136
100
AcDbEntity
  8
0
  6
CONTINUOUS
 62
               7
100
AcDbCircle
 10
58.00000015333336
 20
382.70001348869789
 30
0.0
 40
7.5
  0
CIRCLE
  5
137
100
AcDbEntity
  8
0
  6
CONTINUOUS
 62
               7
100
AcDbCircle
 10
58.00000015333336
 20
382.70001348869789
 30
0.0
 40
5.5
  0
CIRCLE
  5
138
100
AcDbEntity
  8
0
  6
CONTINUOUS
 62
               7
100
AcDbCircle
 10
58.00000015333336
 20
382.70001348869789
 30
0.0
 40
11.5
  0
LINE
  5
139
100
AcDbEntity
  8
0
  6
CONTINUOUS
 62
               7
100
AcDbLine
 10
-1.5999999883333658
 20
222.35002288956719
 30
0.0
 11
-1.5999999883333658
 21
215.40005958812492
 31
0.0
  0
LINE
  5
13A
100
AcDbEntity
  8
0
  6
CONTINUOUS
 62
               7
100
AcDbLine
 10
-2.449999989845935
 20
222.27565752528494
 30
0.0
 11
-1.5999999841040449
 21
222.35002288956719
 31
0.0
  0
LINE
  5
13B
100
AcDbEntity
  8
0
  6
CONTINUOUS
 62
               7
100
AcDbLine
 10
-2.4499999898460487
 20
218.12438840877735
 30
0.0
 11
-1.5999999841042154
 21
218.05002304449511
 31
0.0
  0
LINE
  5
13C
100
AcDbEntity
  8
0
  6
CONTINUOUS
 62
               7
100
AcDbLine
 10
-2.4500000121752237
 20
218.12438824908986
 30
0.0
 11
-2.4500000121752237
 21
222.27565768497243
 31
0.0
  0
ARC
  5
13D
100
AcDbEntity
  8
0
  6
CONTINUOUS
 62
               7
100
AcDbCircle
 10
3.5296558496792727
 20
220.20002296703092
 30
0.0
 40
6.3296561241149902
100
AcDbArc
 50
160.85729086486964
 51
199.14270731389303
  0
ARC
  5
13E
100
AcDbEntity
  8
0
  6
CONTINUOUS
 62
               7
100
AcDbCircle
 10
-1.5999999883333658
 20
202.20001907054677
 30
0.0
 40
3.5000000000000004
100
AcDbArc
 50
180.0
 51
270.0
  0
ARC
  5
13F
100
AcDbEntity
  8
0
  6
CONTINUOUS
 62
               7
100
AcDbCircle
 10
-1.5999999883333658
 20
218.20001907054677
 30
0.0
 40
3.5000000000000004
100
AcDbArc
 50
107.58284247057495
 51
180.0
  0
LINE
  5
140
100
AcDbEntity
  8
0
  6
CONTINUOUS
 62
               7
100
AcDbLine
 10
-6.0999999883334226
 20
216.70001907054677
 30
0.0
 11
-6.0999999883334226
 21
203.70001907054677
 31
0.0
  0
LINE
  5
141
100
AcDbEntity
  8
0
  6
CONTINUOUS
 62
               7
100
AcDbLine
 10
-5.0999999883334226
 20
202.20001907054677
 30
0.0
 11
-5.0999999883334226
 21
218.20001907054677
 31
0.0
  0
ARC
  5
142
100
AcDbEntity
  8
0
  6
CONTINUOUS
 62
               7
100
AcDbCircle
 10
-5.0999999883334226
 20
216.70001907054677
 30
0.0
 40
1.0
100
AcDbArc
 50
90.0
 51
180.0
  0
ARC
  5
143
100
AcDbEntity
  8
0
  6
CONTINUOUS
 62
               7
100
AcDbCircle
 10
-5.0999999883334226
 20
203.70001907054677
 30
0.0
 40
1.0
100
AcDbArc
 50
180.0
 51
270.0
  0
LINE
  5
144
100
AcDbEntity
  8
0
  6
CONTINUOUS
 62
               7
100
AcDbLine
 10
1.0041878923952936
 20
224.31493777884623
 30
0.0
 11
-0.2201558748380421
 21
223.09193706488406
 31
0.0
  0
LINE
  5
145
100
AcDbEntity
  8
0
  6
CONTINUOUS
 62
               7
100
AcDbLine
 10
1.0041878923952936
 20
225.52165683335102
 30
0.0
 11
-0.5735151892554882
 21
223.94568442517743
 31
0.0
  0
LINE
  5
146
100
AcDbEntity
  8
0
  6
CONTINUOUS
 62
               7
100
AcDbLine
 10
-1.0999999883334226
 20
198.20001907054677
 30
0.0
 11
-1.0999999883334226
 21
202.00003517406242
 31
0.0
  0
ARC
  5
147
100
AcDbEntity
  8
0
  6
CONTINUOUS
 62
               7
100
AcDbCircle
 10
1.9000000116666342
 20
220.96945290312465
 30
0.0
 40
3.0
100
AcDbArc
 50
134.96855723541546
 51
180.0
  0
ARC
  5
148
100
AcDbEntity
  8
0
  6
CONTINUOUS
 62
               7
100
AcDbCircle
 10
1.9000000116666342
 20
221.46945290312476
 30
0.0
 40
3.5000000000000004
100
AcDbArc
 50
134.9685572354158
 51
179.99999999999997
  0
LINE
  5
149
100
AcDbEntity
  8
0
  6
CONTINUOUS
 62
               7
100
AcDbLine
 10
-1.0999999883334226
 20
215.4000351740624
 30
0.0
 11
-1.0999999883334226
 21
220.96945290312465
 31
0.0
  0
LINE
  5
14A
100
AcDbEntity
  8
0
  6
CONTINUOUS
 62
               7
100
AcDbLine
 10
-1.5999999883333658
 20
202.00003517406242
 30
0.0
 11
-1.5999999883333658
 21
198.20001907054677
 31
0.0
  0
LINE
  5
14B
100
AcDbEntity
  8
0
  6
CONTINUOUS
 62
               7
100
AcDbLine
 10
-3.3999999999999204
 20
134.63020411873231
 30
0.0
 11
-3.3999999999999204
 21
139.63020411873231
 31
0.0
  0
LINE
  5
14C
100
AcDbEntity
  8
0
  6
CONTINUOUS
 62
               7
100
AcDbLine
 10
-5.0999999999999091
 20
134.63020411873231
 30
0.0
 11
-1.7999999999999545
 21
134.63020411873231
 31
0.0
  0
LINE
  5
14D
100
AcDbEntity
  8
0
  6
CONTINUOUS
 62
               7
100
AcDbLine
 10
-5.0999999999999091
 20
139.63020411873231
 30
0.0
 11
-1.7999999999999545
 21
139.63020411873231
 31
0.0
  0
LINE
  5
14E
100
AcDbEntity
  8
0
  6
CONTINUOUS
 62
               7
100
AcDbLine
 10
-1.8000000304660375
 20
131.63020411873231
 30
0.0
 11
-5.1000000423869096
 21
132.21208316082129
 31
0.0
  0
LINE
  5
14F
100
AcDbEntity
  8
0
  6
CONTINUOUS
 62
               7
100
AcDbLine
 10
-1.7999999999999545
 20
121.13020411873208
 30
0.0
 11
-1.7999999999999545
 21
141.63020411873231
 31
0.0
  0
LINE
  5
150
100
AcDbEntity
  8
0
  6
CONTINUOUS
 62
               7
100
AcDbLine
 10
-5.0999999999999091
 20
132.21208315334729
 30
0.0
 11
-5.0999999999999091
 21
141.63020411873231
 31
0.0
  0
LINE
  5
151
100
AcDbEntity
  8
0
  6
CONTINUOUS
 62
               7
100
AcDbLine
 10
-5.4999998092651481
 20
129.63020411873208
 30
0.0
 11
-1.7999999999999545
 21
129.63020411873208
 31
0.0
  0
LINE
  5
152
100
AcDbEntity
  8
0
  6
CONTINUOUS
 62
               7
100
AcDbLine
 10
-5.4999999726121018
 20
129.6302040273431
 30
0.0
 11
-5.7999999606911956
 21
129.11058891275184
 31
0.0
  0
LINE
  5
153
100
AcDbEntity
  8
0
  6
CONTINUOUS
 62
               7
100
AcDbLine
 10
-5.7999999999999545
 20
129.11058894539246
 30
0.0
 11
-5.7999999999999545
 21
123.14982024574647
 31
0.0
  0
LINE
  5
154
100
AcDbEntity
  8
0
  6
CONTINUOUS
 62
               7
100
AcDbLine
 10
-5.4999998092651481
 20
129.63020411873208
 30
0.0
 11
-5.4999998092651481
 21
122.63020411873208
 31
0.0
  0
LINE
  5
155
100
AcDbEntity
  8
0
  6
CONTINUOUS
 62
               7
100
AcDbLine
 10
-5.499999766960741
 20
122.63020453575405
 30
0.0
 11
-5.7999998861699282
 21
123.14982017058651
 31
0.0
  0
LINE
  5
156
100
AcDbEntity
  8
0
  6
CONTINUOUS
 62
               7
100
AcDbLine
 10
-5.4999998092651481
 20
122.63020411873208
 30
0.0
 11
-1.7999999999999545
 21
122.63020411873208
 31
0.0
  0
LINE
  5
157
100
AcDbEntity
  8
0
  6
CONTINUOUS
 62
               7
100
AcDbLine
 10
-5.0999999999999091
 20
141.63020411873231
 30
0.0
 11
0.0
 21
141.63020411873231
 31
0.0
  0
LINE
  5
158
100
AcDbEntity
  8
0
  6
CONTINUOUS
 62
               7
100
AcDbLine
 10
-1.7999999999999545
 20
121.13020411873208
 30
0.0
 11
0.0
 21
121.13020411873208
 31
0.0
  0
LINE
  5
159
100
AcDbEntity
  8
0
  6
CONTINUOUS
 62
               2
100
AcDbLine
 10
-7.759659242168766
 20
126.13020411873231
 30
0.0
 11
2.88159620612862
 21
126.13020411873231
 31
0.0
  0
LINE
  5
15A
100
AcDbEntity
  8
0
  6
CONTINUOUS
 62
               7
100
AcDbLine
 10
40.000000133333344
 20
195.2000128570312
 30
0.0
 11
0.0
 21
195.2000128570312
 31
0.0
  0
LINE
  5
15B
100
AcDbEntity
  8
0
  6
CONTINUOUS
 62
               7
100
AcDbLine
 10
119.05000305175781
 20
44.25000929194016
 30
0.0
 11
110.94999694824224
 21
44.25000929194016
 31
0.0
  0
LINE
  5
15C
100
AcDbEntity
  8
0
  6
CONTINUOUS
 62
               7
100
AcDbLine
 10
110.94999694824224
 20
42.150015395455739
 30
0.0
 11
119.05000305175781
 21
42.150015395455739
 31
0.0
  0
ARC
  5
15D
100
AcDbEntity
  8
0
  6
CONTINUOUS
 62
               7
100
AcDbCircle
 10
118.95000609159467
 20
43.200012343697836
 30
0.0
 40
1.0499969482421962
100
AcDbArc
 50
270.0
 51
90.0
  0
ARC
  5
15E
100
AcDbEntity
  8
0
  6
CONTINUOUS
 62
               7
100
AcDbCircle
 10
111.04999390840533
 20
43.200012343697836
 30
0.0
 40
1.0499969482421962
100
AcDbArc
 50
90.0
 51
270.0
  0
ARC
  5
15F
100
AcDbEntity
  8
0
  6
CONTINUOUS
 62
               7
100
AcDbCircle
 10
96.049993908405327
 20
43.200012343697836
 30
0.0
 40
1.0499969482421962
100
AcDbArc
 50
90.0
 51
270.0
  0
LINE
  5
160
100
AcDbEntity
  8
0
  6
CONTINUOUS
 62
               7
100
AcDbLine
 10
95.949996948242188
 20
42.150015395455739
 30
0.0
 11
104.05000305175781
 21
42.150015395455739
 31
0.0
  0
ARC
  5
161
100
AcDbEntity
  8
0
  6
CONTINUOUS
 62
               7
100
AcDbCircle
 10
103.95000609159467
 20
43.200012343697836
 30
0.0
 40
1.0499969482421962
100
AcDbArc
 50
270.0
 51
90.0
  0
LINE
  5
162
100
AcDbEntity
  8
0
  6
CONTINUOUS
 62
               7
100
AcDbLine
 10
104.05000305175781
 20
44.25000929194016
 30
0.0
 11
95.949996948242188
 21
44.25000929194016
 31
0.0
  0
ARC
  5
163
100
AcDbEntity
  8
0
  6
CONTINUOUS
 62
               7
100
AcDbCircle
 10
103.54999390840533
 20
38.200012343697836
 30
0.0
 40
1.0499969482421962
100
AcDbArc
 50
90.0
 51
270.0
  0
LINE
  5
164
100
AcDbEntity
  8
0
  6
CONTINUOUS
 62
               7
100
AcDbLine
 10
103.44999694824219
 20
37.150015395455739
 30
0.0
 11
111.55000305175781
 21
37.150015395455739
 31
0.0
  0
ARC
  5
165
100
AcDbEntity
  8
0
  6
CONTINUOUS
 62
               7
100
AcDbCircle
 10
111.45000609159467
 20
38.200012343697836
 30
0.0
 40
1.0499969482421962
100
AcDbArc
 50
270.0
 51
90.0
  0
LINE
  5
166
100
AcDbEntity
  8
0
  6
CONTINUOUS
 62
               7
100
AcDbLine
 10
111.55000305175781
 20
39.25000929194016
 30
0.0
 11
103.44999694824219
 21
39.25000929194016
 31
0.0
  0
ARC
  5
167
100
AcDbEntity
  8
0
  6
CONTINUOUS
 62
               7
100
AcDbCircle
 10
88.549993908405327
 20
38.200012343697836
 30
0.0
 40
1.0499969482421962
100
AcDbArc
 50
90.0
 51
270.0
  0
LINE
  5
168
100
AcDbEntity
  8
0
  6
CONTINUOUS
 62
               7
100
AcDbLine
 10
88.449996948242188
 20
37.150015395455739
 30
0.0
 11
96.550003051757812
 21
37.150015395455739
 31
0.0
  0
ARC
  5
169
100
AcDbEntity
  8
0
  6
CONTINUOUS
 62
               7
100
AcDbCircle
 10
96.450006091594673
 20
38.200012343697836
 30
0.0
 40
1.0499969482421962
100
AcDbArc
 50
270.0
 51
90.0
  0
LINE
  5
16A
100
AcDbEntity
  8
0
  6
CONTINUOUS
 62
               7
100
AcDbLine
 10
96.550003051757812
 20
39.25000929194016
 30
0.0
 11
88.449996948242188
 21
39.25000929194016
 31
0.0
  0
ARC
  5
16B
100
AcDbEntity
  8
0
  6
CONTINUOUS
 62
               7
100
AcDbCircle
 10
81.049993908405327
 20
43.200012343697836
 30
0.0
 40
1.0499969482421962
100
AcDbArc
 50
90.0
 51
270.0
  0
LINE
  5
16C
100
AcDbEntity
  8
0
  6
CONTINUOUS
 62
               7
100
AcDbLine
 10
80.949996948242188
 20
42.150015395455739
 30
0.0
 11
89.050003051757813
 21
42.150015395455739
 31
0.0
  0
ARC
  5
16D
100
AcDbEntity
  8
0
  6
CONTINUOUS
 62
               7
100
AcDbCircle
 10
88.950006091594673
 20
43.200012343697836
 30
0.0
 40
1.0499969482421962
100
AcDbArc
 50
270.0
 51
90.0
  0
LINE
  5
16E
100
AcDbEntity
  8
0
  6
CONTINUOUS
 62
               7
100
AcDbLine
 10
89.050003051757813
 20
44.25000929194016
 30
0.0
 11
80.949996948242188
 21
44.25000929194016
 31
0.0
  0
ARC
  5
16F
100
AcDbEntity
  8
0
  6
CONTINUOUS
 62
               7
100
AcDbCircle
 10
66.049993908405327
 20
43.200012343697836
 30
0.0
 40
1.0499969482421962
100
AcDbArc
 50
90.0
 51
270.0
  0
LINE
  5
170
100
AcDbEntity
  8
0
  6
CONTINUOUS
 62
               7
100
AcDbLine
 10
65.949996948242188
 20
42.150015395455739
 30
0.0
 11
74.050003051757756
 21
42.150015395455739
 31
0.0
  0
ARC
  5
171
100
AcDbEntity
  8
0
  6
CONTINUOUS
 62
               7
100
AcDbCircle
 10
73.950006091594673
 20
43.200012343697836
 30
0.0
 40
1.0499969482421962
100
AcDbArc
 50
270.0
 51
90.0
  0
LINE
  5
172
100
AcDbEntity
  8
0
  6
CONTINUOUS
 62
               7
100
AcDbLine
 10
74.050003051757756
 20
44.25000929194016
 30
0.0
 11
65.949996948242188
 21
44.25000929194016
 31
0.0
  0
ARC
  5
173
100
AcDbEntity
  8
0
  6
CONTINUOUS
 62
               7
100
AcDbCircle
 10
73.549993908405327
 20
38.200012343697836
 30
0.0
 40
1.0499969482421962
100
AcDbArc
 50
90.0
 51
270.0
  0
LINE
  5
174
100
AcDbEntity
  8
0
  6
CONTINUOUS
 62
               7
100
AcDbLine
 10
73.449996948242187
 20
37.150015395455739
 30
0.0
 11
81.550003051757813
 21
37.150015395455739
 31
0.0
  0
ARC
  5
175
100
AcDbEntity
  8
0
  6
CONTINUOUS
 62
               7
100
AcDbCircle
 10
81.450006091594673
 20
38.200012343697836
 30
0.0
 40
1.0499969482421962
100
AcDbArc
 50
270.0
 51
90.0
  0
LINE
  5
176
100
AcDbEntity
  8
0
  6
CONTINUOUS
 62
               7
100
AcDbLine
 10
81.550003051757813
 20
39.25000929194016
 30
0.0
 11
73.449996948242187
 21
39.25000929194016
 31
0.0
  0
ARC
  5
177
100
AcDbEntity
  8
0
  6
CONTINUOUS
 62
               7
100
AcDbCircle
 10
81.049993908405327
 20
33.200012343697836
 30
0.0
 40
1.0499969482421962
100
AcDbArc
 50
90.0
 51
270.0
  0
LINE
  5
178
100
AcDbEntity
  8
0
  6
CONTINUOUS
 62
               7
100
AcDbLine
 10
80.949996948242188
 20
32.150015395455739
 30
0.0
 11
89.050003051757813
 21
32.150015395455739
 31
0.0
  0
ARC
  5
179
100
AcDbEntity
  8
0
  6
CONTINUOUS
 62
               7
100
AcDbCircle
 10
88.950006091594673
 20
33.200012343697836
 30
0.0
 40
1.0499969482421962
100
AcDbArc
 50
270.0
 51
90.0
  0
LINE
  5
17A
100
AcDbEntity
  8
0
  6
CONTINUOUS
 62
               7
100
AcDbLine
 10
89.050003051757813
 20
34.25000929194016
 30
0.0
 11
80.949996948242188
 21
34.25000929194016
 31
0.0
  0
ARC
  5
17B
100
AcDbEntity
  8
0
  6
CONTINUOUS
 62
               7
100
AcDbCircle
 10
66.049993908405327
 20
33.200012343697836
 30
0.0
 40
1.0499969482421962
100
AcDbArc
 50
90.0
 51
270.0
  0
LINE
  5
17C
100
AcDbEntity
  8
0
  6
CONTINUOUS
 62
               7
100
AcDbLine
 10
65.949996948242188
 20
32.150015395455739
 30
0.0
 11
74.050003051757756
 21
32.150015395455739
 31
0.0
  0
ARC
  5
17D
100
AcDbEntity
  8
0
  6
CONTINUOUS
 62
               7
100
AcDbCircle
 10
73.950006091594673
 20
33.200012343697836
 30
0.0
 40
1.0499969482421962
100
AcDbArc
 50
270.0
 51
90.0
  0
LINE
  5
17E
100
AcDbEntity
  8
0
  6
CONTINUOUS
 62
               7
100
AcDbLine
 10
74.050003051757756
 20
34.25000929194016
 30
0.0
 11
65.949996948242188
 21
34.25000929194016
 31
0.0
  0
ARC
  5
17F
100
AcDbEntity
  8
0
  6
CONTINUOUS
 62
               7
100
AcDbCircle
 10
96.049993908405327
 20
33.200012343697836
 30
0.0
 40
1.0499969482421962
100
AcDbArc
 50
90.0
 51
270.0
  0
LINE
  5
180
100
AcDbEntity
  8
0
  6
CONTINUOUS
 62
               7
100
AcDbLine
 10
95.949996948242188
 20
32.150015395455739
 30
0.0
 11
104.05000305175781
 21
32.150015395455739
 31
0.0
  0
ARC
  5
181
100
AcDbEntity
  8
0
  6
CONTINUOUS
 62
               7
100
AcDbCircle
 10
103.95000609159467
 20
33.200012343697836
 30
0.0
 40
1.0499969482421962
100
AcDbArc
 50
270.0
 51
90.0
  0
LINE
  5
182
100
AcDbEntity
  8
0
  6
CONTINUOUS
 62
               7
100
AcDbLine
 10
104.05000305175781
 20
34.25000929194016
 30
0.0
 11
95.949996948242188
 21
34.25000929194016
 31
0.0
  0
ARC
  5
183
100
AcDbEntity
  8
0
  6
CONTINUOUS
 62
               7
100
AcDbCircle
 10
111.04999390840533
 20
33.200012343697836
 30
0.0
 40
1.0499969482421962
100
AcDbArc
 50
90.0
 51
270.0
  0
LINE
  5
184
100
AcDbEntity
  8
0
  6
CONTINUOUS
 62
               7
100
AcDbLine
 10
110.94999694824224
 20
32.150015395455739
 30
0.0
 11
119.05000305175781
 21
32.150015395455739
 31
0.0
  0
ARC
  5
185
100
AcDbEntity
  8
0
  6
CONTINUOUS
 62
               7
100
AcDbCircle
 10
118.95000609159467
 20
33.200012343697836
 30
0.0
 40
1.0499969482421962
100
AcDbArc
 50
270.0
 51
90.0
  0
LINE
  5
186
100
AcDbEntity
  8
0
  6
CONTINUOUS
 62
               7
100
AcDbLine
 10
119.05000305175781
 20
34.25000929194016
 30
0.0
 11
110.94999694824224
 21
34.25000929194016
 31
0.0
  0
ARC
  5
187
100
AcDbEntity
  8
0
  6
CONTINUOUS
 62
               7
100
AcDbCircle
 10
103.54999390840533
 20
28.200012343697836
 30
0.0
 40
1.0499969482421962
100
AcDbArc
 50
90.0
 51
270.0
  0
LINE
  5
188
100
AcDbEntity
  8
0
  6
CONTINUOUS
 62
               7
100
AcDbLine
 10
103.44999694824219
 20
27.150015395455739
 30
0.0
 11
111.55000305175781
 21
27.150015395455739
 31
0.0
  0
ARC
  5
189
100
AcDbEntity
  8
0
  6
CONTINUOUS
 62
               7
100
AcDbCircle
 10
111.45000609159467
 20
28.200012343697836
 30
0.0
 40
1.0499969482421962
100
AcDbArc
 50
270.0
 51
90.0
  0
LINE
  5
18A
100
AcDbEntity
  8
0
  6
CONTINUOUS
 62
               7
100
AcDbLine
 10
111.55000305175781
 20
29.25000929194016
 30
0.0
 11
103.44999694824219
 21
29.25000929194016
 31
0.0
  0
ARC
  5
18B
100
AcDbEntity
  8
0
  6
CONTINUOUS
 62
               7
100
AcDbCircle
 10
88.549993908405327
 20
28.200012343697836
 30
0.0
 40
1.0499969482421962
100
AcDbArc
 50
90.0
 51
270.0
  0
LINE
  5
18C
100
AcDbEntity
  8
0
  6
CONTINUOUS
 62
               7
100
AcDbLine
 10
88.449996948242188
 20
27.150015395455739
 30
0.0
 11
96.550003051757812
 21
27.150015395455739
 31
0.0
  0
ARC
  5
18D
100
AcDbEntity
  8
0
  6
CONTINUOUS
 62
               7
100
AcDbCircle
 10
96.450006091594673
 20
28.200012343697836
 30
0.0
 40
1.0499969482421962
100
AcDbArc
 50
270.0
 51
90.0
  0
LINE
  5
18E
100
AcDbEntity
  8
0
  6
CONTINUOUS
 62
               7
100
AcDbLine
 10
96.550003051757812
 20
29.25000929194016
 30
0.0
 11
88.449996948242188
 21
29.25000929194016
 31
0.0
  0
ARC
  5
18F
100
AcDbEntity
  8
0
  6
CONTINUOUS
 62
               7
100
AcDbCircle
 10
73.549993908405327
 20
28.200012343697836
 30
0.0
 40
1.0499969482421962
100
AcDbArc
 50
90.0
 51
270.0
  0
LINE
  5
190
100
AcDbEntity
  8
0
  6
CONTINUOUS
 62
               7
100
AcDbLine
 10
73.449996948242187
 20
27.150015395455739
 30
0.0
 11
81.550003051757813
 21
27.150015395455739
 31
0.0
  0
ARC
  5
191
100
AcDbEntity
  8
0
  6
CONTINUOUS
 62
               7
100
AcDbCircle
 10
81.450006091594673
 20
28.200012343697836
 30
0.0
 40
1.0499969482421962
100
AcDbArc
 50
270.0
 51
90.0
  0
LINE
  5
192
100
AcDbEntity
  8
0
  6
CONTINUOUS
 62
               7
100
AcDbLine
 10
81.550003051757813
 20
29.25000929194016
 30
0.0
 11
73.449996948242187
 21
29.25000929194016
 31
0.0
  0
ARC
  5
193
100
AcDbEntity
  8
0
  6
CONTINUOUS
 62
               7
100
AcDbCircle
 10
66.049993908405327
 20
23.200012343697836
 30
0.0
 40
1.0499969482421962
100
AcDbArc
 50
90.0
 51
270.0
  0
LINE
  5
194
100
AcDbEntity
  8
0
  6
CONTINUOUS
 62
               7
100
AcDbLine
 10
65.949996948242188
 20
22.150015395455739
 30
0.0
 11
74.050003051757756
 21
22.150015395455739
 31
0.0
  0
ARC
  5
195
100
AcDbEntity
  8
0
  6
CONTINUOUS
 62
               7
100
AcDbCircle
 10
73.950006091594673
 20
23.200012343697836
 30
0.0
 40
1.0499969482421962
100
AcDbArc
 50
270.0
 51
90.0
  0
LINE
  5
196
100
AcDbEntity
  8
0
  6
CONTINUOUS
 62
               7
100
AcDbLine
 10
74.050003051757756
 20
24.25000929194016
 30
0.0
 11
65.949996948242188
 21
24.25000929194016
 31
0.0
  0
ARC
  5
197
100
AcDbEntity
  8
0
  6
CONTINUOUS
 62
               7
100
AcDbCircle
 10
81.049993908405327
 20
23.200012343697836
 30
0.0
 40
1.0499969482421962
100
AcDbArc
 50
90.0
 51
270.0
  0
LINE
  5
198
100
AcDbEntity
  8
0
  6
CONTINUOUS
 62
               7
100
AcDbLine
 10
80.949996948242188
 20
22.150015395455739
 30
0.0
 11
89.050003051757813
 21
22.150015395455739
 31
0.0
  0
ARC
  5
199
100
AcDbEntity
  8
0
  6
CONTINUOUS
 62
               7
100
AcDbCircle
 10
88.950006091594673
 20
23.200012343697836
 30
0.0
 40
1.0499969482421962
100
AcDbArc
 50
270.0
 51
90.0
  0
LINE
  5
19A
100
AcDbEntity
  8
0
  6
CONTINUOUS
 62
               7
100
AcDbLine
 10
89.050003051757813
 20
24.25000929194016
 30
0.0
 11
80.949996948242188
 21
24.25000929194016
 31
0.0
  0
ARC
  5
19B
100
AcDbEntity
  8
0
  6
CONTINUOUS
 62
               7
100
AcDbCircle
 10
96.049993908405327
 20
23.200012343697836
 30
0.0
 40
1.0499969482421962
100
AcDbArc
 50
90.0
 51
270.0
  0
LINE
  5
19C
100
AcDbEntity
  8
0
  6
CONTINUOUS
 62
               7
100
AcDbLine
 10
95.949996948242188
 20
22.150015395455739
 30
0.0
 11
104.05000305175781
 21
22.150015395455739
 31
0.0
  0
ARC
  5
19D
100
AcDbEntity
  8
0
  6
CONTINUOUS
 62
               7
100
AcDbCircle
 10
103.95000609159467
 20
23.200012343697836
 30
0.0
 40
1.0499969482421962
100
AcDbArc
 50
270.0
 51
90.0
  0
LINE
  5
19E
100
AcDbEntity
  8
0
  6
CONTINUOUS
 62
               7
100
AcDbLine
 10
104.05000305175781
 20
24.25000929194016
 30
0.0
 11
95.949996948242188
 21
24.25000929194016
 31
0.0
  0
ARC
  5
19F
100
AcDbEntity
  8
0
  6
CONTINUOUS
 62
               7
100
AcDbCircle
 10
111.04999390840533
 20
23.200012343697836
 30
0.0
 40
1.0499969482421962
100
AcDbArc
 50
90.0
 51
270.0
  0
LINE
  5
1A0
100
AcDbEntity
  8
0
  6
CONTINUOUS
 62
               7
100
AcDbLine
 10
110.94999694824224
 20
22.150015395455739
 30
0.0
 11
119.05000305175781
 21
22.150015395455739
 31
0.0
  0
ARC
  5
1A1
100
AcDbEntity
  8
0
  6
CONTINUOUS
 62
               7
100
AcDbCircle
 10
118.95000609159467
 20
23.200012343697836
 30
0.0
 40
1.0499969482421962
100
AcDbArc
 50
270.0
 51
90.0
  0
LINE
  5
1A2
100
AcDbEntity
  8
0
  6
CONTINUOUS
 62
               7
100
AcDbLine
 10
119.05000305175781
 20
24.25000929194016
 30
0.0
 11
110.94999694824224
 21
24.25000929194016
 31
0.0
  0
CIRCLE
  5
1A3
100
AcDbEntity
  8
0
  6
CONTINUOUS
 62
               7
100
AcDbCircle
 10
291.00000000000006
 20
12.200003188424489
 30
0.0
 40
3.1499999999999999
  0
CIRCLE
  5
1A4
100
AcDbEntity
  8
0
  6
CONTINUOUS
 62
               7
100
AcDbCircle
 10
148.5
 20
12.200003188424489
 30
0.0
 40
3.1499999999999999
  0
CIRCLE
  5
1A5
100
AcDbEntity
  8
0
  6
CONTINUOUS
 62
               7
100
AcDbCircle
 10
6.0
 20
12.200003188424489
 30
0.0
 40
3.1499999999999999
  0
LINE
  5
1A6
100
AcDbEntity
  8
0
  6
CONTINUOUS
 62
               7
100
AcDbLine
 10
292.20000076293945
 20
66.600006240182211
 30
0.0
 11
292.20000076293945
 21
56.200012343697836
 31
0.0
  0
LINE
  5
1A7
100
AcDbEntity
  8
0
  6
CONTINUOUS
 62
               7
100
AcDbLine
 10
289.7999992370606
 20
66.600006240182211
 30
0.0
 11
289.7999992370606
 21
56.200012343697836
 31
0.0
  0
LINE
  5
1A8
100
AcDbEntity
  8
0
  6
CONTINUOUS
 62
               7
100
AcDbLine
 10
289.7999992370606
 20
66.600006240182211
 30
0.0
 11
292.20000076293945
 21
66.600006240182211
 31
0.0
  0
LINE
  5
1A9
100
AcDbEntity
  8
0
  6
CONTINUOUS
 62
               7
100
AcDbLine
 10
289.7999992370606
 20
56.200012343697836
 30
0.0
 11
292.20000076293945
 21
56.200012343697836
 31
0.0
  0
LINE
  5
1AA
100
AcDbEntity
  8
0
  6
CONTINUOUS
 62
               7
100
AcDbLine
 10
300.00001625878917
 20
81.200012467031229
 30
0.0
 11
300.000001
 21
30.200012297031208
 31
0.0
  0
LINE
  5
1AB
100
AcDbEntity
  8
0
  6
CONTINUOUS
 62
               7
100
AcDbLine
 10
49.800003313424554
 20
317.700074290521
 30
0.0
 11
46.000000153333247
 21
317.700074290521
 31
0.0
  0
LINE
  5
1AC
100
AcDbEntity
  8
0
  6
CONTINUOUS
 62
               7
100
AcDbLine
 10
78.500015520455804
 20
317.7000440062759
 30
0.0
 11
64.200027727487054
 21
317.7000440062759
 31
0.0
  0
CIRCLE
  5
1AD
100
AcDbEntity
  8
0
  6
CONTINUOUS
 62
               7
100
AcDbCircle
 10
53.00001552045569
 20
305.20007452385414
 30
0.0
 40
0.8
  0
CIRCLE
  5
1AE
100
AcDbEntity
  8
0
  6
CONTINUOUS
 62
               7
100
AcDbCircle
 10
61.000015520455804
 20
305.20007452385414
 30
0.0
 40
0.8
  0
LINE
  5
1AF
100
AcDbEntity
  8
0
  6
CONTINUOUS
 62
               7
100
AcDbLine
 10
55.50001552045569
 20
319.65975182620105
 30
0.0
 11
55.50001552045569
 21
318.20004400627602
 31
0.0
  0
LINE
  5
1B0
100
AcDbEntity
  8
0
  6
CONTINUOUS
 62
               7
100
AcDbLine
 10
55.650015520455725
 20
319.82163913106695
 30
0.0
 11
55.650015520455725
 21
318.20004400627602
 31
0.0
  0
LINE
  5
1B1
100
AcDbEntity
  8
0
  6
CONTINUOUS
 62
               7
100
AcDbLine
 10
49.800003313424554
 20
318.20004400627602
 30
0.0
 11
49.800003313424554
 21
317.7000440062759
 31
0.0
  0
LINE
  5
1B2
100
AcDbEntity
  8
0
  6
CONTINUOUS
 62
               7
100
AcDbLine
 10
64.200027727487054
 20
318.20004400627602
 30
0.0
 11
64.200027727487054
 21
317.7000440062759
 31
0.0
  0
LINE
  5
1B3
100
AcDbEntity
  8
0
  6
CONTINUOUS
 62
               7
100
AcDbLine
 10
64.200027727487054
 20
318.20004400627602
 30
0.0
 11
61.789079566893747
 21
318.20004400627602
 31
0.0
  0
LINE
  5
1B4
100
AcDbEntity
  8
0
  6
CONTINUOUS
 62
               7
100
AcDbLine
 10
55.650015520455725
 20
326.65894686779188
 30
0.0
 11
55.650015520455725
 21
322.5784793990631
 31
0.0
  0
LINE
  5
1B5
100
AcDbEntity
  8
0
  6
CONTINUOUS
 62
               7
100
AcDbLine
 10
58.350015520455713
 20
327.31114028273578
 30
0.0
 11
58.350015520455713
 21
318.20007452385414
 31
0.0
  0
LINE
  5
1B6
100
AcDbEntity
  8
0
  6
CONTINUOUS
 62
               7
100
AcDbLine
 10
55.50001552045569
 20
325.95007452385414
 30
0.0
 11
55.50001552045569
 21
322.74036670392911
 31
0.0
  0
ARC
  5
1B7
100
AcDbEntity
  8
0
  6
CONTINUOUS
 62
               7
100
AcDbCircle
 10
57.250015520455804
 20
325.95007452385414
 30
0.0
 40
1.7500000000000002
100
AcDbArc
 50
0.0
 51
180.0
  0
LINE
  5
1B8
100
AcDbEntity
  8
0
  6
CONTINUOUS
 62
               7
100
AcDbLine
 10
59.00001552045569
 20
325.95007452385414
 30
0.0
 11
59.00001552045569
 21
318.20007452385414
 31
0.0
  0
ARC
  5
1B9
100
AcDbEntity
  8
0
  6
CONTINUOUS
 62
               7
100
AcDbCircle
 10
51.000015520455804
 20
312.70007452385414
 30
0.0
 40
1.5
100
AcDbArc
 50
117.81866648709102
 51
179.99999749552188
  0
LINE
  5
1BA
100
AcDbEntity
  8
0
  6
CONTINUOUS
 62
               7
100
AcDbLine
 10
49.500015520455804
 20
308.70007452385414
 30
0.0
 11
49.500015520455804
 21
312.70007452385414
 31
0.0
  0
LINE
  5
1BB
100
AcDbEntity
  8
0
  6
CONTINUOUS
 62
               7
100
AcDbLine
 10
50.300003313424497
 20
307.70007452385414
 30
0.0
 11
63.70002772748694
 21
307.70007452385414
 31
0.0
  0
LINE
  5
1BC
100
AcDbEntity
  8
0
  6
CONTINUOUS
 62
               7
100
AcDbLine
 10
51.000015520455804
 20
307.20007452385414
 30
0.0
 11
63.00001552045569
 21
307.20007452385414
 31
0.0
  0
LINE
  5
1BD
100
AcDbEntity
  8
0
  6
CONTINUOUS
 62
               7
100
AcDbLine
 10
64.500015520455634
 20
308.70004400627602
 30
0.0
 11
64.500015520455634
 21
312.7000440062759
 31
0.0
  0
ARC
  5
1BE
100
AcDbEntity
  8
0
  6
CONTINUOUS
 62
               7
100
AcDbCircle
 10
63.00001552045569
 20
308.70007452385414
 30
0.0
 40
1.5
100
AcDbArc
 50
270.00000000000006
 51
0.0000025044782182
  0
ARC
  5
1BF
100
AcDbEntity
  8
0
  6
CONTINUOUS
 62
               7
100
AcDbCircle
 10
63.00001552045569
 20
312.70007452385414
 30
0.0
 40
1.5
100
AcDbArc
 50
0.0000025044782182
 51
62.181333512908971
  0
ARC
  5
1C0
100
AcDbEntity
  8
0
  6
CONTINUOUS
 62
               7
100
AcDbCircle
 10
51.000015520455804
 20
308.70007452385414
 30
0.0
 40
1.5
100
AcDbArc
 50
179.99999749552188
 51
270.00000000000006
  0
LINE
  5
1C1
100
AcDbEntity
  8
0
  6
CONTINUOUS
 62
               7
100
AcDbLine
 10
50.300003313424497
 20
318.20007452385414
 30
0.0
 11
50.300003313424497
 21
307.70007452385414
 31
0.0
  0
LINE
  5
1C2
100
AcDbEntity
  8
0
  6
CONTINUOUS
 62
               7
100
AcDbLine
 10
63.70002772748694
 20
318.20007452385414
 30
0.0
 11
63.70002772748694
 21
307.70007452385414
 31
0.0
  0
CIRCLE
  5
1C3
100
AcDbEntity
  8
0
  6
CONTINUOUS
 62
               7
100
AcDbCircle
 10
61.000015520455804
 20
316.20007452385414
 30
0.0
 40
2.0749999999999997
  0
CIRCLE
  5
1C4
100
AcDbEntity
  8
0
  6
CONTINUOUS
 62
               7
100
AcDbCircle
 10
61.000015520455804
 20
316.20007452385414
 30
0.0
 40
2.1499999999999999
  0
CIRCLE
  5
1C5
100
AcDbEntity
  8
0
  6
CONTINUOUS
 62
               7
100
AcDbCircle
 10
53.00001552045569
 20
316.20007452385414
 30
0.0
 40
2.0749999999999997
  0
CIRCLE
  5
1C6
100
AcDbEntity
  8
0
  6
CONTINUOUS
 62
               7
100
AcDbCircle
 10
53.00001552045569
 20
316.20007452385414
 30
0.0
 40
2.1499999999999999
  0
LINE
  5
1C7
100
AcDbEntity
  8
0
  6
CONTINUOUS
 62
               7
100
AcDbLine
 10
71.000015520455804
 20
394.70001348869789
 30
0.0
 11
71.000015520455804
 21
318.70007452385414
 31
0.0
  0
LINE
  5
1C8
100
AcDbEntity
  8
0
  6
CONTINUOUS
 62
               7
100
AcDbLine
 10
52.210951474017691
 20
318.20004400627602
 30
0.0
 11
49.800003313424554
 21
318.20004400627602
 31
0.0
  0
LINE
  5
1C9
100
AcDbEntity
  8
0
  6
CONTINUOUS
 62
               7
100
AcDbLine
 10
60.210951474017804
 20
318.20004400627602
 30
0.0
 11
53.789079566893633
 21
318.20004400627602
 31
0.0
  0
LINE
  5
1CA
100
AcDbEntity
  8
0
  6
CONTINUOUS
 62
               7
100
AcDbLine
 10
1.000000011666657
 20
202.00003517406242
 30
0.0
 11
-2.9999999883335136
 21
202.00003517406242
 31
0.0
  0
LINE
  5
1CB
100
AcDbEntity
  8
0
  6
CONTINUOUS
 62
               7
100
AcDbLine
 10
1.000000011666657
 20
215.40005958812492
 30
0.0
 11
-2.9999999883335136
 21
215.40005958812492
 31
0.0
  0
LINE
  5
1CC
100
AcDbEntity
  8
0
  6
CONTINUOUS
 62
               7
100
AcDbLine
 10
-2.9999999883335136
 20
215.40005958812492
 30
0.0
 11
-2.9999999883335136
 21
202.00003517406242
 31
0.0
  0
LINE
  5
1CD
100
AcDbEntity
  8
0
  6
CONTINUOUS
 62
               7
100
AcDbLine
 10
-3.8499999898456281
 20
214.77568193934758
 30
0.0
 11
-2.9999999841037948
 21
214.85004730362971
 31
0.0
  0
LINE
  5
1CE
100
AcDbEntity
  8
0
  6
CONTINUOUS
 62
               7
100
AcDbLine
 10
-3.8499999898460828
 20
210.6244128228401
 30
0.0
 11
-2.9999999841043632
 21
210.55004745855774
 31
0.0
  0
LINE
  5
1CF
100
AcDbEntity
  8
0
  6
CONTINUOUS
 62
               7
100
AcDbLine
 10
-3.8500000121753146
 20
210.62441266315261
 30
0.0
 11
-3.8500000121748599
 21
214.77568209903507
 31
0.0
  0
LINE
  5
1D0
100
AcDbEntity
  8
0
  6
CONTINUOUS
 62
               7
100
AcDbLine
 10
-3.8499999898456281
 20
206.77568193934746
 30
0.0
 11
-2.9999999841037948
 21
206.85004730362982
 31
0.0
  0
LINE
  5
1D1
100
AcDbEntity
  8
0
  6
CONTINUOUS
 62
               7
100
AcDbLine
 10
-3.8499999898460828
 20
202.62441282283999
 30
0.0
 11
-2.9999999841043632
 21
202.55004745855763
 31
0.0
  0
LINE
  5
1D2
100
AcDbEntity
  8
0
  6
CONTINUOUS
 62
               7
100
AcDbLine
 10
-3.8500000121753146
 20
202.6244126631525
 30
0.0
 11
-3.8500000121748599
 21
206.77568209903518
 31
0.0
  0
ARC
  5
1D3
100
AcDbEntity
  8
0
  6
CONTINUOUS
 62
               7
100
AcDbCircle
 10
2.1296558496794091
 20
212.70004738109333
 30
0.0
 40
6.3296561241149902
100
AcDbArc
 50
160.85729086486762
 51
199.14270731389101
  0
ARC
  5
1D4
100
AcDbEntity
  8
0
  6
CONTINUOUS
 62
               7
100
AcDbCircle
 10
2.1296558496794091
 20
204.70004738109344
 30
0.0
 40
6.3296561241149902
100
AcDbArc
 50
160.85729086486762
 51
199.14270731389101
  0
CIRCLE
  5
1D5
100
AcDbEntity
  8
0
  6
CONTINUOUS
 62
               7
100
AcDbCircle
 10
54.000000179999972
 20
321.20007430218766
 30
0.0
 40
2.0750000546003822
  0
CIRCLE
  5
1D6
100
AcDbEntity
  8
0
  6
CONTINUOUS
 62
               7
100
AcDbCircle
 10
54.000000179999972
 20
321.20007430218766
 30
0.0
 40
2.1500001025340985
  0
CIRCLE
  5
1D7
100
AcDbEntity
  8
0
  6
CONTINUOUS
 62
               7
100
AcDbCircle
 10
68.000015485455776
 20
321.20007430218766
 30
0.0
 40
2.0750000546003822
  0
CIRCLE
  5
1D8
100
AcDbEntity
  8
0
  6
CONTINUOUS
 62
               7
100
AcDbCircle
 10
68.000015485455776
 20
321.20007430218766
 30
0.0
 40
2.1500001025340985
  0
ARC
  5
1D9
100
AcDbEntity
  8
0
  6
CONTINUOUS
 62
               7
100
AcDbCircle
 10
33.870346182237085
 20
220.20001293036455
 30
0.0
 40
6.3296561452138436
100
AcDbArc
 50
340.85729006794099
 51
19.142706516964399
  0
ARC
  5
1DA
100
AcDbEntity
  8
0
  6
CONTINUOUS
 62
               7
100
AcDbCircle
 10
33.870346182237085
 20
206.20001288369792
 30
0.0
 40
6.3296561452138436
100
AcDbArc
 50
340.85729006794099
 51
19.142706516964399
  0
ARC
  5
1DB
100
AcDbEntity
  8
0
  6
CONTINUOUS
 62
               7
100
AcDbCircle
 10
31.500000105000026
 20
227.20001295369786
 30
0.0
 40
2.4000001033674319
100
AcDbArc
 50
331.17621921195268
 51
163.04248945089057
  0
ARC
  5
1DC
100
AcDbEntity
  8
0
  6
CONTINUOUS
 62
               7
100
AcDbCircle
 10
8.5000000283333179
 20
227.20001295369786
 30
0.0
 40
2.4000001033674319
100
AcDbArc
 50
16.957513850518463
 51
208.82378579700367
  0
ARC
  5
1DD
100
AcDbEntity
  8
0
  6
CONTINUOUS
 62
               7
100
AcDbCircle
 10
36.000000119999982
 20
201.20001286703121
 30
0.0
 40
3.0000000099999999
100
AcDbArc
 50
269.99999749552182
 51
0.0
  0
ARC
  5
1DE
100
AcDbEntity
  8
0
  6
CONTINUOUS
 62
               7
100
AcDbCircle
 10
33.000000109999974
 20
228.70001295869793
 30
0.0
 40
2.0000000066666663
100
AcDbArc
 50
60.000001669652114
 51
90.000002504478161
  0
ARC
  5
1DF
100
AcDbEntity
  8
0
  6
CONTINUOUS
 62
               7
100
AcDbCircle
 10
7.0000000233333708
 20
228.70001295869793
 30
0.0
 40
2.0000000066666663
100
AcDbArc
 50
90.000002504478161
 51
120.00000333930423
  0
ARC
  5
1E0
100
AcDbEntity
  8
0
  6
CONTINUOUS
 62
               7
100
AcDbCircle
 10
30.792892558697702
 20
225.60000684484885
 30
0.0
 40
2.2999999599829506
100
AcDbArc
 50
45.00000125223908
 51
90.000002504478161
  0
ARC
  5
1E1
100
AcDbEntity
  8
0
  6
CONTINUOUS
 62
               7
100
AcDbCircle
 10
4.5000000150000119
 20
219.19583201881414
 30
0.0
 40
3.5000000116666672
100
AcDbArc
 50
135.00000034162267
 51
180.00000500895632
  0
ARC
  5
1E2
100
AcDbEntity
  8
0
  6
CONTINUOUS
 62
               7
100
AcDbCircle
 10
35.500000118333332
 20
219.19583201881414
 30
0.0
 40
3.5000000116666672
100
AcDbArc
 50
0.0000000000000509
 51
45.00000125223908
  0
ARC
  5
1E3
100
AcDbEntity
  8
0
  6
CONTINUOUS
 62
               7
100
AcDbCircle
 10
9.2071075746356996
 20
225.60000684484885
 30
0.0
 40
2.2999999599829506
100
AcDbArc
 50
90.000002504478161
 51
135.00000034162267
  0
ARC
  5
1E4
100
AcDbEntity
  8
0
  6
CONTINUOUS
 62
               7
100
AcDbCircle
 10
4.0000000133333629
 20
201.20001286703121
 30
0.0
 40
3.0000000099999999
100
AcDbArc
 50
179.99999499104368
 51
269.99999749552182
  0
ARC
  5
1E5
100
AcDbEntity
  8
0
  6
CONTINUOUS
 62
               7
100
AcDbCircle
 10
33.000000109999974
 20
228.70001295869793
 30
0.0
 40
1.500000005
100
AcDbArc
 50
45.00000125223908
 51
90.000002504478161
  0
ARC
  5
1E6
100
AcDbEntity
  8
0
  6
CONTINUOUS
 62
               7
100
AcDbCircle
 10
38.500000128333284
 20
230.69998244778628
 30
0.0
 40
0.5000000016666666
100
AcDbArc
 50
7.4208451464152363
 51
90.000002504478161
  0
ARC
  5
1E7
100
AcDbEntity
  8
0
  6
CONTINUOUS
 62
               7
100
AcDbCircle
 10
7.0000000233333708
 20
228.70001295869793
 30
0.0
 40
1.500000005
100
AcDbArc
 50
90.000002504478161
 51
135.00000034162267
  0
ARC
  5
1E8
100
AcDbEntity
  8
0
  6
CONTINUOUS
 62
               7
100
AcDbCircle
 10
34.500000114999978
 20
230.69998244778628
 30
0.0
 40
0.5000000016666666
100
AcDbArc
 50
90.000002504478161
 51
180.00000500895632
  0
ARC
  5
1E9
100
AcDbEntity
  8
0
  6
CONTINUOUS
 62
               7
100
AcDbCircle
 10
5.5000000183333668
 20
230.69998244778628
 30
0.0
 40
0.5000000016666666
100
AcDbArc
 50
0.0
 51
90.000002504478161
  0
ARC
  5
1EA
100
AcDbEntity
  8
0
  6
CONTINUOUS
 62
               7
100
AcDbCircle
 10
1.500000005000004
 20
230.69998244778628
 30
0.0
 40
0.5000000016666666
100
AcDbArc
 50
89.999995674288996
 51
172.57915473989922
  0
ARC
  5
1EB
100
AcDbEntity
  8
0
  6
CONTINUOUS
 62
               7
100
AcDbCircle
 10
70.699997183908863
 20
196.24978702045235
 30
0.0
 40
5.0000000166666672
100
AcDbArc
 50
309.41994593172478
 51
0.0
  0
ARC
  5
1EC
100
AcDbEntity
  8
0
  6
CONTINUOUS
 62
               7
100
AcDbCircle
 10
58.000015452122398
 20
240.70004351627608
 30
0.0
 40
50.000000166666666
100
AcDbArc
 50
258.96028760794934
 51
288.22598846548567
  0
ARC
  5
1ED
100
AcDbEntity
  8
0
  6
CONTINUOUS
 62
               7
100
AcDbCircle
 10
52.000000173333376
 20
193.67230288100131
 30
0.0
 40
6.0000000199999999
100
AcDbArc
 50
180.00000500895632
 51
251.59152071903708
  0
ARC
  5
1EE
100
AcDbEntity
  8
0
  6
CONTINUOUS
 62
               7
100
AcDbCircle
 10
49.000000163333368
 20
194.56979433907111
 30
0.0
 40
3.0000000099999999
100
AcDbArc
 50
180.00000500895632
 51
258.96028396548365
  0
ARC
  5
1EF
100
AcDbEntity
  8
0
  6
CONTINUOUS
 62
               7
100
AcDbCircle
 10
58.000015452122398
 20
211.70004341960941
 30
0.0
 40
25.000000083333333
100
AcDbArc
 50
251.5915175313136
 51
309.41994593172478
  0
ARC
  5
1F0
100
AcDbEntity
  8
0
  6
CONTINUOUS
 62
               7
100
AcDbCircle
 10
72.699997190575516
 20
196.05801455887558
 30
0.0
 40
3.0000000099999999
100
AcDbArc
 50
288.22598846548567
 51
0.0
  0
LINE
  5
1F1
100
AcDbEntity
  8
0
  6
CONTINUOUS
 62
               7
100
AcDbLine
 10
39.850006236348975
 20
222.27563549587705
 30
0.0
 11
39.850006236348975
 21
218.12435984727381
 31
0.0
  0
LINE
  5
1F2
100
AcDbEntity
  8
0
  6
CONTINUOUS
 62
               7
100
AcDbLine
 10
39.850001332283
 20
222.27565077058682
 30
0.0
 11
39.00000718321013
 21
222.35001562247703
 31
0.0
  0
LINE
  5
1F3
100
AcDbEntity
  8
0
  6
CONTINUOUS
 62
               7
100
AcDbLine
 10
39.849997410631943
 20
218.12439081138029
 30
0.0
 11
39.000003261559016
 21
218.0500259594902
 31
0.0
  0
LINE
  5
1F4
100
AcDbEntity
  8
0
  6
CONTINUOUS
 62
               7
100
AcDbLine
 10
39.850006236348975
 20
208.27563544921031
 30
0.0
 11
39.850006236348975
 21
204.12435980060718
 31
0.0
  0
LINE
  5
1F5
100
AcDbEntity
  8
0
  6
CONTINUOUS
 62
               7
100
AcDbLine
 10
39.85000607349258
 20
208.27565949892653
 30
0.0
 11
39.000011924419653
 21
208.35002435081674
 31
0.0
  0
LINE
  5
1F6
100
AcDbEntity
  8
0
  6
CONTINUOUS
 62
               7
100
AcDbLine
 10
39.84999532920466
 20
204.12436913826969
 30
0.0
 11
39.000001180131619
 21
204.05000428637959
 31
0.0
  0
LINE
  5
1F7
100
AcDbEntity
  8
0
  6
CONTINUOUS
 62
               7
100
AcDbLine
 10
59.19999714557548
 20
307.20007452385414
 30
0.0
 11
59.19999714557548
 21
198.70004337627608
 31
0.0
  0
LINE
  5
1F8
100
AcDbEntity
  8
0
  6
CONTINUOUS
 62
               7
100
AcDbLine
 10
55.800003237757778
 20
307.20007452385414
 30
0.0
 11
55.800003237757778
 21
198.70004337627608
 31
0.0
  0
LINE
  5
1F9
100
AcDbEntity
  8
0
  6
CONTINUOUS
 62
               7
100
AcDbLine
 10
0.7500000025000304
 20
236.70001298536454
 30
0.0
 11
2.2872314529365667
 21
236.70001298536454
 31
0.0
  0
LINE
  5
1FA
100
AcDbEntity
  8
0
  6
CONTINUOUS
 62
               7
100
AcDbLine
 10
0.7500127162300601
 20
236.7000248074205
 30
0.0
 11
1.2500034284560115
 21
237.20001362307721
 31
0.0
  0
LINE
  5
1FB
100
AcDbEntity
  8
0
  6
CONTINUOUS
 62
               7
100
AcDbLine
 10
0.7500000025000304
 20
236.70001298536454
 30
0.0
 11
0.7500000025000304
 21
235.01977616335751
 31
0.0
  0
LINE
  5
1FC
100
AcDbEntity
  8
0
  6
CONTINUOUS
 62
               7
100
AcDbLine
 10
1.2500000041666794
 20
237.20001298703119
 30
0.0
 11
2.7446746917660789
 21
237.20001298703119
 31
0.0
  0
LINE
  5
1FD
100
AcDbEntity
  8
0
  6
CONTINUOUS
 62
               7
100
AcDbLine
 10
33.000000109999974
 20
230.70001296536452
 30
0.0
 11
7.0000000233333708
 21
230.70001296536452
 31
0.0
  0
LINE
  5
1FE
100
AcDbEntity
  8
0
  6
CONTINUOUS
 62
               7
100
AcDbLine
 10
2.0251136514444852
 20
221.67068621864246
 30
0.0
 11
7.5807614399825525
 21
227.22633400718053
 31
0.0
  0
LINE
  5
1FF
100
AcDbEntity
  8
0
  6
CONTINUOUS
 62
               7
100
AcDbLine
 10
37.97486169536694
 20
221.67069700823549
 30
0.0
 11
32.419235486014941
 21
227.22632321758749
 31
0.0
  0
LINE
  5
201
100
AcDbEntity
  8
0
  6
CENTER
 62
               7
100
AcDbLine
 10
3.500000011666657
 20
232.22763137865968
 30
0.0
 11
3.500000011666657
 21
224.71981885363368
 31
0.0
  0
LINE
  5
202
100
AcDbEntity
  8
0
  6
CONTINUOUS
 62
               7
100
AcDbLine
 10
6.000000019999959
 20
230.69998244778628
 30
0.0
 11
6.000000019999959
 21
225.64556958914136
 31
0.0
  0
LINE
  5
203
100
AcDbEntity
  8
0
  6
CONTINUOUS
 62
               7
100
AcDbLine
 10
30.792892558697702
 20
227.8999946454843
 30
0.0
 11
9.2071075746356996
 21
227.8999946454843
 31
0.0
  0
LINE
  5
204
100
AcDbEntity
  8
0
  6
CONTINUOUS
 62
               7
100
AcDbLine
 10
33.000000109999974
 20
230.20001296369787
 30
0.0
 11
7.0000000233333708
 21
230.20001296369787
 31
0.0
  0
LINE
  5
205
100
AcDbEntity
  8
0
  6
CENTER
 62
               7
100
AcDbLine
 10
36.500000121666687
 20
232.22763137865968
 30
0.0
 11
36.500000121666687
 21
224.71981885363368
 31
0.0
  0
LINE
  5
206
100
AcDbEntity
  8
0
  6
CONTINUOUS
 62
               7
100
AcDbLine
 10
34.000000113333328
 20
230.69998244778628
 30
0.0
 11
34.000000113333328
 21
225.64556958914136
 31
0.0
  0
LINE
  5
207
100
AcDbEntity
  8
0
  6
CONTINUOUS
 62
               7
100
AcDbLine
 10
60.000015458789051
 20
194.70004336294278
 30
0.0
 11
59.500015457122458
 21
194.70004336294278
 31
0.0
  0
LINE
  5
208
100
AcDbEntity
  8
0
  6
CONTINUOUS
 62
               7
100
AcDbLine
 10
59.500015457122458
 20
198.70004337627608
 30
0.0
 11
59.500015457122458
 21
194.70004336294278
 31
0.0
  0
LINE
  5
209
100
AcDbEntity
  8
0
  6
CONTINUOUS
 62
               7
100
AcDbLine
 10
65.500015477122417
 20
198.70004337627608
 30
0.0
 11
65.500015477122417
 21
194.70004336294278
 31
0.0
  0
LINE
  5
20A
100
AcDbEntity
  8
0
  6
CONTINUOUS
 62
               7
100
AcDbLine
 10
65.500015477122417
 20
194.70004336294278
 30
0.0
 11
65.000015475455768
 21
194.70004336294278
 31
0.0
  0
LINE
  5
20B
100
AcDbEntity
  8
0
  6
CONTINUOUS
 62
               7
100
AcDbLine
 10
65.000015475455768
 20
198.70004337627608
 30
0.0
 11
65.000015475455768
 21
194.70004336294278
 31
0.0
  0
LINE
  5
20C
100
AcDbEntity
  8
0
  6
CONTINUOUS
 62
               7
100
AcDbLine
 10
60.000015458789051
 20
198.70004337627608
 30
0.0
 11
60.000015458789051
 21
194.70004336294278
 31
0.0
  0
LINE
  5
20D
100
AcDbEntity
  8
0
  6
CONTINUOUS
 62
               7
100
AcDbLine
 10
75.699997200575524
 20
198.70004337627608
 30
0.0
 11
75.699997200575524
 21
196.24978702045235
 31
0.0
  0
LINE
  5
20E
100
AcDbEntity
  8
0
  6
CONTINUOUS
 62
               7
100
AcDbLine
 10
71.864486933884166
 20
254.70004356294282
 30
0.0
 11
71.864486933884166
 21
198.70004337627608
 31
0.0
  0
LINE
  5
20F
100
AcDbEntity
  8
0
  6
CONTINUOUS
 62
               7
100
AcDbLine
 10
46.000000153333247
 20
395.70001348869789
 30
0.0
 11
46.000000153333247
 21
193.67230288100131
 31
0.0
  0
LINE
  5
210
100
AcDbEntity
  8
0
  6
CONTINUOUS
 62
               7
100
AcDbLine
 10
79.499985006210864
 20
296.70007422052095
 30
0.0
 11
79.499985006210864
 21
254.70004356294282
 31
0.0
  0
LINE
  5
211
100
AcDbEntity
  8
0
  6
CONTINUOUS
 62
               7
100
AcDbLine
 10
66.99998496454424
 20
317.700074290521
 30
0.0
 11
66.99998496454424
 21
198.70004337627608
 31
0.0
  0
LINE
  5
212
100
AcDbEntity
  8
0
  6
CONTINUOUS
 62
               7
100
AcDbLine
 10
68.946396103844734
 20
317.700074290521
 30
0.0
 11
68.946396103844734
 21
296.70007422052095
 31
0.0
  0
LINE
  5
213
100
AcDbEntity
  8
0
  6
CONTINUOUS
 62
               7
100
AcDbLine
 10
71.864486933884166
 20
317.700074290521
 30
0.0
 11
71.864486933884166
 21
296.70007422052095
 31
0.0
  0
LINE
  5
214
100
AcDbEntity
  8
0
  6
CONTINUOUS
 62
               7
100
AcDbLine
 10
79.499985006210864
 20
254.70004356294282
 30
0.0
 11
67.900009381606765
 21
254.70004356294282
 31
0.0
  0
LINE
  5
215
100
AcDbEntity
  8
0
  6
CONTINUOUS
 62
               7
100
AcDbLine
 10
74.400009403273486
 20
254.70004356294282
 30
0.0
 11
74.400009403273486
 21
198.70004337627608
 31
0.0
  0
LINE
  5
216
100
AcDbEntity
  8
0
  6
CONTINUOUS
 62
               7
100
AcDbLine
 10
74.400009403273486
 20
317.700074290521
 30
0.0
 11
74.400009403273486
 21
296.70007422052095
 31
0.0
  0
LINE
  5
217
100
AcDbEntity
  8
0
  6
CONTINUOUS
 62
               7
100
AcDbLine
 10
75.699997200575524
 20
198.70004337627608
 30
0.0
 11
46.000000153333247
 21
198.70004337627608
 31
0.0
  0
LINE
  5
218
100
AcDbEntity
  8
0
  6
CONTINUOUS
 62
               7
100
AcDbLine
 10
78.500015520455804
 20
395.70001348869789
 30
0.0
 11
78.500015520455804
 21
317.70001325536452
 31
0.0
  0
LINE
  5
219
100
AcDbEntity
  8
0
  6
CONTINUOUS
 62
               7
100
AcDbLine
 10
78.500015520455804
 20
395.70001348869789
 30
0.0
 11
46.000000153333247
 21
395.70001348869789
 31
0.0
  0
LINE
  5
21A
100
AcDbEntity
  8
0
  6
CONTINUOUS
 62
               2
100
AcDbLine
 10
49.119137561304854
 20
243.20004352460944
 30
0.0
 11
42.747314595616047
 21
243.20004352460944
 31
0.0
  0
LINE
  5
21B
100
AcDbEntity
  8
0
  6
CONTINUOUS
 62
               2
100
AcDbLine
 10
81.053573878577026
 20
288.70007419385433
 30
0.0
 11
76.403400748015315
 21
288.70007419385433
 31
0.0
  0
LINE
  5
21C
100
AcDbEntity
  8
0
  6
CONTINUOUS
 62
               7
100
AcDbLine
 10
67.900009381606765
 20
296.70007422052095
 30
0.0
 11
67.900009381606765
 21
254.70004356294282
 31
0.0
  0
LINE
  5
21D
100
AcDbEntity
  8
0
  6
CONTINUOUS
 62
               7
100
AcDbLine
 10
79.499985006210864
 20
296.70007422052095
 30
0.0
 11
67.900009381606765
 21
296.70007422052095
 31
0.0
  0
LINE
  5
21E
100
AcDbEntity
  8
0
  6
CONTINUOUS
 62
               7
100
AcDbLine
 10
68.946396103844734
 20
254.70004356294282
 30
0.0
 11
68.946396103844734
 21
198.70004337627608
 31
0.0
  0
LINE
  5
21F
100
AcDbEntity
  8
0
  6
CONTINUOUS
 62
               2
100
AcDbLine
 10
81.61412075544547
 20
262.70004358960944
 30
0.0
 11
76.687611822876931
 21
262.70004358960944
 31
0.0
  0
LINE
  5
220
100
AcDbEntity
  8
0
  6
CONTINUOUS
 62
               7
100
AcDbLine
 10
32.149994003651045
 20
188.20001282369788
 30
0.0
 11
32.149994003651045
 21
78.200012457031107
 31
0.0
  0
LINE
  5
221
100
AcDbEntity
  8
0
  6
CONTINUOUS
 62
               7
100
AcDbLine
 10
27.850006196349
 20
188.20001282369788
 30
0.0
 11
27.850006196349
 21
78.200012457031107
 31
0.0
  0
LINE
  5
222
100
AcDbEntity
  8
0
  6
CONTINUOUS
 62
               7
100
AcDbLine
 10
12.149993936984401
 20
188.20001282369788
 30
0.0
 11
12.149993936984401
 21
78.200012457031107
 31
0.0
  0
LINE
  5
223
100
AcDbEntity
  8
0
  6
CONTINUOUS
 62
               7
100
AcDbLine
 10
7.850006129682356
 20
188.20001282369788
 30
0.0
 11
7.850006129682356
 21
78.200012457031107
 31
0.0
  0
LINE
  5
224
100
AcDbEntity
  8
0
  6
CONTINUOUS
 62
               7
100
AcDbLine
 10
0.0
 20
188.20001282369788
 30
0.0
 11
40.000000133333344
 21
188.20001282369788
 31
0.0
  0
LINE
  5
225
100
AcDbEntity
  8
0
  6
CONTINUOUS
 62
               7
100
AcDbLine
 10
0.0000117625077678
 20
234.20001826789485
 30
0.0
 11
43.000034561561506
 21
281.20002676372201
 31
0.0
  0
LINE
  5
226
100
AcDbEntity
  8
0
  6
CONTINUOUS
 62
               2
100
AcDbLine
 10
3.500000011666657
 20
234.4198819144674
 30
0.0
 11
3.500000011666657
 21
224.42593457531029
 31
0.0
  0
LINE
  5
227
100
AcDbEntity
  8
0
  6
CONTINUOUS
 62
               2
100
AcDbLine
 10
36.500000121666687
 20
234.89051219873511
 30
0.0
 11
36.500000121666687
 21
224.42593457531029
 31
0.0
  0
LINE
  5
228
100
AcDbEntity
  8
0
  6
CONTINUOUS
 62
               2
100
AcDbLine
 10
42.582282839488812
 20
273.20004362460941
 30
0.0
 11
49.403348636166413
 21
273.20004362460941
 31
0.0
  0
LINE
  5
229
100
AcDbEntity
  8
0
  6
CONTINUOUS
 62
               7
100
AcDbLine
 10
0.0
 20
231.20001296703117
 30
0.0
 11
46.000000153333247
 21
231.20001296703117
 31
0.0
  0
LINE
  5
22A
100
AcDbEntity
  8
0
  6
CONTINUOUS
 62
               7
100
AcDbLine
 10
43.000000143333352
 20
281.20001313369789
 30
0.0
 11
46.000000153333247
 21
281.20001313369789
 31
0.0
  0
LINE
  5
22B
100
AcDbEntity
  8
0
  6
CONTINUOUS
 62
               7
100
AcDbLine
 10
0.0
 20
231.20001296703117
 30
0.0
 11
0.0
 21
234.20001297703118
 31
0.0
  0
LINE
  5
22C
100
AcDbEntity
  8
0
  6
CONTINUOUS
 62
               7
100
AcDbLine
 10
40.000000133333344
 20
78.200012457031107
 30
0.0
 11
40.000000133333344
 21
198.2000128570312
 31
0.0
  0
LINE
  5
22D
100
AcDbEntity
  8
0
  6
CONTINUOUS
 62
               7
100
AcDbLine
 10
0.0
 20
78.200012457031107
 30
0.0
 11
0.0
 21
198.2000128570312
 31
0.0
  0
LINE
  5
22E
100
AcDbEntity
  8
0
  6
CONTINUOUS
 62
               7
100
AcDbLine
 10
-1.5999999883333658
 20
198.2000128570312
 30
0.0
 11
40.000000133333344
 21
198.2000128570312
 31
0.0
  0
LINE
  5
22F
100
AcDbEntity
  8
0
  6
CONTINUOUS
 62
               7
100
AcDbLine
 10
1.0000000033332981
 20
230.69998244778628
 30
0.0
 11
1.0000000033332981
 21
198.2000128570312
 31
0.0
  0
LINE
  5
230
100
AcDbEntity
  8
0
  6
CONTINUOUS
 62
               7
100
AcDbLine
 10
39.000000129999989
 20
230.69998244778628
 30
0.0
 11
39.000000129999989
 21
198.2000128570312
 31
0.0
  0
LINE
  5
231
100
AcDbEntity
  8
0
  6
CONTINUOUS
 62
               7
100
AcDbLine
 10
-51.500000144999944
 20
76.70002771082045
 30
0.0
 11
-51.500000144999944
 21
44.200012343697836
 31
0.0
  0
LINE
  5
232
100
AcDbEntity
  8
0
  6
CONTINUOUS
 62
               7
100
AcDbLine
 10
-51.500000144999944
 20
76.70002771082045
 30
0.0
 11
0.0
 21
76.70002771082045
 31
0.0
  0
LINE
  5
233
100
AcDbEntity
  8
0
  6
CONTINUOUS
 62
               7
100
AcDbLine
 10
-51.500000144999944
 20
44.200012343697836
 30
0.0
 11
0.0
 21
44.200012343697836
 31
0.0
  0
LINE
  5
234
100
AcDbEntity
  8
0
  6
CONTINUOUS
 62
               7
100
AcDbLine
 10
0.0
 20
78.200012457031107
 30
0.0
 11
301.94667153871546
 21
78.200012457031107
 31
0.0
  0
LINE
  5
235
100
AcDbEntity
  8
0
  6
CONTINUOUS
 62
               7
100
AcDbLine
 10
40.000000133333344
 20
81.200012467031229
 30
0.0
 11
300.88340859571815
 21
81.200012467031229
 31
0.0
  0
LINE
  5
236
100
AcDbEntity
  8
0
  6
CONTINUOUS
 62
               7
100
AcDbLine
 10
0.0
 20
3.20001220703125
 30
0.0
 11
298.00000099333334
 21
3.20001220703125
 31
0.0
  0
LINE
  5
237
100
AcDbEntity
  8
0
  6
CONTINUOUS
 62
               7
100
AcDbLine
 10
298.00000099333334
 20
30.200012297031208
 30
0.0
 11
304.58219989339671
 21
30.200012297031208
 31
0.0
  0
LINE
  5
238
100
AcDbEntity
  8
0
  6
CONTINUOUS
 62
               7
100
AcDbLine
 10
298.00000099333334
 20
30.200012297031208
 30
0.0
 11
298.00000099333334
 21
3.20001220703125
 31
0.0
  0
LINE
  5
239
100
AcDbEntity
  8
0
  6
CONTINUOUS
 62
               7
100
AcDbLine
 10
238.50001605378912
 20
83.200012473697825
 30
0.0
 11
280.50001619378907
 21
83.200012473697825
 31
0.0
  0
LINE
  5
23A
100
AcDbEntity
  8
0
  6
CONTINUOUS
 62
               7
100
AcDbLine
 10
238.50001605378912
 20
87.200012487031245
 30
0.0
 11
280.50001619378907
 21
87.200012487031245
 31
0.0
  0
LINE
  5
23B
100
AcDbEntity
  8
0
  6
CONTINUOUS
 62
               7
100
AcDbLine
 10
238.50001605378912
 20
87.200012487031245
 30
0.0
 11
238.50001605378912
 21
81.200012467031229
 31
0.0
  0
LINE
  5
23C
100
AcDbEntity
  8
0
  6
CONTINUOUS
 62
               7
100
AcDbLine
 10
280.50001619378907
 20
87.200012487031245
 30
0.0
 11
280.50001619378907
 21
81.200012467031229
 31
0.0
  0
LINE
  5
23D
100
AcDbEntity
  8
0
  6
CONTINUOUS
 62
               7
100
AcDbLine
 10
75.00001550878909
 20
78.200012457031107
 30
0.0
 11
75.00001550878909
 21
81.200012467031229
 31
0.0
  0
LINE
  5
23E
100
AcDbEntity
  8
0
  6
CENTER
 62
               2
100
AcDbLine
 10
241.5000160637891
 20
88.295013711384399
 30
0.0
 11
241.5000160637891
 21
81.92996242063623
 31
0.0
  0
LINE
  5
23F
100
AcDbEntity
  8
0
  6
CENTER
 62
               2
100
AcDbLine
 10
277.50001618378917
 20
88.478607461996262
 30
0.0
 11
277.50001618378917
 21
81.92996242063623
 31
0.0
  0
ARC
  5
240
100
AcDbEntity
  8
0
  6
CONTINUOUS
 62
               7
100
AcDbCircle
 10
54.000015438789148
 20
54.300018480880226
 30
0.0
 40
250.00000083333333
100
AcDbArc
 50
355.14609020783729
 51
4.8539097921627041
  0
ARC
  5
241
100
AcDbEntity
  8
0
  6
CONTINUOUS
 62
               7
100
AcDbCircle
 10
300.11418251893531
 20
33.399993997150887
 30
0.0
 40
3.0000000099999999
100
AcDbArc
 50
269.99999749552182
 51
355.14609020783729
  0
ARC
  5
242
100
AcDbEntity
  8
0
  6
CONTINUOUS
 62
               7
100
AcDbCircle
 10
300.11418251893531
 20
75.200012447031213
 30
0.0
 40
3.0000000099999999
100
AcDbArc
 50
4.8539097921627041
 51
90.000002504478161
  0
ARC
  5
243
100
AcDbEntity
  8
0
  6
CONTINUOUS
 62
               7
100
AcDbCircle
 10
210.00001595878911
 20
44.30001844754679
 30
0.0
 40
100.00000033333333
100
AcDbArc
 50
354.62440334723948
 51
20.455793309426426
  0
ARC
  5
244
100
AcDbEntity
  8
0
  6
CONTINUOUS
 62
               7
100
AcDbCircle
 10
300.88340859571815
 20
78.200012457031107
 30
0.0
 40
3.0000000099999999
100
AcDbArc
 50
20.455793309426426
 51
90.000002504478161
  0
ARC
  5
245
100
AcDbEntity
  8
0
  6
CONTINUOUS
 62
               7
100
AcDbCircle
 10
304.58220011195368
 20
35.39999400381771
 30
0.0
 40
5.0000000166666672
100
AcDbArc
 50
269.99999749552182
 51
354.62440334723948
  0
ARC
  5
246
100
AcDbEntity
  8
0
  6
CONTINUOUS
 62
               7
100
AcDbCircle
 10
301.94667153871546
 20
75.200012447031213
 30
0.0
 40
3.0000000099999999
100
AcDbArc
 50
18.575665919617233
 51
90.000002504478161
  0
LINE
  5
247
100
AcDbEntity
  8
0
  6
CONTINUOUS
 62
               7
100
AcDbLine
 10
0.0
 20
3.20001220703125
 30
0.0
 11
0.0
 21
78.200012457031107
 31
0.0
  0
LINE
  5
248
100
AcDbEntity
  8
0
  6
CONTINUOUS
 62
               7
100
AcDbLine
 10
11.000048828124818
 20
3.20001220703125
 30
0.0
 11
11.000048828124818
 21
0.0
 31
0.0
  0
LINE
  5
249
100
AcDbEntity
  8
0
  6
CONTINUOUS
 62
               7
100
AcDbLine
 10
23.000048828124989
 20
3.20001220703125
 30
0.0
 11
23.000048828124989
 21
0.0
 31
0.0
  0
LINE
  5
24A
100
AcDbEntity
  8
0
  6
CONTINUOUS
 62
               7
100
AcDbLine
 10
277.00004882812493
 20
3.20001220703125
 30
0.0
 11
277.00004882812493
 21
0.0
 31
0.0
  0
LINE
  5
24B
100
AcDbEntity
  8
0
  6
CONTINUOUS
 62
               7
100
AcDbLine
 10
289.0000488281247
 20
3.20001220703125
 30
0.0
 11
289.0000488281247
 21
0.0
 31
0.0
  0
LINE
  5
24C
100
AcDbEntity
  8
0
  6
CONTINUOUS
 62
               7
100
AcDbLine
 10
277.00004882812493
 20
0.0
 30
0.0
 11
289.0000488281247
 21
0.0
 31
0.0
  0
LINE
  5
24D
100
AcDbEntity
  8
0
  6
CONTINUOUS
 62
               7
100
AcDbLine
 10
11.000048828124818
 20
0.0
 30
0.0
 11
23.000048828124989
 21
0.0
 31
0.0
  0
LINE
  5
24E
100
AcDbEntity
  8
0
  6
CONTINUOUS
 62
               2
100
AcDbLine
 10
292.41421356826567
 20
10.785789620158766
 30
0.0
 11
289.58578643173439
 21
13.614216756690212
 31
0.0
  0
LINE
  5
24F
100
AcDbEntity
  8
0
  6
CONTINUOUS
 62
               2
100
AcDbLine
 10
292.41421356826578
 20
13.614216756690212
 30
0.0
 11
289.58578643173445
 21
10.785789620158994
 31
0.0
  0
LINE
  5
250
100
AcDbEntity
  8
0
  6
CONTINUOUS
 62
               2
100
AcDbLine
 10
149.91421356826567
 20
10.785789620158766
 30
0.0
 11
147.08578643173439
 21
13.614216756690212
 31
0.0
  0
LINE
  5
251
100
AcDbEntity
  8
0
  6
CONTINUOUS
 62
               2
100
AcDbLine
 10
149.91421356826578
 20
13.614216756690212
 30
0.0
 11
147.08578643173445
 21
10.785789620158994
 31
0.0
  0
LINE
  5
252
100
AcDbEntity
  8
0
  6
CONTINUOUS
 62
               2
100
AcDbLine
 10
7.4142135682656658
 20
10.785789620158766
 30
0.0
 11
4.585786431734391
 21
13.614216756690212
 31
0.0
  0
LINE
  5
253
100
AcDbEntity
  8
0
  6
CONTINUOUS
 62
               2
100
AcDbLine
 10
7.4142135682657795
 20
13.614216756690212
 30
0.0
 11
4.5857864317344479
 21
10.785789620158994
 31
0.0
  0
LINE
  5
254
100
AcDbEntity
  8
0
  6
CONTINUOUS
 62
               2
100
AcDbLine
 10
55.060660357672475
 20
322.2607344798601
 30
0.0
 11
52.939340002327697
 21
320.13941412451544
 31
0.0
  0
LINE
  5
255
100
AcDbEntity
  8
0
  6
CONTINUOUS
 62
               2
100
AcDbLine
 10
55.060660357672361
 20
320.13941412451521
 30
0.0
 11
52.93934000232764
 21
322.2607344798601
 31
0.0
  0
LINE
  5
256
100
AcDbEntity
  8
0
  6
CONTINUOUS
 62
               2
100
AcDbLine
 10
69.060675663128279
 20
322.2607344798601
 30
0.0
 11
66.939355307783501
 21
320.13941412451544
 31
0.0
  0
LINE
  5
257
100
AcDbEntity
  8
0
  6
CONTINUOUS
 62
               2
100
AcDbLine
 10
69.060675663128166
 20
320.13941412451521
 30
0.0
 11
66.939355307783444
 21
322.2607344798601
 31
0.0
  0
LINE
  5
258
100
AcDbEntity
  8
0
  6
CONTINUOUS
 62
               2
100
AcDbLine
 10
62.060675698128307
 20
317.26073470152659
 30
0.0
 11
59.939355342783529
 21
315.13941434618192
 31
0.0
  0
LINE
  5
259
100
AcDbEntity
  8
0
  6
CONTINUOUS
 62
               2
100
AcDbLine
 10
62.060675698128193
 20
315.1394143461817
 30
0.0
 11
59.939355342783472
 21
317.26073470152659
 31
0.0
  0
LINE
  5
25A
100
AcDbEntity
  8
0
  6
CONTINUOUS
 62
               2
100
AcDbLine
 10
54.060675698128193
 20
317.26073470152659
 30
0.0
 11
51.939355342783415
 21
315.13941434618192
 31
0.0
  0
LINE
  5
25B
100
AcDbEntity
  8
0
  6
CONTINUOUS
 62
               2
100
AcDbLine
 10
54.06067569812808
 20
315.1394143461817
 30
0.0
 11
51.939355342783358
 21
317.26073470152659
 31
0.0
  0
ENDBLK
  5
25C
100
AcDbEntity
  8
0
100
AcDbBlockEnd
  0
BLOCK
  5
25D
100
AcDbEntity
  8
0
100
AcDbBlockBegin
  2
DTHB-AS3-3
 70
               0
 10
0.0
 20
0.0
 30
0.0
  3
DTHB-AS3-3
  1

  0
LINE
  5
25E
100
AcDbEntity
  8
0
  6
CONTINUOUS
 62
               7
100
AcDbLine
 10
-26.100000126666629
 20
46.000000144999831
 30
0.0
 11
-26.100000126666629
 21
33.000000144999831
 31
0.0
  0
LINE
  5
25F
100
AcDbEntity
  8
0
  6
CONTINUOUS
 62
               7
100
AcDbLine
 10
-25.100000126666629
 20
31.500000144999831
 30
0.0
 11
-25.100000126666629
 21
47.500000144999831
 31
0.0
  0
ARC
  5
260
100
AcDbEntity
  8
0
  6
CONTINUOUS
 62
               7
100
AcDbCircle
 10
-25.100000126666629
 20
46.000000144999831
 30
0.0
 40
1.0
100
AcDbArc
 50
90.0
 51
180.0
  0
ARC
  5
261
100
AcDbEntity
  8
0
  6
CONTINUOUS
 62
               7
100
AcDbCircle
 10
-25.100000126666629
 20
33.000000144999831
 30
0.0
 40
1.0
100
AcDbArc
 50
180.0
 51
270.0
  0
ARC
  5
262
100
AcDbEntity
  8
0
  6
CONTINUOUS
 62
               7
100
AcDbCircle
 10
-21.600000126666629
 20
31.500000144999831
 30
0.0
 40
3.5000000000000004
100
AcDbArc
 50
180.0
 51
270.0
  0
ARC
  5
263
100
AcDbEntity
  8
0
  6
CONTINUOUS
 62
               7
100
AcDbCircle
 10
-21.600000126666629
 20
47.500000144999831
 30
0.0
 40
3.5000000000000004
100
AcDbArc
 50
90.0
 51
180.0
  0
LINE
  5
264
100
AcDbEntity
  8
0
  6
CONTINUOUS
 62
               2
100
AcDbLine
 10
-19.850192510723559
 20
39.500000144999831
 30
0.0
 11
-28.736910294189727
 21
39.500000144999831
 31
0.0
  0
LINE
  5
265
100
AcDbEntity
  8
0
  6
CONTINUOUS
 62
               7
100
AcDbLine
 10
13.830001813821355
 20
50.354736469307454
 30
0.0
 11
13.830001813821355
 21
0.0
 31
0.0
  0
LINE
  5
266
100
AcDbEntity
  8
0
  6
CONTINUOUS
 62
               7
100
AcDbLine
 10
-21.600000126666629
 20
51.500000144999831
 30
0.0
 11
-21.600000126666629
 21
0.0
 31
0.0
  0
LINE
  5
267
100
AcDbEntity
  8
0
  6
CONTINUOUS
 62
               7
100
AcDbLine
 10
19.0
 20
51.500000144999831
 30
0.0
 11
19.0
 21
0.0
 31
0.0
  0
LINE
  5
268
100
AcDbEntity
  8
0
  6
CONTINUOUS
 62
               7
100
AcDbLine
 10
-13.830001940488017
 20
50.174316546831051
 30
0.0
 11
-13.830001940488017
 21
0.0
 31
0.0
  0
LINE
  5
269
100
AcDbEntity
  8
0
  6
CONTINUOUS
 62
               2
100
AcDbLine
 10
85.000000249999914
 20
-36.494428126933599
 30
0.0
 11
85.000000249999914
 21
-46.007383154428226
 31
0.0
  0
LINE
  5
26A
100
AcDbEntity
  8
0
  6
CONTINUOUS
 62
               2
100
AcDbLine
 10
65.000000249999914
 20
-38.820594818780592
 30
0.0
 11
65.000000249999914
 21
-45.80000320442457
 31
0.0
  0
LINE
  5
26B
100
AcDbEntity
  8
0
  6
CONTINUOUS
 62
               7
100
AcDbLine
 10
67.750026950158656
 20
-40.300005328569682
 30
0.0
 11
67.250036237932648
 21
-39.800016512913089
 31
0.0
  0
LINE
  5
26C
100
AcDbEntity
  8
0
  6
CONTINUOUS
 62
               7
100
AcDbLine
 10
67.250000257499948
 20
-39.800003184424554
 30
0.0
 11
62.750000242499993
 21
-39.800003184424554
 31
0.0
  0
LINE
  5
26D
100
AcDbEntity
  8
0
  6
CONTINUOUS
 62
               7
100
AcDbLine
 10
67.750000259166598
 20
-40.300003186091203
 30
0.0
 11
62.250000240833344
 21
-40.300003186091203
 31
0.0
  0
LINE
  5
26E
100
AcDbEntity
  8
0
  6
CONTINUOUS
 62
               7
100
AcDbLine
 10
62.750055264695845
 20
-39.80002735427729
 30
0.0
 11
62.250042973241932
 21
-40.300037749080047
 31
0.0
  0
LINE
  5
26F
100
AcDbEntity
  8
0
  6
CONTINUOUS
 62
               7
100
AcDbLine
 10
62.250000240833344
 20
-42.800003194424562
 30
0.0
 11
62.250000240833344
 21
-40.300003186091203
 31
0.0
  0
LINE
  5
270
100
AcDbEntity
  8
0
  6
CONTINUOUS
 62
               7
100
AcDbLine
 10
67.750000259166598
 20
-40.300003186091203
 30
0.0
 11
67.750000259166598
 21
-42.800003194424562
 31
0.0
  0
LINE
  5
271
100
AcDbEntity
  8
0
  6
CONTINUOUS
 62
               7
100
AcDbLine
 10
78.918121195473759
 20
-37.700003194424653
 30
0.0
 11
69.500000230088801
 21
-37.700003194424653
 31
0.0
  0
LINE
  5
272
100
AcDbEntity
  8
0
  6
CONTINUOUS
 62
               7
100
AcDbLine
 10
69.500000230088801
 20
-37.700003194424653
 30
0.0
 11
69.500000230088801
 21
-42.800003194424562
 31
0.0
  0
LINE
  5
273
100
AcDbEntity
  8
0
  6
CONTINUOUS
 62
               7
100
AcDbLine
 10
90.000000230088801
 20
-41.000003194424607
 30
0.0
 11
90.000000230088801
 21
-42.800003194424562
 31
0.0
  0
LINE
  5
274
100
AcDbEntity
  8
0
  6
CONTINUOUS
 62
               7
100
AcDbLine
 10
90.000000230088801
 20
-41.000003194424607
 30
0.0
 11
69.500000230088801
 21
-41.000003194424607
 31
0.0
  0
LINE
  5
275
100
AcDbEntity
  8
0
  6
CONTINUOUS
 62
               7
100
AcDbLine
 10
79.500000230088801
 20
-41.000003163958581
 30
0.0
 11
78.918121187999816
 21
-37.700003152037652
 31
0.0
  0
LINE
  5
276
100
AcDbEntity
  8
0
  6
CONTINUOUS
 62
               7
100
AcDbLine
 10
71.500000230088801
 20
-37.700003194424653
 30
0.0
 11
71.500000230088801
 21
-41.000003194424607
 31
0.0
  0
LINE
  5
277
100
AcDbEntity
  8
0
  6
CONTINUOUS
 62
               7
100
AcDbLine
 10
76.500000230088801
 20
-37.700003194424653
 30
0.0
 11
76.500000230088801
 21
-41.000003194424607
 31
0.0
  0
LINE
  5
278
100
AcDbEntity
  8
0
  6
CONTINUOUS
 62
               7
100
AcDbLine
 10
76.500000230088801
 20
-39.400003194424585
 30
0.0
 11
71.500000230088801
 21
-39.400003194424585
 31
0.0
  0
LINE
  5
279
100
AcDbEntity
  8
0
  6
CONTINUOUS
 62
               7
100
AcDbLine
 10
87.250000257499948
 20
-38.000003184424486
 30
0.0
 11
82.750000242499993
 21
-38.000003184424486
 31
0.0
  0
LINE
  5
27A
100
AcDbEntity
  8
0
  6
CONTINUOUS
 62
               7
100
AcDbLine
 10
87.750026950158656
 20
-38.500005328569841
 30
0.0
 11
87.250036237932648
 21
-38.000016512913135
 31
0.0
  0
LINE
  5
27B
100
AcDbEntity
  8
0
  6
CONTINUOUS
 62
               7
100
AcDbLine
 10
87.750000259166598
 20
-38.500003186091362
 30
0.0
 11
82.250000240833344
 21
-38.500003186091362
 31
0.0
  0
LINE
  5
27C
100
AcDbEntity
  8
0
  6
CONTINUOUS
 62
               7
100
AcDbLine
 10
82.750055264695845
 20
-38.000027354277336
 30
0.0
 11
82.250042973241932
 21
-38.500037749080093
 31
0.0
  0
LINE
  5
27D
100
AcDbEntity
  8
0
  6
CONTINUOUS
 62
               7
100
AcDbLine
 10
82.250000240833344
 20
-41.000003194424607
 30
0.0
 11
82.250000240833344
 21
-38.500003186091362
 31
0.0
  0
LINE
  5
27E
100
AcDbEntity
  8
0
  6
CONTINUOUS
 62
               7
100
AcDbLine
 10
87.750000259166598
 20
-38.500003186091362
 30
0.0
 11
87.750000259166598
 21
-41.000003194424607
 31
0.0
  0
LINE
  5
27F
100
AcDbEntity
  8
0
  6
CONTINUOUS
 62
               7
100
AcDbLine
 10
62.721679896572198
 20
-37.750000125833367
 30
0.0
 11
61.278320516761028
 21
-37.750000125833367
 31
0.0
  0
LINE
  5
280
100
AcDbEntity
  8
0
  6
CONTINUOUS
 62
               7
100
AcDbLine
 10
62.721677048017511
 20
-37.749977272337901
 30
0.0
 11
63.443354888258284
 21
-36.499990286663888
 31
0.0
  0
LINE
  5
281
100
AcDbEntity
  8
0
  6
CONTINUOUS
 62
               7
100
AcDbLine
 10
63.44338423828998
 20
-36.4999837599496
 30
0.0
 11
62.721704591399828
 21
-35.249997806646661
 31
0.0
  0
LINE
  5
282
100
AcDbEntity
  8
0
  6
CONTINUOUS
 62
               7
100
AcDbLine
 10
62.721691012332144
 20
-35.250010108754623
 30
0.0
 11
61.278331632520974
 21
-35.250011062419389
 31
0.0
  0
LINE
  5
283
100
AcDbEntity
  8
0
  6
CONTINUOUS
 62
               7
100
AcDbLine
 10
61.278359643125043
 20
-35.250017320694269
 30
0.0
 11
60.556681028605908
 21
-36.500003876213668
 31
0.0
  0
LINE
  5
284
100
AcDbEntity
  8
0
  6
CONTINUOUS
 62
               7
100
AcDbLine
 10
60.556623333372329
 20
-36.499991432299794
 30
0.0
 11
61.278303453432557
 21
-37.749977041479042
 31
0.0
  0
CIRCLE
  5
285
100
AcDbEntity
  8
0
  6
CONTINUOUS
 62
               7
100
AcDbCircle
 10
62.000000206666641
 20
-36.500000121666744
 30
0.0
 40
2.7500000091666661
  0
LINE
  5
286
100
AcDbEntity
  8
0
  6
CONTINUOUS
 62
               7
100
AcDbLine
 10
88.721679983238857
 20
-37.750000125833367
 30
0.0
 11
87.27832060342763
 21
-37.750000125833367
 31
0.0
  0
LINE
  5
287
100
AcDbEntity
  8
0
  6
CONTINUOUS
 62
               7
100
AcDbLine
 10
88.721677134684171
 20
-37.749977272337901
 30
0.0
 11
89.443354974924944
 21
-36.499990286663888
 31
0.0
  0
LINE
  5
288
100
AcDbEntity
  8
0
  6
CONTINUOUS
 62
               7
100
AcDbLine
 10
89.443384324956639
 20
-36.4999837599496
 30
0.0
 11
88.721704678066487
 21
-35.249997806646661
 31
0.0
  0
LINE
  5
289
100
AcDbEntity
  8
0
  6
CONTINUOUS
 62
               7
100
AcDbLine
 10
88.721691098998804
 20
-35.250010108754623
 30
0.0
 11
87.278331719187577
 21
-35.250011062419389
 31
0.0
  0
LINE
  5
28A
100
AcDbEntity
  8
0
  6
CONTINUOUS
 62
               7
100
AcDbLine
 10
87.278359729791703
 20
-35.250017320694269
 30
0.0
 11
86.556681115272568
 21
-36.500003876213668
 31
0.0
  0
LINE
  5
28B
100
AcDbEntity
  8
0
  6
CONTINUOUS
 62
               7
100
AcDbLine
 10
86.556623420038989
 20
-36.499991432299794
 30
0.0
 11
87.278303540099216
 21
-37.749977041479042
 31
0.0
  0
ARC
  5
28C
100
AcDbEntity
  8
0
  6
CONTINUOUS
 62
               7
100
AcDbCircle
 10
88.000000293333244
 20
-36.500000121666744
 30
0.0
 40
2.7500000091666661
100
AcDbArc
 50
264.78409073216426
 51
213.0558071618525
  0
LINE
  5
28D
100
AcDbEntity
  8
0
  6
CONTINUOUS
 62
               7
100
AcDbLine
 10
117.00000038999997
 20
-1.0000000033335255
 30
0.0
 11
96.00000031999997
 21
-1.0000000033335255
 31
0.0
  0
LINE
  5
28E
100
AcDbEntity
  8
0
  6
CONTINUOUS
 62
               2
100
AcDbLine
 10
55.686247775045274
 20
-57.80000320442457
 30
0.0
 11
47.30615418927016
 21
-57.80000320442457
 31
0.0
  0
ARC
  5
28F
100
AcDbEntity
  8
0
  6
CONTINUOUS
 62
               7
100
AcDbCircle
 10
49.900000249999891
 20
-51.30000320442457
 30
0.0
 40
1.0
100
AcDbArc
 50
90.0
 51
180.0
  0
LINE
  5
290
100
AcDbEntity
  8
0
  6
CONTINUOUS
 62
               7
100
AcDbLine
 10
48.900000249999891
 20
-51.30000320442457
 30
0.0
 11
48.900000249999891
 21
-64.30000320442457
 31
0.0
  0
ARC
  5
291
100
AcDbEntity
  8
0
  6
CONTINUOUS
 62
               7
100
AcDbCircle
 10
49.900000249999891
 20
-64.30000320442457
 30
0.0
 40
1.0
100
AcDbArc
 50
180.0
 51
270.0
  0
ARC
  5
292
100
AcDbEntity
  8
0
  6
CONTINUOUS
 62
               7
100
AcDbCircle
 10
53.400000249999948
 20
-65.80000320442457
 30
0.0
 40
3.5000000000000004
100
AcDbArc
 50
180.0
 51
270.0
  0
LINE
  5
293
100
AcDbEntity
  8
0
  6
CONTINUOUS
 62
               7
100
AcDbLine
 10
49.900000249999891
 20
-65.80000320442457
 30
0.0
 11
49.900000249999891
 21
-49.80000320442457
 31
0.0
  0
ARC
  5
294
100
AcDbEntity
  8
0
  6
CONTINUOUS
 62
               7
100
AcDbCircle
 10
53.400000249999948
 20
-49.80000320442457
 30
0.0
 40
3.5000000000000004
100
AcDbArc
 50
90.0
 51
180.0
  0
LINE
  5
295
100
AcDbEntity
  8
0
  6
CONTINUOUS
 62
               7
100
AcDbLine
 10
60.599710788158689
 20
-77.712122530888223
 30
0.0
 11
54.426485049077826
 21
-71.545668559055116
 31
0.0
  0
LINE
  5
296
100
AcDbEntity
  8
0
  6
CONTINUOUS
 62
               7
100
AcDbLine
 10
53.900000249999891
 20
-45.80000320442457
 30
0.0
 11
53.400000249999948
 21
-45.80000320442457
 31
0.0
  0
LINE
  5
297
100
AcDbEntity
  8
0
  6
CONTINUOUS
 62
               7
100
AcDbLine
 10
53.400000249999948
 20
-45.80000320442457
 30
0.0
 11
53.400000249999948
 21
-69.950431626507566
 31
0.0
  0
ARC
  5
298
100
AcDbEntity
  8
0
  6
CONTINUOUS
 62
               7
100
AcDbCircle
 10
58.529656083783436
 20
-67.80043170397164
 30
0.0
 40
6.3296561241149902
100
AcDbArc
 50
192.18528551792392
 51
199.14270731389522
  0
LINE
  5
299
100
AcDbEntity
  8
0
  6
CONTINUOUS
 62
               7
100
AcDbLine
 10
52.550000221928883
 20
-69.876066421912583
 30
0.0
 11
52.550000221928883
 21
-69.195220421670001
 31
0.0
  0
LINE
  5
29A
100
AcDbEntity
  8
0
  6
CONTINUOUS
 62
               7
100
AcDbLine
 10
52.550000244258001
 20
-69.876066262225322
 30
0.0
 11
53.400000249999948
 21
-69.950431626507566
 31
0.0
  0
ARC
  5
29B
100
AcDbEntity
  8
0
  6
CONTINUOUS
 62
               7
100
AcDbCircle
 10
56.900000249999891
 20
-69.069437037002444
 30
0.0
 40
3.5000000000000004
100
AcDbArc
 50
180.00000000000006
 51
225.03144276458423
  0
LINE
  5
29C
100
AcDbEntity
  8
0
  6
CONTINUOUS
 62
               7
100
AcDbLine
 10
189.50006165848976
 20
6.099999996666611
 30
0.0
 11
176.50006165848976
 21
6.099999996666611
 31
0.0
  0
LINE
  5
29D
100
AcDbEntity
  8
0
  6
CONTINUOUS
 62
               7
100
AcDbLine
 10
175.00006165848976
 20
5.099999996666611
 30
0.0
 11
191.00006165848976
 21
5.099999996666611
 31
0.0
  0
ARC
  5
29E
100
AcDbEntity
  8
0
  6
CONTINUOUS
 62
               7
100
AcDbCircle
 10
189.50006165848976
 20
5.099999996666611
 30
0.0
 40
1.0
100
AcDbArc
 50
0.0
 51
90.0
  0
ARC
  5
29F
100
AcDbEntity
  8
0
  6
CONTINUOUS
 62
               7
100
AcDbCircle
 10
176.50006165848976
 20
5.099999996666611
 30
0.0
 40
1.0
100
AcDbArc
 50
90.0
 51
180.0
  0
ARC
  5
2A0
100
AcDbEntity
  8
0
  6
CONTINUOUS
 62
               7
100
AcDbCircle
 10
175.00006165848976
 20
1.599999996666611
 30
0.0
 40
3.5000000000000004
100
AcDbArc
 50
90.0
 51
180.0
  0
ARC
  5
2A1
100
AcDbEntity
  8
0
  6
CONTINUOUS
 62
               7
100
AcDbCircle
 10
191.00006165848976
 20
1.599999996666611
 30
0.0
 40
3.5000000000000004
100
AcDbArc
 50
0.0
 51
90.0
  0
LINE
  5
2A2
100
AcDbEntity
  8
0
  6
CONTINUOUS
 62
               2
100
AcDbLine
 10
183.00006165848976
 20
-0.1498076192765439
 30
0.0
 11
183.00006165848976
 21
8.7369101641895668
 31
0.0
  0
LINE
  5
2A3
100
AcDbEntity
  8
0
  6
CONTINUOUS
 62
               2
100
AcDbLine
 10
58.500000249999914
 20
-74.080252421837713
 30
0.0
 11
58.500000249999914
 21
-82.055305075323645
 31
0.0
  0
LINE
  5
2A4
100
AcDbEntity
  8
0
  6
CONTINUOUS
 62
               2
100
AcDbLine
 10
91.500000249999971
 20
-74.080252421837713
 30
0.0
 11
91.500000249999971
 21
-82.055305075323645
 31
0.0
  0
LINE
  5
2A5
100
AcDbEntity
  8
0
  6
CONTINUOUS
 62
               7
100
AcDbLine
 10
56.000000186666625
 20
-73.128405959689644
 30
0.0
 11
57.025153610256325
 21
-74.153559383279344
 31
0.0
  0
CIRCLE
  5
2A6
100
AcDbEntity
  8
0
  6
CONTINUOUS
 62
               7
100
AcDbCircle
 10
95.000000316666615
 20
-220.00001599212248
 30
0.0
 40
5.0
  0
CIRCLE
  5
2A7
100
AcDbEntity
  8
0
  6
CONTINUOUS
 62
               7
100
AcDbCircle
 10
95.000000316666615
 20
-200.00001592545584
 30
0.0
 40
5.0
  0
CIRCLE
  5
2A8
100
AcDbEntity
  8
0
  6
CONTINUOUS
 62
               7
100
AcDbCircle
 10
75.000000249999914
 20
-200.00001592545584
 30
0.0
 40
5.0
  0
CIRCLE
  5
2A9
100
AcDbEntity
  8
0
  6
CONTINUOUS
 62
               7
100
AcDbCircle
 10
75.000000249999914
 20
-220.00001599212248
 30
0.0
 40
5.0
  0
CIRCLE
  5
2AA
100
AcDbEntity
  8
0
  6
CONTINUOUS
 62
               7
100
AcDbCircle
 10
-95.0000003166667
 20
-200.00001592545584
 30
0.0
 40
5.0
  0
CIRCLE
  5
2AB
100
AcDbEntity
  8
0
  6
CONTINUOUS
 62
               7
100
AcDbCircle
 10
-75.000000250000028
 20
-200.00001592545584
 30
0.0
 40
5.0
  0
CIRCLE
  5
2AC
100
AcDbEntity
  8
0
  6
CONTINUOUS
 62
               7
100
AcDbCircle
 10
-95.0000003166667
 20
-220.00001599212248
 30
0.0
 40
5.0
  0
CIRCLE
  5
2AD
100
AcDbEntity
  8
0
  6
CONTINUOUS
 62
               7
100
AcDbCircle
 10
-75.000000250000028
 20
-220.00001599212248
 30
0.0
 40
5.0
  0
LINE
  5
2AE
100
AcDbEntity
  8
0
  6
CONTINUOUS
 62
               7
100
AcDbLine
 10
105.00000034999994
 20
-1.0000000033335255
 30
0.0
 11
105.00000034999994
 21
-0.3500061046822793
 31
0.0
  0
ARC
  5
2AF
100
AcDbEntity
  8
0
  6
CONTINUOUS
 62
               7
100
AcDbCircle
 10
120.50006165848964
 20
-3.529655968012321
 30
0.0
 40
6.3296561241149902
100
AcDbArc
 50
70.857290864869654
 51
109.14270731389304
  0
LINE
  5
2B0
100
AcDbEntity
  8
0
  6
CONTINUOUS
 62
               7
100
AcDbLine
 10
118.42442694054864
 20
2.4499998938420049
 30
0.0
 11
122.57569637643127
 21
2.4499998938420049
 31
0.0
  0
LINE
  5
2B1
100
AcDbEntity
  8
0
  6
CONTINUOUS
 62
               7
100
AcDbLine
 10
118.42442710023619
 20
2.4499998715127731
 30
0.0
 11
118.35006173595394
 21
1.5999998657709966
 31
0.0
  0
LINE
  5
2B2
100
AcDbEntity
  8
0
  6
CONTINUOUS
 62
               7
100
AcDbLine
 10
122.57569621674378
 20
2.4499998715125457
 30
0.0
 11
122.65006158102597
 21
1.5999998657705419
 31
0.0
  0
ARC
  5
2B3
100
AcDbEntity
  8
0
  6
CONTINUOUS
 62
               7
100
AcDbCircle
 10
115.5000616584901
 20
-2.1296655047556214
 30
0.0
 40
6.3296561241149902
100
AcDbArc
 50
70.857292686105737
 51
109.14270913512912
  0
LINE
  5
2B4
100
AcDbEntity
  8
0
  6
CONTINUOUS
 62
               7
100
AcDbLine
 10
107.00006165848987
 20
2.9999903332570739
 30
0.0
 11
117.65006158102602
 21
2.9999903332570739
 31
0.0
  0
LINE
  5
2B5
100
AcDbEntity
  8
0
  6
CONTINUOUS
 62
               7
100
AcDbLine
 10
117.50006165849004
 20
2.9999903332570739
 30
0.0
 11
117.50006165849004
 21
1.599999996666611
 31
0.0
  0
ARC
  5
2B6
100
AcDbEntity
  8
0
  6
CONTINUOUS
 62
               7
100
AcDbCircle
 10
122.00006165848987
 20
-4.0000096667431535
 30
0.0
 40
6.3499999999999996
100
AcDbArc
 50
61.871356455593961
 51
84.698116314597883
  0
LINE
  5
2B7
100
AcDbEntity
  8
0
  6
CONTINUOUS
 62
               7
100
AcDbLine
 10
117.57569637643132
 20
3.8499903570989318
 30
0.0
 11
113.42442694054864
 21
3.8499903570987044
 31
0.0
  0
LINE
  5
2B8
100
AcDbEntity
  8
0
  6
CONTINUOUS
 62
               7
100
AcDbLine
 10
117.57569621674378
 20
3.8499903347694726
 30
0.0
 11
117.65006158102602
 21
2.9999903290276961
 31
0.0
  0
LINE
  5
2B9
100
AcDbEntity
  8
0
  6
CONTINUOUS
 62
               7
100
AcDbLine
 10
113.42442710023585
 20
3.8499903347697
 30
0.0
 11
113.35006173595372
 21
2.9999903290276961
 31
0.0
  0
LINE
  5
2BA
100
AcDbEntity
  8
0
  6
CONTINUOUS
 62
               7
100
AcDbLine
 10
118.41567743279415
 20
2.3499907147268004
 30
0.0
 11
117.50006165849004
 21
2.3499907147268004
 31
0.0
  0
LINE
  5
2BB
100
AcDbEntity
  8
0
  6
CONTINUOUS
 62
               7
100
AcDbLine
 10
107.00006165848987
 20
-1.0000096667429261
 30
0.0
 11
107.00006165848987
 21
2.9999903332570739
 31
0.0
  0
ARC
  5
2BC
100
AcDbEntity
  8
0
  6
CONTINUOUS
 62
               7
100
AcDbCircle
 10
120.50000040166657
 20
-33.870346182237199
 30
0.0
 40
6.3296561452138436
100
AcDbArc
 50
250.85729006794102
 51
289.14270651696438
  0
CIRCLE
  5
2BD
100
AcDbEntity
  8
0
  6
CONTINUOUS
 62
               7
100
AcDbCircle
 10
-16.500000055000072
 20
-246.30000387275788
 30
0.0
 40
2.7500000091666661
  0
CIRCLE
  5
2BE
100
AcDbEntity
  8
0
  6
CONTINUOUS
 62
               7
100
AcDbCircle
 10
-16.500000055000072
 20
-272.30000395942454
 30
0.0
 40
2.7500000091666661
  0
CIRCLE
  5
2BF
100
AcDbEntity
  8
0
  6
CONTINUOUS
 62
               7
100
AcDbCircle
 10
16.50000005499993
 20
-272.30000395942454
 30
0.0
 40
2.7500000091666661
  0
CIRCLE
  5
2C0
100
AcDbEntity
  8
0
  6
CONTINUOUS
 62
               7
100
AcDbCircle
 10
16.50000005499993
 20
-246.30000387275788
 30
0.0
 40
2.7500000091666661
  0
ARC
  5
2C1
100
AcDbEntity
  8
0
  6
CONTINUOUS
 62
               7
100
AcDbCircle
 10
88.870361624359475
 20
-53.800003231091296
 30
0.0
 40
6.3296561452138436
100
AcDbArc
 50
340.85729086487191
 51
19.142707313895272
  0
ARC
  5
2C2
100
AcDbEntity
  8
0
  6
CONTINUOUS
 62
               7
100
AcDbCircle
 10
88.870361624359475
 20
-67.800003277757924
 30
0.0
 40
6.3296561452138436
100
AcDbArc
 50
340.85729086487191
 51
19.142707313895272
  0
CIRCLE
  5
2C3
100
AcDbEntity
  8
0
  6
CONTINUOUS
 62
               7
100
AcDbCircle
 10
62.000000206666641
 20
-3.5000000116667707
 30
0.0
 40
2.7500000091666661
  0
CIRCLE
  5
2C4
100
AcDbEntity
  8
0
  6
CONTINUOUS
 62
               7
100
AcDbCircle
 10
88.000000293333244
 20
-3.5000000116667707
 30
0.0
 40
2.7500000091666661
  0
ARC
  5
2C5
100
AcDbEntity
  8
0
  6
CONTINUOUS
 62
               7
100
AcDbCircle
 10
88.000000293333244
 20
-76.300003306091185
 30
0.0
 40
2.0000000066666663
100
AcDbArc
 50
270.0
 51
315.00000125223909
  0
ARC
  5
2C6
100
AcDbEntity
  8
0
  6
CONTINUOUS
 62
               7
100
AcDbCircle
 10
62.000000206666641
 20
-76.300003306091185
 30
0.0
 40
2.0000000066666663
100
AcDbArc
 50
224.99999874776091
 51
270.0
  0
ARC
  5
2C7
100
AcDbEntity
  8
0
  6
CONTINUOUS
 62
               7
100
AcDbCircle
 10
90.500000301666603
 20
-71.678695917639971
 30
0.0
 40
3.5000000116666672
100
AcDbArc
 50
315.00000125223909
 51
0.0000025044781673
  0
ARC
  5
2C8
100
AcDbEntity
  8
0
  6
CONTINUOUS
 62
               7
100
AcDbCircle
 10
-108.675293331001
 20
-37.000000123333393
 30
0.0
 40
2.0000000066666663
100
AcDbArc
 50
202.13136085930475
 51
270.0
  0
ARC
  5
2C9
100
AcDbEntity
  8
0
  6
CONTINUOUS
 62
               7
100
AcDbCircle
 10
-108.675293331001
 20
-3.0000000099998942
 30
0.0
 40
2.0000000066666663
100
AcDbArc
 50
90.000005008956336
 51
157.86863048927324
  0
ARC
  5
2CA
100
AcDbEntity
  8
0
  6
CONTINUOUS
 62
               7
100
AcDbCircle
 10
-104.95202671702765
 20
-3.0000000099998942
 30
0.0
 40
2.0000000066666663
100
AcDbArc
 50
90.000005008956336
 51
170.84680953499787
  0
ARC
  5
2CB
100
AcDbEntity
  8
0
  6
CONTINUOUS
 62
               7
100
AcDbCircle
 10
-104.95202671702765
 20
-37.000000123333393
 30
0.0
 40
2.0000000066666663
100
AcDbArc
 50
189.15318181358012
 51
270.0
  0
ARC
  5
2CC
100
AcDbEntity
  8
0
  6
CONTINUOUS
 62
               7
100
AcDbCircle
 10
-66.875000222916697
 20
-20.000000066666644
 30
0.0
 40
47.125000157083328
100
AcDbArc
 50
157.86864096192809
 51
202.13136085930475
  0
ARC
  5
2CD
100
AcDbEntity
  8
0
  6
CONTINUOUS
 62
               7
100
AcDbCircle
 10
0.5552978534134923
 20
-20.000000066666644
 30
0.0
 40
108.86813390781568
100
AcDbArc
 50
170.84681317746356
 51
189.15318181358012
  0
ARC
  5
2CE
100
AcDbEntity
  8
0
  6
CONTINUOUS
 62
               7
100
AcDbCircle
 10
-16.500000055000072
 20
-281.80000399109122
 30
0.0
 40
3.0000000099999999
100
AcDbArc
 50
179.99999749552182
 51
0.0000025044781673
  0
ARC
  5
2CF
100
AcDbEntity
  8
0
  6
CONTINUOUS
 62
               7
100
AcDbCircle
 10
16.50000005499993
 20
-281.80000399109122
 30
0.0
 40
3.0000000099999999
100
AcDbArc
 50
179.99999749552182
 51
0.0000025044781673
  0
CIRCLE
  5
2D0
100
AcDbEntity
  8
0
  6
CONTINUOUS
 62
               7
100
AcDbCircle
 10
16.50000005499993
 20
-246.30000387275788
 30
0.0
 40
1.7500000058333336
  0
CIRCLE
  5
2D1
100
AcDbEntity
  8
0
  6
CONTINUOUS
 62
               7
100
AcDbCircle
 10
16.50000005499993
 20
-246.30000387275788
 30
0.0
 40
3.2500000108333333
  0
CIRCLE
  5
2D2
100
AcDbEntity
  8
0
  6
CONTINUOUS
 62
               7
100
AcDbCircle
 10
16.50000005499993
 20
-272.30000395942454
 30
0.0
 40
3.2500000108333333
  0
CIRCLE
  5
2D3
100
AcDbEntity
  8
0
  6
CONTINUOUS
 62
               7
100
AcDbCircle
 10
16.50000005499993
 20
-272.30000395942454
 30
0.0
 40
1.7500000058333336
  0
CIRCLE
  5
2D4
100
AcDbEntity
  8
0
  6
CONTINUOUS
 62
               7
100
AcDbCircle
 10
-16.500000055000072
 20
-272.30000395942454
 30
0.0
 40
1.7500000058333336
  0
CIRCLE
  5
2D5
100
AcDbEntity
  8
0
  6
CONTINUOUS
 62
               7
100
AcDbCircle
 10
-16.500000055000072
 20
-272.30000395942454
 30
0.0
 40
3.2500000108333333
  0
CIRCLE
  5
2D6
100
AcDbEntity
  8
0
  6
CONTINUOUS
 62
               2
100
AcDbCircle
 10
22.000000073333297
 20
-277.30000397609126
 30
0.0
 40
1.500000005
  0
CIRCLE
  5
2D7
100
AcDbEntity
  8
0
  6
CONTINUOUS
 62
               7
100
AcDbCircle
 10
22.000000073333297
 20
-277.30000397609126
 30
0.0
 40
1.2500000041666668
  0
CIRCLE
  5
2D8
100
AcDbEntity
  8
0
  6
CONTINUOUS
 62
               7
100
AcDbCircle
 10
-22.000000073333354
 20
-277.30000397609126
 30
0.0
 40
1.2500000041666668
  0
CIRCLE
  5
2D9
100
AcDbEntity
  8
0
  6
CONTINUOUS
 62
               2
100
AcDbCircle
 10
-22.000000073333354
 20
-277.30000397609126
 30
0.0
 40
1.500000005
  0
CIRCLE
  5
2DA
100
AcDbEntity
  8
0
  6
CONTINUOUS
 62
               2
100
AcDbCircle
 10
-22.000000073333354
 20
-241.30000385609128
 30
0.0
 40
1.500000005
  0
CIRCLE
  5
2DB
100
AcDbEntity
  8
0
  6
CONTINUOUS
 62
               7
100
AcDbCircle
 10
-22.000000073333354
 20
-241.30000385609128
 30
0.0
 40
1.2500000041666668
  0
ARC
  5
2DC
100
AcDbEntity
  8
0
  6
CONTINUOUS
 62
               7
100
AcDbCircle
 10
-22.000000073333354
 20
-241.30000385609128
 30
0.0
 40
3.0000000099999999
100
AcDbArc
 50
89.999994991043664
 51
179.99999749552182
  0
ARC
  5
2DD
100
AcDbEntity
  8
0
  6
CONTINUOUS
 62
               7
100
AcDbCircle
 10
-22.000000073333354
 20
-277.30000397609126
 30
0.0
 40
3.0000000099999999
100
AcDbArc
 50
179.99999749552182
 51
270.0
  0
ARC
  5
2DE
100
AcDbEntity
  8
0
  6
CONTINUOUS
 62
               7
100
AcDbCircle
 10
22.000000073333297
 20
-277.30000397609126
 30
0.0
 40
3.0000000099999999
100
AcDbArc
 50
270.0
 51
0.0000025044781673
  0
ARC
  5
2DF
100
AcDbEntity
  8
0
  6
CONTINUOUS
 62
               7
100
AcDbCircle
 10
22.000000073333297
 20
-241.30000385609128
 30
0.0
 40
3.0000000099999999
100
AcDbArc
 50
0.0000025044781673
 51
90.000005008956336
  0
CIRCLE
  5
2E0
100
AcDbEntity
  8
0
  6
CONTINUOUS
 62
               7
100
AcDbCircle
 10
22.000000073333297
 20
-241.30000385609128
 30
0.0
 40
1.2500000041666668
  0
CIRCLE
  5
2E1
100
AcDbEntity
  8
0
  6
CONTINUOUS
 62
               2
100
AcDbCircle
 10
22.000000073333297
 20
-241.30000385609128
 30
0.0
 40
1.500000005
  0
CIRCLE
  5
2E2
100
AcDbEntity
  8
0
  6
CONTINUOUS
 62
               7
100
AcDbCircle
 10
-16.500000055000072
 20
-246.30000387275788
 30
0.0
 40
3.2500000108333333
  0
CIRCLE
  5
2E3
100
AcDbEntity
  8
0
  6
CONTINUOUS
 62
               7
100
AcDbCircle
 10
-16.500000055000072
 20
-246.30000387275788
 30
0.0
 40
1.7500000058333336
  0
ARC
  5
2E4
100
AcDbEntity
  8
0
  6
CONTINUOUS
 62
               7
100
AcDbCircle
 10
0.0
 20
-168.86357172987084
 30
0.0
 40
135.72679183425856
100
AcDbArc
 50
255.0562291149291
 51
284.94377088507088
  0
ARC
  5
2E5
100
AcDbEntity
  8
0
  6
CONTINUOUS
 62
               7
100
AcDbCircle
 10
104.00000034666664
 20
-301.79203896984063
 30
0.0
 40
1.0000000033333332
100
AcDbArc
 50
271.98128483929463
 51
0.0000025044781673
  0
ARC
  5
2E6
100
AcDbEntity
  8
0
  6
CONTINUOUS
 62
               7
100
AcDbCircle
 10
-104.0000003466667
 20
-301.79203896984063
 30
0.0
 40
1.0000000033333332
100
AcDbArc
 50
179.99999749552182
 51
268.01871516070537
  0
ARC
  5
2E7
100
AcDbEntity
  8
0
  6
CONTINUOUS
 62
               7
100
AcDbCircle
 10
0.0
 20
2704.532769635226
 30
0.0
 40
3009.1230569054101
100
AcDbArc
 50
268.01871516070537
 51
271.98128483929463
  0
ARC
  5
2E8
100
AcDbEntity
  8
0
  6
CONTINUOUS
 62
               7
100
AcDbCircle
 10
104.00000034666664
 20
-302.80000406109116
 30
0.0
 40
1.0000000033333332
100
AcDbArc
 50
270.0
 51
0.0000025044781673
  0
ARC
  5
2E9
100
AcDbEntity
  8
0
  6
CONTINUOUS
 62
               7
100
AcDbCircle
 10
104.00000034666664
 20
-302.89637857313119
 30
0.0
 40
1.0000000033333332
100
AcDbArc
 50
276.49788211075821
 51
0.0000025044781673
  0
ARC
  5
2EA
100
AcDbEntity
  8
0
  6
CONTINUOUS
 62
               7
100
AcDbCircle
 10
-104.0000003466667
 20
-302.89637857313119
 30
0.0
 40
1.0000000033333332
100
AcDbArc
 50
179.99999749552182
 51
263.50211788924179
  0
ARC
  5
2EB
100
AcDbEntity
  8
0
  6
CONTINUOUS
 62
               7
100
AcDbCircle
 10
0.0
 20
610.19999898224205
 30
0.0
 40
920.00000306666664
100
AcDbArc
 50
263.50211788924179
 51
276.49788211075821
  0
LINE
  5
2EC
100
AcDbEntity
  8
0
  6
CONTINUOUS
 62
               7
100
AcDbLine
 10
122.57562296717907
 20
-39.850006236349031
 30
0.0
 11
118.42437783615412
 21
-39.850006236349031
 31
0.0
  0
LINE
  5
2ED
100
AcDbEntity
  8
0
  6
CONTINUOUS
 62
               7
100
AcDbLine
 10
122.57566778408136
 20
-39.85000841756289
 30
0.0
 11
122.65003396586269
 21
-38.999999067764861
 31
0.0
  0
LINE
  5
2EE
100
AcDbEntity
  8
0
  6
CONTINUOUS
 62
               7
100
AcDbLine
 10
118.42436266211126
 20
-39.850021240379647
 30
0.0
 11
118.34999515043887
 21
-38.999996689856289
 31
0.0
  0
LINE
  5
2EF
100
AcDbEntity
  8
0
  6
CONTINUOUS
 62
               7
100
AcDbLine
 10
-17.943372051601898
 20
-246.29999713861173
 30
0.0
 11
-17.221691931541699
 21
-247.54998274779098
 31
0.0
  0
LINE
  5
2F0
100
AcDbEntity
  8
0
  6
CONTINUOUS
 62
               7
100
AcDbLine
 10
-17.221638442598334
 20
-245.05003847047374
 30
0.0
 11
-17.943317057117383
 21
-246.30002502599314
 31
0.0
  0
LINE
  5
2F1
100
AcDbEntity
  8
0
  6
CONTINUOUS
 62
               7
100
AcDbLine
 10
-15.778308969150345
 20
-245.05003091456888
 30
0.0
 11
-17.221668348961543
 21
-245.05003186823365
 31
0.0
  0
LINE
  5
2F2
100
AcDbEntity
  8
0
  6
CONTINUOUS
 62
               7
100
AcDbLine
 10
-15.056621102722772
 20
-246.30001724991882
 30
0.0
 11
-15.778300749612924
 21
-245.050031296616
 31
0.0
  0
LINE
  5
2F3
100
AcDbEntity
  8
0
  6
CONTINUOUS
 62
               7
100
AcDbLine
 10
-15.778308596803697
 20
-247.54999792857086
 30
0.0
 11
-15.056623127187947
 21
-246.2999977283863
 31
0.0
  0
LINE
  5
2F4
100
AcDbEntity
  8
0
  6
CONTINUOUS
 62
               7
100
AcDbLine
 10
-15.778320365094459
 20
-247.55000387692462
 30
0.0
 11
-17.221679744905629
 21
-247.55000387692462
 31
0.0
  0
LINE
  5
2F5
100
AcDbEntity
  8
0
  6
CONTINUOUS
 62
               7
100
AcDbLine
 10
-17.943361764834805
 20
-272.29999854130995
 30
0.0
 11
-17.221681644774606
 21
-273.54998415048919
 31
0.0
  0
LINE
  5
2F6
100
AcDbEntity
  8
0
  6
CONTINUOUS
 62
               7
100
AcDbLine
 10
-17.221669577215948
 20
-271.05001055865694
 30
0.0
 11
-17.943355821118189
 21
-272.30001032868233
 31
0.0
  0
LINE
  5
2F7
100
AcDbEntity
  8
0
  6
CONTINUOUS
 62
               7
100
AcDbLine
 10
-15.778291790278331
 20
-271.05003100123542
 30
0.0
 11
-17.22171220524595
 21
-271.05003195494066
 31
0.0
  0
LINE
  5
2F8
100
AcDbEntity
  8
0
  6
CONTINUOUS
 62
               7
100
AcDbLine
 10
-15.056621296934452
 20
-272.30001975927576
 30
0.0
 11
-15.778300943824547
 21
-271.0500338059727
 31
0.0
  0
LINE
  5
2F9
100
AcDbEntity
  8
0
  6
CONTINUOUS
 62
               7
100
AcDbLine
 10
-15.778278549591136
 20
-273.55001348554242
 30
0.0
 11
-15.056600709350334
 21
-272.30002649986841
 31
0.0
  0
LINE
  5
2FA
100
AcDbEntity
  8
0
  6
CONTINUOUS
 62
               7
100
AcDbLine
 10
-15.778320365094459
 20
-273.55000396359128
 30
0.0
 11
-17.221679744905629
 21
-273.55000396359128
 31
0.0
  0
LINE
  5
2FB
100
AcDbEntity
  8
0
  6
CONTINUOUS
 62
               7
100
AcDbLine
 10
15.056601388524541
 20
-272.30000778634906
 30
0.0
 11
15.778281508584712
 21
-273.54999339552842
 31
0.0
  0
LINE
  5
2FC
100
AcDbEntity
  8
0
  6
CONTINUOUS
 62
               7
100
AcDbLine
 10
15.778332702279044
 20
-271.05001763191183
 30
0.0
 11
15.056654087760023
 21
-272.30000418743123
 31
0.0
  0
LINE
  5
2FD
100
AcDbEntity
  8
0
  6
CONTINUOUS
 62
               7
100
AcDbLine
 10
17.221708319721699
 20
-271.05000919728252
 30
0.0
 11
15.778287904754052
 21
-271.05001015098765
 31
0.0
  0
LINE
  5
2FE
100
AcDbEntity
  8
0
  6
CONTINUOUS
 62
               7
100
AcDbLine
 10
17.943396119018189
 20
-272.30001178950454
 30
0.0
 11
17.221716472128037
 21
-271.05002583620171
 31
0.0
  0
LINE
  5
2FF
100
AcDbEntity
  8
0
  6
CONTINUOUS
 62
               7
100
AcDbLine
 10
17.221715766418754
 20
-273.55001352503996
 30
0.0
 11
17.943401236034504
 21
-272.30001332485529
 31
0.0
  0
LINE
  5
300
100
AcDbEntity
  8
0
  6
CONTINUOUS
 62
               7
100
AcDbLine
 10
17.2216797449056
 20
-273.55000396359128
 30
0.0
 11
15.778320365094373
 21
-273.55000396359128
 31
0.0
  0
LINE
  5
301
100
AcDbEntity
  8
0
  6
CONTINUOUS
 62
               7
100
AcDbLine
 10
15.056591101757476
 20
-246.30000638365084
 30
0.0
 11
15.77827122181759
 21
-247.54999199283009
 31
0.0
  0
LINE
  5
302
100
AcDbEntity
  8
0
  6
CONTINUOUS
 62
               7
100
AcDbLine
 10
15.778318608255745
 20
-245.05000181168987
 30
0.0
 11
15.056632364353447
 21
-246.30000158171526
 31
0.0
  0
LINE
  5
303
100
AcDbEntity
  8
0
  6
CONTINUOUS
 62
               7
100
AcDbLine
 10
17.221691140849657
 20
-245.05000911061586
 30
0.0
 11
15.77833176103843
 21
-245.05001006428063
 31
0.0
  0
LINE
  5
304
100
AcDbEntity
  8
0
  6
CONTINUOUS
 62
               7
100
AcDbLine
 10
17.943396313229812
 20
-246.30000928014772
 30
0.0
 11
17.22171666633966
 21
-245.05002332684478
 31
0.0
  0
LINE
  5
305
100
AcDbEntity
  8
0
  6
CONTINUOUS
 62
               7
100
AcDbLine
 10
17.221685719206221
 20
-247.5499979680684
 30
0.0
 11
17.94337118882197
 21
-246.29999776788384
 31
0.0
  0
LINE
  5
306
100
AcDbEntity
  8
0
  6
CONTINUOUS
 62
               7
100
AcDbLine
 10
17.2216797449056
 20
-247.55000387692462
 30
0.0
 11
15.778320365094373
 21
-247.55000387692462
 31
0.0
  0
LINE
  5
307
100
AcDbEntity
  8
0
  6
CONTINUOUS
 62
               7
100
AcDbLine
 10
94.849975902132996
 20
-55.875641055283609
 30
0.0
 11
94.849975902132599
 21
-51.724365406680363
 31
0.0
  0
LINE
  5
308
100
AcDbEntity
  8
0
  6
CONTINUOUS
 62
               7
100
AcDbLine
 10
94.850032139457596
 20
-55.875645878390515
 30
0.0
 11
94.000007588934409
 21
-55.95001339006285
 31
0.0
  0
LINE
  5
309
100
AcDbEntity
  8
0
  6
CONTINUOUS
 62
               7
100
AcDbLine
 10
94.850039076161295
 20
-51.724367273363782
 30
0.0
 11
94.000014525638051
 21
-51.649999761691333
 31
0.0
  0
LINE
  5
30A
100
AcDbEntity
  8
0
  6
CONTINUOUS
 62
               7
100
AcDbLine
 10
94.849975902134645
 20
-69.87562584316106
 30
0.0
 11
94.849975902134133
 21
-65.724380712136053
 31
0.0
  0
LINE
  5
30B
100
AcDbEntity
  8
0
  6
CONTINUOUS
 62
               7
100
AcDbLine
 10
94.849996996797756
 20
-69.875639809833046
 30
0.0
 11
94.000033249175146
 21
-69.950002001940902
 31
0.0
  0
LINE
  5
30C
100
AcDbEntity
  8
0
  6
CONTINUOUS
 62
               7
100
AcDbLine
 10
94.85001208602938
 20
-65.72437108596705
 30
0.0
 11
94.000048338406714
 21
-65.650008893859081
 31
0.0
  0
LINE
  5
30D
100
AcDbEntity
  8
0
  6
CONTINUOUS
 62
               7
100
AcDbLine
 10
60.556622017340715
 20
-3.5000016090668851
 30
0.0
 11
61.278302137400999
 21
-4.7499872182461331
 31
0.0
  0
LINE
  5
30E
100
AcDbEntity
  8
0
  6
CONTINUOUS
 62
               7
100
AcDbLine
 10
61.278357124075683
 20
-2.2500389341007576
 30
0.0
 11
60.556678509556605
 21
-3.5000254896201568
 31
0.0
  0
LINE
  5
30F
100
AcDbEntity
  8
0
  6
CONTINUOUS
 62
               7
100
AcDbLine
 10
62.721691012322083
 20
-2.250011918837572
 30
0.0
 11
61.278331632510969
 21
-2.2500128725023387
 31
0.0
  0
LINE
  5
310
100
AcDbEntity
  8
0
  6
CONTINUOUS
 62
               7
100
AcDbLine
 10
63.443381815599821
 20
-3.4999834557381746
 30
0.0
 11
62.721702168709669
 21
-2.2499975024350078
 31
0.0
  0
LINE
  5
311
100
AcDbEntity
  8
0
  6
CONTINUOUS
 62
               7
100
AcDbLine
 10
62.72169005097328
 20
-4.7499884099042902
 30
0.0
 11
63.443367891213995
 21
-3.5000014242302768
 31
0.0
  0
LINE
  5
312
100
AcDbEntity
  8
0
  6
CONTINUOUS
 62
               7
100
AcDbLine
 10
62.721679896572198
 20
-4.7500000158333933
 30
0.0
 11
61.278320516761028
 21
-4.7500000158333933
 31
0.0
  0
LINE
  5
313
100
AcDbEntity
  8
0
  6
CONTINUOUS
 62
               7
100
AcDbLine
 10
86.556623420038989
 20
-3.4999913222998202
 30
0.0
 11
87.278303540099216
 21
-4.7499769314790683
 31
0.0
  0
LINE
  5
314
100
AcDbEntity
  8
0
  6
CONTINUOUS
 62
               7
100
AcDbLine
 10
87.278359729791703
 20
-2.2500172106942955
 30
0.0
 11
86.556681115272568
 21
-3.5000037662136947
 31
0.0
  0
LINE
  5
315
100
AcDbEntity
  8
0
  6
CONTINUOUS
 62
               7
100
AcDbLine
 10
88.721691098998804
 20
-2.2500099987546491
 30
0.0
 11
87.278331719187577
 21
-2.2500109524194158
 31
0.0
  0
LINE
  5
316
100
AcDbEntity
  8
0
  6
CONTINUOUS
 62
               7
100
AcDbLine
 10
89.443384324956639
 20
-3.4999836499496269
 30
0.0
 11
88.721704678066487
 21
-2.2499976966469148
 31
0.0
  0
LINE
  5
317
100
AcDbEntity
  8
0
  6
CONTINUOUS
 62
               7
100
AcDbLine
 10
88.721677134684171
 20
-4.7499771623379274
 30
0.0
 11
89.443354974924944
 21
-3.4999901766639141
 31
0.0
  0
LINE
  5
318
100
AcDbEntity
  8
0
  6
CONTINUOUS
 62
               7
100
AcDbLine
 10
88.721679983238857
 20
-4.7500000158333933
 30
0.0
 11
87.27832060342763
 21
-4.7500000158333933
 31
0.0
  0
LINE
  5
319
100
AcDbEntity
  8
0
  6
CONTINUOUS
 62
               7
100
AcDbLine
 10
54.000000179999915
 20
-1.0000000033335255
 30
0.0
 11
-108.67529350584658
 21
-1.0000000033335255
 31
0.0
  0
LINE
  5
31A
100
AcDbEntity
  8
0
  6
CONTINUOUS
 62
               7
100
AcDbLine
 10
54.000000179999915
 20
-6.6000061255156197
 30
0.0
 11
-102.00000034000004
 21
-6.6000061255156197
 31
0.0
  0
LINE
  5
31B
100
AcDbEntity
  8
0
  6
CONTINUOUS
 62
               7
100
AcDbLine
 10
54.000000179999915
 20
-8.8000030810912904
 30
0.0
 11
-102.00000034000004
 21
-8.8000030810912904
 31
0.0
  0
LINE
  5
31C
100
AcDbEntity
  8
0
  6
CONTINUOUS
 62
               7
100
AcDbLine
 10
54.000000179999915
 20
-31.199997052242225
 30
0.0
 11
-102.00000034000004
 21
-31.199997052242225
 31
0.0
  0
LINE
  5
31D
100
AcDbEntity
  8
0
  6
CONTINUOUS
 62
               7
100
AcDbLine
 10
54.000000179999915
 20
-33.399994007817668
 30
0.0
 11
-102.00000034000004
 21
-33.399994007817668
 31
0.0
  0
LINE
  5
31E
100
AcDbEntity
  8
0
  6
CONTINUOUS
 62
               7
100
AcDbLine
 10
54.000000179999915
 20
-39.000000130000103
 30
0.0
 11
-108.675293331001
 21
-39.000000130000103
 31
0.0
  0
LINE
  5
31F
100
AcDbEntity
  8
0
  6
CONTINUOUS
 62
               7
100
AcDbLine
 10
54.000000179999915
 20
-45.80000320442457
 30
0.0
 11
96.00000031999997
 21
-45.80000320442457
 31
0.0
  0
LINE
  5
320
100
AcDbEntity
  8
0
  6
CONTINUOUS
 62
               7
100
AcDbLine
 10
-113.22711219382998
 20
-28.500000095000132
 30
0.0
 11
-113.43396033905077
 21
-28.500000095000132
 31
0.0
  0
LINE
  5
321
100
AcDbEntity
  8
0
  6
CONTINUOUS
 62
               7
100
AcDbLine
 10
-113.22711219382998
 20
-11.500000038333383
 30
0.0
 11
-113.43396033905077
 21
-11.500000038333383
 31
0.0
  0
LINE
  5
322
100
AcDbEntity
  8
0
  6
CONTINUOUS
 62
               2
100
AcDbLine
 10
92.089563113893007
 20
-53.800003231091296
 30
0.0
 11
96.038382745134015
 21
-53.800003231091296
 31
0.0
  0
LINE
  5
323
100
AcDbEntity
  8
0
  6
CONTINUOUS
 62
               7
100
AcDbLine
 10
56.000000186666625
 20
-78.799972796846305
 30
0.0
 11
56.000000186666625
 21
-73.128405959689644
 31
0.0
  0
LINE
  5
324
100
AcDbEntity
  8
0
  6
CONTINUOUS
 62
               7
100
AcDbLine
 10
89.414194859866654
 20
-77.714211413156249
 30
0.0
 11
92.97484688974356
 21
-74.153559383279344
 31
0.0
  0
LINE
  5
325
100
AcDbEntity
  8
0
  6
CONTINUOUS
 62
               7
100
AcDbLine
 10
88.000000293333244
 20
-78.300003312757894
 30
0.0
 11
62.000000206666641
 21
-78.300003312757894
 31
0.0
  0
LINE
  5
326
100
AcDbEntity
  8
0
  6
CONTINUOUS
 62
               7
100
AcDbLine
 10
94.00000031333326
 20
-78.799972796846305
 30
0.0
 11
94.00000031333326
 21
-45.80000320442457
 31
0.0
  0
LINE
  5
327
100
AcDbEntity
  8
0
  6
CONTINUOUS
 62
               7
100
AcDbLine
 10
89.000000296666599
 20
-78.799972796846305
 30
0.0
 11
89.000000296666599
 21
-78.03205411943361
 31
0.0
  0
LINE
  5
328
100
AcDbEntity
  8
0
  6
CONTINUOUS
 62
               7
100
AcDbLine
 10
61.000000203333286
 20
-78.799972796846305
 30
0.0
 11
61.000000203333286
 21
-78.03205411943361
 31
0.0
  0
LINE
  5
329
100
AcDbEntity
  8
0
  6
CONTINUOUS
 62
               2
100
AcDbLine
 10
92.089563113893007
 20
-67.800003277757924
 30
0.0
 11
96.2851839720866
 21
-67.800003277757924
 31
0.0
  0
LINE
  5
32A
100
AcDbEntity
  8
0
  6
CONTINUOUS
 62
               7
100
AcDbLine
 10
-102.00000034000004
 20
-39.000000130000103
 30
0.0
 11
-102.00000034000004
 21
-1.0000000033335255
 31
0.0
  0
LINE
  5
32B
100
AcDbEntity
  8
0
  6
CONTINUOUS
 62
               7
100
AcDbLine
 10
193.85479798279721
 20
-33.830001943821344
 30
0.0
 11
117.86615029523091
 21
-33.830001943821344
 31
0.0
  0
LINE
  5
32C
100
AcDbEntity
  8
0
  6
CONTINUOUS
 62
               7
100
AcDbLine
 10
195.00006165848976
 20
1.599999996666611
 30
0.0
 11
117.00000038999997
 21
1.599999996666611
 31
0.0
  0
LINE
  5
32D
100
AcDbEntity
  8
0
  6
CONTINUOUS
 62
               7
100
AcDbLine
 10
117.00000038999997
 20
-31.199997052242225
 30
0.0
 11
96.00000031999997
 21
-31.199997052242225
 31
0.0
  0
LINE
  5
32E
100
AcDbEntity
  8
0
  6
CONTINUOUS
 62
               7
100
AcDbLine
 10
195.00006165848976
 20
-39.000000130000103
 30
0.0
 11
96.00000031999997
 21
-39.000000130000103
 31
0.0
  0
LINE
  5
32F
100
AcDbEntity
  8
0
  6
CONTINUOUS
 62
               7
100
AcDbLine
 10
96.00000031999997
 20
-0.3500061046822793
 30
0.0
 11
105.00000034999994
 21
-0.3500061046822793
 31
0.0
  0
LINE
  5
330
100
AcDbEntity
  8
0
  6
CONTINUOUS
 62
               7
100
AcDbLine
 10
195.00006165848976
 20
-39.000000130000103
 30
0.0
 11
195.00006165848976
 21
1.599999996666611
 31
0.0
  0
LINE
  5
331
100
AcDbEntity
  8
0
  6
CONTINUOUS
 62
               7
100
AcDbLine
 10
117.00000038999997
 20
-8.8000030810912904
 30
0.0
 11
96.00000031999997
 21
-8.8000030810912904
 31
0.0
  0
LINE
  5
332
100
AcDbEntity
  8
0
  6
CONTINUOUS
 62
               7
100
AcDbLine
 10
117.00000038999997
 20
-6.6000061255156197
 30
0.0
 11
96.00000031999997
 21
-6.6000061255156197
 31
0.0
  0
LINE
  5
333
100
AcDbEntity
  8
0
  6
CONTINUOUS
 62
               7
100
AcDbLine
 10
117.00000038999997
 20
-33.399994007817668
 30
0.0
 11
96.00000031999997
 21
-33.399994007817668
 31
0.0
  0
LINE
  5
334
100
AcDbEntity
  8
0
  6
CONTINUOUS
 62
               7
100
AcDbLine
 10
117.00000038999997
 20
-39.000000130000103
 30
0.0
 11
117.00000038999997
 21
1.599999996666611
 31
0.0
  0
LINE
  5
335
100
AcDbEntity
  8
0
  6
CONTINUOUS
 62
               7
100
AcDbLine
 10
193.67437806032081
 20
-6.1699981895121709
 30
0.0
 11
118.04644814739436
 21
-6.1699981895121709
 31
0.0
  0
LINE
  5
336
100
AcDbEntity
  8
0
  6
CONTINUOUS
 62
               7
100
AcDbLine
 10
25.000000083333305
 20
-40.000000133333401
 30
0.0
 11
25.000000083333305
 21
-300.00001625878917
 31
0.0
  0
LINE
  5
337
100
AcDbEntity
  8
0
  6
CONTINUOUS
 62
               7
100
AcDbLine
 10
-25.000000083333362
 20
-40.000000133333401
 30
0.0
 11
-25.000000083333362
 21
-300.00001625878917
 31
0.0
  0
LINE
  5
338
100
AcDbEntity
  8
0
  6
CONTINUOUS
 62
               7
100
AcDbLine
 10
57.000000189999923
 20
-42.800003194424562
 30
0.0
 11
93.000000309999962
 21
-42.800003194424562
 31
0.0
  0
LINE
  5
339
100
AcDbEntity
  8
0
  6
CONTINUOUS
 62
               7
100
AcDbLine
 10
93.000000309999962
 20
-42.800003194424562
 30
0.0
 11
93.000000309999962
 21
0.1999969489088471
 31
0.0
  0
LINE
  5
33A
100
AcDbEntity
  8
0
  6
CONTINUOUS
 62
               7
100
AcDbLine
 10
57.000000189999923
 20
-42.800003194424562
 30
0.0
 11
57.000000189999923
 21
0.1999969489088471
 31
0.0
  0
LINE
  5
33B
100
AcDbEntity
  8
0
  6
CONTINUOUS
 62
               7
100
AcDbLine
 10
54.000000179999915
 20
0.1999969489088471
 30
0.0
 11
96.00000031999997
 21
0.1999969489088471
 31
0.0
  0
LINE
  5
33C
100
AcDbEntity
  8
0
  6
CONTINUOUS
 62
               7
100
AcDbLine
 10
19.500000064999938
 20
-280.30000398609127
 30
0.0
 11
19.500000064999938
 21
-281.80000399109122
 31
0.0
  0
LINE
  5
33D
100
AcDbEntity
  8
0
  6
CONTINUOUS
 62
               7
100
AcDbLine
 10
13.500000044999979
 20
-280.30000398609127
 30
0.0
 11
13.500000044999979
 21
-281.80000399109122
 31
0.0
  0
LINE
  5
33E
100
AcDbEntity
  8
0
  6
CONTINUOUS
 62
               7
100
AcDbLine
 10
-19.500000065000023
 20
-280.30000398609127
 30
0.0
 11
-19.500000065000023
 21
-281.80000399109122
 31
0.0
  0
LINE
  5
33F
100
AcDbEntity
  8
0
  6
CONTINUOUS
 62
               7
100
AcDbLine
 10
-13.500000045000064
 20
-280.30000398609127
 30
0.0
 11
-13.500000045000064
 21
-281.80000399109122
 31
0.0
  0
LINE
  5
340
100
AcDbEntity
  8
0
  6
CONTINUOUS
 62
               7
100
AcDbLine
 10
-13.500000045000064
 20
-40.000000133333401
 30
0.0
 11
-13.500000045000064
 21
-238.30000384609127
 31
0.0
  0
LINE
  5
341
100
AcDbEntity
  8
0
  6
CONTINUOUS
 62
               7
100
AcDbLine
 10
-19.500000065000023
 20
-40.000000133333401
 30
0.0
 11
-19.500000065000023
 21
-238.30000384609127
 31
0.0
  0
LINE
  5
342
100
AcDbEntity
  8
0
  6
CONTINUOUS
 62
               7
100
AcDbLine
 10
13.500000044999979
 20
-40.000000133333401
 30
0.0
 11
13.500000044999979
 21
-238.30000384609127
 31
0.0
  0
LINE
  5
343
100
AcDbEntity
  8
0
  6
CONTINUOUS
 62
               2
100
AcDbLine
 10
24.500000081666656
 20
-277.30000397609126
 30
0.0
 11
19.500000064999938
 21
-277.30000397609126
 31
0.0
  0
LINE
  5
344
100
AcDbEntity
  8
0
  6
CONTINUOUS
 62
               2
100
AcDbLine
 10
22.000000073333297
 20
-274.8000039677579
 30
0.0
 11
22.000000073333297
 21
-279.80000398442462
 31
0.0
  0
LINE
  5
345
100
AcDbEntity
  8
0
  6
CONTINUOUS
 62
               2
100
AcDbLine
 10
-22.000000073333354
 20
-274.8000039677579
 30
0.0
 11
-22.000000073333354
 21
-279.80000398442462
 31
0.0
  0
LINE
  5
346
100
AcDbEntity
  8
0
  6
CONTINUOUS
 62
               2
100
AcDbLine
 10
-19.500000065000023
 20
-277.30000397609126
 30
0.0
 11
-24.500000081666713
 21
-277.30000397609126
 31
0.0
  0
LINE
  5
347
100
AcDbEntity
  8
0
  6
CONTINUOUS
 62
               2
100
AcDbLine
 10
-22.000000073333354
 20
-238.80000384775792
 30
0.0
 11
-22.000000073333354
 21
-243.80000386442453
 31
0.0
  0
LINE
  5
348
100
AcDbEntity
  8
0
  6
CONTINUOUS
 62
               2
100
AcDbLine
 10
-19.500000065000023
 20
-241.30000385609128
 30
0.0
 11
-24.500000081666713
 21
-241.30000385609128
 31
0.0
  0
LINE
  5
349
100
AcDbEntity
  8
0
  6
CONTINUOUS
 62
               2
100
AcDbLine
 10
22.000000073333297
 20
-238.80000384775792
 30
0.0
 11
22.000000073333297
 21
-243.80000386442453
 31
0.0
  0
LINE
  5
34A
100
AcDbEntity
  8
0
  6
CONTINUOUS
 62
               2
100
AcDbLine
 10
24.500000081666656
 20
-241.30000385609128
 30
0.0
 11
19.500000064999938
 21
-241.30000385609128
 31
0.0
  0
LINE
  5
34B
100
AcDbEntity
  8
0
  6
CONTINUOUS
 62
               7
100
AcDbLine
 10
22.000000073333297
 20
-280.30000398609127
 30
0.0
 11
-22.000000073333354
 21
-280.30000398609127
 31
0.0
  0
LINE
  5
34C
100
AcDbEntity
  8
0
  6
CONTINUOUS
 62
               7
100
AcDbLine
 10
22.000000073333297
 20
-238.30000384609127
 30
0.0
 11
-22.000000073333354
 21
-238.30000384609127
 31
0.0
  0
LINE
  5
34D
100
AcDbEntity
  8
0
  6
CONTINUOUS
 62
               7
100
AcDbLine
 10
-35.000000116666683
 20
-40.000000133333401
 30
0.0
 11
-35.000000116666683
 21
-300.00001625878917
 31
0.0
  0
LINE
  5
34E
100
AcDbEntity
  8
0
  6
CONTINUOUS
 62
               7
100
AcDbLine
 10
35.000000116666627
 20
-40.000000133333401
 30
0.0
 11
35.000000116666627
 21
-300.00001625878917
 31
0.0
  0
LINE
  5
34F
100
AcDbEntity
  8
0
  6
CONTINUOUS
 62
               7
100
AcDbLine
 10
96.00000031999997
 20
-40.000000133333401
 30
0.0
 11
105.00000034999994
 21
-40.000000133333401
 31
0.0
  0
LINE
  5
350
100
AcDbEntity
  8
0
  6
CONTINUOUS
 62
               7
100
AcDbLine
 10
105.00000034999994
 20
-39.000000130000103
 30
0.0
 11
105.00000034999994
 21
-302.80000406109116
 31
0.0
  0
LINE
  5
351
100
AcDbEntity
  8
0
  6
CONTINUOUS
 62
               2
100
AcDbLine
 10
0.0
 20
58.851870228800635
 30
0.0
 11
0.0
 21
-324.89953383881561
 31
0.0
  0
LINE
  5
352
100
AcDbEntity
  8
0
  6
CONTINUOUS
 62
               7
100
AcDbLine
 10
54.000000179999915
 20
-45.80000320442457
 30
0.0
 11
54.000000179999915
 21
0.1999969489088471
 31
0.0
  0
LINE
  5
353
100
AcDbEntity
  8
0
  6
CONTINUOUS
 62
               7
100
AcDbLine
 10
96.00000031999997
 20
-45.80000320442457
 30
0.0
 11
96.00000031999997
 21
0.1999969489088471
 31
0.0
  0
LINE
  5
354
100
AcDbEntity
  8
0
  6
CONTINUOUS
 62
               2
100
AcDbLine
 10
199.64956833089872
 20
-20.000000066666644
 30
0.0
 11
-121.83106780080686
 21
-20.000000066666644
 31
0.0
  0
LINE
  5
355
100
AcDbEntity
  8
0
  6
CONTINUOUS
 62
               7
100
AcDbLine
 10
-105.00000035000002
 20
-40.000000133333401
 30
0.0
 11
54.000000179999915
 21
-40.000000133333401
 31
0.0
  0
LINE
  5
356
100
AcDbEntity
  8
0
  6
CONTINUOUS
 62
               7
100
AcDbLine
 10
-105.00000035000002
 20
-300.00001625878917
 30
0.0
 11
105.00000034999994
 21
-300.00001625878917
 31
0.0
  0
LINE
  5
357
100
AcDbEntity
  8
0
  6
CONTINUOUS
 62
               7
100
AcDbLine
 10
-105.00000035000002
 20
0.0
 30
0.0
 11
-105.00000035000002
 21
-1.0000000033335255
 31
0.0
  0
LINE
  5
358
100
AcDbEntity
  8
0
  6
CONTINUOUS
 62
               7
100
AcDbLine
 10
-105.00000035000002
 20
0.0
 30
0.0
 11
54.000000179999915
 21
0.0
 31
0.0
  0
LINE
  5
359
100
AcDbEntity
  8
0
  6
CONTINUOUS
 62
               2
100
AcDbLine
 10
-60.117303419083157
 20
-259.30000391609121
 30
0.0
 11
39.16095292621975
 21
-259.30000391609121
 31
0.0
  0
LINE
  5
35A
100
AcDbEntity
  8
0
  6
CONTINUOUS
 62
               7
100
AcDbLine
 10
56.500000188333274
 20
-79.299972798512954
 30
0.0
 11
60.500000201666637
 21
-79.299972798512954
 31
0.0
  0
LINE
  5
35B
100
AcDbEntity
  8
0
  6
CONTINUOUS
 62
               7
100
AcDbLine
 10
89.500000298333305
 20
-79.299972798512954
 30
0.0
 11
93.500000311666611
 21
-79.299972798512954
 31
0.0
  0
ARC
  5
35C
100
AcDbEntity
  8
0
  6
CONTINUOUS
 62
               7
100
AcDbCircle
 10
93.500000311666611
 20
-78.799972796846305
 30
0.0
 40
0.5000000016666666
100
AcDbArc
 50
270.0
 51
0.0
  0
ARC
  5
35D
100
AcDbEntity
  8
0
  6
CONTINUOUS
 62
               7
100
AcDbCircle
 10
89.500000298333305
 20
-78.799972796846305
 30
0.0
 40
0.5000000016666666
100
AcDbArc
 50
180.0
 51
270.0
  0
ARC
  5
35E
100
AcDbEntity
  8
0
  6
CONTINUOUS
 62
               7
100
AcDbCircle
 10
60.500000201666637
 20
-78.799972796846305
 30
0.0
 40
0.5000000016666666
100
AcDbArc
 50
270.0
 51
0.0
  0
ARC
  5
35F
100
AcDbEntity
  8
0
  6
CONTINUOUS
 62
               7
100
AcDbCircle
 10
56.500000188333274
 20
-78.799972796846305
 30
0.0
 40
0.5000000016666666
100
AcDbArc
 50
180.0
 51
270.0
  0
LINE
  5
360
100
AcDbEntity
  8
0
  6
CONTINUOUS
 62
               7
100
AcDbLine
 10
19.500000064999938
 20
-40.000000133333401
 30
0.0
 11
19.500000064999938
 21
-238.30000384609127
 31
0.0
  0
LINE
  5
361
100
AcDbEntity
  8
0
  6
CONTINUOUS
 62
               2
100
AcDbLine
 10
75.000000249999914
 20
4.0817036485320841
 30
0.0
 11
75.000000249999914
 21
-83.166807616090409
 31
0.0
  0
LINE
  5
362
100
AcDbEntity
  8
0
  6
CONTINUOUS
 62
               2
100
AcDbLine
 10
-75.000000250000028
 20
3.8591309267592351
 30
0.0
 11
-75.000000250000028
 21
-43.548861165812809
 31
0.0
  0
LINE
  5
363
100
AcDbEntity
  8
0
  6
CONTINUOUS
 62
               7
100
AcDbLine
 10
-105.00000035000002
 20
-39.000000130000103
 30
0.0
 11
-105.00000035000002
 21
-302.89637857313119
 31
0.0
  0
LINE
  5
364
100
AcDbEntity
  8
0
  6
CONTINUOUS
 62
               7
100
AcDbLine
 10
-21.600000126666629
 20
51.500000144999831
 30
0.0
 11
19.0
 21
51.500000144999831
 31
0.0
  0
ENDBLK
  5
365
100
AcDbEntity
  8
0
100
AcDbBlockEnd
  0
BLOCK
  5
22
100
AcDbEntity
  8
0
  6
ByBlock
 62
               0
100
AcDbBlockBegin
  2
_OPEN30
 70
               2
 10
0.0
 20
0.0
 30
0.0
  3
_OPEN30
  1

  0
LINE
  5
23
100
AcDbEntity
  8
0
  6
ByBlock
 62
               0
100
AcDbLine
 10
-1.0
 20
0.267949
 30
0.0
 11
0.0
 21
0.0
 31
0.0
  0
LINE
  5
24
100
AcDbEntity
  8
0
  6
ByBlock
 62
               0
100
AcDbLine
 10
0.0
 20
0.0
 30
0.0
 11
-1.0
 21
-0.267949
 31
0.0
  0
LINE
  5
25
100
AcDbEntity
  8
0
  6
ByBlock
 62
               0
100
AcDbLine
 10
0.0
 20
0.0
 30
0.0
 11
-1.0
 21
0.0
 31
0.0
  0
ENDBLK
  5
26
100
AcDbEntity
  8
0
  6
ByBlock
 62
               0
100
AcDbBlockEnd
  0
BLOCK
  5
36A
100
AcDbEntity
  8
0
  6
ByBlock
 62
               0
100
AcDbBlockBegin
  2
*D4
 70
               1
 10
0.0
 20
0.0
 30
0.0
  3
*D4
  1

  0
LINE
  5
36B
100
AcDbEntity
  8
0
  6
CONTINUOUS
 62
               2
100
AcDbLine
 10
184.99999859953817
 20
480.54802941668049
 30
0.0
 11
335.00000024999991
 21
480.54802941668049
 31
0.0
  0
LINE
  5
36C
100
AcDbEntity
  8
0
  6
CONTINUOUS
 62
               2
100
AcDbLine
 10
184.99999859953817
 20
381.50002526628987
 30
0.0
 11
184.99999859953817
 21
482.04802941668049
 31
0.0
  0
LINE
  5
36D
100
AcDbEntity
  8
0
  6
CONTINUOUS
 62
               2
100
AcDbLine
 10
335.00000024999991
 20
381.5000100075008
 30
0.0
 11
335.00000024999991
 21
482.04802941668049
 31
0.0
  0
INSERT
  5
36E
100
AcDbEntity
  8
0
  6
CONTINUOUS
 62
               2
100
AcDbBlockReference
  2
_OPEN30
 10
184.99999859953817
 20
480.54802941668049
 30
0.0
 41
8.3100000000000005
 42
8.3100000000000005
 43
8.3100000000000005
 50
180.0
  0
INSERT
  5
36F
100
AcDbEntity
  8
0
  6
CONTINUOUS
 62
               2
100
AcDbBlockReference
  2
_OPEN30
 10
335.00000024999991
 20
480.54802941668049
 30
0.0
 41
8.3100000000000005
 42
8.3100000000000005
 43
8.3100000000000005
  0
MTEXT
  5
371
100
AcDbEntity
  8
0
  6
CONTINUOUS
 62
               2
100
AcDbMText
 10
261.10470441008505
 20
487.54802941668049
 30
0.0
 40
12.0
 41
0.0
 71
               5
 72
               1
  1
\A1;X-STROKE(150)
  7
MX_DIMTXSTY_2
  0
POINT
  5
372
100
AcDbEntity
  8
DEFPOINTS
  6
CONTINUOUS
 62
               0
100
AcDbPoint
 10
184.99999859953817
 20
380.00002526628987
 30
0.0
  0
POINT
  5
373
100
AcDbEntity
  8
DEFPOINTS
  6
CONTINUOUS
 62
               0
100
AcDbPoint
 10
335.00000024999991
 20
380.0000100075008
 30
0.0
  0
POINT
  5
374
100
AcDbEntity
  8
DEFPOINTS
  6
CONTINUOUS
 62
               0
100
AcDbPoint
 10
335.00000024999991
 20
480.54802941668049
 30
0.0
  0
ENDBLK
  5
375
100
AcDbEntity
  8
0
  6
ByBlock
 62
               0
100
AcDbBlockEnd
  0
BLOCK
  5
378
100
AcDbEntity
  8
0
  6
ByBlock
 62
               0
100
AcDbBlockBegin
  2
*D5
 70
               1
 10
0.0
 20
0.0
 30
0.0
  3
*D5
  1

  0
LINE
  5
379
100
AcDbEntity
  8
0
  6
CONTINUOUS
 62
               2
100
AcDbLine
 10
119.78820811654526
 20
120.70001234269807
 30
0.0
 11
119.78820811654526
 21
320.70001234269807
 31
0.0
  0
LINE
  5
37A
100
AcDbEntity
  8
0
  6
CONTINUOUS
 62
               2
100
AcDbLine
 10
258.50000010873276
 20
120.70001234269807
 30
0.0
 11
118.28820811654526
 21
120.70001234269807
 31
0.0
  0
LINE
  5
37B
100
AcDbEntity
  8
0
  6
CONTINUOUS
 62
               2
100
AcDbLine
 10
258.50000010873276
 20
320.70001234269807
 30
0.0
 11
118.28820811654526
 21
320.70001234269807
 31
0.0
  0
INSERT
  5
37C
100
AcDbEntity
  8
0
  6
CONTINUOUS
 62
               2
100
AcDbBlockReference
  2
_OPEN30
 10
119.78820811654526
 20
120.70001234269807
 30
0.0
 41
8.3100000000000005
 42
8.3100000000000005
 43
8.3100000000000005
 50
270.0
  0
INSERT
  5
37D
100
AcDbEntity
  8
0
  6
CONTINUOUS
 62
               2
100
AcDbBlockReference
  2
_OPEN30
 10
119.78820811654526
 20
320.70001234269807
 30
0.0
 41
8.3100000000000005
 42
8.3100000000000005
 43
8.3100000000000005
 50
90.0
  0
MTEXT
  5
37F
100
AcDbEntity
  8
0
  6
CONTINUOUS
 62
               2
100
AcDbMText
 10
112.78820811654526
 20
218.46789564347932
 30
0.0
 40
12.0
 41
0.0
 71
               5
 72
               1
  1
\A1;Y-STROKE(200）
  7
MX_DIMTXSTY_3
 11
0.0000000000000001
 21
1.0
 31
0.0
  0
POINT
  5
380
100
AcDbEntity
  8
DEFPOINTS
  6
CONTINUOUS
 62
               0
100
AcDbPoint
 10
260.00000010873276
 20
120.70001234269807
 30
0.0
  0
POINT
  5
381
100
AcDbEntity
  8
DEFPOINTS
  6
CONTINUOUS
 62
               0
100
AcDbPoint
 10
260.00000010873276
 20
320.70001234269807
 30
0.0
  0
POINT
  5
382
100
AcDbEntity
  8
DEFPOINTS
  6
CONTINUOUS
 62
               0
100
AcDbPoint
 10
119.78820811654526
 20
320.70001234269807
 30
0.0
  0
ENDBLK
  5
383
100
AcDbEntity
  8
0
  6
ByBlock
 62
               0
100
AcDbBlockEnd
  0
BLOCK
  5
386
100
AcDbEntity
  8
0
  6
ByBlock
 62
               0
100
AcDbBlockBegin
  2
*D6
 70
               1
 10
0.0
 20
0.0
 30
0.0
  3
*D6
  1

  0
LINE
  5
387
100
AcDbEntity
  8
0
  6
CONTINUOUS
 62
               2
100
AcDbLine
 10
103.99999948000016
 20
-214.29997204251265
 30
0.0
 11
103.99999948000016
 21
-164.29997187584593
 31
0.0
  0
LINE
  5
388
100
AcDbEntity
  8
0
  6
CONTINUOUS
 62
               2
100
AcDbLine
 10
103.99999948000016
 20
-164.29997187584593
 30
0.0
 11
103.99999948000016
 21
-10.624053463411087
 31
0.0
  0
LINE
  5
389
100
AcDbEntity
  8
0
  6
CONTINUOUS
 62
               2
100
AcDbLine
 10
183.49999948000016
 20
-214.29997204251265
 30
0.0
 11
102.49999948000016
 21
-214.29997204251265
 31
0.0
  0
LINE
  5
38A
100
AcDbEntity
  8
0
  6
CONTINUOUS
 62
               2
100
AcDbLine
 10
183.49999948000016
 20
-164.29997187584593
 30
0.0
 11
102.49999948000016
 21
-164.29997187584593
 31
0.0
  0
INSERT
  5
38B
100
AcDbEntity
  8
0
  6
CONTINUOUS
 62
               2
100
AcDbBlockReference
  2
_OPEN30
 10
103.99999948000016
 20
-214.29997204251265
 30
0.0
 41
8.3100000000000005
 42
8.3100000000000005
 43
8.3100000000000005
 50
270.0
  0
INSERT
  5
38C
100
AcDbEntity
  8
0
  6
CONTINUOUS
 62
               2
100
AcDbBlockReference
  2
_OPEN30
 10
103.99999948000016
 20
-164.29997187584593
 30
0.0
 41
8.3100000000000005
 42
8.3100000000000005
 43
8.3100000000000005
 50
90.0
  0
MTEXT
  5
38D
100
AcDbEntity
  8
0
  6
CONTINUOUS
 62
               2
100
AcDbMText
 10
96.999999480000156
 20
-82.624053463411087
 30
0.0
 40
12.0
 41
0.0
 71
               5
 72
               1
  1
\A1;Z-STROKE(50)
  7
MX_DIMTXSTY_3
 11
0.0000000000000001
 21
1.0
 31
0.0
  0
POINT
  5
38E
100
AcDbEntity
  8
DEFPOINTS
  6
CONTINUOUS
 62
               0
100
AcDbPoint
 10
184.99999948000016
 20
-214.29997204251265
 30
0.0
  0
POINT
  5
38F
100
AcDbEntity
  8
DEFPOINTS
  6
CONTINUOUS
 62
               0
100
AcDbPoint
 10
184.99999948000016
 20
-164.29997187584593
 30
0.0
  0
POINT
  5
390
100
AcDbEntity
  8
DEFPOINTS
  6
CONTINUOUS
 62
               0
100
AcDbPoint
 10
103.99999948000016
 20
-164.29997187584593
 30
0.0
  0
ENDBLK
  5
391
100
AcDbEntity
  8
0
  6
ByBlock
 62
               0
100
AcDbBlockEnd
  0
ENDSEC
  0
SECTION
  2
ENTITIES
  0
INSERT
  5
366
100
AcDbEntity
  8
0
  6
ByBlock
100
AcDbBlockReference
  2
DTHB-AS3-3
 10
260.0
 20
380.00001625878917
 30
0.0
  0
INSERT
  5
367
100
AcDbEntity
  8
0
  6
ByBlock
100
AcDbBlockReference
  2
DTHB-AS3-2
 10
-390.0
 20
-440.0
 30
0.0
  0
INSERT
  5
368
100
AcDbEntity
  8
0
  6
ByBlock
100
AcDbBlockReference
  2
DTHB-AS3-1
 10
260.0
 20
-440.0
 30
0.0
  0
DIMENSION
  5
376
100
AcDbEntity
  8
0
  6
CONTINUOUS
 62
               2
100
AcDbDimension
  2
*D4
 10
335.00000024999991
 20
480.54802941668049
 30
0.0
 11
261.10470441008505
 21
480.54802941668049
 31
0.0
 70
             128
  1
X-STROKE(150)
  3
MXDIMSTYLE
100
AcDbAlignedDimension
 13
184.99999859953817
 23
380.00002526628987
 33
0.0
 14
335.00000024999991
 24
380.0000100075008
 34
0.0
100
AcDbRotatedDimension
1001
ACAD
1000
DSTYLE
1002
{
1070
              41
1040
8.3100000000000005
1070
             140
1040
12.0
1070
             340
1005
370
1002
}
  0
DIMENSION
  5
384
100
AcDbEntity
  8
0
  6
CONTINUOUS
 62
               2
100
AcDbDimension
  2
*D5
 10
119.78820811654526
 20
320.70001234269807
 30
0.0
 11
119.78820811654526
 21
218.46789564347932
 31
0.0
 70
             128
  1
Y-STROKE(200）
  3
MXDIMSTYLE
100
AcDbAlignedDimension
 13
260.00000010873276
 23
120.70001234269807
 33
0.0
 14
260.00000010873276
 24
320.70001234269807
 34
0.0
 50
90.0
100
AcDbRotatedDimension
1001
ACAD
1000
DSTYLE
1002
{
1070
              41
1040
8.3100000000000005
1070
             140
1040
12.0
1070
             340
1005
37E
1002
}
  0
DIMENSION
  5
392
100
AcDbEntity
  8
0
  6
CONTINUOUS
 62
               2
100
AcDbDimension
  2
*D6
 10
103.99999948000016
 20
-164.29997187584593
 30
0.0
 11
103.99999948000016
 21
-82.624053463411087
 31
0.0
 70
             128
  1
Z-STROKE(50)
  3
MXDIMSTYLE
100
AcDbAlignedDimension
 13
184.99999948000016
 23
-214.29997204251265
 33
0.0
 14
184.99999948000016
 24
-164.29997187584593
 34
0.0
 50
90.0
100
AcDbRotatedDimension
1001
ACAD
1000
DSTYLE
1002
{
1070
              41
1040
8.3100000000000005
1070
             140
1040
12.0
1070
             340
1005
37E
1002
}
  0
MTEXT
  5
393
100
AcDbEntity
  8
0
  6
CONTINUOUS
 62
               7
100
AcDbMText
 10
-678.5
 20
459.5
 30
0.0
 40
18.0
 41
0.0
 71
               4
 72
               1
  1
\A1;DTHB-ASL3
  0
MTEXT
  5
394
100
AcDbEntity
  8
0
  6
CONTINUOUS
 62
               7
100
AcDbMText
 10
-741.38679245283015
 20
562.0
 30
0.0
 40
18.0
 41
0.0
 71
               4
 72
               1
  1
\W1.038;\A1;CELL MASTER
  0
LINE
  5
395
100
AcDbEntity
  8
0
  6
CONTINUOUS
 62
               7
100
AcDbLine
 10
-820.5
 20
-574.5
 30
0.0
 11
820.5
 21
-574.5
 31
0.0
  0
LINE
  5
396
100
AcDbEntity
  8
0
  6
CONTINUOUS
 62
               7
100
AcDbLine
 10
-820.5
 20
574.5
 30
0.0
 11
-820.5
 21
-574.5
 31
0.0
  0
LINE
  5
397
100
AcDbEntity
  8
0
  6
CONTINUOUS
 62
               7
100
AcDbLine
 10
820.5
 20
574.5
 30
0.0
 11
820.5
 21
-574.5
 31
0.0
  0
LINE
  5
398
100
AcDbEntity
  8
0
  6
CONTINUOUS
 62
               7
100
AcDbLine
 10
-820.5
 20
574.5
 30
0.0
 11
820.5
 21
574.5
 31
0.0
  0
LINE
  5
399
100
AcDbEntity
  8
0
  6
CONTINUOUS
 62
               7
100
AcDbLine
 10
-820.5
 20
524.5
 30
0.0
 11
-470.5
 21
524.5
 31
0.0
  0
LINE
  5
39A
100
AcDbEntity
  8
0
  6
CONTINUOUS
 62
               7
100
AcDbLine
 10
470.5
 20
-524.5
 30
0.0
 11
820.5
 21
-524.5
 31
0.0
  0
LINE
  5
39B
100
AcDbEntity
  8
0
  6
CONTINUOUS
 62
               7
100
AcDbLine
 10
470.5
 20
574.5
 30
0.0
 11
470.5
 21
524.5
 31
0.0
  0
LINE
  5
39C
100
AcDbEntity
  8
0
  6
CONTINUOUS
 62
               7
100
AcDbLine
 10
-470.5
 20
574.5
 30
0.0
 11
-470.5
 21
524.5
 31
0.0
  0
LINE
  5
39D
100
AcDbEntity
  8
0
  6
CONTINUOUS
 62
               7
100
AcDbLine
 10
470.5
 20
-524.5
 30
0.0
 11
470.5
 21
-574.5
 31
0.0
  0
LINE
  5
39E
100
AcDbEntity
  8
0
  6
CONTINUOUS
 62
               7
100
AcDbLine
 10
470.5
 20
524.5
 30
0.0
 11
820.5
 21
524.5
 31
0.0
  0
MTEXT
  5
39F
100
AcDbEntity
  8
0
  6
CONTINUOUS
 62
               7
100
AcDbMText
 10
-786.35000000234697
 20
484.5
 30
0.0
 40
18.0
 41
0.0
 71
               4
 72
               1
  1
\W1.050;\A1;MODEL:DTHB-AS3
  0
MTEXT
  5
3A0
100
AcDbEntity
  8
0
  6
CONTINUOUS
 62
               7
100
AcDbMText
 10
487.66954021788825
 20
-549.5
 30
0.0
 40
25.0
 41
0.0
 71
               4
 72
               1
  1
\W1.121;\A1;KOGANEI CORP.
  0
MTEXT
  5
3A1
100
AcDbEntity
  8
0
  6
CONTINUOUS
 62
               7
100
AcDbMText
 10
577.43442619106395
 20
549.5
 30
0.0
 40
18.0
 41
0.0
 71
               4
 72
               1
  1
\W1.311;\A1;Ver. 1.0
  0
MTEXT
  5
3A2
100
AcDbEntity
  8
0
  6
CONTINUOUS
 62
               7
100
AcDbMText
 10
-714.5
 20
537.0
 30
0.0
 40
18.0
 41
0.0
 71
               4
 72
               1
  1
\A1;DTHB-AS3
  0
ENDSEC
  0
SECTION
  2
OBJECTS
  0
DICTIONARY
  5
19
100
AcDbDictionary
  3
ACAD_GROUP
350
1A
  3
ACAD_MLINESTYLE
350
1B
  0
DICTIONARY
  5
1A
102
{ACAD_REACTORS
330
19
102
}
100
AcDbDictionary
  0
DICTIONARY
  5
1B
102
{ACAD_REACTORS
330
19
102
}
100
AcDbDictionary
  3
STANDARD
350
1C
  0
MLINESTYLE
  5
1C
102
{ACAD_REACTORS
330
1B
102
}
100
AcDbMlineStyle
  2
Standard
 70
               0
  3

 62
               0
 51
90.0
 52
90.0
 71
               2
 49
0.5
 62
             256
  6
ByLayer
 49
-0.5
 62
             256
  6
ByLayer
  0
ENDSEC
  0
EOF
