  0
SECTION
  2
HEADER
  9
$ACADVER
  1
AC1012
  9
$DWGCODEPAGE
  3
dos932
  9
$INSBASE
 10
0.0
 20
0.0
 30
0.0
  9
$EXTMIN
 10
-820.5
 20
-574.5
 30
0.0
  9
$EXTMAX
 10
820.5
 20
575.5
 30
0.0
  9
$LIMMIN
 10
-840.50000000000011
 20
-594.5
  9
$LIMMAX
 10
840.50000000000011
 20
594.5
  9
$ORTHOMODE
 70
               0
  9
$REGENMODE
 70
               1
  9
$FILLMODE
 70
               1
  9
$QTEXTMODE
 70
               0
  9
$MIRRTEXT
 70
               1
  9
$DRAGMODE
 70
               2
  9
$LTSCALE
 40
1.0
  9
$OSMODE
 70
               0
  9
$ATTMODE
 70
               1
  9
$TEXTSIZE
 40
3.2000000476837158
  9
$TRACEWID
 40
0.05
  9
$TEXTSTYLE
  7
MX_NOTE_STANDARD
  9
$CLAYER
  8
0
  9
$CELTYPE
  6
CONTINUOUS
  9
$CECOLOR
 62
             256
  9
$CELTSCALE
 40
1.0
  9
$DELOBJ
 70
               1
  9
$DISPSILH
 70
               0
  9
$DIMSCALE
 40
1.0
  9
$DIMASZ
 40
2.5
  9
$DIMEXO
 40
1.5
  9
$DIMDLI
 40
3.75
  9
$DIMRND
 40
0.0
  9
$DIMDLE
 40
0.0
  9
$DIMEXE
 40
1.5
  9
$DIMTP
 40
0.0
  9
$DIMTM
 40
0.0
  9
$DIMTXT
 40
3.2000000476837158
  9
$DIMCEN
 40
2.5
  9
$DIMTSZ
 40
0.0
  9
$DIMTOL
 70
               0
  9
$DIMLIM
 70
               0
  9
$DIMTIH
 70
               0
  9
$DIMTOH
 70
               0
  9
$DIMSE1
 70
               0
  9
$DIMSE2
 70
               0
  9
$DIMTAD
 70
               1
  9
$DIMZIN
 70
               8
  9
$DIMBLK
  1

  9
$DIMASO
 70
               1
  9
$DIMSHO
 70
               1
  9
$DIMPOST
  1

  9
$DIMAPOST
  1

  9
$DIMALT
 70
               0
  9
$DIMALTD
 70
               4
  9
$DIMALTF
 40
0.03937007874016
  9
$DIMLFAC
 40
1.0
  9
$DIMTOFL
 70
               1
  9
$DIMTVP
 40
0.0
  9
$DIMTIX
 70
               0
  9
$DIMSOXD
 70
               0
  9
$DIMSAH
 70
               1
  9
$DIMBLK1
  1
_OPEN30
  9
$DIMBLK2
  1
_OPEN30
  9
$DIMSTYLE
  2
MXDIMSTYLE
  9
$DIMCLRD
 70
               0
  9
$DIMCLRE
 70
               0
  9
$DIMCLRT
 70
               0
  9
$DIMTFAC
 40
1.0
  9
$DIMGAP
 40
1.0
  9
$DIMJUST
 70
               0
  9
$DIMSD1
 70
               0
  9
$DIMSD2
 70
               0
  9
$DIMTOLJ
 70
               0
  9
$DIMTZIN
 70
               0
  9
$DIMALTZ
 70
               0
  9
$DIMALTTZ
 70
               0
  9
$DIMFIT
 70
               3
  9
$DIMUPT
 70
               1
  9
$DIMUNIT
 70
               2
  9
$DIMDEC
 70
               2
  9
$DIMTDEC
 70
               2
  9
$DIMALTU
 70
               2
  9
$DIMALTTD
 70
               4
  9
$DIMTXSTY
  7
MX_NOTE_STANDARD
  9
$DIMAUNIT
 70
               0
  9
$LUNITS
 70
               2
  9
$LUPREC
 70
               4
  9
$SKETCHINC
 40
0.1
  9
$FILLETRAD
 40
0.0
  9
$AUNITS
 70
               0
  9
$AUPREC
 70
               0
  9
$MENU
  1
acad
  9
$ELEVATION
 40
0.0
  9
$PELEVATION
 40
0.0
  9
$THICKNESS
 40
0.0
  9
$LIMCHECK
 70
               0
  9
$BLIPMODE
 70
               1
  9
$CHAMFERA
 40
0.0
  9
$CHAMFERB
 40
0.0
  9
$CHAMFERC
 40
0.0
  9
$CHAMFERD
 40
0.0
  9
$SKPOLY
 70
               0
  9
$TDCREATE
 40
2453916.737164352
  9
$TDUPDATE
 40
2453916.737164352
  9
$TDINDWG
 40
0.0000000000
  9
$TDUSRTIMER
 40
0.0000000000
  9
$USRTIMER
 70
               1
  9
$ANGBASE
 50
0.0
  9
$ANGDIR
 70
               0
  9
$PDMODE
 70
               0
  9
$PDSIZE
 40
0.0
  9
$PLINEWID
 40
0.0
  9
$COORDS
 70
               1
  9
$SPLFRAME
 70
               0
  9
$SPLINETYPE
 70
               6
  9
$SPLINESEGS
 70
               8
  9
$ATTDIA
 70
               0
  9
$ATTREQ
 70
               1
  9
$HANDLING
 70
               1
  9
$HANDSEED
  5
3A7
  9
$SURFTAB1
 70
               6
  9
$SURFTAB2
 70
               6
  9
$SURFTYPE
 70
               6
  9
$SURFU
 70
               6
  9
$SURFV
 70
               6
  9
$UCSNAME
  2

  9
$UCSORG
 10
0.0
 20
0.0
 30
0.0
  9
$UCSXDIR
 10
1.0
 20
0.0
 30
0.0
  9
$UCSYDIR
 10
0.0
 20
1.0
 30
0.0
  9
$PUCSNAME
  2

  9
$PUCSORG
 10
0.0
 20
0.0
 30
0.0
  9
$PUCSXDIR
 10
1.0
 20
0.0
 30
0.0
  9
$PUCSYDIR
 10
0.0
 20
1.0
 30
0.0
  9
$USERI1
 70
               0
  9
$USERI2
 70
               0
  9
$USERI3
 70
               0
  9
$USERI4
 70
               0
  9
$USERI5
 70
               0
  9
$USERR1
 40
0.0
  9
$USERR2
 40
0.0
  9
$USERR3
 40
0.0
  9
$USERR4
 40
0.0
  9
$USERR5
 40
0.0
  9
$WORLDVIEW
 70
               1
  9
$SHADEDGE
 70
               3
  9
$SHADEDIF
 70
              70
  9
$TILEMODE
 70
               1
  9
$MAXACTVP
 70
              16
  9
$PINSBASE
 10
0.0
 20
0.0
 30
0.0
  9
$PLIMCHECK
 70
               0
  9
$PEXTMIN
 10
1.0000000000000000E+20
 20
1.0000000000000000E+20
 30
1.0000000000000000E+20
  9
$PEXTMAX
 10
-1.0000000000000000E+20
 20
-1.0000000000000000E+20
 30
-1.0000000000000000E+20
  9
$PLIMMIN
 10
0.0
 20
0.0
  9
$PLIMMAX
 10
12.0
 20
9.0
  9
$UNITMODE
 70
               0
  9
$VISRETAIN
 70
               0
  9
$PLINEGEN
 70
               1
  9
$PSLTSCALE
 70
               0
  9
$TREEDEPTH
 70
            3020
  9
$PICKSTYLE
 70
               1
  9
$CMLSTYLE
  2
Standard
  9
$CMLJUST
 70
               0
  9
$CMLSCALE
 40
1.0
  9
$SAVEIMAGES
 70
               0
  0
ENDSEC
  0
SECTION
  2
CLASSES
  0
CLASS
  1
LWPOLYLINE
  2
AcDbPolyline
  3
"AutoCAD"
 90
    32768
280
               0
281
               1
  0
CLASS
  1
IMAGE
  2
AcDbRasterImage
  3
ISM
 90
    32895
280
               0
281
               1
  0
CLASS
  1
OLE2FRAME
  2
AcDbOle2Frame
  3
""
 90
    32768
280
               0
281
               1
  0
CLASS
  1
HATCH
  2
AcDbHatch
  3
"ACAD_SEDONA"
 90
    32768
280
               0
281
               1
  0
CLASS
  1
DICTIONARYVAR
  2
AcDbDictionaryVar
  3
"AutoCAD"
 90
    32768
280
               0
281
               0
  0
CLASS
  1
RASTERVARIABLES
  2
AcDbRasterVariables
  3
ISM
 90
    32768
280
               0
281
               0
  0
CLASS
  1
IMAGEDEF
  2
AcDbRasterImageDef
  3
ISM
 90
    32768
280
               0
281
               0
  0
CLASS
  1
IMAGEDEF_REACTOR
  2
AcDbRasterImageDefReactor
  3
ISM
 90
    32769
280
               0
281
               0
  0
CLASS
  1
IDBUFFER
  2
AcDbIdBuffer
  3
"Acad"
 90
    32768
280
               0
281
               0
  0
CLASS
  1
SPATIAL_FILTER
  2
AcDbSpatialFilter
  3
"Acad"
 90
    32768
280
               0
281
               0
  0
CLASS
  1
XRECORD
  2
AcDbXrecord
  3
"<Built In>"
 90
    32768
280
               0
281
               0
  0
CLASS
  1
SORTENTSTABLE
  2
AcDbSortentsTable
  3
"AutoCAD"
 90
    32768
280
               0
281
               0
  0
CLASS
  1
LAYER_INDEX
  2
AcDbLayerIndex
  3
"Acad"
 90
    32768
280
               0
281
               0
  0
CLASS
  1
SPATIAL_INDEX
  2
AcDbSpatialIndex
  3
"Acad"
 90
    32768
280
               0
281
               0
  0
CLASS
  1
OBJECT_PTR
  2
CAseDLPNTableRecord
  3
"ASE-LPNTableRecord"
 90
    32769
280
               0
281
               0
  0
CLASS
  1
LAYOUT
  2
AcDbLayout
  3
"AutoCAD 2000"
 90
    32768
280
               0
281
               0
  0
CLASS
  1
PLOTSETTINGS
  2
AcDbPlotSettings
  3
"AutoCAD 2000"
 90
    32768
280
               0
281
               0
  0
CLASS
  1
ACDBDICTIONARYWDFLT
  2
AcDbDictionaryWithDefault
  3
"AutoCAD 2000"
 90
    32768
280
               0
281
               0
  0
CLASS
  1
ACDBPLACEHOLDER
  2
AcDbPlaceHolder
  3
"AutoCAD 2000"
 90
    32768
280
               0
281
               0
  0
ENDSEC
  0
SECTION
  2
TABLES
  0
TABLE
  2
VPORT
  5
7
100
AcDbSymbolTable
 70
               1
  0
VPORT
  5
15
100
AcDbSymbolTableRecord
100
AcDbViewportTableRecord
  2
*ACTIVE
 70
               0
 10
0.0
 20
0.0
 11
1.0
 21
1.0
 12
0.0
 22
0.0
 13
0.0
 23
0.0
 14
1.0
 24
1.0
 15
0.0
 25
0.0
 16
0.0
 26
0.0
 36
1.0
 17
0.0
 27
0.0
 37
0.0
 40
1200.8900000000001
 41
1.7320508075688772
 42
50.0
 43
0.0
 44
0.0
 50
0.0
 51
0.0
 71
               0
 72
             100
 73
               1
 74
               1
 75
               0
 76
               0
 77
               0
 78
               0
  0
ENDTAB
  0
TABLE
  2
LTYPE
  5
4
100
AcDbSymbolTable
 70
               5
  0
LTYPE
  5
11
100
AcDbSymbolTableRecord
100
AcDbLinetypeTableRecord
  2
BYBLOCK
 70
              64
  3

 72
              65
 73
               0
 40
0.0
  0
LTYPE
  5
12
100
AcDbSymbolTableRecord
100
AcDbLinetypeTableRecord
  2
BYLAYER
 70
              64
  3

 72
              65
 73
               0
 40
0.0
  0
LTYPE
  5
13
100
AcDbSymbolTableRecord
100
AcDbLinetypeTableRecord
  2
CONTINUOUS
 70
              64
  3
Solid line
 72
              65
 73
               0
 40
0.0
  0
LTYPE
  5
B2
100
AcDbSymbolTableRecord
100
AcDbLinetypeTableRecord
  2
PHANTOM
 70
              64
  3
Phantom ______  __  __  ______  __  __  ______
 72
              65
 73
               6
 40
63.500000000000007
 49
31.75
 74
               0
 49
-6.3499999999999996
 74
               0
 49
6.3499999999999996
 74
               0
 49
-6.3499999999999996
 74
               0
 49
6.3499999999999996
 74
               0
 49
-6.3499999999999996
 74
               0
  0
LTYPE
  5
1BA
100
AcDbSymbolTableRecord
100
AcDbLinetypeTableRecord
  2
CENTER
 70
              64
  3
Center ____ _ ____ _ ____ _ ____ _ ____ _ ____
 72
              65
 73
               4
 40
50.800000000000004
 49
31.75
 74
               0
 49
-6.3499999999999996
 74
               0
 49
6.3499999999999996
 74
               0
 49
-6.3499999999999996
 74
               0
  0
ENDTAB
  0
TABLE
  2
LAYER
  5
2
100
AcDbSymbolTable
 70
               2
  0
LAYER
  5
14
100
AcDbSymbolTableRecord
100
AcDbLayerTableRecord
  2
0
 70
               0
 62
               7
  6
CONTINUOUS
  0
LAYER
  5
1D
100
AcDbSymbolTableRecord
100
AcDbLayerTableRecord
  2
DEFPOINTS
 70
               0
 62
               7
  6
CONTINUOUS
  0
ENDTAB
  0
TABLE
  2
STYLE
  5
3
100
AcDbSymbolTable
 70
               2
  0
STYLE
  5
17
100
AcDbSymbolTableRecord
100
AcDbTextStyleTableRecord
  2
MX_NOTE_STANDARD
 70
               0
 40
0.0
 41
1.0
 50
0.0
 71
               0
 42
3.2000000476837158
  3
txt.shx
  4
extfont.shx
  0
STYLE
  5
373
100
AcDbSymbolTableRecord
100
AcDbTextStyleTableRecord
  2
MX_DIMTXSTY_2
 70
               0
 40
0.0
 41
1.05
 50
0.0
 71
               0
 42
3.2000000476837158
  3
txt.shx
  4
extfont.shx
  0
ENDTAB
  0
TABLE
  2
VIEW
  5
5
100
AcDbSymbolTable
 70
               0
  0
ENDTAB
  0
TABLE
  2
UCS
  5
6
100
AcDbSymbolTable
 70
               0
  0
ENDTAB
  0
TABLE
  2
APPID
  5
8
100
AcDbSymbolTable
 70
               1
  0
APPID
  5
16
100
AcDbSymbolTableRecord
100
AcDbRegAppTableRecord
  2
ACAD
 70
               0
  0
ENDTAB
  0
TABLE
  2
DIMSTYLE
  5
9
100
AcDbSymbolTable
 70
               1
  0
DIMSTYLE
105
18
100
AcDbSymbolTableRecord
100
AcDbDimStyleTableRecord
  2
MXDIMSTYLE
 70
               0
  3

  4

  5

  6
_OPEN30
  7
_OPEN30
 40
1.0
 41
2.5
 42
1.5
 43
3.75
 44
1.5
 45
0.0
 46
0.0
 47
0.0
 48
0.0
 71
               0
 72
               0
 73
               0
 74
               0
 75
               0
 76
               0
 77
               1
 78
               8
140
3.2000000476837158
141
2.5
142
0.0
143
0.03937007874016
144
1.0
145
0.0
146
1.0
147
1.0
170
               0
171
               4
172
               1
173
               1
174
               0
175
               0
176
               0
177
               0
178
               0
270
               2
271
               2
272
               2
273
               2
274
               4
275
               0
280
               0
281
               0
282
               0
283
               0
284
               0
285
               0
286
               0
287
               3
288
               1
340
17
  0
ENDTAB
  0
TABLE
  2
BLOCK_RECORD
  5
1
100
AcDbSymbolTable
 70
               7
  0
BLOCK_RECORD
  5
A
100
AcDbSymbolTableRecord
100
AcDbBlockTableRecord
  2
*MODEL_SPACE
  0
BLOCK_RECORD
  5
B
100
AcDbSymbolTableRecord
100
AcDbBlockTableRecord
  2
*PAPER_SPACE
  0
BLOCK_RECORD
  5
1E
100
AcDbSymbolTableRecord
100
AcDbBlockTableRecord
  2
DTHB-AL3-1
  0
BLOCK_RECORD
  5
1F
100
AcDbSymbolTableRecord
100
AcDbBlockTableRecord
  2
DTHB-AL3-2
  0
BLOCK_RECORD
  5
20
100
AcDbSymbolTableRecord
100
AcDbBlockTableRecord
  2
DTHB-AL3-3
  0
BLOCK_RECORD
  5
21
100
AcDbSymbolTableRecord
100
AcDbBlockTableRecord
  2
_OPEN30
  0
BLOCK_RECORD
  5
36C
100
AcDbSymbolTableRecord
100
AcDbBlockTableRecord
  2
*D4
  0
BLOCK_RECORD
  5
37B
100
AcDbSymbolTableRecord
100
AcDbBlockTableRecord
  2
*D5
  0
BLOCK_RECORD
  5
389
100
AcDbSymbolTableRecord
100
AcDbBlockTableRecord
  2
*D6
  0
ENDTAB
  0
ENDSEC
  0
SECTION
  2
BLOCKS
  0
BLOCK
  5
D
100
AcDbEntity
  8
0
100
AcDbBlockBegin
  2
*MODEL_SPACE
 70
               0
 10
0.0
 20
0.0
 30
0.0
  3
*MODEL_SPACE
  1

  0
ENDBLK
  5
E
100
AcDbEntity
  8
0
100
AcDbBlockEnd
  0
BLOCK
  5
F
100
AcDbEntity
 67
               1
  8
0
100
AcDbBlockBegin
  2
*PAPER_SPACE
 70
               0
 10
0.0
 20
0.0
 30
0.0
  3
*PAPER_SPACE
  1

  0
ENDBLK
  5
10
100
AcDbEntity
 67
               1
  8
0
100
AcDbBlockEnd
  0
BLOCK
  5
27
100
AcDbEntity
  8
0
100
AcDbBlockBegin
  2
DTHB-AL3-1
 70
               0
 10
0.0
 20
0.0
 30
0.0
  3
DTHB-AL3-1
  1

  0
LINE
  5
28
100
AcDbEntity
  8
0
  6
CONTINUOUS
 62
               7
100
AcDbLine
 10
36.399999936666688
 20
390.20004272460949
 30
0.0
 11
36.399999936666688
 21
377.20004272460949
 31
0.0
  0
LINE
  5
29
100
AcDbEntity
  8
0
  6
CONTINUOUS
 62
               7
100
AcDbLine
 10
37.399999936666688
 20
375.70004272460949
 30
0.0
 11
37.399999936666688
 21
391.70004272460955
 31
0.0
  0
ARC
  5
2A
100
AcDbEntity
  8
0
  6
CONTINUOUS
 62
               7
100
AcDbCircle
 10
37.399999936666688
 20
390.20004272460949
 30
0.0
 40
1.0
100
AcDbArc
 50
90.0
 51
180.0
  0
ARC
  5
2B
100
AcDbEntity
  8
0
  6
CONTINUOUS
 62
               7
100
AcDbCircle
 10
37.399999936666688
 20
377.20004272460949
 30
0.0
 40
1.0
100
AcDbArc
 50
180.0
 51
270.0
  0
ARC
  5
2C
100
AcDbEntity
  8
0
  6
CONTINUOUS
 62
               7
100
AcDbCircle
 10
40.899999936666688
 20
375.70004272460949
 30
0.0
 40
3.5000000000000004
100
AcDbArc
 50
180.0
 51
270.0
  0
LINE
  5
2D
100
AcDbEntity
  8
0
  6
CONTINUOUS
 62
               7
100
AcDbLine
 10
40.899999936666688
 20
395.70004272460949
 30
0.0
 11
40.899999936666688
 21
317.69998168945278
 31
0.0
  0
LINE
  5
2E
100
AcDbEntity
  8
0
  6
CONTINUOUS
 62
               2
100
AcDbLine
 10
42.649807552609786
 20
383.70004272460955
 30
0.0
 11
33.763089769143619
 21
383.70004272460955
 31
0.0
  0
ARC
  5
2F
100
AcDbEntity
  8
0
  6
CONTINUOUS
 62
               7
100
AcDbCircle
 10
40.899999936666688
 20
391.70004272460955
 30
0.0
 40
3.5000000000000004
100
AcDbArc
 50
90.0
 51
180.0
  0
CIRCLE
  5
30
100
AcDbEntity
  8
0
  6
CONTINUOUS
 62
               7
100
AcDbCircle
 10
177.5
 20
214.1999816894533
 30
0.0
 40
1.7500000000000002
  0
LINE
  5
31
100
AcDbEntity
  8
0
  6
CONTINUOUS
 62
               7
100
AcDbLine
 10
-102.00000000000006
 20
198.1999816894533
 30
0.0
 11
-105.00000000000006
 21
195.19998168945332
 31
0.0
  0
LINE
  5
32
100
AcDbEntity
  8
0
  6
CONTINUOUS
 62
               7
100
AcDbLine
 10
101.99999999999994
 20
198.1999816894533
 30
0.0
 11
105.0
 21
195.19998168945324
 31
0.0
  0
LINE
  5
33
100
AcDbEntity
  8
0
  6
CONTINUOUS
 62
               7
100
AcDbLine
 10
-60.47850418090826
 20
16.250001525878872
 30
0.0
 11
-62.97850418090826
 21
16.250001525878872
 31
0.0
  0
LINE
  5
34
100
AcDbEntity
  8
0
  6
CONTINUOUS
 62
               7
100
AcDbLine
 10
-62.97850418090826
 20
16.250001525878872
 30
0.0
 11
-62.97850418090826
 21
13.350001525878895
 31
0.0
  0
LINE
  5
35
100
AcDbEntity
  8
0
  6
CONTINUOUS
 62
               7
100
AcDbLine
 10
-62.97850418090826
 20
13.350001525878895
 30
0.0
 11
-82.978506088256864
 21
13.350001525878895
 31
0.0
  0
LINE
  5
36
100
AcDbEntity
  8
0
  6
CONTINUOUS
 62
               7
100
AcDbLine
 10
-82.978506088256864
 20
16.250001525878872
 30
0.0
 11
-82.978506088256864
 21
13.350001525878895
 31
0.0
  0
LINE
  5
37
100
AcDbEntity
  8
0
  6
CONTINUOUS
 62
               7
100
AcDbLine
 10
-85.478506088256864
 20
16.250001525878872
 30
0.0
 11
-82.978506088256864
 21
16.250001525878872
 31
0.0
  0
LINE
  5
38
100
AcDbEntity
  8
0
  6
CONTINUOUS
 62
               7
100
AcDbLine
 10
-85.478506088256864
 20
23.250001525878929
 30
0.0
 11
-82.978506088256864
 21
23.250001525878929
 31
0.0
  0
ARC
  5
39
100
AcDbEntity
  8
0
  6
CONTINUOUS
 62
               7
100
AcDbCircle
 10
-85.478506088256864
 20
19.750001525878929
 30
0.0
 40
3.5000000000000004
100
AcDbArc
 50
90.0
 51
270.0
  0
LINE
  5
3A
100
AcDbEntity
  8
0
  6
CONTINUOUS
 62
               7
100
AcDbLine
 10
-82.978506088256864
 20
25.750001525878929
 30
0.0
 11
-82.978506088256864
 21
23.250001525878929
 31
0.0
  0
LINE
  5
3B
100
AcDbEntity
  8
0
  6
CONTINUOUS
 62
               7
100
AcDbLine
 10
-62.97850418090826
 20
25.750001525878929
 30
0.0
 11
-82.978506088256864
 21
25.750001525878929
 31
0.0
  0
LINE
  5
3C
100
AcDbEntity
  8
0
  6
CONTINUOUS
 62
               7
100
AcDbLine
 10
-62.97850418090826
 20
25.750001525878929
 30
0.0
 11
-62.97850418090826
 21
23.250001525878929
 31
0.0
  0
LINE
  5
3D
100
AcDbEntity
  8
0
  6
CONTINUOUS
 62
               7
100
AcDbLine
 10
-60.47850418090826
 20
23.250001525878929
 30
0.0
 11
-62.97850418090826
 21
23.250001525878929
 31
0.0
  0
ARC
  5
3E
100
AcDbEntity
  8
0
  6
CONTINUOUS
 62
               7
100
AcDbCircle
 10
-60.47850418090826
 20
19.750001525878929
 30
0.0
 40
3.5000000000000004
100
AcDbArc
 50
270.0
 51
90.0
  0
LINE
  5
3F
100
AcDbEntity
  8
0
  6
CONTINUOUS
 62
               7
100
AcDbLine
 10
49.005000953674255
 20
23.849981689453102
 30
0.0
 11
49.005000953674255
 21
11.849981689453102
 31
0.0
  0
LINE
  5
40
100
AcDbEntity
  8
0
  6
CONTINUOUS
 62
               7
100
AcDbLine
 10
88.004999999999995
 20
23.849981689453102
 30
0.0
 11
88.004999999999995
 21
11.849981689453102
 31
0.0
  0
LINE
  5
41
100
AcDbEntity
  8
0
  6
CONTINUOUS
 62
               7
100
AcDbLine
 10
49.005000953674255
 20
11.849981689453102
 30
0.0
 11
88.004999999999995
 21
11.849981689453102
 31
0.0
  0
LINE
  5
42
100
AcDbEntity
  8
0
  6
CONTINUOUS
 62
               7
100
AcDbLine
 10
49.005000953674255
 20
23.849981689453102
 30
0.0
 11
88.004999999999995
 21
23.849981689453102
 31
0.0
  0
LINE
  5
43
100
AcDbEntity
  8
0
  6
CONTINUOUS
 62
               7
100
AcDbLine
 10
-14.000000000000114
 20
83.199981689453068
 30
0.0
 11
13.999999999999943
 21
83.199981689453068
 31
0.0
  0
LINE
  5
44
100
AcDbEntity
  8
0
  6
CONTINUOUS
 62
               7
100
AcDbLine
 10
18.999999999999943
 20
83.199981689453068
 30
0.0
 11
25.0
 21
83.199981689453068
 31
0.0
  0
ARC
  5
45
100
AcDbEntity
  8
0
  6
CONTINUOUS
 62
               7
100
AcDbCircle
 10
46.029655838012275
 20
321.20004272460949
 30
0.0
 40
6.3296561241149902
100
AcDbArc
 50
160.85729086486964
 51
199.14270731389303
  0
LINE
  5
46
100
AcDbEntity
  8
0
  6
CONTINUOUS
 62
               7
100
AcDbLine
 10
40.049999976158006
 20
319.12440800666849
 30
0.0
 11
40.049999976158006
 21
323.275677442551
 31
0.0
  0
LINE
  5
47
100
AcDbEntity
  8
0
  6
CONTINUOUS
 62
               7
100
AcDbLine
 10
40.049999998487237
 20
319.12440816635603
 30
0.0
 11
40.900000004228957
 21
319.05004280207379
 31
0.0
  0
LINE
  5
48
100
AcDbEntity
  8
0
  6
CONTINUOUS
 62
               7
100
AcDbLine
 10
40.049999998487408
 20
323.27567728286363
 30
0.0
 11
40.900000004229355
 21
323.35004264714587
 31
0.0
  0
ARC
  5
49
100
AcDbEntity
  8
0
  6
CONTINUOUS
 62
               7
100
AcDbCircle
 10
44.629665374755575
 20
316.20004272460994
 30
0.0
 40
6.3296561241149902
100
AcDbArc
 50
160.85729268610575
 51
199.14270913512914
  0
LINE
  5
4A
100
AcDbEntity
  8
0
  6
CONTINUOUS
 62
               7
100
AcDbLine
 10
39.500009536742937
 20
307.70004272460972
 30
0.0
 11
39.500009536742937
 21
318.35004264714587
 31
0.0
  0
LINE
  5
4B
100
AcDbEntity
  8
0
  6
CONTINUOUS
 62
               7
100
AcDbLine
 10
39.500009536742937
 20
318.20004272460989
 30
0.0
 11
40.899999936666688
 21
318.20004272460989
 31
0.0
  0
ARC
  5
4C
100
AcDbEntity
  8
0
  6
CONTINUOUS
 62
               7
100
AcDbCircle
 10
46.500009536742994
 20
322.7000427246096
 30
0.0
 40
6.3499999999999996
100
AcDbArc
 50
151.87135524348216
 51
174.69811631459706
  0
LINE
  5
4D
100
AcDbEntity
  8
0
  6
CONTINUOUS
 62
               7
100
AcDbLine
 10
38.650009512901136
 20
318.27567744255117
 30
0.0
 11
38.650009512901306
 21
314.12440800666855
 31
0.0
  0
LINE
  5
4E
100
AcDbEntity
  8
0
  6
CONTINUOUS
 62
               7
100
AcDbLine
 10
38.650009535230538
 20
318.27567728286363
 30
0.0
 11
39.500009540972258
 21
318.35004264714587
 31
0.0
  0
LINE
  5
4F
100
AcDbEntity
  8
0
  6
CONTINUOUS
 62
               7
100
AcDbLine
 10
38.650009535230367
 20
314.12440816635569
 30
0.0
 11
39.500009540972258
 21
314.05004280207356
 31
0.0
  0
LINE
  5
50
100
AcDbEntity
  8
0
  6
CONTINUOUS
 62
               7
100
AcDbLine
 10
40.150009155273153
 20
319.115658498914
 30
0.0
 11
40.150009155273153
 21
318.20004272460989
 31
0.0
  0
LINE
  5
51
100
AcDbEntity
  8
0
  6
CONTINUOUS
 62
               7
100
AcDbLine
 10
43.50000953674288
 20
307.70004272460972
 30
0.0
 11
39.500009536742937
 21
307.70004272460972
 31
0.0
  0
CIRCLE
  5
52
100
AcDbEntity
  8
0
  6
CONTINUOUS
 62
               7
100
AcDbCircle
 10
108.0
 20
206.1999816894533
 30
0.0
 40
2.0750000476837158
  0
CIRCLE
  5
53
100
AcDbEntity
  8
0
  6
CONTINUOUS
 62
               7
100
AcDbCircle
 10
108.0
 20
206.1999816894533
 30
0.0
 40
2.1500000953674316
  0
CIRCLE
  5
54
100
AcDbEntity
  8
0
  6
CONTINUOUS
 62
               7
100
AcDbCircle
 10
108.0
 20
220.19998168945327
 30
0.0
 40
2.0750000476837158
  0
CIRCLE
  5
55
100
AcDbEntity
  8
0
  6
CONTINUOUS
 62
               7
100
AcDbCircle
 10
108.0
 20
220.19998168945327
 30
0.0
 40
2.1500000953674316
  0
ARC
  5
56
100
AcDbEntity
  8
0
  6
CONTINUOUS
 62
               7
100
AcDbCircle
 10
76.370361328124943
 20
321.20004272460949
 30
0.0
 40
6.3296561241149902
100
AcDbArc
 50
340.85729006794099
 51
19.142706516964399
  0
ARC
  5
57
100
AcDbEntity
  8
0
  6
CONTINUOUS
 62
               7
100
AcDbCircle
 10
79.499999999999886
 20
192.02471923828142
 30
0.0
 40
2.0
100
AcDbArc
 50
292.13136085930472
 51
0.0
  0
ARC
  5
58
100
AcDbEntity
  8
0
  6
CONTINUOUS
 62
               7
100
AcDbCircle
 10
45.499999999999943
 20
192.02471923828142
 30
0.0
 40
2.0
100
AcDbArc
 50
180.00000500895632
 51
247.86863048927324
  0
ARC
  5
59
100
AcDbEntity
  8
0
  6
CONTINUOUS
 62
               7
100
AcDbCircle
 10
45.499999999999943
 20
195.74798583984389
 30
0.0
 40
2.0
100
AcDbArc
 50
180.00000500895632
 51
260.84680953499787
  0
ARC
  5
5A
100
AcDbEntity
  8
0
  6
CONTINUOUS
 62
               7
100
AcDbCircle
 10
79.499999999999886
 20
195.74798583984389
 30
0.0
 40
2.0
100
AcDbArc
 50
279.15318181358009
 51
0.0
  0
ARC
  5
5B
100
AcDbEntity
  8
0
  6
CONTINUOUS
 62
               7
100
AcDbCircle
 10
62.5
 20
233.82501220703142
 30
0.0
 40
47.125
100
AcDbArc
 50
247.86864096192809
 51
292.13136085930472
  0
ARC
  5
5C
100
AcDbEntity
  8
0
  6
CONTINUOUS
 62
               7
100
AcDbCircle
 10
62.5
 20
301.25534057617199
 30
0.0
 40
108.86813354492189
100
AcDbArc
 50
260.84681317746356
 51
279.15318181358009
  0
CIRCLE
  5
5D
100
AcDbEntity
  8
0
  6
CONTINUOUS
 62
               7
100
AcDbCircle
 10
45.999999999999943
 20
262.70001220703142
 30
0.0
 40
1.25
  0
CIRCLE
  5
5E
100
AcDbEntity
  8
0
  6
CONTINUOUS
 62
               2
100
AcDbCircle
 10
45.999999999999943
 20
262.70001220703142
 30
0.0
 40
1.5
  0
CIRCLE
  5
5F
100
AcDbEntity
  8
0
  6
CONTINUOUS
 62
               7
100
AcDbCircle
 10
45.999999999999943
 20
288.70004272460955
 30
0.0
 40
1.25
  0
CIRCLE
  5
60
100
AcDbEntity
  8
0
  6
CONTINUOUS
 62
               2
100
AcDbCircle
 10
45.999999999999943
 20
288.70004272460955
 30
0.0
 40
1.5
  0
CIRCLE
  5
61
100
AcDbEntity
  8
0
  6
CONTINUOUS
 62
               7
100
AcDbCircle
 10
79.000000000000057
 20
288.70004272460955
 30
0.0
 40
1.25
  0
CIRCLE
  5
62
100
AcDbEntity
  8
0
  6
CONTINUOUS
 62
               2
100
AcDbCircle
 10
79.000000000000057
 20
288.70004272460955
 30
0.0
 40
1.5
  0
CIRCLE
  5
63
100
AcDbEntity
  8
0
  6
CONTINUOUS
 62
               7
100
AcDbCircle
 10
79.000000000000057
 20
262.70001220703142
 30
0.0
 40
1.25
  0
CIRCLE
  5
64
100
AcDbEntity
  8
0
  6
CONTINUOUS
 62
               2
100
AcDbCircle
 10
79.000000000000057
 20
262.70001220703142
 30
0.0
 40
1.5
  0
ARC
  5
65
100
AcDbEntity
  8
0
  6
CONTINUOUS
 62
               7
100
AcDbCircle
 10
52.0
 20
266.20001220703142
 30
0.0
 40
3.25
100
AcDbArc
 50
153.16468353359647
 51
206.8353264843162
  0
ARC
  5
66
100
AcDbEntity
  8
0
  6
CONTINUOUS
 62
               7
100
AcDbCircle
 10
52.0
 20
285.20001220703142
 30
0.0
 40
3.25
100
AcDbArc
 50
153.16468353359647
 51
206.8353264843162
  0
ARC
  5
67
100
AcDbEntity
  8
0
  6
CONTINUOUS
 62
               7
100
AcDbCircle
 10
72.999999999999943
 20
266.20001220703142
 30
0.0
 40
3.25
100
AcDbArc
 50
333.16467852464012
 51
26.835321475359859
  0
ARC
  5
68
100
AcDbEntity
  8
0
  6
CONTINUOUS
 62
               7
100
AcDbCircle
 10
72.999999999999943
 20
285.20001220703142
 30
0.0
 40
3.25
100
AcDbArc
 50
333.16467852464012
 51
26.835321475359859
  0
LINE
  5
69
100
AcDbEntity
  8
0
  6
CONTINUOUS
 62
               7
100
AcDbLine
 10
-62.249944977804319
 20
185.20003637688404
 30
0.0
 11
-62.749957267591526
 21
185.70004677002015
 31
0.0
  0
LINE
  5
6A
100
AcDbEntity
  8
0
  6
CONTINUOUS
 62
               7
100
AcDbLine
 10
-62.75
 20
188.20001220703139
 30
0.0
 11
-62.75
 21
185.70001220703139
 31
0.0
  0
LINE
  5
6B
100
AcDbEntity
  8
0
  6
CONTINUOUS
 62
               7
100
AcDbLine
 10
-57.250000000000028
 20
185.70001220703139
 30
0.0
 11
-62.75
 21
185.70001220703139
 31
0.0
  0
LINE
  5
6C
100
AcDbEntity
  8
0
  6
CONTINUOUS
 62
               7
100
AcDbLine
 10
-57.249973309008084
 20
185.70001434950987
 30
0.0
 11
-57.749964019567443
 21
185.20002553551981
 31
0.0
  0
LINE
  5
6D
100
AcDbEntity
  8
0
  6
CONTINUOUS
 62
               7
100
AcDbLine
 10
-57.250000000000028
 20
185.70001220703139
 30
0.0
 11
-57.250000000000028
 21
188.20001220703139
 31
0.0
  0
LINE
  5
6E
100
AcDbEntity
  8
0
  6
CONTINUOUS
 62
               7
100
AcDbLine
 10
-57.75
 20
185.20001220703142
 30
0.0
 11
-62.250000000000028
 21
185.20001220703142
 31
0.0
  0
LINE
  5
6F
100
AcDbEntity
  8
0
  6
CONTINUOUS
 62
               7
100
AcDbLine
 10
27.750024883676758
 20
185.20003443806323
 30
0.0
 11
27.250034173117399
 21
185.70002325205328
 31
0.0
  0
LINE
  5
70
100
AcDbEntity
  8
0
  6
CONTINUOUS
 62
               7
100
AcDbLine
 10
27.249999999999943
 20
188.20001220703139
 30
0.0
 11
27.249999999999943
 21
185.70001220703139
 31
0.0
  0
LINE
  5
71
100
AcDbEntity
  8
0
  6
CONTINUOUS
 62
               7
100
AcDbLine
 10
32.750000000000057
 20
185.70001220703139
 30
0.0
 11
27.249999999999943
 21
185.70001220703139
 31
0.0
  0
LINE
  5
72
100
AcDbEntity
  8
0
  6
CONTINUOUS
 62
               7
100
AcDbLine
 10
32.749996552472965
 20
185.70001628833069
 30
0.0
 11
32.250005841913605
 21
185.20002747434063
 31
0.0
  0
LINE
  5
73
100
AcDbEntity
  8
0
  6
CONTINUOUS
 62
               7
100
AcDbLine
 10
32.750000000000057
 20
185.70001220703139
 30
0.0
 11
32.750000000000057
 21
188.20001220703139
 31
0.0
  0
LINE
  5
74
100
AcDbEntity
  8
0
  6
CONTINUOUS
 62
               7
100
AcDbLine
 10
32.249999999999943
 20
185.20001220703142
 30
0.0
 11
27.75
 21
185.20001220703142
 31
0.0
  0
LINE
  5
75
100
AcDbEntity
  8
0
  6
CONTINUOUS
 62
               7
100
AcDbLine
 10
82.3499755859375
 20
323.27566528320324
 30
0.0
 11
82.3499755859375
 21
319.12435913085949
 31
0.0
  0
LINE
  5
76
100
AcDbEntity
  8
0
  6
CONTINUOUS
 62
               7
100
AcDbLine
 10
82.350002720511839
 20
323.27565725658872
 30
0.0
 11
81.500038975722475
 21
323.35001944844873
 31
0.0
  0
LINE
  5
77
100
AcDbEntity
  8
0
  6
CONTINUOUS
 62
               7
100
AcDbLine
 10
82.350002715402297
 20
319.12438214792212
 30
0.0
 11
81.50003897061282
 21
319.0500199560621
 31
0.0
  0
LINE
  5
78
100
AcDbEntity
  8
0
  6
CONTINUOUS
 62
               7
100
AcDbLine
 10
104.49999999999989
 20
211.39999389648452
 30
0.0
 11
81.500000000000057
 21
211.39999389648452
 31
0.0
  0
LINE
  5
79
100
AcDbEntity
  8
0
  6
CONTINUOUS
 62
               7
100
AcDbLine
 10
104.49999999999989
 20
207.99996948242202
 30
0.0
 11
81.500000000000057
 21
207.99996948242202
 31
0.0
  0
LINE
  5
7A
100
AcDbEntity
  8
0
  6
CONTINUOUS
 62
               7
100
AcDbLine
 10
81.500000000000057
 20
281.1999816894533
 30
0.0
 11
83.499999999999943
 21
281.1999816894533
 31
0.0
  0
LINE
  5
7B
100
AcDbEntity
  8
0
  6
CONTINUOUS
 62
               7
100
AcDbLine
 10
83.499999999999943
 20
226.59997558593764
 30
0.0
 11
104.49999999999989
 21
226.59997558593764
 31
0.0
  0
LINE
  5
7C
100
AcDbEntity
  8
0
  6
CONTINUOUS
 62
               7
100
AcDbLine
 10
43.499999999999943
 20
231.6999816894533
 30
0.0
 11
41.5
 21
231.6999816894533
 31
0.0
  0
LINE
  5
7D
100
AcDbEntity
  8
0
  6
CONTINUOUS
 62
               7
100
AcDbLine
 10
81.500000000000057
 20
231.1999816894533
 30
0.0
 11
83.499999999999943
 21
231.1999816894533
 31
0.0
  0
LINE
  5
7E
100
AcDbEntity
  8
0
  6
CONTINUOUS
 62
               7
100
AcDbLine
 10
43.499999999999943
 20
220.09997558593767
 30
0.0
 11
41.5
 21
220.09997558593767
 31
0.0
  0
LINE
  5
7F
100
AcDbEntity
  8
0
  6
CONTINUOUS
 62
               7
100
AcDbLine
 10
105.0
 20
188.1999816894533
 30
0.0
 11
74.295008065705758
 21
188.1999816894533
 31
0.0
  0
LINE
  5
80
100
AcDbEntity
  8
0
  6
CONTINUOUS
 62
               7
100
AcDbLine
 10
49.099975585937443
 20
296.70004272460949
 30
0.0
 11
43.499999999999943
 21
296.70004272460949
 31
0.0
  0
LINE
  5
81
100
AcDbEntity
  8
0
  6
CONTINUOUS
 62
               7
100
AcDbLine
 10
81.500000000000057
 20
198.70001220703142
 30
0.0
 11
43.499999999999943
 21
198.70001220703142
 31
0.0
  0
LINE
  5
82
100
AcDbEntity
  8
0
  6
CONTINUOUS
 62
               7
100
AcDbLine
 10
48.499999999999943
 20
296.70004272460949
 30
0.0
 11
48.499999999999943
 21
254.70001220703142
 31
0.0
  0
LINE
  5
83
100
AcDbEntity
  8
0
  6
CONTINUOUS
 62
               7
100
AcDbLine
 10
76.330017089843807
 20
394.55477905273449
 30
0.0
 11
76.330017089843807
 21
318.56613159179699
 31
0.0
  0
LINE
  5
84
100
AcDbEntity
  8
0
  6
CONTINUOUS
 62
               7
100
AcDbLine
 10
43.499999999999943
 20
317.70004272460949
 30
0.0
 11
43.499999999999943
 21
192.02471923828142
 31
0.0
  0
LINE
  5
85
100
AcDbEntity
  8
0
  6
CONTINUOUS
 62
               7
100
AcDbLine
 10
73.700012207031307
 20
317.70004272460949
 30
0.0
 11
73.700012207031307
 21
198.70001220703142
 31
0.0
  0
LINE
  5
86
100
AcDbEntity
  8
0
  6
CONTINUOUS
 62
               7
100
AcDbLine
 10
81.500000000000057
 20
395.70004272460949
 30
0.0
 11
81.500000000000057
 21
192.02471923828142
 31
0.0
  0
LINE
  5
87
100
AcDbEntity
  8
0
  6
CONTINUOUS
 62
               7
100
AcDbLine
 10
49.099975585937443
 20
254.70001220703142
 30
0.0
 11
43.499999999999943
 21
254.70001220703142
 31
0.0
  0
LINE
  5
88
100
AcDbEntity
  8
0
  6
CONTINUOUS
 62
               7
100
AcDbLine
 10
81.500000000000057
 20
395.70004272460949
 30
0.0
 11
40.899999936666688
 21
395.70004272460949
 31
0.0
  0
LINE
  5
89
100
AcDbEntity
  8
0
  6
CONTINUOUS
 62
               7
100
AcDbLine
 10
51.299987792968693
 20
317.70004272460949
 30
0.0
 11
51.299987792968693
 21
198.70001220703142
 31
0.0
  0
LINE
  5
8A
100
AcDbEntity
  8
0
  6
CONTINUOUS
 62
               7
100
AcDbLine
 10
49.099975585937443
 20
317.70004272460949
 30
0.0
 11
49.099975585937443
 21
198.70001220703142
 31
0.0
  0
LINE
  5
8B
100
AcDbEntity
  8
0
  6
CONTINUOUS
 62
               2
100
AcDbLine
 10
48.499999999999943
 20
262.70001220703142
 30
0.0
 11
43.499999999999943
 21
262.70001220703142
 31
0.0
  0
LINE
  5
8C
100
AcDbEntity
  8
0
  6
CONTINUOUS
 62
               2
100
AcDbLine
 10
45.999999999999943
 20
260.20001220703142
 30
0.0
 11
45.999999999999943
 21
265.20001220703142
 31
0.0
  0
LINE
  5
8D
100
AcDbEntity
  8
0
  6
CONTINUOUS
 62
               2
100
AcDbLine
 10
48.499999999999943
 20
288.70004272460955
 30
0.0
 11
43.499999999999943
 21
288.70004272460955
 31
0.0
  0
LINE
  5
8E
100
AcDbEntity
  8
0
  6
CONTINUOUS
 62
               2
100
AcDbLine
 10
45.999999999999943
 20
286.20004272460955
 30
0.0
 11
45.999999999999943
 21
291.20004272460955
 31
0.0
  0
LINE
  5
8F
100
AcDbEntity
  8
0
  6
CONTINUOUS
 62
               2
100
AcDbLine
 10
81.500000000000057
 20
288.70004272460955
 30
0.0
 11
76.500000000000057
 21
288.70004272460955
 31
0.0
  0
LINE
  5
90
100
AcDbEntity
  8
0
  6
CONTINUOUS
 62
               2
100
AcDbLine
 10
79.000000000000057
 20
286.20004272460955
 30
0.0
 11
79.000000000000057
 21
291.20004272460955
 31
0.0
  0
LINE
  5
91
100
AcDbEntity
  8
0
  6
CONTINUOUS
 62
               2
100
AcDbLine
 10
81.500000000000057
 20
262.70001220703142
 30
0.0
 11
76.500000000000057
 21
262.70001220703142
 31
0.0
  0
LINE
  5
92
100
AcDbEntity
  8
0
  6
CONTINUOUS
 62
               2
100
AcDbLine
 10
79.000000000000057
 20
260.20001220703142
 30
0.0
 11
79.000000000000057
 21
265.20001220703142
 31
0.0
  0
LINE
  5
93
100
AcDbEntity
  8
0
  6
CONTINUOUS
 62
               7
100
AcDbLine
 10
75.900024414062557
 20
317.70004272460949
 30
0.0
 11
75.900024414062557
 21
198.70001220703142
 31
0.0
  0
LINE
  5
94
100
AcDbEntity
  8
0
  6
CONTINUOUS
 62
               7
100
AcDbLine
 10
81.500000000000057
 20
254.70001220703142
 30
0.0
 11
75.900024414062557
 21
254.70001220703142
 31
0.0
  0
LINE
  5
95
100
AcDbEntity
  8
0
  6
CONTINUOUS
 62
               7
100
AcDbLine
 10
81.500000000000057
 20
296.70004272460949
 30
0.0
 11
75.900024414062557
 21
296.70004272460949
 31
0.0
  0
LINE
  5
96
100
AcDbEntity
  8
0
  6
CONTINUOUS
 62
               7
100
AcDbLine
 10
81.500000000000057
 20
317.70004272460949
 30
0.0
 11
40.899999936666688
 21
317.70004272460949
 31
0.0
  0
LINE
  5
97
100
AcDbEntity
  8
0
  6
CONTINUOUS
 62
               7
100
AcDbLine
 10
48.669982910156193
 20
394.37442016601574
 30
0.0
 11
48.669982910156193
 21
318.74649047851574
 31
0.0
  0
LINE
  5
98
100
AcDbEntity
  8
0
  6
CONTINUOUS
 62
               2
100
AcDbLine
 10
62.5
 20
400.86672973632824
 30
0.0
 11
62.5
 21
275.70002746582048
 31
0.0
  0
LINE
  5
99
100
AcDbEntity
  8
0
  6
CONTINUOUS
 62
               7
100
AcDbLine
 10
76.500000000000057
 20
296.70004272460949
 30
0.0
 11
76.500000000000057
 21
254.70001220703142
 31
0.0
  0
LINE
  5
9A
100
AcDbEntity
  8
0
  6
CONTINUOUS
 62
               7
100
AcDbLine
 10
182.5
 20
198.1999816894533
 30
0.0
 11
81.500000000000057
 21
198.1999816894533
 31
0.0
  0
LINE
  5
9B
100
AcDbEntity
  8
0
  6
CONTINUOUS
 62
               7
100
AcDbLine
 10
83.499999999999943
 20
231.6999816894533
 30
0.0
 11
81.500000000000057
 21
231.6999816894533
 31
0.0
  0
LINE
  5
9C
100
AcDbEntity
  8
0
  6
CONTINUOUS
 62
               7
100
AcDbLine
 10
104.49999999999989
 20
219.19998168945324
 30
0.0
 11
81.500000000000057
 21
219.19998168945324
 31
0.0
  0
LINE
  5
9D
100
AcDbEntity
  8
0
  6
CONTINUOUS
 62
               7
100
AcDbLine
 10
104.49999999999989
 20
230.6999816894533
 30
0.0
 11
104.49999999999989
 21
198.1999816894533
 31
0.0
  0
LINE
  5
9E
100
AcDbEntity
  8
0
  6
CONTINUOUS
 62
               7
100
AcDbLine
 10
104.49999999999989
 20
221.14639282226574
 30
0.0
 11
83.499999999999943
 21
221.14639282226574
 31
0.0
  0
LINE
  5
9F
100
AcDbEntity
  8
0
  6
CONTINUOUS
 62
               7
100
AcDbLine
 10
104.49999999999989
 20
224.06448364257824
 30
0.0
 11
83.499999999999943
 21
224.06448364257824
 31
0.0
  0
LINE
  5
A0
100
AcDbEntity
  8
0
  6
CONTINUOUS
 62
               7
100
AcDbLine
 10
182.5
 20
230.6999816894533
 30
0.0
 11
104.49999999999989
 21
230.6999816894533
 31
0.0
  0
LINE
  5
A1
100
AcDbEntity
  8
0
  6
CONTINUOUS
 62
               7
100
AcDbLine
 10
182.5
 20
230.6999816894533
 30
0.0
 11
182.5
 21
198.1999816894533
 31
0.0
  0
LINE
  5
A2
100
AcDbEntity
  8
0
  6
CONTINUOUS
 62
               7
100
AcDbLine
 10
181.56762695312494
 20
225.52841186523449
 30
0.0
 11
105.242919921875
 21
225.52841186523449
 31
0.0
  0
LINE
  5
A3
100
AcDbEntity
  8
0
  6
CONTINUOUS
 62
               7
100
AcDbLine
 10
83.499999999999943
 20
220.09997558593767
 30
0.0
 11
81.500000000000057
 21
220.09997558593767
 31
0.0
  0
LINE
  5
A4
100
AcDbEntity
  8
0
  6
CONTINUOUS
 62
               7
100
AcDbLine
 10
36.1961669921875
 20
78.199981689453068
 30
0.0
 11
105.0
 21
78.199981689453068
 31
0.0
  0
LINE
  5
A5
100
AcDbEntity
  8
0
  6
CONTINUOUS
 62
               7
100
AcDbLine
 10
-105.00000000000006
 20
78.199981689453068
 30
0.0
 11
-36.196166992187557
 21
78.199981689453068
 31
0.0
  0
LINE
  5
A6
100
AcDbEntity
  8
0
  6
CONTINUOUS
 62
               7
100
AcDbLine
 10
92.849975585937443
 20
188.1999816894533
 30
0.0
 11
92.849975585937443
 21
78.199981689453068
 31
0.0
  0
LINE
  5
A7
100
AcDbEntity
  8
0
  6
CONTINUOUS
 62
               7
100
AcDbLine
 10
97.150024414062557
 20
188.1999816894533
 30
0.0
 11
97.150024414062557
 21
78.199981689453068
 31
0.0
  0
LINE
  5
A8
100
AcDbEntity
  8
0
  6
CONTINUOUS
 62
               7
100
AcDbLine
 10
-97.150024414062528
 20
188.1999816894533
 30
0.0
 11
-97.150024414062528
 21
78.199981689453068
 31
0.0
  0
LINE
  5
A9
100
AcDbEntity
  8
0
  6
CONTINUOUS
 62
               7
100
AcDbLine
 10
-92.849975585937557
 20
188.1999816894533
 30
0.0
 11
-92.849975585937557
 21
78.199981689453068
 31
0.0
  0
LINE
  5
AA
100
AcDbEntity
  8
0
  6
CONTINUOUS
 62
               7
100
AcDbLine
 10
41.5
 20
281.1999816894533
 30
0.0
 11
43.499999999999943
 21
281.1999816894533
 31
0.0
  0
LINE
  5
AB
100
AcDbEntity
  8
0
  6
CONTINUOUS
 62
               7
100
AcDbLine
 10
41.5
 20
231.1999816894533
 30
0.0
 11
43.499999999999943
 21
231.1999816894533
 31
0.0
  0
LINE
  5
AC
100
AcDbEntity
  8
0
  6
CONTINUOUS
 62
               2
100
AcDbLine
 10
30.0
 20
191.2261297450745
 30
0.0
 11
30.0
 21
183.38061662995406
 31
0.0
  0
LINE
  5
AD
100
AcDbEntity
  8
0
  6
CONTINUOUS
 62
               2
100
AcDbLine
 10
-60.000000000000028
 20
191.2261297450745
 30
0.0
 11
-60.000000000000028
 21
183.69443715455887
 31
0.0
  0
LINE
  5
AE
100
AcDbEntity
  8
0
  6
CONTINUOUS
 62
               7
100
AcDbLine
 10
-85.000000000000028
 20
188.1999816894533
 30
0.0
 11
-85.000000000000028
 21
78.199981689453068
 31
0.0
  0
LINE
  5
AF
100
AcDbEntity
  8
0
  6
CONTINUOUS
 62
               7
100
AcDbLine
 10
85.0
 20
188.1999816894533
 30
0.0
 11
85.0
 21
78.199981689453068
 31
0.0
  0
LINE
  5
B0
100
AcDbEntity
  8
0
  6
CONTINUOUS
 62
               7
100
AcDbLine
 10
105.0
 20
195.19998168945324
 30
0.0
 11
105.0
 21
78.199981689453068
 31
0.0
  0
LINE
  5
B1
100
AcDbEntity
  8
0
  6
CONTINUOUS
 62
               7
100
AcDbLine
 10
-105.00000000000006
 20
195.19998168945332
 30
0.0
 11
-105.00000000000006
 21
78.199981689453068
 31
0.0
  0
LINE
  5
B3
100
AcDbEntity
  8
0
  6
PHANTOM
 62
               2
100
AcDbLine
 10
-137.50000000000003
 20
275.70002746582048
 30
0.0
 11
62.5
 21
275.70002746582048
 31
0.0
  0
LINE
  5
B4
100
AcDbEntity
  8
0
  6
PHANTOM
 62
               2
100
AcDbLine
 10
-137.50000000000003
 20
225.70002746582048
 30
0.0
 11
62.5
 21
225.70002746582048
 31
0.0
  0
LINE
  5
B5
100
AcDbEntity
  8
0
  6
CONTINUOUS
 62
               7
100
AcDbLine
 10
41.5
 20
281.1999816894533
 30
0.0
 11
41.5
 21
220.09997558593767
 31
0.0
  0
LINE
  5
B6
100
AcDbEntity
  8
0
  6
CONTINUOUS
 62
               7
100
AcDbLine
 10
83.499999999999943
 20
281.1999816894533
 30
0.0
 11
83.499999999999943
 21
220.09997558593767
 31
0.0
  0
LINE
  5
B7
100
AcDbEntity
  8
0
  6
CONTINUOUS
 62
               2
100
AcDbLine
 10
62.5
 20
225.70002746582048
 30
0.0
 11
62.5
 21
174.17584245843074
 31
0.0
  0
LINE
  5
B8
100
AcDbEntity
  8
0
  6
CONTINUOUS
 62
               2
100
AcDbLine
 10
62.5
 20
275.70002746582048
 30
0.0
 11
87.38809732568393
 21
275.70002746582048
 31
0.0
  0
LINE
  5
B9
100
AcDbEntity
  8
0
  6
CONTINUOUS
 62
               2
100
AcDbLine
 10
62.5
 20
225.70002746582048
 30
0.0
 11
87.133068541879197
 21
225.70002746582048
 31
0.0
  0
LINE
  5
BA
100
AcDbEntity
  8
0
  6
CONTINUOUS
 62
               7
100
AcDbLine
 10
50.704991934294185
 20
188.1999816894533
 30
0.0
 11
-105.00000000000006
 21
188.1999816894533
 31
0.0
  0
LINE
  5
BB
100
AcDbEntity
  8
0
  6
PHANTOM
 62
               2
100
AcDbLine
 10
62.5
 20
275.70002746582048
 30
0.0
 11
62.5
 21
225.70002746582048
 31
0.0
  0
LINE
  5
BC
100
AcDbEntity
  8
0
  6
CONTINUOUS
 62
               2
100
AcDbLine
 10
-137.50000000000003
 20
231.74954746277399
 30
0.0
 11
-137.50000000000003
 21
176.9980828998201
 31
0.0
  0
LINE
  5
BD
100
AcDbEntity
  8
0
  6
PHANTOM
 62
               2
100
AcDbLine
 10
-137.50000000000003
 20
275.70002746582048
 30
0.0
 11
-137.50000000000003
 21
225.70002746582048
 31
0.0
  0
LINE
  5
BE
100
AcDbEntity
  8
0
  6
CONTINUOUS
 62
               2
100
AcDbLine
 10
0.0
 20
96.080871043195373
 30
0.0
 11
0.0
 21
-13.174351242117496
 31
0.0
  0
LINE
  5
BF
100
AcDbEntity
  8
0
  6
CONTINUOUS
 62
               2
100
AcDbLine
 10
-16.500000000000114
 20
89.36712646484375
 30
0.0
 11
-16.500000000000114
 21
79.58823092608867
 31
0.0
  0
LINE
  5
C0
100
AcDbEntity
  8
0
  6
CONTINUOUS
 62
               2
100
AcDbLine
 10
16.499999999999943
 20
90.097900390625
 30
0.0
 11
16.499999999999943
 21
79.58823092608867
 31
0.0
  0
ARC
  5
C1
100
AcDbEntity
  8
0
  6
CONTINUOUS
 62
               7
100
AcDbCircle
 10
103.99999999999994
 20
4.1999816894530682
 30
0.0
 40
1.0
100
AcDbArc
 50
270.0
 51
0.0
  0
ARC
  5
C2
100
AcDbEntity
  8
0
  6
CONTINUOUS
 62
               7
100
AcDbCircle
 10
102.29999999999995
 20
5.8999816894531136
 30
0.0
 40
1.0
100
AcDbArc
 50
270.0
 51
0.0
  0
ARC
  5
C3
100
AcDbEntity
  8
0
  6
CONTINUOUS
 62
               7
100
AcDbCircle
 10
-104.00000000000009
 20
4.1999816894530682
 30
0.0
 40
1.0
100
AcDbArc
 50
180.0
 51
270.0
  0
ARC
  5
C4
100
AcDbEntity
  8
0
  6
CONTINUOUS
 62
               7
100
AcDbCircle
 10
-102.30000000000001
 20
5.8999816894531136
 30
0.0
 40
1.0
100
AcDbArc
 50
180.0
 51
270.0
  0
LINE
  5
C5
100
AcDbEntity
  8
0
  6
CONTINUOUS
 62
               7
100
AcDbLine
 10
-80.000000000000028
 20
3.1999816894530682
 30
0.0
 11
-104.00000000000009
 21
3.1999816894530682
 31
0.0
  0
LINE
  5
C6
100
AcDbEntity
  8
0
  6
CONTINUOUS
 62
               7
100
AcDbLine
 10
-80.000000000000028
 20
3.1999816894530682
 30
0.0
 11
-80.000000000000028
 21
4.8999816894531136
 31
0.0
  0
LINE
  5
C7
100
AcDbEntity
  8
0
  6
CONTINUOUS
 62
               7
100
AcDbLine
 10
80.0
 20
3.1999816894530682
 30
0.0
 11
80.0
 21
4.8999816894531136
 31
0.0
  0
LINE
  5
C8
100
AcDbEntity
  8
0
  6
CONTINUOUS
 62
               7
100
AcDbLine
 10
106.29998779296869
 20
9.1637176513672216
 30
0.0
 11
106.29998779296869
 21
15.236257934570347
 31
0.0
  0
LINE
  5
C9
100
AcDbEntity
  8
0
  6
CONTINUOUS
 62
               7
100
AcDbLine
 10
106.3000081207
 20
9.1637261056325201
 30
0.0
 11
104.99998130709798
 21
9.0499884974946667
 31
0.0
  0
LINE
  5
CA
100
AcDbEntity
  8
0
  6
CONTINUOUS
 62
               7
100
AcDbLine
 10
106.30001164988147
 20
15.236241878716498
 30
0.0
 11
105.00004563917986
 21
15.349974167289872
 31
0.0
  0
ARC
  5
CB
100
AcDbEntity
  8
0
  6
CONTINUOUS
 62
               7
100
AcDbCircle
 10
98.917602539062443
 20
12.199972534179665
 30
0.0
 40
7.982419490814209
100
AcDbArc
 50
337.64346078089295
 51
22.356542861572724
  0
LINE
  5
CC
100
AcDbEntity
  8
0
  6
CONTINUOUS
 62
               7
100
AcDbLine
 10
-106.30000812070014
 20
9.1637261056325201
 30
0.0
 11
-104.99998130709812
 21
9.0499884974946667
 31
0.0
  0
ARC
  5
CD
100
AcDbEntity
  8
0
  6
CONTINUOUS
 62
               7
100
AcDbCircle
 10
-98.917602539062585
 20
12.199972534179665
 30
0.0
 40
7.982419490814209
100
AcDbArc
 50
157.64345713842727
 51
202.35653921910705
  0
LINE
  5
CE
100
AcDbEntity
  8
0
  6
CONTINUOUS
 62
               7
100
AcDbLine
 10
-106.29998779296881
 20
9.1637176513672216
 30
0.0
 11
-106.29998779296881
 21
15.236257934570347
 31
0.0
  0
LINE
  5
CF
100
AcDbEntity
  8
0
  6
CONTINUOUS
 62
               7
100
AcDbLine
 10
-106.30001164988158
 20
15.236241878716498
 30
0.0
 11
-105.00004563917997
 21
15.349974167289872
 31
0.0
  0
LINE
  5
D0
100
AcDbEntity
  8
0
  6
CONTINUOUS
 62
               7
100
AcDbLine
 10
103.99999999999994
 20
3.1999816894530682
 30
0.0
 11
80.0
 21
3.1999816894530682
 31
0.0
  0
LINE
  5
D1
100
AcDbEntity
  8
0
  6
CONTINUOUS
 62
               7
100
AcDbLine
 10
103.30000000000001
 20
5.8999816894531136
 30
0.0
 11
103.30000000000001
 21
30.422591385577732
 31
0.0
  0
LINE
  5
D2
100
AcDbEntity
  8
0
  6
CONTINUOUS
 62
               7
100
AcDbLine
 10
-103.29999999999995
 20
5.8999816894531136
 30
0.0
 11
-103.29999999999995
 21
30.422591385577675
 31
0.0
  0
LINE
  5
D3
100
AcDbEntity
  8
0
  6
CONTINUOUS
 62
               7
100
AcDbLine
 10
102.29999999999995
 20
4.8999816894531136
 30
0.0
 11
-102.30000000000001
 21
4.8999816894531136
 31
0.0
  0
LINE
  5
D4
100
AcDbEntity
  8
0
  6
CONTINUOUS
 62
               7
100
AcDbLine
 10
-14.000000000000114
 20
83.199981689453068
 30
0.0
 11
-14.000000000000114
 21
81.199981689453068
 31
0.0
  0
LINE
  5
D5
100
AcDbEntity
  8
0
  6
CONTINUOUS
 62
               7
100
AcDbLine
 10
-19.000000000000114
 20
83.199981689453068
 30
0.0
 11
-19.000000000000114
 21
81.199981689453068
 31
0.0
  0
LINE
  5
D6
100
AcDbEntity
  8
0
  6
CONTINUOUS
 62
               7
100
AcDbLine
 10
18.999999999999943
 20
83.199981689453068
 30
0.0
 11
18.999999999999943
 21
81.199981689453068
 31
0.0
  0
LINE
  5
D7
100
AcDbEntity
  8
0
  6
CONTINUOUS
 62
               7
100
AcDbLine
 10
13.999999999999943
 20
83.199981689453068
 30
0.0
 11
13.999999999999943
 21
81.199981689453068
 31
0.0
  0
LINE
  5
D8
100
AcDbEntity
  8
0
  6
CONTINUOUS
 62
               7
100
AcDbLine
 10
25.0
 20
87.199981689453068
 30
0.0
 11
-25.0
 21
87.199981689453068
 31
0.0
  0
LINE
  5
D9
100
AcDbEntity
  8
0
  6
CONTINUOUS
 62
               7
100
AcDbLine
 10
25.0
 20
87.199981689453068
 30
0.0
 11
25.0
 21
83.199981689453068
 31
0.0
  0
LINE
  5
DA
100
AcDbEntity
  8
0
  6
CONTINUOUS
 62
               7
100
AcDbLine
 10
-25.0
 20
87.199981689453068
 30
0.0
 11
-25.0
 21
83.199981689453068
 31
0.0
  0
LINE
  5
DB
100
AcDbEntity
  8
0
  6
CONTINUOUS
 62
               7
100
AcDbLine
 10
82.000000000000057
 20
49.3499755859375
 30
0.0
 11
82.000000000000057
 21
36.8499755859375
 31
0.0
  0
LINE
  5
DC
100
AcDbEntity
  8
0
  6
CONTINUOUS
 62
               7
100
AcDbLine
 10
47.999999999999886
 20
49.3499755859375
 30
0.0
 11
47.999999999999886
 21
36.8499755859375
 31
0.0
  0
LINE
  5
DD
100
AcDbEntity
  8
0
  6
CONTINUOUS
 62
               7
100
AcDbLine
 10
82.000000000000057
 20
36.8499755859375
 30
0.0
 11
47.999999999999886
 21
36.8499755859375
 31
0.0
  0
LINE
  5
DE
100
AcDbEntity
  8
0
  6
CONTINUOUS
 62
               7
100
AcDbLine
 10
82.000000000000057
 20
49.3499755859375
 30
0.0
 11
47.999999999999886
 21
49.3499755859375
 31
0.0
  0
LINE
  5
DF
100
AcDbEntity
  8
0
  6
CONTINUOUS
 62
               7
100
AcDbLine
 10
-56.500000000000085
 20
52.499969482421875
 30
0.0
 11
-89.500000000000114
 21
52.499969482421875
 31
0.0
  0
LINE
  5
E0
100
AcDbEntity
  8
0
  6
CONTINUOUS
 62
               7
100
AcDbLine
 10
-89.500000000000114
 20
52.499969482421875
 30
0.0
 11
-89.500000000000114
 21
36.499969482421875
 31
0.0
  0
LINE
  5
E1
100
AcDbEntity
  8
0
  6
CONTINUOUS
 62
               7
100
AcDbLine
 10
-56.500000000000085
 20
36.499969482421875
 30
0.0
 11
-89.500000000000114
 21
36.499969482421875
 31
0.0
  0
LINE
  5
E2
100
AcDbEntity
  8
0
  6
CONTINUOUS
 62
               7
100
AcDbLine
 10
-56.500000000000085
 20
52.499969482421875
 30
0.0
 11
-56.500000000000085
 21
36.499969482421875
 31
0.0
  0
LINE
  5
E3
100
AcDbEntity
  8
0
  6
CONTINUOUS
 62
               7
100
AcDbLine
 10
105.0
 20
4.1999816894530682
 30
0.0
 11
105.0
 21
76.199981689453068
 31
0.0
  0
LINE
  5
E4
100
AcDbEntity
  8
0
  6
CONTINUOUS
 62
               7
100
AcDbLine
 10
25.0
 20
81.199981689453068
 30
0.0
 11
-25.0
 21
81.199981689453068
 31
0.0
  0
LINE
  5
E5
100
AcDbEntity
  8
0
  6
CONTINUOUS
 62
               7
100
AcDbLine
 10
25.000006714264543
 20
81.199981710284192
 30
0.0
 11
36.196115066453729
 21
78.199993493799411
 31
0.0
  0
LINE
  5
E6
100
AcDbEntity
  8
0
  6
CONTINUOUS
 62
               7
100
AcDbLine
 10
-25.00002624814266
 20
81.199973643750127
 30
0.0
 11
-36.196193555764808
 21
78.199969630204578
 31
0.0
  0
LINE
  5
E7
100
AcDbEntity
  8
0
  6
CONTINUOUS
 62
               7
100
AcDbLine
 10
102.99999999999989
 20
30.39996337890625
 30
0.0
 11
-103.00000000000006
 21
30.39996337890625
 31
0.0
  0
LINE
  5
E8
100
AcDbEntity
  8
0
  6
CONTINUOUS
 62
               7
100
AcDbLine
 10
-105.00000000000006
 20
4.1999816894530682
 30
0.0
 11
-105.00000000000006
 21
76.199981689453068
 31
0.0
  0
LINE
  5
E9
100
AcDbEntity
  8
0
  6
CONTINUOUS
 62
               7
100
AcDbLine
 10
-55.500000000000142
 20
52.499969482421875
 30
0.0
 11
-55.500000000000142
 21
36.499969482421875
 31
0.0
  0
LINE
  5
EA
100
AcDbEntity
  8
0
  6
CONTINUOUS
 62
               7
100
AcDbLine
 10
-56.500000000000085
 20
53.499969482421818
 30
0.0
 11
-89.500000000000114
 21
53.499969482421818
 31
0.0
  0
LINE
  5
EB
100
AcDbEntity
  8
0
  6
CONTINUOUS
 62
               7
100
AcDbLine
 10
-56.500000000000085
 20
35.499969482421875
 30
0.0
 11
-89.500000000000114
 21
35.499969482421875
 31
0.0
  0
LINE
  5
EC
100
AcDbEntity
  8
0
  6
CONTINUOUS
 62
               7
100
AcDbLine
 10
-90.500000000000057
 20
52.499969482421875
 30
0.0
 11
-90.500000000000057
 21
36.499969482421875
 31
0.0
  0
LINE
  5
ED
100
AcDbEntity
  8
0
  6
CONTINUOUS
 62
               7
100
AcDbLine
 10
82.000000000000057
 20
50.3499755859375
 30
0.0
 11
47.999999999999886
 21
50.3499755859375
 31
0.0
  0
LINE
  5
EE
100
AcDbEntity
  8
0
  6
CONTINUOUS
 62
               7
100
AcDbLine
 10
82.000000000000057
 20
35.849975585937443
 30
0.0
 11
47.999999999999886
 21
35.849975585937443
 31
0.0
  0
LINE
  5
EF
100
AcDbEntity
  8
0
  6
CONTINUOUS
 62
               7
100
AcDbLine
 10
82.999999999999886
 20
49.3499755859375
 30
0.0
 11
82.999999999999886
 21
36.8499755859375
 31
0.0
  0
LINE
  5
F0
100
AcDbEntity
  8
0
  6
CONTINUOUS
 62
               7
100
AcDbLine
 10
46.999999999999886
 20
49.3499755859375
 30
0.0
 11
46.999999999999886
 21
36.8499755859375
 31
0.0
  0
LINE
  5
F1
100
AcDbEntity
  8
0
  6
CONTINUOUS
 62
               7
100
AcDbLine
 10
-25.0
 20
83.199981689453068
 30
0.0
 11
-19.000000000000114
 21
83.199981689453068
 31
0.0
  0
LINE
  5
F2
100
AcDbEntity
  8
0
  6
CONTINUOUS
 62
               7
100
AcDbLine
 10
-48.000000000000142
 20
59.39996337890625
 30
0.0
 11
-48.000000000000142
 21
71.39996337890625
 31
0.0
  0
LINE
  5
F3
100
AcDbEntity
  8
0
  6
CONTINUOUS
 62
               7
100
AcDbLine
 10
-98.000000000000057
 20
59.39996337890625
 30
0.0
 11
-98.000000000000057
 21
71.39996337890625
 31
0.0
  0
LINE
  5
F4
100
AcDbEntity
  8
0
  6
CONTINUOUS
 62
               7
100
AcDbLine
 10
-49.000000000000085
 20
58.39996337890625
 30
0.0
 11
-97.0
 21
58.39996337890625
 31
0.0
  0
LINE
  5
F5
100
AcDbEntity
  8
0
  6
CONTINUOUS
 62
               7
100
AcDbLine
 10
-49.000000000000085
 20
72.399963378906193
 30
0.0
 11
-97.0
 21
72.399963378906193
 31
0.0
  0
LINE
  5
F6
100
AcDbEntity
  8
0
  6
CONTINUOUS
 62
               7
100
AcDbLine
 10
80.0
 20
59.899963378906193
 30
0.0
 11
50.0
 21
59.899963378906193
 31
0.0
  0
LINE
  5
F7
100
AcDbEntity
  8
0
  6
CONTINUOUS
 62
               7
100
AcDbLine
 10
80.0
 20
70.89996337890625
 30
0.0
 11
50.0
 21
70.89996337890625
 31
0.0
  0
LINE
  5
F8
100
AcDbEntity
  8
0
  6
CONTINUOUS
 62
               7
100
AcDbLine
 10
80.999999999999943
 20
60.89996337890625
 30
0.0
 11
80.999999999999943
 21
69.899963378906193
 31
0.0
  0
LINE
  5
F9
100
AcDbEntity
  8
0
  6
CONTINUOUS
 62
               7
100
AcDbLine
 10
48.999999999999943
 20
60.89996337890625
 30
0.0
 11
48.999999999999943
 21
69.899963378906193
 31
0.0
  0
ARC
  5
FA
100
AcDbEntity
  8
0
  6
CONTINUOUS
 62
               7
100
AcDbCircle
 10
0.0
 20
397.61569213867199
 30
0.0
 40
321.46008300781256
100
AcDbArc
 50
263.53482729513291
 51
276.46516769591074
  0
ARC
  5
FB
100
AcDbEntity
  8
0
  6
CONTINUOUS
 62
               7
100
AcDbCircle
 10
-103.00000000000006
 20
76.199981689453068
 30
0.0
 40
2.0
100
AcDbArc
 50
90.000002504478161
 51
180.00000500895632
  0
ARC
  5
FC
100
AcDbEntity
  8
0
  6
CONTINUOUS
 62
               7
100
AcDbCircle
 10
102.99999999999989
 20
32.399963378906193
 30
0.0
 40
2.0
100
AcDbArc
 50
269.99999749552182
 51
0.0
  0
CIRCLE
  5
FD
100
AcDbEntity
  8
0
  6
CONTINUOUS
 62
               7
100
AcDbCircle
 10
-46.000000000000057
 20
44.499969482421875
 30
0.0
 40
2.0999999046325684
  0
ARC
  5
FE
100
AcDbEntity
  8
0
  6
CONTINUOUS
 62
               7
100
AcDbCircle
 10
102.99999999999989
 20
76.199981689453068
 30
0.0
 40
2.0
100
AcDbArc
 50
0.0
 51
90.000002504478161
  0
CIRCLE
  5
FF
100
AcDbEntity
  8
0
  6
CONTINUOUS
 62
               7
100
AcDbCircle
 10
-36.000000000000057
 20
44.499969482421875
 30
0.0
 40
2.0999999046325684
  0
ARC
  5
100
100
AcDbEntity
  8
0
  6
CONTINUOUS
 62
               7
100
AcDbCircle
 10
-103.00000000000006
 20
32.399963378906193
 30
0.0
 40
2.0
100
AcDbArc
 50
179.99999499104368
 51
269.99999749552182
  0
ARC
  5
101
100
AcDbEntity
  8
0
  6
CONTINUOUS
 62
               7
100
AcDbCircle
 10
82.000000000000057
 20
36.8499755859375
 30
0.0
 40
1.0
100
AcDbArc
 50
269.99999749552182
 51
0.0
  0
ARC
  5
102
100
AcDbEntity
  8
0
  6
CONTINUOUS
 62
               7
100
AcDbCircle
 10
-56.500000000000085
 20
52.499969482421875
 30
0.0
 40
1.0
100
AcDbArc
 50
0.0
 51
90.000002504478161
  0
ARC
  5
103
100
AcDbEntity
  8
0
  6
CONTINUOUS
 62
               7
100
AcDbCircle
 10
-89.500000000000114
 20
36.499969482421875
 30
0.0
 40
1.0
100
AcDbArc
 50
179.99999499104368
 51
269.99999749552182
  0
ARC
  5
104
100
AcDbEntity
  8
0
  6
CONTINUOUS
 62
               7
100
AcDbCircle
 10
-89.500000000000114
 20
52.499969482421875
 30
0.0
 40
1.0
100
AcDbArc
 50
90.000002504478161
 51
180.00000500895632
  0
ARC
  5
105
100
AcDbEntity
  8
0
  6
CONTINUOUS
 62
               7
100
AcDbCircle
 10
-56.500000000000085
 20
36.499969482421875
 30
0.0
 40
1.0
100
AcDbArc
 50
269.99999749552182
 51
0.0
  0
ARC
  5
106
100
AcDbEntity
  8
0
  6
CONTINUOUS
 62
               7
100
AcDbCircle
 10
47.999999999999886
 20
49.3499755859375
 30
0.0
 40
1.0
100
AcDbArc
 50
90.000002504478161
 51
180.00000500895632
  0
CIRCLE
  5
107
100
AcDbEntity
  8
0
  6
CONTINUOUS
 62
               7
100
AcDbCircle
 10
-46.000000000000057
 20
44.499969482421875
 30
0.0
 40
2.5999999046325679
  0
ARC
  5
108
100
AcDbEntity
  8
0
  6
CONTINUOUS
 62
               7
100
AcDbCircle
 10
82.000000000000057
 20
49.3499755859375
 30
0.0
 40
1.0
100
AcDbArc
 50
0.0
 51
90.000002504478161
  0
CIRCLE
  5
109
100
AcDbEntity
  8
0
  6
CONTINUOUS
 62
               7
100
AcDbCircle
 10
-36.000000000000057
 20
44.499969482421875
 30
0.0
 40
2.5999999046325679
  0
ARC
  5
10A
100
AcDbEntity
  8
0
  6
CONTINUOUS
 62
               7
100
AcDbCircle
 10
47.999999999999886
 20
36.8499755859375
 30
0.0
 40
1.0
100
AcDbArc
 50
179.99999499104368
 51
269.99999749552182
  0
ARC
  5
10B
100
AcDbEntity
  8
0
  6
CONTINUOUS
 62
               7
100
AcDbCircle
 10
-97.0
 20
71.39996337890625
 30
0.0
 40
1.0
100
AcDbArc
 50
90.000002504478161
 51
180.00000500895632
  0
ARC
  5
10C
100
AcDbEntity
  8
0
  6
CONTINUOUS
 62
               7
100
AcDbCircle
 10
-97.0
 20
59.39996337890625
 30
0.0
 40
1.0
100
AcDbArc
 50
179.99999499104368
 51
269.99999749552182
  0
ARC
  5
10D
100
AcDbEntity
  8
0
  6
CONTINUOUS
 62
               7
100
AcDbCircle
 10
-49.000000000000085
 20
59.39996337890625
 30
0.0
 40
1.0
100
AcDbArc
 50
269.99999749552182
 51
0.0
  0
ARC
  5
10E
100
AcDbEntity
  8
0
  6
CONTINUOUS
 62
               7
100
AcDbCircle
 10
-49.000000000000085
 20
71.39996337890625
 30
0.0
 40
1.0
100
AcDbArc
 50
0.0
 51
90.000002504478161
  0
ARC
  5
10F
100
AcDbEntity
  8
0
  6
CONTINUOUS
 62
               7
100
AcDbCircle
 10
50.0
 20
69.899963378906193
 30
0.0
 40
1.0
100
AcDbArc
 50
90.000002504478161
 51
180.00000500895632
  0
ARC
  5
110
100
AcDbEntity
  8
0
  6
CONTINUOUS
 62
               7
100
AcDbCircle
 10
80.0
 20
69.899963378906193
 30
0.0
 40
1.0
100
AcDbArc
 50
0.0
 51
90.000002504478161
  0
ARC
  5
111
100
AcDbEntity
  8
0
  6
CONTINUOUS
 62
               7
100
AcDbCircle
 10
80.0
 20
60.89996337890625
 30
0.0
 40
1.0
100
AcDbArc
 50
269.99999749552182
 51
0.0
  0
ARC
  5
112
100
AcDbEntity
  8
0
  6
CONTINUOUS
 62
               7
100
AcDbCircle
 10
50.0
 20
60.89996337890625
 30
0.0
 40
1.0
100
AcDbArc
 50
179.99999499104368
 51
269.99999749552182
  0
LINE
  5
113
100
AcDbEntity
  8
0
  6
CONTINUOUS
 62
               7
100
AcDbLine
 10
-93.999999733333397
 20
0.0
 30
0.0
 11
-93.999999733333397
 21
3.1999816894530682
 31
0.0
  0
LINE
  5
114
100
AcDbEntity
  8
0
  6
CONTINUOUS
 62
               7
100
AcDbLine
 10
-81.999999733333368
 20
0.0
 30
0.0
 11
-93.999999733333397
 21
0.0
 31
0.0
  0
LINE
  5
115
100
AcDbEntity
  8
0
  6
CONTINUOUS
 62
               7
100
AcDbLine
 10
-81.999999733333368
 20
0.0
 30
0.0
 11
-81.999999733333368
 21
3.1999816894530682
 31
0.0
  0
LINE
  5
116
100
AcDbEntity
  8
0
  6
CONTINUOUS
 62
               7
100
AcDbLine
 10
82.000000266666632
 20
0.0
 30
0.0
 11
82.000000266666632
 21
3.1999816894530682
 31
0.0
  0
LINE
  5
117
100
AcDbEntity
  8
0
  6
CONTINUOUS
 62
               7
100
AcDbLine
 10
82.000000266666632
 20
0.0
 30
0.0
 11
94.000000266666689
 21
0.0
 31
0.0
  0
LINE
  5
118
100
AcDbEntity
  8
0
  6
CONTINUOUS
 62
               7
100
AcDbLine
 10
94.000000266666689
 20
0.0
 30
0.0
 11
94.000000266666689
 21
3.1999816894530682
 31
0.0
  0
ARC
  5
119
100
AcDbEntity
  8
0
  6
CONTINUOUS
 62
               7
100
AcDbCircle
 10
-166.95025634765631
 20
222.89996337890642
 30
0.0
 40
5.0
100
AcDbArc
 50
90.000002504478161
 51
140.58004632746963
  0
ARC
  5
11A
100
AcDbEntity
  8
0
  6
CONTINUOUS
 62
               7
100
AcDbCircle
 10
-122.50000000000006
 20
210.19998168945327
 30
0.0
 40
50.0
100
AcDbArc
 50
161.77401403899248
 51
191.03970806633964
  0
ARC
  5
11B
100
AcDbEntity
  8
0
  6
CONTINUOUS
 62
               7
100
AcDbCircle
 10
-169.52777099609381
 20
204.19998168945327
 30
0.0
 40
6.0
100
AcDbArc
 50
198.4084749552519
 51
269.99999749552182
  0
ARC
  5
11C
100
AcDbEntity
  8
0
  6
CONTINUOUS
 62
               7
100
AcDbCircle
 10
-168.63024902343756
 20
201.1999816894533
 30
0.0
 40
3.0
100
AcDbArc
 50
191.03971170880533
 51
269.99999749552182
  0
ARC
  5
11D
100
AcDbEntity
  8
0
  6
CONTINUOUS
 62
               7
100
AcDbCircle
 10
-151.50000000000006
 20
210.19998168945327
 30
0.0
 40
25.0
100
AcDbArc
 50
140.58004632746963
 51
198.40848497316458
  0
ARC
  5
11E
100
AcDbEntity
  8
0
  6
CONTINUOUS
 62
               7
100
AcDbCircle
 10
-167.14202880859381
 20
224.89996337890642
 30
0.0
 40
3.0
100
AcDbArc
 50
90.000002504478161
 51
161.77401403899248
  0
LINE
  5
11F
100
AcDbEntity
  8
0
  6
CONTINUOUS
 62
               7
100
AcDbLine
 10
-168.50000000000006
 20
212.1999816894533
 30
0.0
 11
-168.50000000000006
 21
211.69998168945327
 31
0.0
  0
LINE
  5
120
100
AcDbEntity
  8
0
  6
CONTINUOUS
 62
               7
100
AcDbLine
 10
-164.50000000000006
 20
211.69998168945327
 30
0.0
 11
-168.50000000000006
 21
211.69998168945327
 31
0.0
  0
LINE
  5
121
100
AcDbEntity
  8
0
  6
CONTINUOUS
 62
               7
100
AcDbLine
 10
-164.50000000000006
 20
217.69998168945327
 30
0.0
 11
-168.50000000000006
 21
217.69998168945327
 31
0.0
  0
LINE
  5
122
100
AcDbEntity
  8
0
  6
CONTINUOUS
 62
               7
100
AcDbLine
 10
-168.50000000000006
 20
217.69998168945327
 30
0.0
 11
-168.50000000000006
 21
217.1999816894533
 31
0.0
  0
LINE
  5
123
100
AcDbEntity
  8
0
  6
CONTINUOUS
 62
               7
100
AcDbLine
 10
-164.50000000000006
 20
217.1999816894533
 30
0.0
 11
-168.50000000000006
 21
217.1999816894533
 31
0.0
  0
LINE
  5
124
100
AcDbEntity
  8
0
  6
CONTINUOUS
 62
               7
100
AcDbLine
 10
-164.50000000000006
 20
212.1999816894533
 30
0.0
 11
-168.50000000000006
 21
212.1999816894533
 31
0.0
  0
LINE
  5
125
100
AcDbEntity
  8
0
  6
CONTINUOUS
 62
               7
100
AcDbLine
 10
-164.50000000000006
 20
227.89999389648455
 30
0.0
 11
-166.95025634765631
 21
227.89999389648455
 31
0.0
  0
LINE
  5
126
100
AcDbEntity
  8
0
  6
CONTINUOUS
 62
               7
100
AcDbLine
 10
-164.50000000000006
 20
227.89999389648455
 30
0.0
 11
-164.50000000000006
 21
198.1999816894533
 31
0.0
  0
LINE
  5
127
100
AcDbEntity
  8
0
  6
CONTINUOUS
 62
               7
100
AcDbLine
 10
41.5
 20
221.14639282226574
 30
0.0
 11
-164.50000000000006
 21
221.14639282226574
 31
0.0
  0
LINE
  5
128
100
AcDbEntity
  8
0
  6
CONTINUOUS
 62
               7
100
AcDbLine
 10
41.5
 20
226.59997558593764
 30
0.0
 11
-164.50000000000006
 21
226.59997558593764
 31
0.0
  0
LINE
  5
129
100
AcDbEntity
  8
0
  6
CONTINUOUS
 62
               7
100
AcDbLine
 10
41.5
 20
224.06448364257824
 30
0.0
 11
-164.50000000000006
 21
224.06448364257824
 31
0.0
  0
LINE
  5
12A
100
AcDbEntity
  8
0
  6
CONTINUOUS
 62
               7
100
AcDbLine
 10
43.499999999999943
 20
219.19998168945324
 30
0.0
 11
-164.50000000000006
 21
219.19998168945324
 31
0.0
  0
LINE
  5
12B
100
AcDbEntity
  8
0
  6
CONTINUOUS
 62
               7
100
AcDbLine
 10
43.499999999999943
 20
198.1999816894533
 30
0.0
 11
-168.63024915457174
 21
198.1999816894533
 31
0.0
  0
LINE
  5
12C
100
AcDbEntity
  8
0
  6
CONTINUOUS
 62
               7
100
AcDbLine
 10
43.499999999999943
 20
207.99996948242202
 30
0.0
 11
-164.50000000000006
 21
207.99996948242202
 31
0.0
  0
LINE
  5
12D
100
AcDbEntity
  8
0
  6
CONTINUOUS
 62
               7
100
AcDbLine
 10
43.499999999999943
 20
211.39999389648452
 30
0.0
 11
-164.50000000000006
 21
211.39999389648452
 31
0.0
  0
LINE
  5
12E
100
AcDbEntity
  8
0
  6
CONTINUOUS
 62
               2
100
AcDbLine
 10
88.000000266666689
 20
6.8256487578825045
 30
0.0
 11
88.000000266666689
 21
-3.1743512421174955
 31
0.0
  0
LINE
  5
12F
100
AcDbEntity
  8
0
  6
CONTINUOUS
 62
               2
100
AcDbLine
 10
-87.999999733333368
 20
6.8256487578825045
 30
0.0
 11
-87.999999733333368
 21
-3.1743512421174955
 31
0.0
  0
LINE
  5
130
100
AcDbEntity
  8
0
  6
CONTINUOUS
 62
               2
100
AcDbLine
 10
109.06066017177983
 20
221.26064186123307
 30
0.0
 11
106.93933982822017
 21
219.13932151767347
 31
0.0
  0
LINE
  5
131
100
AcDbEntity
  8
0
  6
CONTINUOUS
 62
               2
100
AcDbLine
 10
109.06066017177983
 20
219.13932151767347
 30
0.0
 11
106.93933982822017
 21
221.26064186123307
 31
0.0
  0
LINE
  5
132
100
AcDbEntity
  8
0
  6
CONTINUOUS
 62
               2
100
AcDbLine
 10
109.06066017177983
 20
207.2606418612331
 30
0.0
 11
106.93933982822017
 21
205.13932151767349
 31
0.0
  0
LINE
  5
133
100
AcDbEntity
  8
0
  6
CONTINUOUS
 62
               2
100
AcDbLine
 10
109.06066017177983
 20
205.13932151767349
 30
0.0
 11
106.93933982822017
 21
207.2606418612331
 31
0.0
  0
ENDBLK
  5
134
100
AcDbEntity
  8
0
100
AcDbBlockEnd
  0
BLOCK
  5
135
100
AcDbEntity
  8
0
100
AcDbBlockBegin
  2
DTHB-AL3-2
 70
               0
 10
0.0
 20
0.0
 30
0.0
  3
DTHB-AL3-2
  1

  0
LINE
  5
136
100
AcDbEntity
  8
0
  6
CONTINUOUS
 62
               7
100
AcDbLine
 10
78.500015258789119
 20
395.70001220703131
 30
0.0
 11
78.500015258789119
 21
317.70001220703131
 31
0.0
  0
LINE
  5
137
100
AcDbEntity
  8
0
  6
CONTINUOUS
 62
               7
100
AcDbLine
 10
45.999999999999943
 20
395.70001220703131
 30
0.0
 11
45.999999999999943
 21
193.67230224609384
 31
0.0
  0
LINE
  5
138
100
AcDbEntity
  8
0
  6
CONTINUOUS
 62
               7
100
AcDbLine
 10
71.000015258789119
 20
394.70001220703131
 30
0.0
 11
71.000015258789119
 21
318.70007324218756
 31
0.0
  0
CIRCLE
  5
139
100
AcDbEntity
  8
0
  6
CONTINUOUS
 62
               7
100
AcDbCircle
 10
57.999999891666619
 20
382.70001220703131
 30
0.0
 40
11.5
  0
CIRCLE
  5
13A
100
AcDbEntity
  8
0
  6
CONTINUOUS
 62
               7
100
AcDbCircle
 10
57.999999891666619
 20
382.70001220703131
 30
0.0
 40
5.5
  0
CIRCLE
  5
13B
100
AcDbEntity
  8
0
  6
CONTINUOUS
 62
               7
100
AcDbCircle
 10
57.999999891666619
 20
382.70001220703131
 30
0.0
 40
7.5
  0
LINE
  5
13C
100
AcDbEntity
  8
0
  6
CONTINUOUS
 62
               7
100
AcDbLine
 10
78.500015258789119
 20
395.70001220703131
 30
0.0
 11
45.999999999999943
 21
395.70001220703131
 31
0.0
  0
LINE
  5
13D
100
AcDbEntity
  8
0
  6
CONTINUOUS
 62
               7
100
AcDbLine
 10
-50.500000000000114
 20
69.200012207031136
 30
0.0
 11
0.0
 21
69.200012207031136
 31
0.0
  0
CIRCLE
  5
13E
100
AcDbEntity
  8
0
  6
CONTINUOUS
 62
               7
100
AcDbCircle
 10
-38.500000000000057
 20
56.199996839908636
 30
0.0
 40
7.5
  0
CIRCLE
  5
13F
100
AcDbEntity
  8
0
  6
CONTINUOUS
 62
               7
100
AcDbCircle
 10
-38.500000000000057
 20
56.199996839908636
 30
0.0
 40
5.5
  0
CIRCLE
  5
140
100
AcDbEntity
  8
0
  6
CONTINUOUS
 62
               7
100
AcDbCircle
 10
-38.500000000000057
 20
56.199996839908636
 30
0.0
 40
11.5
  0
ARC
  5
141
100
AcDbEntity
  8
0
  6
CONTINUOUS
 62
               7
100
AcDbCircle
 10
-5.1000000000000796
 20
203.70001831054697
 30
0.0
 40
1.0
100
AcDbArc
 50
180.0
 51
270.0
  0
LINE
  5
142
100
AcDbEntity
  8
0
  6
CONTINUOUS
 62
               7
100
AcDbLine
 10
-1.6000000000000796
 20
202.5000038964844
 30
0.0
 11
-1.6000000000000796
 21
198.20001831054694
 31
0.0
  0
LINE
  5
143
100
AcDbEntity
  8
0
  6
CONTINUOUS
 62
               7
100
AcDbLine
 10
-1.1000000000001364
 20
198.20001831054694
 30
0.0
 11
-1.1000000000001364
 21
202.5000038964844
 31
0.0
  0
ARC
  5
144
100
AcDbEntity
  8
0
  6
CONTINUOUS
 62
               7
100
AcDbCircle
 10
-1.6000000000000796
 20
202.20001831054694
 30
0.0
 40
3.5000000000000004
100
AcDbArc
 50
180.0
 51
270.0
  0
LINE
  5
145
100
AcDbEntity
  8
0
  6
CONTINUOUS
 62
               7
100
AcDbLine
 10
-0.2201558865047559
 20
223.59193630488426
 30
0.0
 11
0.9999999999998863
 21
224.8120921913889
 31
0.0
  0
LINE
  5
146
100
AcDbEntity
  8
0
  6
CONTINUOUS
 62
               7
100
AcDbLine
 10
1.0041878807285229
 20
225.52165607335115
 30
0.0
 11
-0.5735152009221451
 21
223.94568366517757
 31
0.0
  0
LINE
  5
147
100
AcDbEntity
  8
0
  6
CONTINUOUS
 62
               7
100
AcDbLine
 10
-2.4500000015126489
 20
222.27565676528513
 30
0.0
 11
-1.5999999957707018
 21
222.35002212956738
 31
0.0
  0
LINE
  5
148
100
AcDbEntity
  8
0
  6
CONTINUOUS
 62
               7
100
AcDbLine
 10
-2.4500000015127625
 20
218.12438764877754
 30
0.0
 11
-1.5999999957709292
 21
218.05002228449524
 31
0.0
  0
LINE
  5
149
100
AcDbEntity
  8
0
  6
CONTINUOUS
 62
               7
100
AcDbLine
 10
-2.4500000238419375
 20
218.12438748909005
 30
0.0
 11
-2.4500000238419375
 21
222.27565692497262
 31
0.0
  0
ARC
  5
14A
100
AcDbEntity
  8
0
  6
CONTINUOUS
 62
               7
100
AcDbCircle
 10
3.5296558380126157
 20
220.20002220703111
 30
0.0
 40
6.3296561241149902
100
AcDbArc
 50
160.85729086486964
 51
199.14270731389303
  0
ARC
  5
14B
100
AcDbEntity
  8
0
  6
CONTINUOUS
 62
               7
100
AcDbCircle
 10
-1.6000000000000796
 20
218.20001831054697
 30
0.0
 40
3.5000000000000004
100
AcDbArc
 50
107.58284247057495
 51
180.0
  0
ARC
  5
14C
100
AcDbEntity
  8
0
  6
CONTINUOUS
 62
               7
100
AcDbCircle
 10
-5.1000000000000796
 20
216.70001831054697
 30
0.0
 40
1.0
100
AcDbArc
 50
90.0
 51
180.0
  0
ARC
  5
14D
100
AcDbEntity
  8
0
  6
CONTINUOUS
 62
               7
100
AcDbCircle
 10
1.8999999999999204
 20
221.4694521431249
 30
0.0
 40
3.5000000000000004
100
AcDbArc
 50
134.9685572354158
 51
179.99999999999997
  0
ARC
  5
14E
100
AcDbEntity
  8
0
  6
CONTINUOUS
 62
               7
100
AcDbCircle
 10
1.8999999999999204
 20
221.46945214312481
 30
0.0
 40
3.0
100
AcDbArc
 50
134.96855723541546
 51
180.0
  0
LINE
  5
14F
100
AcDbEntity
  8
0
  6
CONTINUOUS
 62
               7
100
AcDbLine
 10
-1.6000000000000796
 20
222.35002212956738
 30
0.0
 11
-1.6000000000000796
 21
215.90002831054693
 31
0.0
  0
LINE
  5
150
100
AcDbEntity
  8
0
  6
CONTINUOUS
 62
               7
100
AcDbLine
 10
-6.1000000000001364
 20
216.70001831054697
 30
0.0
 11
-6.1000000000001364
 21
203.70001831054697
 31
0.0
  0
LINE
  5
151
100
AcDbEntity
  8
0
  6
CONTINUOUS
 62
               7
100
AcDbLine
 10
-5.1000000000000796
 20
202.20001831054694
 30
0.0
 11
-5.1000000000000796
 21
218.20001831054697
 31
0.0
  0
LINE
  5
152
100
AcDbEntity
  8
0
  6
CONTINUOUS
 62
               7
100
AcDbLine
 10
-1.1000000000001364
 20
215.90002831054693
 30
0.0
 11
-1.1000000000001364
 21
221.46945214312481
 31
0.0
  0
LINE
  5
153
100
AcDbEntity
  8
0
  6
CONTINUOUS
 62
               7
100
AcDbLine
 10
-3.3999999999999204
 20
134.63020350206574
 30
0.0
 11
-3.3999999999999204
 21
139.63020350206574
 31
0.0
  0
LINE
  5
154
100
AcDbEntity
  8
0
  6
CONTINUOUS
 62
               7
100
AcDbLine
 10
-5.0999999999999091
 20
134.63020350206574
 30
0.0
 11
-1.7999999999999545
 21
134.63020350206574
 31
0.0
  0
LINE
  5
155
100
AcDbEntity
  8
0
  6
CONTINUOUS
 62
               7
100
AcDbLine
 10
-5.0999999999999091
 20
139.63020350206574
 30
0.0
 11
-1.7999999999999545
 21
139.63020350206574
 31
0.0
  0
LINE
  5
156
100
AcDbEntity
  8
0
  6
CONTINUOUS
 62
               7
100
AcDbLine
 10
-1.8000000304660375
 20
131.63020350206574
 30
0.0
 11
-5.1000000423869096
 21
132.21208254415473
 31
0.0
  0
LINE
  5
157
100
AcDbEntity
  8
0
  6
CONTINUOUS
 62
               7
100
AcDbLine
 10
-1.7999999999999545
 20
121.13020350206574
 30
0.0
 11
-1.7999999999999545
 21
141.63020350206574
 31
0.0
  0
LINE
  5
158
100
AcDbEntity
  8
0
  6
CONTINUOUS
 62
               7
100
AcDbLine
 10
-5.0999999999999091
 20
132.21208253668078
 30
0.0
 11
-5.0999999999999091
 21
141.63020350206574
 31
0.0
  0
LINE
  5
159
100
AcDbEntity
  8
0
  6
CONTINUOUS
 62
               7
100
AcDbLine
 10
-5.4999998092651481
 20
129.63020350206568
 30
0.0
 11
-1.7999999999999545
 21
129.63020350206568
 31
0.0
  0
LINE
  5
15A
100
AcDbEntity
  8
0
  6
CONTINUOUS
 62
               7
100
AcDbLine
 10
-5.4999999726121018
 20
129.63020341067653
 30
0.0
 11
-5.7999999606911956
 21
129.11058829608538
 31
0.0
  0
LINE
  5
15B
100
AcDbEntity
  8
0
  6
CONTINUOUS
 62
               7
100
AcDbLine
 10
-5.7999999999998977
 20
129.1105883287259
 30
0.0
 11
-5.7999999999998977
 21
123.14981962907984
 31
0.0
  0
LINE
  5
15C
100
AcDbEntity
  8
0
  6
CONTINUOUS
 62
               7
100
AcDbLine
 10
-5.4999998092651481
 20
129.63020350206568
 30
0.0
 11
-5.4999998092651481
 21
122.63020350206563
 31
0.0
  0
LINE
  5
15D
100
AcDbEntity
  8
0
  6
CONTINUOUS
 62
               7
100
AcDbLine
 10
-5.499999766960741
 20
122.63020391908748
 30
0.0
 11
-5.7999998861699282
 21
123.14981955392005
 31
0.0
  0
LINE
  5
15E
100
AcDbEntity
  8
0
  6
CONTINUOUS
 62
               7
100
AcDbLine
 10
-5.4999998092651481
 20
122.63020350206563
 30
0.0
 11
-1.7999999999999545
 21
122.63020350206563
 31
0.0
  0
LINE
  5
15F
100
AcDbEntity
  8
0
  6
CONTINUOUS
 62
               7
100
AcDbLine
 10
-5.0999999999999091
 20
141.63020350206574
 30
0.0
 11
0.0
 21
141.63020350206574
 31
0.0
  0
LINE
  5
160
100
AcDbEntity
  8
0
  6
CONTINUOUS
 62
               7
100
AcDbLine
 10
-1.7999999999999545
 20
121.13020350206574
 30
0.0
 11
0.0
 21
121.13020350206574
 31
0.0
  0
LINE
  5
161
100
AcDbEntity
  8
0
  6
CONTINUOUS
 62
               2
100
AcDbLine
 10
-7.759659242168766
 20
126.13020350206574
 30
0.0
 11
2.8815962061286768
 21
126.13020350206574
 31
0.0
  0
LINE
  5
162
100
AcDbEntity
  8
0
  6
CONTINUOUS
 62
               7
100
AcDbLine
 10
40.0
 20
195.20001220703136
 30
0.0
 11
0.0
 21
195.20001220703136
 31
0.0
  0
CIRCLE
  5
163
100
AcDbEntity
  8
0
  6
CONTINUOUS
 62
               7
100
AcDbCircle
 10
6.0
 20
12.200003051757733
 30
0.0
 40
3.1499999999999999
  0
CIRCLE
  5
164
100
AcDbEntity
  8
0
  6
CONTINUOUS
 62
               7
100
AcDbCircle
 10
148.5
 20
12.200003051757733
 30
0.0
 40
3.1499999999999999
  0
CIRCLE
  5
165
100
AcDbEntity
  8
0
  6
CONTINUOUS
 62
               7
100
AcDbCircle
 10
291.0
 20
12.200003051757733
 30
0.0
 40
3.1499999999999999
  0
LINE
  5
166
100
AcDbEntity
  8
0
  6
CONTINUOUS
 62
               7
100
AcDbLine
 10
300.00001525878906
 20
81.200012207031136
 30
0.0
 11
300.0
 21
30.200012207031193
 31
0.0
  0
LINE
  5
167
100
AcDbEntity
  8
0
  6
CONTINUOUS
 62
               7
100
AcDbLine
 10
49.800003051757869
 20
317.70007324218756
 30
0.0
 11
45.999999999999943
 21
317.70007324218756
 31
0.0
  0
LINE
  5
168
100
AcDbEntity
  8
0
  6
CONTINUOUS
 62
               7
100
AcDbLine
 10
-3.0000000000002274
 20
215.90002831054693
 30
0.0
 11
-3.0000000000002274
 21
202.5000038964844
 31
0.0
  0
LINE
  5
169
100
AcDbEntity
  8
0
  6
CONTINUOUS
 62
               7
100
AcDbLine
 10
-3.8500000015122851
 20
215.27565066176953
 30
0.0
 11
-2.9999999957705086
 21
215.35001602605175
 31
0.0
  0
LINE
  5
16A
100
AcDbEntity
  8
0
  6
CONTINUOUS
 62
               7
100
AcDbLine
 10
-3.8500000015128535
 20
211.12438154526205
 30
0.0
 11
-2.999999995771077
 21
211.0500161809797
 31
0.0
  0
LINE
  5
16B
100
AcDbEntity
  8
0
  6
CONTINUOUS
 62
               7
100
AcDbLine
 10
-3.8500000238420853
 20
211.12438138557457
 30
0.0
 11
-3.8500000238415168
 21
215.27565082145702
 31
0.0
  0
LINE
  5
16C
100
AcDbEntity
  8
0
  6
CONTINUOUS
 62
               7
100
AcDbLine
 10
-3.8500000015122851
 20
207.27565066176942
 30
0.0
 11
-2.9999999957705086
 21
207.35001602605178
 31
0.0
  0
LINE
  5
16D
100
AcDbEntity
  8
0
  6
CONTINUOUS
 62
               7
100
AcDbLine
 10
-3.8500000015128535
 20
203.12438154526197
 30
0.0
 11
-2.999999995771077
 21
203.05001618097964
 31
0.0
  0
LINE
  5
16E
100
AcDbEntity
  8
0
  6
CONTINUOUS
 62
               7
100
AcDbLine
 10
-3.8500000238420853
 20
203.12438138557445
 30
0.0
 11
-3.8500000238415168
 21
207.27565082145713
 31
0.0
  0
ARC
  5
16F
100
AcDbEntity
  8
0
  6
CONTINUOUS
 62
               7
100
AcDbCircle
 10
2.129655838012809
 20
213.20001610351537
 30
0.0
 40
6.3296561241149902
100
AcDbArc
 50
160.85729086486762
 51
199.14270731389101
  0
ARC
  5
170
100
AcDbEntity
  8
0
  6
CONTINUOUS
 62
               7
100
AcDbCircle
 10
2.129655838012809
 20
205.2000161035154
 30
0.0
 40
6.3296561241149902
100
AcDbArc
 50
160.85729086486762
 51
199.14270731389101
  0
LINE
  5
171
100
AcDbEntity
  8
0
  6
CONTINUOUS
 62
               7
100
AcDbLine
 10
0.9999999999998863
 20
215.90002831054693
 30
0.0
 11
-3.0000000000002274
 21
215.90002831054693
 31
0.0
  0
LINE
  5
172
100
AcDbEntity
  8
0
  6
CONTINUOUS
 62
               7
100
AcDbLine
 10
0.9999999999998863
 20
202.5000038964844
 30
0.0
 11
-3.0000000000002274
 21
202.5000038964844
 31
0.0
  0
LINE
  5
173
100
AcDbEntity
  8
0
  6
CONTINUOUS
 62
               7
100
AcDbLine
 10
60.210951212351119
 20
318.20004272460949
 30
0.0
 11
53.789079305226949
 21
318.20004272460949
 31
0.0
  0
LINE
  5
174
100
AcDbEntity
  8
0
  6
CONTINUOUS
 62
               7
100
AcDbLine
 10
52.210951212351006
 20
318.20004272460949
 30
0.0
 11
49.800003051757869
 21
318.20004272460949
 31
0.0
  0
CIRCLE
  5
175
100
AcDbEntity
  8
0
  6
CONTINUOUS
 62
               7
100
AcDbCircle
 10
53.000015258789006
 20
316.20007324218756
 30
0.0
 40
2.1499999999999999
  0
CIRCLE
  5
176
100
AcDbEntity
  8
0
  6
CONTINUOUS
 62
               7
100
AcDbCircle
 10
53.000015258789006
 20
316.20007324218756
 30
0.0
 40
2.0749999999999997
  0
CIRCLE
  5
177
100
AcDbEntity
  8
0
  6
CONTINUOUS
 62
               7
100
AcDbCircle
 10
61.000015258789119
 20
316.20007324218756
 30
0.0
 40
2.1499999999999999
  0
CIRCLE
  5
178
100
AcDbEntity
  8
0
  6
CONTINUOUS
 62
               7
100
AcDbCircle
 10
61.000015258789119
 20
316.20007324218756
 30
0.0
 40
2.0749999999999997
  0
LINE
  5
179
100
AcDbEntity
  8
0
  6
CONTINUOUS
 62
               7
100
AcDbLine
 10
63.700027465820256
 20
318.20007324218761
 30
0.0
 11
63.700027465820256
 21
307.70007324218756
 31
0.0
  0
LINE
  5
17A
100
AcDbEntity
  8
0
  6
CONTINUOUS
 62
               7
100
AcDbLine
 10
50.300003051757813
 20
318.20007324218761
 30
0.0
 11
50.300003051757813
 21
307.70007324218756
 31
0.0
  0
ARC
  5
17B
100
AcDbEntity
  8
0
  6
CONTINUOUS
 62
               7
100
AcDbCircle
 10
51.000015258789119
 20
308.70007324218756
 30
0.0
 40
1.5
100
AcDbArc
 50
179.99999749552188
 51
270.00000000000006
  0
ARC
  5
17C
100
AcDbEntity
  8
0
  6
CONTINUOUS
 62
               7
100
AcDbCircle
 10
63.000015258789006
 20
312.70007324218756
 30
0.0
 40
1.5
100
AcDbArc
 50
0.0000025044782182
 51
62.181333512908971
  0
ARC
  5
17D
100
AcDbEntity
  8
0
  6
CONTINUOUS
 62
               7
100
AcDbCircle
 10
63.000015258789006
 20
308.70007324218756
 30
0.0
 40
1.5
100
AcDbArc
 50
270.00000000000006
 51
0.0000025044782182
  0
LINE
  5
17E
100
AcDbEntity
  8
0
  6
CONTINUOUS
 62
               7
100
AcDbLine
 10
64.500015258788949
 20
308.70004272460943
 30
0.0
 11
64.500015258788949
 21
312.70004272460937
 31
0.0
  0
LINE
  5
17F
100
AcDbEntity
  8
0
  6
CONTINUOUS
 62
               7
100
AcDbLine
 10
51.000015258789119
 20
307.20007324218756
 30
0.0
 11
63.000015258789006
 21
307.20007324218756
 31
0.0
  0
LINE
  5
180
100
AcDbEntity
  8
0
  6
CONTINUOUS
 62
               7
100
AcDbLine
 10
50.300003051757813
 20
307.70007324218756
 30
0.0
 11
63.700027465820256
 21
307.70007324218756
 31
0.0
  0
LINE
  5
181
100
AcDbEntity
  8
0
  6
CONTINUOUS
 62
               7
100
AcDbLine
 10
49.500015258789119
 20
308.70007324218756
 30
0.0
 11
49.500015258789119
 21
312.70007324218756
 31
0.0
  0
ARC
  5
182
100
AcDbEntity
  8
0
  6
CONTINUOUS
 62
               7
100
AcDbCircle
 10
51.000015258789119
 20
312.70007324218756
 30
0.0
 40
1.5
100
AcDbArc
 50
117.81866648709102
 51
179.99999749552188
  0
LINE
  5
183
100
AcDbEntity
  8
0
  6
CONTINUOUS
 62
               7
100
AcDbLine
 10
59.000015258789006
 20
325.95007324218756
 30
0.0
 11
59.000015258789006
 21
318.20007324218761
 31
0.0
  0
ARC
  5
184
100
AcDbEntity
  8
0
  6
CONTINUOUS
 62
               7
100
AcDbCircle
 10
57.250015258789119
 20
325.95007324218756
 30
0.0
 40
1.7500000000000002
100
AcDbArc
 50
0.0
 51
180.0
  0
LINE
  5
185
100
AcDbEntity
  8
0
  6
CONTINUOUS
 62
               7
100
AcDbLine
 10
55.500015258789006
 20
325.95007324218756
 30
0.0
 11
55.500015258789006
 21
322.74036542226247
 31
0.0
  0
LINE
  5
186
100
AcDbEntity
  8
0
  6
CONTINUOUS
 62
               7
100
AcDbLine
 10
58.350015258789028
 20
327.31113900106919
 30
0.0
 11
58.350015258789028
 21
318.20007324218761
 31
0.0
  0
LINE
  5
187
100
AcDbEntity
  8
0
  6
CONTINUOUS
 62
               7
100
AcDbLine
 10
55.65001525878904
 20
326.65894558612536
 30
0.0
 11
55.65001525878904
 21
322.57847811739657
 31
0.0
  0
LINE
  5
188
100
AcDbEntity
  8
0
  6
CONTINUOUS
 62
               7
100
AcDbLine
 10
64.200027465820369
 20
318.20004272460949
 30
0.0
 11
61.789079305227062
 21
318.20004272460949
 31
0.0
  0
LINE
  5
189
100
AcDbEntity
  8
0
  6
CONTINUOUS
 62
               7
100
AcDbLine
 10
64.200027465820369
 20
318.20004272460949
 30
0.0
 11
64.200027465820369
 21
317.70004272460937
 31
0.0
  0
LINE
  5
18A
100
AcDbEntity
  8
0
  6
CONTINUOUS
 62
               7
100
AcDbLine
 10
49.800003051757869
 20
318.20004272460949
 30
0.0
 11
49.800003051757869
 21
317.70004272460937
 31
0.0
  0
LINE
  5
18B
100
AcDbEntity
  8
0
  6
CONTINUOUS
 62
               7
100
AcDbLine
 10
55.65001525878904
 20
319.82163784940042
 30
0.0
 11
55.65001525878904
 21
318.20004272460949
 31
0.0
  0
LINE
  5
18C
100
AcDbEntity
  8
0
  6
CONTINUOUS
 62
               7
100
AcDbLine
 10
55.500015258789006
 20
319.65975054453452
 30
0.0
 11
55.500015258789006
 21
318.20004272460949
 31
0.0
  0
CIRCLE
  5
18D
100
AcDbEntity
  8
0
  6
CONTINUOUS
 62
               7
100
AcDbCircle
 10
61.000015258789119
 20
305.20007324218756
 30
0.0
 40
0.8
  0
CIRCLE
  5
18E
100
AcDbEntity
  8
0
  6
CONTINUOUS
 62
               7
100
AcDbCircle
 10
53.000015258789006
 20
305.20007324218756
 30
0.0
 40
0.8
  0
CIRCLE
  5
18F
100
AcDbEntity
  8
0
  6
CONTINUOUS
 62
               7
100
AcDbCircle
 10
54.0
 20
321.20007324218756
 30
0.0
 40
2.0750000476837158
  0
CIRCLE
  5
190
100
AcDbEntity
  8
0
  6
CONTINUOUS
 62
               7
100
AcDbCircle
 10
54.0
 20
321.20007324218756
 30
0.0
 40
2.1500000953674316
  0
CIRCLE
  5
191
100
AcDbEntity
  8
0
  6
CONTINUOUS
 62
               7
100
AcDbCircle
 10
68.000015258789063
 20
321.20007324218756
 30
0.0
 40
2.0750000476837158
  0
CIRCLE
  5
192
100
AcDbEntity
  8
0
  6
CONTINUOUS
 62
               7
100
AcDbCircle
 10
68.000015258789063
 20
321.20007324218756
 30
0.0
 40
2.1500000953674316
  0
ARC
  5
193
100
AcDbEntity
  8
0
  6
CONTINUOUS
 62
               7
100
AcDbCircle
 10
33.870346069335938
 20
220.20001220703134
 30
0.0
 40
6.3296561241149902
100
AcDbArc
 50
340.85729006794099
 51
19.142706516964399
  0
ARC
  5
194
100
AcDbEntity
  8
0
  6
CONTINUOUS
 62
               7
100
AcDbCircle
 10
33.870346069335938
 20
206.20001220703136
 30
0.0
 40
6.3296561241149902
100
AcDbArc
 50
340.85729006794099
 51
19.142706516964399
  0
ARC
  5
195
100
AcDbEntity
  8
0
  6
CONTINUOUS
 62
               7
100
AcDbCircle
 10
31.5
 20
227.20001220703136
 30
0.0
 40
2.4000000953674316
100
AcDbArc
 50
331.17621921195268
 51
163.04248945089057
  0
ARC
  5
196
100
AcDbEntity
  8
0
  6
CONTINUOUS
 62
               7
100
AcDbCircle
 10
8.4999999999998863
 20
227.20001220703136
 30
0.0
 40
2.4000000953674316
100
AcDbArc
 50
16.957513850518463
 51
208.82378579700367
  0
ARC
  5
197
100
AcDbEntity
  8
0
  6
CONTINUOUS
 62
               7
100
AcDbCircle
 10
35.999999999999886
 20
201.20001220703136
 30
0.0
 40
3.0
100
AcDbArc
 50
269.99999749552182
 51
0.0
  0
ARC
  5
198
100
AcDbEntity
  8
0
  6
CONTINUOUS
 62
               7
100
AcDbCircle
 10
33.000000000000057
 20
228.70001220703136
 30
0.0
 40
2.0
100
AcDbArc
 50
60.000001669652114
 51
90.000002504478161
  0
ARC
  5
199
100
AcDbEntity
  8
0
  6
CONTINUOUS
 62
               7
100
AcDbCircle
 10
7.0
 20
228.70001220703136
 30
0.0
 40
2.0
100
AcDbArc
 50
90.000002504478161
 51
120.00000333930423
  0
ARC
  5
19A
100
AcDbEntity
  8
0
  6
CONTINUOUS
 62
               7
100
AcDbCircle
 10
30.792892456054744
 20
225.60000610351568
 30
0.0
 40
2.2999999523162842
100
AcDbArc
 50
45.00000125223908
 51
90.000002504478161
  0
ARC
  5
19B
100
AcDbEntity
  8
0
  6
CONTINUOUS
 62
               7
100
AcDbCircle
 10
4.5
 20
219.19583129882821
 30
0.0
 40
3.5000000000000004
100
AcDbArc
 50
135.00000034162267
 51
180.00000500895632
  0
ARC
  5
19C
100
AcDbEntity
  8
0
  6
CONTINUOUS
 62
               7
100
AcDbCircle
 10
35.500000000000057
 20
219.19583129882821
 30
0.0
 40
3.5000000000000004
100
AcDbArc
 50
0.0000000000000509
 51
45.00000125223908
  0
ARC
  5
19D
100
AcDbEntity
  8
0
  6
CONTINUOUS
 62
               7
100
AcDbCircle
 10
9.2071075439453125
 20
225.60000610351568
 30
0.0
 40
2.2999999523162842
100
AcDbArc
 50
90.000002504478161
 51
135.00000034162267
  0
ARC
  5
19E
100
AcDbEntity
  8
0
  6
CONTINUOUS
 62
               7
100
AcDbCircle
 10
4.0
 20
201.20001220703136
 30
0.0
 40
3.0
100
AcDbArc
 50
179.99999499104368
 51
269.99999749552182
  0
ARC
  5
19F
100
AcDbEntity
  8
0
  6
CONTINUOUS
 62
               7
100
AcDbCircle
 10
33.000000000000057
 20
228.70001220703136
 30
0.0
 40
1.5
100
AcDbArc
 50
45.00000125223908
 51
90.000002504478161
  0
ARC
  5
1A0
100
AcDbEntity
  8
0
  6
CONTINUOUS
 62
               7
100
AcDbCircle
 10
38.499999999999886
 20
230.69998168945324
 30
0.0
 40
0.5
100
AcDbArc
 50
7.4208451464152363
 51
90.000002504478161
  0
ARC
  5
1A1
100
AcDbEntity
  8
0
  6
CONTINUOUS
 62
               7
100
AcDbCircle
 10
7.0
 20
228.70001220703136
 30
0.0
 40
1.5
100
AcDbArc
 50
90.000002504478161
 51
135.00000034162267
  0
ARC
  5
1A2
100
AcDbEntity
  8
0
  6
CONTINUOUS
 62
               7
100
AcDbCircle
 10
34.5
 20
230.69998168945324
 30
0.0
 40
0.5
100
AcDbArc
 50
90.000002504478161
 51
180.00000500895632
  0
ARC
  5
1A3
100
AcDbEntity
  8
0
  6
CONTINUOUS
 62
               7
100
AcDbCircle
 10
5.5000000000000568
 20
230.69998168945324
 30
0.0
 40
0.5
100
AcDbArc
 50
0.0
 51
90.000002504478161
  0
ARC
  5
1A4
100
AcDbEntity
  8
0
  6
CONTINUOUS
 62
               7
100
AcDbCircle
 10
1.5
 20
230.69998168945324
 30
0.0
 40
0.5
100
AcDbArc
 50
89.999995674288996
 51
172.57915473989922
  0
ARC
  5
1A5
100
AcDbEntity
  8
0
  6
CONTINUOUS
 62
               7
100
AcDbCircle
 10
70.699996948242187
 20
196.24978637695324
 30
0.0
 40
5.0
100
AcDbArc
 50
309.41994593172478
 51
0.0
  0
ARC
  5
1A6
100
AcDbEntity
  8
0
  6
CONTINUOUS
 62
               7
100
AcDbCircle
 10
58.000015258789063
 20
240.70004272460949
 30
0.0
 40
50.0
100
AcDbArc
 50
258.96028760794934
 51
288.22598846548567
  0
ARC
  5
1A7
100
AcDbEntity
  8
0
  6
CONTINUOUS
 62
               7
100
AcDbCircle
 10
52.000000000000057
 20
193.67230224609384
 30
0.0
 40
6.0
100
AcDbArc
 50
180.00000500895632
 51
251.59152071903708
  0
ARC
  5
1A8
100
AcDbEntity
  8
0
  6
CONTINUOUS
 62
               7
100
AcDbCircle
 10
49.0
 20
194.56979370117199
 30
0.0
 40
3.0
100
AcDbArc
 50
180.00000500895632
 51
258.96028396548365
  0
ARC
  5
1A9
100
AcDbEntity
  8
0
  6
CONTINUOUS
 62
               7
100
AcDbCircle
 10
58.000015258789063
 20
211.70004272460949
 30
0.0
 40
25.0
100
AcDbArc
 50
251.5915175313136
 51
309.41994593172478
  0
ARC
  5
1AA
100
AcDbEntity
  8
0
  6
CONTINUOUS
 62
               7
100
AcDbCircle
 10
72.699996948242244
 20
196.05801391601571
 30
0.0
 40
3.0
100
AcDbArc
 50
288.22598846548567
 51
0.0
  0
LINE
  5
1AB
100
AcDbEntity
  8
0
  6
CONTINUOUS
 62
               7
100
AcDbLine
 10
39.850006103515625
 20
222.27563476562511
 30
0.0
 11
39.850006103515625
 21
218.12435913085946
 31
0.0
  0
LINE
  5
1AC
100
AcDbEntity
  8
0
  6
CONTINUOUS
 62
               7
100
AcDbLine
 10
39.850001199449707
 20
222.27565004033482
 30
0.0
 11
39.00000705321014
 21
222.35001489197711
 31
0.0
  0
LINE
  5
1AD
100
AcDbEntity
  8
0
  6
CONTINUOUS
 62
               7
100
AcDbLine
 10
39.849997277798593
 20
218.12439009496583
 30
0.0
 11
39.000003131558969
 21
218.05002524332355
 31
0.0
  0
LINE
  5
1AE
100
AcDbEntity
  8
0
  6
CONTINUOUS
 62
               7
100
AcDbLine
 10
39.850006103515625
 20
208.27563476562509
 30
0.0
 11
39.850006103515625
 21
204.12435913085949
 31
0.0
  0
LINE
  5
1AF
100
AcDbEntity
  8
0
  6
CONTINUOUS
 62
               7
100
AcDbLine
 10
39.85000594065923
 20
208.27565881534119
 30
0.0
 11
39.000011794419663
 21
208.35002366698345
 31
0.0
  0
LINE
  5
1B0
100
AcDbEntity
  8
0
  6
CONTINUOUS
 62
               7
100
AcDbLine
 10
39.849995196371367
 20
204.12436846852199
 30
0.0
 11
39.000001050131573
 21
204.05000361687974
 31
0.0
  0
LINE
  5
1B1
100
AcDbEntity
  8
0
  6
CONTINUOUS
 62
               7
100
AcDbLine
 10
59.199996948242131
 20
307.20007324218756
 30
0.0
 11
59.199996948242131
 21
198.70004272460949
 31
0.0
  0
LINE
  5
1B2
100
AcDbEntity
  8
0
  6
CONTINUOUS
 62
               7
100
AcDbLine
 10
55.800003051757813
 20
307.20007324218756
 30
0.0
 11
55.800003051757813
 21
198.70004272460949
 31
0.0
  0
LINE
  5
1B3
100
AcDbEntity
  8
0
  6
CONTINUOUS
 62
               7
100
AcDbLine
 10
0.75
 20
236.70001220703136
 30
0.0
 11
2.2872314453123863
 21
236.70001220703136
 31
0.0
  0
LINE
  5
1B4
100
AcDbEntity
  8
0
  6
CONTINUOUS
 62
               7
100
AcDbLine
 10
0.750012713729916
 20
236.70002402908733
 30
0.0
 11
1.2500034242892752
 21
237.20001284307739
 31
0.0
  0
LINE
  5
1B5
100
AcDbEntity
  8
0
  6
CONTINUOUS
 62
               7
100
AcDbLine
 10
0.75
 20
236.70001220703136
 30
0.0
 11
0.75
 21
235.01977539062511
 31
0.0
  0
LINE
  5
1B6
100
AcDbEntity
  8
0
  6
CONTINUOUS
 62
               7
100
AcDbLine
 10
1.25
 20
237.20001220703136
 30
0.0
 11
2.7446746826171875
 21
237.20001220703136
 31
0.0
  0
LINE
  5
1B7
100
AcDbEntity
  8
0
  6
CONTINUOUS
 62
               7
100
AcDbLine
 10
33.000000000000057
 20
230.70001220703136
 30
0.0
 11
7.0
 21
230.70001220703136
 31
0.0
  0
LINE
  5
1B8
100
AcDbEntity
  8
0
  6
CONTINUOUS
 62
               7
100
AcDbLine
 10
2.0251136446941018
 20
221.67068549040698
 30
0.0
 11
7.5807614147134359
 21
227.22633326042623
 31
0.0
  0
LINE
  5
1B9
100
AcDbEntity
  8
0
  6
CONTINUOUS
 62
               7
100
AcDbLine
 10
37.974861568784036
 20
221.67069627999996
 30
0.0
 11
32.419235377950827
 21
227.22632247083322
 31
0.0
  0
LINE
  5
1BB
100
AcDbEntity
  8
0
  6
CENTER
 62
               7
100
AcDbLine
 10
3.4999999999998863
 20
232.22763061523449
 30
0.0
 11
3.4999999999998863
 21
224.71981811523446
 31
0.0
  0
LINE
  5
1BC
100
AcDbEntity
  8
0
  6
CONTINUOUS
 62
               7
100
AcDbLine
 10
5.9999999999998863
 20
230.69998168945324
 30
0.0
 11
5.9999999999998863
 21
225.64556884765634
 31
0.0
  0
LINE
  5
1BD
100
AcDbEntity
  8
0
  6
CONTINUOUS
 62
               7
100
AcDbLine
 10
30.792892456054744
 20
227.89999389648449
 30
0.0
 11
9.2071075439453125
 21
227.89999389648449
 31
0.0
  0
LINE
  5
1BE
100
AcDbEntity
  8
0
  6
CONTINUOUS
 62
               7
100
AcDbLine
 10
33.000000000000057
 20
230.20001220703136
 30
0.0
 11
7.0
 21
230.20001220703136
 31
0.0
  0
LINE
  5
1BF
100
AcDbEntity
  8
0
  6
CENTER
 62
               7
100
AcDbLine
 10
36.5
 20
232.22763061523449
 30
0.0
 11
36.5
 21
224.71981811523446
 31
0.0
  0
LINE
  5
1C0
100
AcDbEntity
  8
0
  6
CONTINUOUS
 62
               7
100
AcDbLine
 10
34.0
 20
230.69998168945324
 30
0.0
 11
34.0
 21
225.64556884765634
 31
0.0
  0
LINE
  5
1C1
100
AcDbEntity
  8
0
  6
CONTINUOUS
 62
               7
100
AcDbLine
 10
60.000015258789006
 20
194.70004272460946
 30
0.0
 11
59.500015258789063
 21
194.70004272460946
 31
0.0
  0
LINE
  5
1C2
100
AcDbEntity
  8
0
  6
CONTINUOUS
 62
               7
100
AcDbLine
 10
59.500015258789063
 20
198.70004272460949
 30
0.0
 11
59.500015258789063
 21
194.70004272460946
 31
0.0
  0
LINE
  5
1C3
100
AcDbEntity
  8
0
  6
CONTINUOUS
 62
               7
100
AcDbLine
 10
65.500015258789063
 20
198.70004272460949
 30
0.0
 11
65.500015258789063
 21
194.70004272460946
 31
0.0
  0
LINE
  5
1C4
100
AcDbEntity
  8
0
  6
CONTINUOUS
 62
               7
100
AcDbLine
 10
65.500015258789063
 20
194.70004272460946
 30
0.0
 11
65.000015258789006
 21
194.70004272460946
 31
0.0
  0
LINE
  5
1C5
100
AcDbEntity
  8
0
  6
CONTINUOUS
 62
               7
100
AcDbLine
 10
65.000015258789006
 20
198.70004272460949
 30
0.0
 11
65.000015258789006
 21
194.70004272460946
 31
0.0
  0
LINE
  5
1C6
100
AcDbEntity
  8
0
  6
CONTINUOUS
 62
               7
100
AcDbLine
 10
60.000015258789006
 20
198.70004272460949
 30
0.0
 11
60.000015258789006
 21
194.70004272460946
 31
0.0
  0
LINE
  5
1C7
100
AcDbEntity
  8
0
  6
CONTINUOUS
 62
               7
100
AcDbLine
 10
75.699996948242188
 20
198.70004272460949
 30
0.0
 11
75.699996948242188
 21
196.24978637695324
 31
0.0
  0
LINE
  5
1C8
100
AcDbEntity
  8
0
  6
CONTINUOUS
 62
               7
100
AcDbLine
 10
71.864486694335881
 20
254.70004272460949
 30
0.0
 11
71.864486694335881
 21
198.70004272460949
 31
0.0
  0
LINE
  5
1C9
100
AcDbEntity
  8
0
  6
CONTINUOUS
 62
               7
100
AcDbLine
 10
79.499984741210881
 20
296.70007324218761
 30
0.0
 11
79.499984741210881
 21
254.70004272460949
 31
0.0
  0
LINE
  5
1CA
100
AcDbEntity
  8
0
  6
CONTINUOUS
 62
               7
100
AcDbLine
 10
66.999984741210881
 20
317.70007324218756
 30
0.0
 11
66.999984741210881
 21
198.70004272460949
 31
0.0
  0
LINE
  5
1CB
100
AcDbEntity
  8
0
  6
CONTINUOUS
 62
               7
100
AcDbLine
 10
78.500015258789119
 20
317.70007324218756
 30
0.0
 11
64.200027465820369
 21
317.70007324218756
 31
0.0
  0
LINE
  5
1CC
100
AcDbEntity
  8
0
  6
CONTINUOUS
 62
               7
100
AcDbLine
 10
68.946395874023381
 20
317.70007324218756
 30
0.0
 11
68.946395874023381
 21
296.70007324218761
 31
0.0
  0
LINE
  5
1CD
100
AcDbEntity
  8
0
  6
CONTINUOUS
 62
               7
100
AcDbLine
 10
71.864486694335881
 20
317.70007324218756
 30
0.0
 11
71.864486694335881
 21
296.70007324218761
 31
0.0
  0
LINE
  5
1CE
100
AcDbEntity
  8
0
  6
CONTINUOUS
 62
               7
100
AcDbLine
 10
79.499984741210881
 20
254.70004272460949
 30
0.0
 11
67.900009155273437
 21
254.70004272460949
 31
0.0
  0
LINE
  5
1CF
100
AcDbEntity
  8
0
  6
CONTINUOUS
 62
               7
100
AcDbLine
 10
74.400009155273438
 20
254.70004272460949
 30
0.0
 11
74.400009155273438
 21
198.70004272460949
 31
0.0
  0
LINE
  5
1D0
100
AcDbEntity
  8
0
  6
CONTINUOUS
 62
               7
100
AcDbLine
 10
74.400009155273438
 20
317.70007324218756
 30
0.0
 11
74.400009155273438
 21
296.70007324218761
 31
0.0
  0
LINE
  5
1D1
100
AcDbEntity
  8
0
  6
CONTINUOUS
 62
               7
100
AcDbLine
 10
75.699996948242188
 20
198.70004272460949
 30
0.0
 11
45.999999999999943
 21
198.70004272460949
 31
0.0
  0
LINE
  5
1D2
100
AcDbEntity
  8
0
  6
CONTINUOUS
 62
               2
100
AcDbLine
 10
49.119137397574377
 20
243.20004272460949
 30
0.0
 11
42.747314453125
 21
243.20004272460949
 31
0.0
  0
LINE
  5
1D3
100
AcDbEntity
  8
0
  6
CONTINUOUS
 62
               2
100
AcDbLine
 10
81.053573608398494
 20
288.70007324218761
 30
0.0
 11
76.403400493337301
 21
288.70007324218761
 31
0.0
  0
LINE
  5
1D4
100
AcDbEntity
  8
0
  6
CONTINUOUS
 62
               7
100
AcDbLine
 10
67.900009155273437
 20
296.70007324218761
 30
0.0
 11
67.900009155273437
 21
254.70004272460949
 31
0.0
  0
LINE
  5
1D5
100
AcDbEntity
  8
0
  6
CONTINUOUS
 62
               7
100
AcDbLine
 10
79.499984741210881
 20
296.70007324218761
 30
0.0
 11
67.900009155273437
 21
296.70007324218761
 31
0.0
  0
LINE
  5
1D6
100
AcDbEntity
  8
0
  6
CONTINUOUS
 62
               7
100
AcDbLine
 10
68.946395874023381
 20
254.70004272460949
 30
0.0
 11
68.946395874023381
 21
198.70004272460949
 31
0.0
  0
LINE
  5
1D7
100
AcDbEntity
  8
0
  6
CONTINUOUS
 62
               2
100
AcDbLine
 10
81.614120483398437
 20
262.70004272460949
 30
0.0
 11
76.687611567251565
 21
262.70004272460949
 31
0.0
  0
LINE
  5
1D8
100
AcDbEntity
  8
0
  6
CONTINUOUS
 62
               7
100
AcDbLine
 10
32.149993896484375
 20
188.20001220703136
 30
0.0
 11
32.149993896484375
 21
78.200012207031136
 31
0.0
  0
LINE
  5
1D9
100
AcDbEntity
  8
0
  6
CONTINUOUS
 62
               7
100
AcDbLine
 10
27.850006103515682
 20
188.20001220703136
 30
0.0
 11
27.850006103515682
 21
78.200012207031136
 31
0.0
  0
LINE
  5
1DA
100
AcDbEntity
  8
0
  6
CONTINUOUS
 62
               7
100
AcDbLine
 10
12.149993896484375
 20
188.20001220703136
 30
0.0
 11
12.149993896484375
 21
78.200012207031136
 31
0.0
  0
LINE
  5
1DB
100
AcDbEntity
  8
0
  6
CONTINUOUS
 62
               7
100
AcDbLine
 10
7.8500061035156818
 20
188.20001220703136
 30
0.0
 11
7.8500061035156818
 21
78.200012207031136
 31
0.0
  0
LINE
  5
1DC
100
AcDbEntity
  8
0
  6
CONTINUOUS
 62
               7
100
AcDbLine
 10
0.0
 20
188.20001220703136
 30
0.0
 11
40.0
 21
188.20001220703136
 31
0.0
  0
LINE
  5
1DD
100
AcDbEntity
  8
0
  6
CONTINUOUS
 62
               7
100
AcDbLine
 10
0.000011762507711
 20
234.20001749789492
 30
0.0
 11
43.000034418228097
 21
281.20002583705548
 31
0.0
  0
LINE
  5
1DE
100
AcDbEntity
  8
0
  6
CONTINUOUS
 62
               2
100
AcDbLine
 10
3.4999999999998863
 20
234.41988114373464
 30
0.0
 11
3.4999999999998863
 21
224.42593383789071
 31
0.0
  0
LINE
  5
1DF
100
AcDbEntity
  8
0
  6
CONTINUOUS
 62
               2
100
AcDbLine
 10
36.5
 20
234.89051142643365
 30
0.0
 11
36.5
 21
224.42593383789071
 31
0.0
  0
LINE
  5
1E0
100
AcDbEntity
  8
0
  6
CONTINUOUS
 62
               2
100
AcDbLine
 10
42.582282697547839
 20
273.20004272460949
 30
0.0
 11
49.403348471488641
 21
273.20004272460949
 31
0.0
  0
LINE
  5
1E1
100
AcDbEntity
  8
0
  6
CONTINUOUS
 62
               7
100
AcDbLine
 10
0.0
 20
231.20001220703136
 30
0.0
 11
45.999999999999943
 21
231.20001220703136
 31
0.0
  0
LINE
  5
1E2
100
AcDbEntity
  8
0
  6
CONTINUOUS
 62
               7
100
AcDbLine
 10
43.0
 20
281.20001220703136
 30
0.0
 11
45.999999999999943
 21
281.20001220703136
 31
0.0
  0
LINE
  5
1E3
100
AcDbEntity
  8
0
  6
CONTINUOUS
 62
               7
100
AcDbLine
 10
0.0
 20
231.20001220703136
 30
0.0
 11
0.0
 21
234.20001220703136
 31
0.0
  0
LINE
  5
1E4
100
AcDbEntity
  8
0
  6
CONTINUOUS
 62
               7
100
AcDbLine
 10
40.0
 20
78.200012207031136
 30
0.0
 11
40.0
 21
198.20001220703136
 31
0.0
  0
LINE
  5
1E5
100
AcDbEntity
  8
0
  6
CONTINUOUS
 62
               7
100
AcDbLine
 10
0.0
 20
78.200012207031136
 30
0.0
 11
0.0
 21
198.20001220703136
 31
0.0
  0
LINE
  5
1E6
100
AcDbEntity
  8
0
  6
CONTINUOUS
 62
               7
100
AcDbLine
 10
-1.6000000000000796
 20
198.20001220703136
 30
0.0
 11
40.0
 21
198.20001220703136
 31
0.0
  0
LINE
  5
1E7
100
AcDbEntity
  8
0
  6
CONTINUOUS
 62
               7
100
AcDbLine
 10
0.9999999999998863
 20
230.69998168945324
 30
0.0
 11
0.9999999999998863
 21
198.20001220703136
 31
0.0
  0
LINE
  5
1E8
100
AcDbEntity
  8
0
  6
CONTINUOUS
 62
               7
100
AcDbLine
 10
39.0
 20
230.69998168945324
 30
0.0
 11
39.0
 21
198.20001220703136
 31
0.0
  0
LINE
  5
1E9
100
AcDbEntity
  8
0
  6
CONTINUOUS
 62
               7
100
AcDbLine
 10
-51.500000000000114
 20
44.200012207031136
 30
0.0
 11
0.0
 21
44.200012207031136
 31
0.0
  0
LINE
  5
1EA
100
AcDbEntity
  8
0
  6
CONTINUOUS
 62
               7
100
AcDbLine
 10
-51.500000000000114
 20
76.700012207031136
 30
0.0
 11
0.0
 21
76.700012207031136
 31
0.0
  0
LINE
  5
1EB
100
AcDbEntity
  8
0
  6
CONTINUOUS
 62
               7
100
AcDbLine
 10
-51.500000000000114
 20
76.700012207031136
 30
0.0
 11
-51.500000000000114
 21
44.200012207031136
 31
0.0
  0
LINE
  5
1EC
100
AcDbEntity
  8
0
  6
CONTINUOUS
 62
               7
100
AcDbLine
 10
0.0
 20
78.200012207031136
 30
0.0
 11
301.94667053222656
 21
78.200012207031136
 31
0.0
  0
LINE
  5
1ED
100
AcDbEntity
  8
0
  6
CONTINUOUS
 62
               7
100
AcDbLine
 10
40.0
 20
81.200012207031136
 30
0.0
 11
300.88340759277344
 21
81.200012207031136
 31
0.0
  0
LINE
  5
1EE
100
AcDbEntity
  8
0
  6
CONTINUOUS
 62
               7
100
AcDbLine
 10
0.0
 20
3.2000122070311363
 30
0.0
 11
298.0
 21
3.2000122070311363
 31
0.0
  0
LINE
  5
1EF
100
AcDbEntity
  8
0
  6
CONTINUOUS
 62
               7
100
AcDbLine
 10
119.05000305175781
 20
44.250009155273347
 30
0.0
 11
110.94999694824219
 21
44.250009155273347
 31
0.0
  0
LINE
  5
1F0
100
AcDbEntity
  8
0
  6
CONTINUOUS
 62
               7
100
AcDbLine
 10
110.94999694824219
 20
42.150015258788983
 30
0.0
 11
119.05000305175781
 21
42.150015258788983
 31
0.0
  0
ARC
  5
1F1
100
AcDbEntity
  8
0
  6
CONTINUOUS
 62
               7
100
AcDbCircle
 10
118.95000609159467
 20
43.200012207031136
 30
0.0
 40
1.049996948242196
100
AcDbArc
 50
270.0
 51
90.0
  0
ARC
  5
1F2
100
AcDbEntity
  8
0
  6
CONTINUOUS
 62
               7
100
AcDbCircle
 10
111.04999390840533
 20
43.200012207031136
 30
0.0
 40
1.049996948242196
100
AcDbArc
 50
90.0
 51
270.0
  0
ARC
  5
1F3
100
AcDbEntity
  8
0
  6
CONTINUOUS
 62
               7
100
AcDbCircle
 10
96.049993908405327
 20
43.200012207031136
 30
0.0
 40
1.049996948242196
100
AcDbArc
 50
90.0
 51
270.0
  0
LINE
  5
1F4
100
AcDbEntity
  8
0
  6
CONTINUOUS
 62
               7
100
AcDbLine
 10
95.949996948242188
 20
42.150015258788983
 30
0.0
 11
104.05000305175781
 21
42.150015258788983
 31
0.0
  0
ARC
  5
1F5
100
AcDbEntity
  8
0
  6
CONTINUOUS
 62
               7
100
AcDbCircle
 10
103.95000609159467
 20
43.200012207031136
 30
0.0
 40
1.049996948242196
100
AcDbArc
 50
270.0
 51
90.0
  0
LINE
  5
1F6
100
AcDbEntity
  8
0
  6
CONTINUOUS
 62
               7
100
AcDbLine
 10
104.05000305175781
 20
44.250009155273347
 30
0.0
 11
95.949996948242188
 21
44.250009155273347
 31
0.0
  0
ARC
  5
1F7
100
AcDbEntity
  8
0
  6
CONTINUOUS
 62
               7
100
AcDbCircle
 10
103.54999390840533
 20
38.200012207031136
 30
0.0
 40
1.049996948242196
100
AcDbArc
 50
90.0
 51
270.0
  0
LINE
  5
1F8
100
AcDbEntity
  8
0
  6
CONTINUOUS
 62
               7
100
AcDbLine
 10
103.44999694824219
 20
37.150015258788983
 30
0.0
 11
111.55000305175781
 21
37.150015258788983
 31
0.0
  0
ARC
  5
1F9
100
AcDbEntity
  8
0
  6
CONTINUOUS
 62
               7
100
AcDbCircle
 10
111.45000609159467
 20
38.200012207031136
 30
0.0
 40
1.049996948242196
100
AcDbArc
 50
270.0
 51
90.0
  0
LINE
  5
1FA
100
AcDbEntity
  8
0
  6
CONTINUOUS
 62
               7
100
AcDbLine
 10
111.55000305175781
 20
39.250009155273347
 30
0.0
 11
103.44999694824219
 21
39.250009155273347
 31
0.0
  0
ARC
  5
1FB
100
AcDbEntity
  8
0
  6
CONTINUOUS
 62
               7
100
AcDbCircle
 10
88.549993908405327
 20
38.200012207031136
 30
0.0
 40
1.049996948242196
100
AcDbArc
 50
90.0
 51
270.0
  0
LINE
  5
1FC
100
AcDbEntity
  8
0
  6
CONTINUOUS
 62
               7
100
AcDbLine
 10
88.449996948242188
 20
37.150015258788983
 30
0.0
 11
96.550003051757812
 21
37.150015258788983
 31
0.0
  0
ARC
  5
1FD
100
AcDbEntity
  8
0
  6
CONTINUOUS
 62
               7
100
AcDbCircle
 10
96.450006091594673
 20
38.200012207031136
 30
0.0
 40
1.049996948242196
100
AcDbArc
 50
270.0
 51
90.0
  0
LINE
  5
1FE
100
AcDbEntity
  8
0
  6
CONTINUOUS
 62
               7
100
AcDbLine
 10
96.550003051757812
 20
39.250009155273347
 30
0.0
 11
88.449996948242188
 21
39.250009155273347
 31
0.0
  0
ARC
  5
1FF
100
AcDbEntity
  8
0
  6
CONTINUOUS
 62
               7
100
AcDbCircle
 10
81.049993908405327
 20
43.200012207031136
 30
0.0
 40
1.049996948242196
100
AcDbArc
 50
90.0
 51
270.0
  0
LINE
  5
200
100
AcDbEntity
  8
0
  6
CONTINUOUS
 62
               7
100
AcDbLine
 10
80.949996948242188
 20
42.150015258788983
 30
0.0
 11
89.050003051757813
 21
42.150015258788983
 31
0.0
  0
ARC
  5
201
100
AcDbEntity
  8
0
  6
CONTINUOUS
 62
               7
100
AcDbCircle
 10
88.950006091594673
 20
43.200012207031136
 30
0.0
 40
1.049996948242196
100
AcDbArc
 50
270.0
 51
90.0
  0
LINE
  5
202
100
AcDbEntity
  8
0
  6
CONTINUOUS
 62
               7
100
AcDbLine
 10
89.050003051757813
 20
44.250009155273347
 30
0.0
 11
80.949996948242188
 21
44.250009155273347
 31
0.0
  0
ARC
  5
203
100
AcDbEntity
  8
0
  6
CONTINUOUS
 62
               7
100
AcDbCircle
 10
66.049993908405327
 20
43.200012207031136
 30
0.0
 40
1.049996948242196
100
AcDbArc
 50
90.0
 51
270.0
  0
LINE
  5
204
100
AcDbEntity
  8
0
  6
CONTINUOUS
 62
               7
100
AcDbLine
 10
65.949996948242188
 20
42.150015258788983
 30
0.0
 11
74.050003051757756
 21
42.150015258788983
 31
0.0
  0
ARC
  5
205
100
AcDbEntity
  8
0
  6
CONTINUOUS
 62
               7
100
AcDbCircle
 10
73.950006091594673
 20
43.200012207031136
 30
0.0
 40
1.049996948242196
100
AcDbArc
 50
270.0
 51
90.0
  0
LINE
  5
206
100
AcDbEntity
  8
0
  6
CONTINUOUS
 62
               7
100
AcDbLine
 10
74.050003051757756
 20
44.250009155273347
 30
0.0
 11
65.949996948242188
 21
44.250009155273347
 31
0.0
  0
ARC
  5
207
100
AcDbEntity
  8
0
  6
CONTINUOUS
 62
               7
100
AcDbCircle
 10
73.549993908405327
 20
38.200012207031136
 30
0.0
 40
1.049996948242196
100
AcDbArc
 50
90.0
 51
270.0
  0
LINE
  5
208
100
AcDbEntity
  8
0
  6
CONTINUOUS
 62
               7
100
AcDbLine
 10
73.449996948242187
 20
37.150015258788983
 30
0.0
 11
81.550003051757813
 21
37.150015258788983
 31
0.0
  0
ARC
  5
209
100
AcDbEntity
  8
0
  6
CONTINUOUS
 62
               7
100
AcDbCircle
 10
81.450006091594673
 20
38.200012207031136
 30
0.0
 40
1.049996948242196
100
AcDbArc
 50
270.0
 51
90.0
  0
LINE
  5
20A
100
AcDbEntity
  8
0
  6
CONTINUOUS
 62
               7
100
AcDbLine
 10
81.550003051757813
 20
39.250009155273347
 30
0.0
 11
73.449996948242187
 21
39.250009155273347
 31
0.0
  0
ARC
  5
20B
100
AcDbEntity
  8
0
  6
CONTINUOUS
 62
               7
100
AcDbCircle
 10
81.049993908405327
 20
33.200012207031136
 30
0.0
 40
1.049996948242196
100
AcDbArc
 50
90.0
 51
270.0
  0
LINE
  5
20C
100
AcDbEntity
  8
0
  6
CONTINUOUS
 62
               7
100
AcDbLine
 10
80.949996948242188
 20
32.150015258788983
 30
0.0
 11
89.050003051757813
 21
32.150015258788983
 31
0.0
  0
ARC
  5
20D
100
AcDbEntity
  8
0
  6
CONTINUOUS
 62
               7
100
AcDbCircle
 10
88.950006091594673
 20
33.200012207031136
 30
0.0
 40
1.049996948242196
100
AcDbArc
 50
270.0
 51
90.0
  0
LINE
  5
20E
100
AcDbEntity
  8
0
  6
CONTINUOUS
 62
               7
100
AcDbLine
 10
89.050003051757813
 20
34.250009155273347
 30
0.0
 11
80.949996948242188
 21
34.250009155273347
 31
0.0
  0
ARC
  5
20F
100
AcDbEntity
  8
0
  6
CONTINUOUS
 62
               7
100
AcDbCircle
 10
66.049993908405327
 20
33.200012207031136
 30
0.0
 40
1.049996948242196
100
AcDbArc
 50
90.0
 51
270.0
  0
LINE
  5
210
100
AcDbEntity
  8
0
  6
CONTINUOUS
 62
               7
100
AcDbLine
 10
65.949996948242188
 20
32.150015258788983
 30
0.0
 11
74.050003051757756
 21
32.150015258788983
 31
0.0
  0
ARC
  5
211
100
AcDbEntity
  8
0
  6
CONTINUOUS
 62
               7
100
AcDbCircle
 10
73.950006091594673
 20
33.200012207031136
 30
0.0
 40
1.049996948242196
100
AcDbArc
 50
270.0
 51
90.0
  0
LINE
  5
212
100
AcDbEntity
  8
0
  6
CONTINUOUS
 62
               7
100
AcDbLine
 10
74.050003051757756
 20
34.250009155273347
 30
0.0
 11
65.949996948242188
 21
34.250009155273347
 31
0.0
  0
ARC
  5
213
100
AcDbEntity
  8
0
  6
CONTINUOUS
 62
               7
100
AcDbCircle
 10
96.049993908405327
 20
33.200012207031136
 30
0.0
 40
1.049996948242196
100
AcDbArc
 50
90.0
 51
270.0
  0
LINE
  5
214
100
AcDbEntity
  8
0
  6
CONTINUOUS
 62
               7
100
AcDbLine
 10
95.949996948242188
 20
32.150015258788983
 30
0.0
 11
104.05000305175781
 21
32.150015258788983
 31
0.0
  0
ARC
  5
215
100
AcDbEntity
  8
0
  6
CONTINUOUS
 62
               7
100
AcDbCircle
 10
103.95000609159467
 20
33.200012207031136
 30
0.0
 40
1.049996948242196
100
AcDbArc
 50
270.0
 51
90.0
  0
LINE
  5
216
100
AcDbEntity
  8
0
  6
CONTINUOUS
 62
               7
100
AcDbLine
 10
104.05000305175781
 20
34.250009155273347
 30
0.0
 11
95.949996948242188
 21
34.250009155273347
 31
0.0
  0
ARC
  5
217
100
AcDbEntity
  8
0
  6
CONTINUOUS
 62
               7
100
AcDbCircle
 10
111.04999390840533
 20
33.200012207031136
 30
0.0
 40
1.049996948242196
100
AcDbArc
 50
90.0
 51
270.0
  0
LINE
  5
218
100
AcDbEntity
  8
0
  6
CONTINUOUS
 62
               7
100
AcDbLine
 10
110.94999694824219
 20
32.150015258788983
 30
0.0
 11
119.05000305175781
 21
32.150015258788983
 31
0.0
  0
ARC
  5
219
100
AcDbEntity
  8
0
  6
CONTINUOUS
 62
               7
100
AcDbCircle
 10
118.95000609159467
 20
33.200012207031136
 30
0.0
 40
1.049996948242196
100
AcDbArc
 50
270.0
 51
90.0
  0
LINE
  5
21A
100
AcDbEntity
  8
0
  6
CONTINUOUS
 62
               7
100
AcDbLine
 10
119.05000305175781
 20
34.250009155273347
 30
0.0
 11
110.94999694824219
 21
34.250009155273347
 31
0.0
  0
ARC
  5
21B
100
AcDbEntity
  8
0
  6
CONTINUOUS
 62
               7
100
AcDbCircle
 10
103.54999390840533
 20
28.200012207031136
 30
0.0
 40
1.049996948242196
100
AcDbArc
 50
90.0
 51
270.0
  0
LINE
  5
21C
100
AcDbEntity
  8
0
  6
CONTINUOUS
 62
               7
100
AcDbLine
 10
103.44999694824219
 20
27.150015258788983
 30
0.0
 11
111.55000305175781
 21
27.150015258788983
 31
0.0
  0
ARC
  5
21D
100
AcDbEntity
  8
0
  6
CONTINUOUS
 62
               7
100
AcDbCircle
 10
111.45000609159467
 20
28.200012207031136
 30
0.0
 40
1.049996948242196
100
AcDbArc
 50
270.0
 51
90.0
  0
LINE
  5
21E
100
AcDbEntity
  8
0
  6
CONTINUOUS
 62
               7
100
AcDbLine
 10
111.55000305175781
 20
29.250009155273347
 30
0.0
 11
103.44999694824219
 21
29.250009155273347
 31
0.0
  0
ARC
  5
21F
100
AcDbEntity
  8
0
  6
CONTINUOUS
 62
               7
100
AcDbCircle
 10
88.549993908405327
 20
28.200012207031136
 30
0.0
 40
1.049996948242196
100
AcDbArc
 50
90.0
 51
270.0
  0
LINE
  5
220
100
AcDbEntity
  8
0
  6
CONTINUOUS
 62
               7
100
AcDbLine
 10
88.449996948242188
 20
27.150015258788983
 30
0.0
 11
96.550003051757812
 21
27.150015258788983
 31
0.0
  0
ARC
  5
221
100
AcDbEntity
  8
0
  6
CONTINUOUS
 62
               7
100
AcDbCircle
 10
96.450006091594673
 20
28.200012207031136
 30
0.0
 40
1.049996948242196
100
AcDbArc
 50
270.0
 51
90.0
  0
LINE
  5
222
100
AcDbEntity
  8
0
  6
CONTINUOUS
 62
               7
100
AcDbLine
 10
96.550003051757812
 20
29.250009155273347
 30
0.0
 11
88.449996948242188
 21
29.250009155273347
 31
0.0
  0
ARC
  5
223
100
AcDbEntity
  8
0
  6
CONTINUOUS
 62
               7
100
AcDbCircle
 10
73.549993908405327
 20
28.200012207031136
 30
0.0
 40
1.049996948242196
100
AcDbArc
 50
90.0
 51
270.0
  0
LINE
  5
224
100
AcDbEntity
  8
0
  6
CONTINUOUS
 62
               7
100
AcDbLine
 10
73.449996948242187
 20
27.150015258788983
 30
0.0
 11
81.550003051757813
 21
27.150015258788983
 31
0.0
  0
ARC
  5
225
100
AcDbEntity
  8
0
  6
CONTINUOUS
 62
               7
100
AcDbCircle
 10
81.450006091594673
 20
28.200012207031136
 30
0.0
 40
1.049996948242196
100
AcDbArc
 50
270.0
 51
90.0
  0
LINE
  5
226
100
AcDbEntity
  8
0
  6
CONTINUOUS
 62
               7
100
AcDbLine
 10
81.550003051757813
 20
29.250009155273347
 30
0.0
 11
73.449996948242187
 21
29.250009155273347
 31
0.0
  0
ARC
  5
227
100
AcDbEntity
  8
0
  6
CONTINUOUS
 62
               7
100
AcDbCircle
 10
66.049993908405327
 20
23.200012207031136
 30
0.0
 40
1.049996948242196
100
AcDbArc
 50
90.0
 51
270.0
  0
LINE
  5
228
100
AcDbEntity
  8
0
  6
CONTINUOUS
 62
               7
100
AcDbLine
 10
65.949996948242188
 20
22.150015258788983
 30
0.0
 11
74.050003051757756
 21
22.150015258788983
 31
0.0
  0
ARC
  5
229
100
AcDbEntity
  8
0
  6
CONTINUOUS
 62
               7
100
AcDbCircle
 10
73.950006091594673
 20
23.200012207031136
 30
0.0
 40
1.049996948242196
100
AcDbArc
 50
270.0
 51
90.0
  0
LINE
  5
22A
100
AcDbEntity
  8
0
  6
CONTINUOUS
 62
               7
100
AcDbLine
 10
74.050003051757756
 20
24.250009155273347
 30
0.0
 11
65.949996948242188
 21
24.250009155273347
 31
0.0
  0
ARC
  5
22B
100
AcDbEntity
  8
0
  6
CONTINUOUS
 62
               7
100
AcDbCircle
 10
81.049993908405327
 20
23.200012207031136
 30
0.0
 40
1.049996948242196
100
AcDbArc
 50
90.0
 51
270.0
  0
LINE
  5
22C
100
AcDbEntity
  8
0
  6
CONTINUOUS
 62
               7
100
AcDbLine
 10
80.949996948242188
 20
22.150015258788983
 30
0.0
 11
89.050003051757813
 21
22.150015258788983
 31
0.0
  0
ARC
  5
22D
100
AcDbEntity
  8
0
  6
CONTINUOUS
 62
               7
100
AcDbCircle
 10
88.950006091594673
 20
23.200012207031136
 30
0.0
 40
1.049996948242196
100
AcDbArc
 50
270.0
 51
90.0
  0
LINE
  5
22E
100
AcDbEntity
  8
0
  6
CONTINUOUS
 62
               7
100
AcDbLine
 10
89.050003051757813
 20
24.250009155273347
 30
0.0
 11
80.949996948242188
 21
24.250009155273347
 31
0.0
  0
ARC
  5
22F
100
AcDbEntity
  8
0
  6
CONTINUOUS
 62
               7
100
AcDbCircle
 10
96.049993908405327
 20
23.200012207031136
 30
0.0
 40
1.049996948242196
100
AcDbArc
 50
90.0
 51
270.0
  0
LINE
  5
230
100
AcDbEntity
  8
0
  6
CONTINUOUS
 62
               7
100
AcDbLine
 10
95.949996948242188
 20
22.150015258788983
 30
0.0
 11
104.05000305175781
 21
22.150015258788983
 31
0.0
  0
ARC
  5
231
100
AcDbEntity
  8
0
  6
CONTINUOUS
 62
               7
100
AcDbCircle
 10
103.95000609159467
 20
23.200012207031136
 30
0.0
 40
1.049996948242196
100
AcDbArc
 50
270.0
 51
90.0
  0
LINE
  5
232
100
AcDbEntity
  8
0
  6
CONTINUOUS
 62
               7
100
AcDbLine
 10
104.05000305175781
 20
24.250009155273347
 30
0.0
 11
95.949996948242188
 21
24.250009155273347
 31
0.0
  0
ARC
  5
233
100
AcDbEntity
  8
0
  6
CONTINUOUS
 62
               7
100
AcDbCircle
 10
111.04999390840533
 20
23.200012207031136
 30
0.0
 40
1.049996948242196
100
AcDbArc
 50
90.0
 51
270.0
  0
LINE
  5
234
100
AcDbEntity
  8
0
  6
CONTINUOUS
 62
               7
100
AcDbLine
 10
110.94999694824219
 20
22.150015258788983
 30
0.0
 11
119.05000305175781
 21
22.150015258788983
 31
0.0
  0
ARC
  5
235
100
AcDbEntity
  8
0
  6
CONTINUOUS
 62
               7
100
AcDbCircle
 10
118.95000609159467
 20
23.200012207031136
 30
0.0
 40
1.049996948242196
100
AcDbArc
 50
270.0
 51
90.0
  0
LINE
  5
236
100
AcDbEntity
  8
0
  6
CONTINUOUS
 62
               7
100
AcDbLine
 10
119.05000305175781
 20
24.250009155273347
 30
0.0
 11
110.94999694824219
 21
24.250009155273347
 31
0.0
  0
LINE
  5
237
100
AcDbEntity
  8
0
  6
CONTINUOUS
 62
               7
100
AcDbLine
 10
75.000015258789006
 20
78.200012207031136
 30
0.0
 11
75.000015258789006
 21
81.200012207031136
 31
0.0
  0
LINE
  5
238
100
AcDbEntity
  8
0
  6
CONTINUOUS
 62
               7
100
AcDbLine
 10
0.0
 20
3.2000122070311363
 30
0.0
 11
0.0
 21
78.200012207031136
 31
0.0
  0
LINE
  5
239
100
AcDbEntity
  8
0
  6
CONTINUOUS
 62
               7
100
AcDbLine
 10
292.20000076293945
 20
66.600006103515568
 30
0.0
 11
292.20000076293945
 21
56.200012207031193
 31
0.0
  0
LINE
  5
23A
100
AcDbEntity
  8
0
  6
CONTINUOUS
 62
               7
100
AcDbLine
 10
289.79999923706055
 20
66.600006103515568
 30
0.0
 11
289.79999923706055
 21
56.200012207031193
 31
0.0
  0
LINE
  5
23B
100
AcDbEntity
  8
0
  6
CONTINUOUS
 62
               7
100
AcDbLine
 10
289.79999923706055
 20
66.600006103515568
 30
0.0
 11
292.20000076293945
 21
66.600006103515568
 31
0.0
  0
LINE
  5
23C
100
AcDbEntity
  8
0
  6
CONTINUOUS
 62
               7
100
AcDbLine
 10
289.79999923706055
 20
56.200012207031193
 30
0.0
 11
292.20000076293945
 21
56.200012207031193
 31
0.0
  0
LINE
  5
23D
100
AcDbEntity
  8
0
  6
CONTINUOUS
 62
               7
100
AcDbLine
 10
298.0
 20
30.200012207031193
 30
0.0
 11
304.58219887812277
 21
30.200012207031193
 31
0.0
  0
LINE
  5
23E
100
AcDbEntity
  8
0
  6
CONTINUOUS
 62
               7
100
AcDbLine
 10
298.0
 20
30.200012207031193
 30
0.0
 11
298.0
 21
3.2000122070311363
 31
0.0
  0
ARC
  5
23F
100
AcDbEntity
  8
0
  6
CONTINUOUS
 62
               7
100
AcDbCircle
 10
54.000015258789063
 20
54.300018310546761
 30
0.0
 40
250.0
100
AcDbArc
 50
355.14609020783729
 51
4.8539097921627041
  0
ARC
  5
240
100
AcDbEntity
  8
0
  6
CONTINUOUS
 62
               7
100
AcDbCircle
 10
300.11418151855469
 20
33.399993896484318
 30
0.0
 40
3.0
100
AcDbArc
 50
269.99999749552182
 51
355.14609020783729
  0
ARC
  5
241
100
AcDbEntity
  8
0
  6
CONTINUOUS
 62
               7
100
AcDbCircle
 10
300.11418151855469
 20
75.200012207031193
 30
0.0
 40
3.0
100
AcDbArc
 50
4.8539097921627041
 51
90.000002504478161
  0
ARC
  5
242
100
AcDbEntity
  8
0
  6
CONTINUOUS
 62
               7
100
AcDbCircle
 10
210.00001525878906
 20
44.300018310546761
 30
0.0
 40
100.0
100
AcDbArc
 50
354.62440334723948
 51
20.455793309426426
  0
ARC
  5
243
100
AcDbEntity
  8
0
  6
CONTINUOUS
 62
               7
100
AcDbCircle
 10
300.88340759277344
 20
78.200012207031136
 30
0.0
 40
3.0
100
AcDbArc
 50
20.455793309426426
 51
90.000002504478161
  0
ARC
  5
244
100
AcDbEntity
  8
0
  6
CONTINUOUS
 62
               7
100
AcDbCircle
 10
304.58219909667969
 20
35.399993896484318
 30
0.0
 40
5.0
100
AcDbArc
 50
269.99999749552182
 51
354.62440334723948
  0
ARC
  5
245
100
AcDbEntity
  8
0
  6
CONTINUOUS
 62
               7
100
AcDbCircle
 10
301.94667053222656
 20
75.200012207031193
 30
0.0
 40
3.0
100
AcDbArc
 50
18.575665919617233
 51
90.000002504478161
  0
LINE
  5
246
100
AcDbEntity
  8
0
  6
CENTER
 62
               7
100
AcDbLine
 10
277.50001525878906
 20
88.478607177734261
 30
0.0
 11
277.50001525878906
 21
81.929962158203011
 31
0.0
  0
LINE
  5
247
100
AcDbEntity
  8
0
  6
CENTER
 62
               7
100
AcDbLine
 10
241.50001525878909
 20
88.295013427734318
 30
0.0
 11
241.50001525878909
 21
81.929962158203011
 31
0.0
  0
LINE
  5
248
100
AcDbEntity
  8
0
  6
CONTINUOUS
 62
               7
100
AcDbLine
 10
280.50001525878906
 20
87.200012207031136
 30
0.0
 11
280.50001525878906
 21
81.200012207031136
 31
0.0
  0
LINE
  5
249
100
AcDbEntity
  8
0
  6
CONTINUOUS
 62
               7
100
AcDbLine
 10
238.50001525878909
 20
87.200012207031136
 30
0.0
 11
238.50001525878909
 21
81.200012207031136
 31
0.0
  0
LINE
  5
24A
100
AcDbEntity
  8
0
  6
CONTINUOUS
 62
               7
100
AcDbLine
 10
238.50001525878909
 20
87.200012207031136
 30
0.0
 11
280.50001525878906
 21
87.200012207031136
 31
0.0
  0
LINE
  5
24B
100
AcDbEntity
  8
0
  6
CONTINUOUS
 62
               7
100
AcDbLine
 10
238.50001525878909
 20
83.200012207031136
 30
0.0
 11
280.50001525878906
 21
83.200012207031136
 31
0.0
  0
LINE
  5
24C
100
AcDbEntity
  8
0
  6
CONTINUOUS
 62
               7
100
AcDbLine
 10
10.800048828124829
 20
3.2000122070311363
 30
0.0
 11
10.800048828124829
 21
0.0
 31
0.0
  0
LINE
  5
24D
100
AcDbEntity
  8
0
  6
CONTINUOUS
 62
               7
100
AcDbLine
 10
22.800048828125
 20
3.2000122070311363
 30
0.0
 11
22.800048828125
 21
0.0
 31
0.0
  0
LINE
  5
24E
100
AcDbEntity
  8
0
  6
CONTINUOUS
 62
               7
100
AcDbLine
 10
10.800048828124829
 20
0.0
 30
0.0
 11
22.800048828125
 21
0.0
 31
0.0
  0
LINE
  5
24F
100
AcDbEntity
  8
0
  6
CONTINUOUS
 62
               7
100
AcDbLine
 10
276.80004882812494
 20
3.2000122070311363
 30
0.0
 11
276.80004882812494
 21
0.0
 31
0.0
  0
LINE
  5
250
100
AcDbEntity
  8
0
  6
CONTINUOUS
 62
               7
100
AcDbLine
 10
288.80004882812477
 20
3.2000122070311363
 30
0.0
 11
288.80004882812477
 21
0.0
 31
0.0
  0
LINE
  5
251
100
AcDbEntity
  8
0
  6
CONTINUOUS
 62
               7
100
AcDbLine
 10
276.80004882812494
 20
0.0
 30
0.0
 11
288.80004882812477
 21
0.0
 31
0.0
  0
LINE
  5
252
100
AcDbEntity
  8
0
  6
CONTINUOUS
 62
               2
100
AcDbLine
 10
282.80004882812472
 20
6.8256487578825045
 30
0.0
 11
282.80004882812472
 21
-3.1743512421174955
 31
0.0
  0
LINE
  5
253
100
AcDbEntity
  8
0
  6
CONTINUOUS
 62
               2
100
AcDbLine
 10
16.800048828125
 20
6.8256487578825045
 30
0.0
 11
16.800048828125
 21
-3.1743512421174955
 31
0.0
  0
LINE
  5
254
100
AcDbEntity
  8
0
  6
CONTINUOUS
 62
               2
100
AcDbLine
 10
7.0606601717798299
 20
13.260663223537563
 30
0.0
 11
4.9393398282201701
 21
11.139342879977903
 31
0.0
  0
LINE
  5
255
100
AcDbEntity
  8
0
  6
CONTINUOUS
 62
               2
100
AcDbLine
 10
7.0606601717798299
 20
11.139342879977903
 30
0.0
 11
4.9393398282201701
 21
13.260663223537563
 31
0.0
  0
LINE
  5
256
100
AcDbEntity
  8
0
  6
CONTINUOUS
 62
               2
100
AcDbLine
 10
149.56066017177983
 20
13.260663223537563
 30
0.0
 11
147.43933982822017
 21
11.139342879977903
 31
0.0
  0
LINE
  5
257
100
AcDbEntity
  8
0
  6
CONTINUOUS
 62
               2
100
AcDbLine
 10
149.56066017177983
 20
11.139342879977903
 30
0.0
 11
147.43933982822017
 21
13.260663223537563
 31
0.0
  0
LINE
  5
258
100
AcDbEntity
  8
0
  6
CONTINUOUS
 62
               2
100
AcDbLine
 10
292.06066017177983
 20
13.260663223537563
 30
0.0
 11
289.93933982822017
 21
11.139342879977903
 31
0.0
  0
LINE
  5
259
100
AcDbEntity
  8
0
  6
CONTINUOUS
 62
               2
100
AcDbLine
 10
292.06066017177983
 20
11.139342879977903
 30
0.0
 11
289.93933982822017
 21
13.260663223537563
 31
0.0
  0
LINE
  5
25A
100
AcDbEntity
  8
0
  6
CONTINUOUS
 62
               2
100
AcDbLine
 10
55.06066017177983
 20
322.26073341396739
 30
0.0
 11
52.93933982822017
 21
320.13941307040773
 31
0.0
  0
LINE
  5
25B
100
AcDbEntity
  8
0
  6
CONTINUOUS
 62
               2
100
AcDbLine
 10
55.06066017177983
 20
320.13941307040773
 30
0.0
 11
52.93933982822017
 21
322.26073341396739
 31
0.0
  0
LINE
  5
25C
100
AcDbEntity
  8
0
  6
CONTINUOUS
 62
               2
100
AcDbLine
 10
54.060675430568836
 20
317.26073341396739
 30
0.0
 11
51.939355087009176
 21
315.13941307040773
 31
0.0
  0
LINE
  5
25D
100
AcDbEntity
  8
0
  6
CONTINUOUS
 62
               2
100
AcDbLine
 10
54.060675430568836
 20
315.13941307040773
 30
0.0
 11
51.939355087009176
 21
317.26073341396739
 31
0.0
  0
LINE
  5
25E
100
AcDbEntity
  8
0
  6
CONTINUOUS
 62
               2
100
AcDbLine
 10
62.060675430568949
 20
317.26073341396739
 30
0.0
 11
59.939355087009289
 21
315.13941307040773
 31
0.0
  0
LINE
  5
25F
100
AcDbEntity
  8
0
  6
CONTINUOUS
 62
               2
100
AcDbLine
 10
62.060675430568949
 20
315.13941307040773
 30
0.0
 11
59.939355087009289
 21
317.26073341396739
 31
0.0
  0
LINE
  5
260
100
AcDbEntity
  8
0
  6
CONTINUOUS
 62
               2
100
AcDbLine
 10
69.060675430568892
 20
322.26073341396739
 30
0.0
 11
66.939355087009233
 21
320.13941307040773
 31
0.0
  0
LINE
  5
261
100
AcDbEntity
  8
0
  6
CONTINUOUS
 62
               2
100
AcDbLine
 10
69.060675430568892
 20
320.13941307040773
 30
0.0
 11
66.939355087009233
 21
322.26073341396739
 31
0.0
  0
ENDBLK
  5
262
100
AcDbEntity
  8
0
100
AcDbBlockEnd
  0
BLOCK
  5
263
100
AcDbEntity
  8
0
100
AcDbBlockBegin
  2
DTHB-AL3-3
 70
               0
 10
0.0
 20
0.0
 30
0.0
  3
DTHB-AL3-3
  1

  0
LINE
  5
264
100
AcDbEntity
  8
0
  6
CONTINUOUS
 62
               7
100
AcDbLine
 10
19.0
 20
51.500000000000057
 30
0.0
 11
-21.600000063333226
 21
51.500000000000057
 31
0.0
  0
ARC
  5
265
100
AcDbEntity
  8
0
  6
CONTINUOUS
 62
               7
100
AcDbCircle
 10
-21.600000063333226
 20
47.500000000000057
 30
0.0
 40
3.5000000000000004
100
AcDbArc
 50
90.0
 51
180.0
  0
ARC
  5
266
100
AcDbEntity
  8
0
  6
CONTINUOUS
 62
               7
100
AcDbCircle
 10
-21.600000063333226
 20
31.500000000000057
 30
0.0
 40
3.5000000000000004
100
AcDbArc
 50
180.0
 51
270.0
  0
LINE
  5
267
100
AcDbEntity
  8
0
  6
CONTINUOUS
 62
               7
100
AcDbLine
 10
-26.100000063333312
 20
46.000000000000057
 30
0.0
 11
-26.100000063333312
 21
33.0
 31
0.0
  0
LINE
  5
268
100
AcDbEntity
  8
0
  6
CONTINUOUS
 62
               7
100
AcDbLine
 10
-25.100000063333255
 20
31.500000000000057
 30
0.0
 11
-25.100000063333255
 21
47.500000000000057
 31
0.0
  0
ARC
  5
269
100
AcDbEntity
  8
0
  6
CONTINUOUS
 62
               7
100
AcDbCircle
 10
-25.100000063333255
 20
46.000000000000057
 30
0.0
 40
1.0
100
AcDbArc
 50
90.0
 51
180.0
  0
ARC
  5
26A
100
AcDbEntity
  8
0
  6
CONTINUOUS
 62
               7
100
AcDbCircle
 10
-25.100000063333255
 20
33.0
 30
0.0
 40
1.0
100
AcDbArc
 50
180.0
 51
270.0
  0
LINE
  5
26B
100
AcDbEntity
  8
0
  6
CONTINUOUS
 62
               2
100
AcDbLine
 10
-19.850192447390157
 20
39.500000000000057
 30
0.0
 11
-28.736910230856296
 21
39.500000000000057
 31
0.0
  0
LINE
  5
26C
100
AcDbEntity
  8
0
  6
CONTINUOUS
 62
               7
100
AcDbLine
 10
-21.600000063333226
 20
51.500000000000057
 30
0.0
 11
-21.600000063333226
 21
0.0
 31
0.0
  0
LINE
  5
26D
100
AcDbEntity
  8
0
  6
CONTINUOUS
 62
               7
100
AcDbLine
 10
13.830001831054574
 20
50.354736328125057
 30
0.0
 11
13.830001831054574
 21
0.0
 31
0.0
  0
LINE
  5
26E
100
AcDbEntity
  8
0
  6
CONTINUOUS
 62
               7
100
AcDbLine
 10
19.0
 20
51.500000000000057
 30
0.0
 11
19.0
 21
0.0
 31
0.0
  0
LINE
  5
26F
100
AcDbEntity
  8
0
  6
CONTINUOUS
 62
               7
100
AcDbLine
 10
-13.830001831054744
 20
50.174316406250057
 30
0.0
 11
-13.830001831054744
 21
0.0
 31
0.0
  0
ARC
  5
270
100
AcDbEntity
  8
0
  6
CONTINUOUS
 62
               7
100
AcDbCircle
 10
108.00006103515631
 20
-3.5296558380122178
 30
0.0
 40
6.3296561241149902
100
AcDbArc
 50
70.857290864869654
 51
109.14270731389304
  0
LINE
  5
271
100
AcDbEntity
  8
0
  6
CONTINUOUS
 62
               7
100
AcDbLine
 10
110.07569559341044
 20
2.4500000015126489
 30
0.0
 11
110.15006095769263
 21
1.5999999957707587
 31
0.0
  0
LINE
  5
272
100
AcDbEntity
  8
0
  6
CONTINUOUS
 62
               7
100
AcDbLine
 10
105.92442647690285
 20
2.4500000015128762
 30
0.0
 11
105.85006111262061
 21
1.5999999957710997
 31
0.0
  0
LINE
  5
273
100
AcDbEntity
  8
0
  6
CONTINUOUS
 62
               7
100
AcDbLine
 10
105.92442631721531
 20
2.450000023842108
 30
0.0
 11
110.07569575309782
 21
2.450000023842108
 31
0.0
  0
LINE
  5
274
100
AcDbEntity
  8
0
  6
CONTINUOUS
 62
               2
100
AcDbLine
 10
170.50006103515631
 20
-0.1498075526097864
 30
0.0
 11
170.50006103515631
 21
8.7369102308563811
 31
0.0
  0
ARC
  5
275
100
AcDbEntity
  8
0
  6
CONTINUOUS
 62
               7
100
AcDbCircle
 10
164.00006103515625
 20
5.1000000633333116
 30
0.0
 40
1.0
100
AcDbArc
 50
90.0
 51
180.0
  0
ARC
  5
276
100
AcDbEntity
  8
0
  6
CONTINUOUS
 62
               7
100
AcDbCircle
 10
177.00006103515625
 20
5.1000000633333116
 30
0.0
 40
1.0
100
AcDbArc
 50
0.0
 51
90.0
  0
LINE
  5
277
100
AcDbEntity
  8
0
  6
CONTINUOUS
 62
               7
100
AcDbLine
 10
162.50006103515631
 20
5.1000000633333116
 30
0.0
 11
178.50006103515631
 21
5.1000000633333116
 31
0.0
  0
LINE
  5
278
100
AcDbEntity
  8
0
  6
CONTINUOUS
 62
               7
100
AcDbLine
 10
177.00006103515625
 20
6.1000000633333116
 30
0.0
 11
164.00006103515625
 21
6.1000000633333116
 31
0.0
  0
ARC
  5
279
100
AcDbEntity
  8
0
  6
CONTINUOUS
 62
               7
100
AcDbCircle
 10
162.50006103515631
 20
1.6000000633333116
 30
0.0
 40
3.5000000000000004
100
AcDbArc
 50
90.0
 51
180.0
  0
ARC
  5
27A
100
AcDbEntity
  8
0
  6
CONTINUOUS
 62
               7
100
AcDbCircle
 10
178.50006103515631
 20
1.6000000633333116
 30
0.0
 40
3.5000000000000004
100
AcDbArc
 50
0.0
 51
90.0
  0
LINE
  5
27B
100
AcDbEntity
  8
0
  6
CONTINUOUS
 62
               7
100
AcDbLine
 10
182.50006103515631
 20
1.6000000633333116
 30
0.0
 11
104.49999976666646
 21
1.6000000633333116
 31
0.0
  0
LINE
  5
27C
100
AcDbEntity
  8
0
  6
CONTINUOUS
 62
               7
100
AcDbLine
 10
48.099710538158718
 20
-77.712122464221522
 30
0.0
 11
41.926484799077798
 21
-71.545668492388415
 31
0.0
  0
ARC
  5
27D
100
AcDbEntity
  8
0
  6
CONTINUOUS
 62
               7
100
AcDbCircle
 10
44.39999999999992
 20
-69.069436970335744
 30
0.0
 40
3.5000000000000004
100
AcDbArc
 50
180.00000000000006
 51
225.03144276458423
  0
LINE
  5
27E
100
AcDbEntity
  8
0
  6
CONTINUOUS
 62
               7
100
AcDbLine
 10
40.89999999999992
 20
-45.800003137757813
 30
0.0
 11
40.89999999999992
 21
-69.950431559840808
 31
0.0
  0
LINE
  5
27F
100
AcDbEntity
  8
0
  6
CONTINUOUS
 62
               7
100
AcDbLine
 10
40.049999971928912
 20
-69.876066355245882
 30
0.0
 11
40.049999971928912
 21
-69.195220355003187
 31
0.0
  0
ARC
  5
280
100
AcDbEntity
  8
0
  6
CONTINUOUS
 62
               7
100
AcDbCircle
 10
46.029655833783409
 20
-67.800431637304882
 30
0.0
 40
6.3296561241149902
100
AcDbArc
 50
192.18528551792392
 51
199.14270731389522
  0
LINE
  5
281
100
AcDbEntity
  8
0
  6
CONTINUOUS
 62
               7
100
AcDbLine
 10
40.049999994257973
 20
-69.876066195558508
 30
0.0
 11
40.89999999999992
 21
-69.950431559840808
 31
0.0
  0
LINE
  5
282
100
AcDbEntity
  8
0
  6
CONTINUOUS
 62
               7
100
AcDbLine
 10
37.399999999999864
 20
-65.800003137757813
 30
0.0
 11
37.399999999999864
 21
-49.800003137757813
 31
0.0
  0
ARC
  5
283
100
AcDbEntity
  8
0
  6
CONTINUOUS
 62
               7
100
AcDbCircle
 10
37.399999999999864
 20
-64.300003137757813
 30
0.0
 40
1.0
100
AcDbArc
 50
180.0
 51
270.0
  0
LINE
  5
284
100
AcDbEntity
  8
0
  6
CONTINUOUS
 62
               7
100
AcDbLine
 10
36.399999999999864
 20
-51.300003137757813
 30
0.0
 11
36.399999999999864
 21
-64.300003137757813
 31
0.0
  0
ARC
  5
285
100
AcDbEntity
  8
0
  6
CONTINUOUS
 62
               7
100
AcDbCircle
 10
37.399999999999864
 20
-51.300003137757813
 30
0.0
 40
1.0
100
AcDbArc
 50
90.0
 51
180.0
  0
LINE
  5
286
100
AcDbEntity
  8
0
  6
CONTINUOUS
 62
               2
100
AcDbLine
 10
43.186247525045246
 20
-57.800003137757813
 30
0.0
 11
34.806153939270132
 21
-57.800003137757813
 31
0.0
  0
ARC
  5
287
100
AcDbEntity
  8
0
  6
CONTINUOUS
 62
               7
100
AcDbCircle
 10
40.89999999999992
 20
-65.800003137757813
 30
0.0
 40
3.5000000000000004
100
AcDbArc
 50
180.0
 51
270.0
  0
ARC
  5
288
100
AcDbEntity
  8
0
  6
CONTINUOUS
 62
               7
100
AcDbCircle
 10
40.89999999999992
 20
-49.800003137757813
 30
0.0
 40
3.5000000000000004
100
AcDbArc
 50
90.0
 51
180.0
  0
LINE
  5
289
100
AcDbEntity
  8
0
  6
CONTINUOUS
 62
               7
100
AcDbLine
 10
40.89999999999992
 20
-45.800003137757813
 30
0.0
 11
83.500000069999942
 21
-45.800003137757813
 31
0.0
  0
LINE
  5
28A
100
AcDbEntity
  8
0
  6
CONTINUOUS
 62
               7
100
AcDbLine
 10
63.999999980088774
 20
-39.400003127757884
 30
0.0
 11
58.999999980088774
 21
-39.400003127757884
 31
0.0
  0
LINE
  5
28B
100
AcDbEntity
  8
0
  6
CONTINUOUS
 62
               7
100
AcDbLine
 10
63.999999980088774
 20
-37.700003127757782
 30
0.0
 11
63.999999980088774
 21
-41.00000312775785
 31
0.0
  0
LINE
  5
28C
100
AcDbEntity
  8
0
  6
CONTINUOUS
 62
               7
100
AcDbLine
 10
58.999999980088774
 20
-37.700003127757782
 30
0.0
 11
58.999999980088774
 21
-41.00000312775785
 31
0.0
  0
LINE
  5
28D
100
AcDbEntity
  8
0
  6
CONTINUOUS
 62
               7
100
AcDbLine
 10
66.999999980088774
 20
-41.000003097291824
 30
0.0
 11
66.418120937999788
 21
-37.700003085370895
 31
0.0
  0
CIRCLE
  5
28E
100
AcDbEntity
  8
0
  6
CONTINUOUS
 62
               7
100
AcDbCircle
 10
49.499999956666613
 20
-36.500000054999987
 30
0.0
 40
2.7500000091666661
  0
LINE
  5
28F
100
AcDbEntity
  8
0
  6
CONTINUOUS
 62
               7
100
AcDbLine
 10
48.056623083372301
 20
-36.499991365633036
 30
0.0
 11
48.778303203432586
 21
-37.749976974812228
 31
0.0
  0
LINE
  5
290
100
AcDbEntity
  8
0
  6
CONTINUOUS
 62
               7
100
AcDbLine
 10
48.778359393125015
 20
-35.250017254027455
 30
0.0
 11
48.05668077860588
 21
-36.500003809546911
 31
0.0
  0
LINE
  5
291
100
AcDbEntity
  8
0
  6
CONTINUOUS
 62
               7
100
AcDbLine
 10
50.221690762332116
 20
-35.250010042087752
 30
0.0
 11
48.778331382520946
 21
-35.250010995752575
 31
0.0
  0
LINE
  5
292
100
AcDbEntity
  8
0
  6
CONTINUOUS
 62
               7
100
AcDbLine
 10
50.943383988289952
 20
-36.499983693282957
 30
0.0
 11
50.2217043413998
 21
-35.249997739980017
 31
0.0
  0
LINE
  5
293
100
AcDbEntity
  8
0
  6
CONTINUOUS
 62
               7
100
AcDbLine
 10
50.22167679801754
 20
-37.749977205671087
 30
0.0
 11
50.943354638258256
 21
-36.49999021999713
 31
0.0
  0
LINE
  5
294
100
AcDbEntity
  8
0
  6
CONTINUOUS
 62
               7
100
AcDbLine
 10
50.221679646572227
 20
-37.750000059166609
 30
0.0
 11
48.778320266761
 21
-37.750000059166609
 31
0.0
  0
LINE
  5
295
100
AcDbEntity
  8
0
  6
CONTINUOUS
 62
               7
100
AcDbLine
 10
56.999999980088774
 20
-37.700003127757782
 30
0.0
 11
56.999999980088774
 21
-42.800003127757805
 31
0.0
  0
LINE
  5
296
100
AcDbEntity
  8
0
  6
CONTINUOUS
 62
               7
100
AcDbLine
 10
55.250000009166627
 20
-40.300003119424446
 30
0.0
 11
55.250000009166627
 21
-42.800003127757805
 31
0.0
  0
LINE
  5
297
100
AcDbEntity
  8
0
  6
CONTINUOUS
 62
               7
100
AcDbLine
 10
49.749999990833317
 20
-42.800003127757805
 30
0.0
 11
49.749999990833317
 21
-40.300003119424446
 31
0.0
  0
LINE
  5
298
100
AcDbEntity
  8
0
  6
CONTINUOUS
 62
               7
100
AcDbLine
 10
50.250055014695874
 20
-39.80002728761059
 30
0.0
 11
49.750042723241904
 21
-40.30003768241329
 31
0.0
  0
LINE
  5
299
100
AcDbEntity
  8
0
  6
CONTINUOUS
 62
               7
100
AcDbLine
 10
55.250000009166627
 20
-40.300003119424446
 30
0.0
 11
49.749999990833317
 21
-40.300003119424446
 31
0.0
  0
LINE
  5
29A
100
AcDbEntity
  8
0
  6
CONTINUOUS
 62
               7
100
AcDbLine
 10
54.750000007499921
 20
-39.800003117757797
 30
0.0
 11
50.249999992499966
 21
-39.800003117757797
 31
0.0
  0
LINE
  5
29B
100
AcDbEntity
  8
0
  6
CONTINUOUS
 62
               7
100
AcDbLine
 10
55.250026700158628
 20
-40.300005261902925
 30
0.0
 11
54.75003598793262
 21
-39.800016446246332
 31
0.0
  0
LINE
  5
29C
100
AcDbEntity
  8
0
  6
CONTINUOUS
 62
               2
100
AcDbLine
 10
52.499999999999943
 20
-38.820594752113777
 30
0.0
 11
52.499999999999943
 21
-47.80738308776148
 31
0.0
  0
LINE
  5
29D
100
AcDbEntity
  8
0
  6
CONTINUOUS
 62
               7
100
AcDbLine
 10
66.418120945473731
 20
-37.700003127757782
 30
0.0
 11
56.999999980088774
 21
-37.700003127757782
 31
0.0
  0
ARC
  5
29E
100
AcDbEntity
  8
0
  6
CONTINUOUS
 62
               7
100
AcDbCircle
 10
75.500000043333273
 20
-36.500000054999987
 30
0.0
 40
2.7500000091666661
100
AcDbArc
 50
264.78409073216426
 51
213.0558071618525
  0
LINE
  5
29F
100
AcDbEntity
  8
0
  6
CONTINUOUS
 62
               7
100
AcDbLine
 10
74.056623170038961
 20
-36.499991365633036
 30
0.0
 11
74.778303290099188
 21
-37.749976974812228
 31
0.0
  0
LINE
  5
2A0
100
AcDbEntity
  8
0
  6
CONTINUOUS
 62
               7
100
AcDbLine
 10
74.778359479791675
 20
-35.250017254027455
 30
0.0
 11
74.05668086527254
 21
-36.500003809546911
 31
0.0
  0
LINE
  5
2A1
100
AcDbEntity
  8
0
  6
CONTINUOUS
 62
               7
100
AcDbLine
 10
76.221690848998776
 20
-35.250010042087752
 30
0.0
 11
74.778331469187549
 21
-35.250010995752575
 31
0.0
  0
LINE
  5
2A2
100
AcDbEntity
  8
0
  6
CONTINUOUS
 62
               7
100
AcDbLine
 10
76.943384074956612
 20
-36.499983693282957
 30
0.0
 11
76.22170442806646
 21
-35.249997739980017
 31
0.0
  0
LINE
  5
2A3
100
AcDbEntity
  8
0
  6
CONTINUOUS
 62
               7
100
AcDbLine
 10
76.221676884684143
 20
-37.749977205671087
 30
0.0
 11
76.943354724924916
 21
-36.49999021999713
 31
0.0
  0
LINE
  5
2A4
100
AcDbEntity
  8
0
  6
CONTINUOUS
 62
               7
100
AcDbLine
 10
76.22167973323883
 20
-37.750000059166609
 30
0.0
 11
74.778320353427659
 21
-37.750000059166609
 31
0.0
  0
LINE
  5
2A5
100
AcDbEntity
  8
0
  6
CONTINUOUS
 62
               7
100
AcDbLine
 10
75.250000009166627
 20
-38.500003119424491
 30
0.0
 11
75.250000009166627
 21
-41.00000312775785
 31
0.0
  0
LINE
  5
2A6
100
AcDbEntity
  8
0
  6
CONTINUOUS
 62
               7
100
AcDbLine
 10
69.749999990833317
 20
-41.00000312775785
 30
0.0
 11
69.749999990833317
 21
-38.500003119424491
 31
0.0
  0
LINE
  5
2A7
100
AcDbEntity
  8
0
  6
CONTINUOUS
 62
               7
100
AcDbLine
 10
70.250055014695874
 20
-38.000027287610578
 30
0.0
 11
69.750042723241904
 21
-38.500037682413335
 31
0.0
  0
LINE
  5
2A8
100
AcDbEntity
  8
0
  6
CONTINUOUS
 62
               7
100
AcDbLine
 10
75.250000009166627
 20
-38.500003119424491
 30
0.0
 11
69.749999990833317
 21
-38.500003119424491
 31
0.0
  0
LINE
  5
2A9
100
AcDbEntity
  8
0
  6
CONTINUOUS
 62
               7
100
AcDbLine
 10
75.250026700158628
 20
-38.50000526190297
 30
0.0
 11
74.75003598793262
 21
-38.000016446246377
 31
0.0
  0
LINE
  5
2AA
100
AcDbEntity
  8
0
  6
CONTINUOUS
 62
               7
100
AcDbLine
 10
74.750000007499921
 20
-38.000003117757842
 30
0.0
 11
70.249999992499966
 21
-38.000003117757842
 31
0.0
  0
LINE
  5
2AB
100
AcDbEntity
  8
0
  6
CONTINUOUS
 62
               7
100
AcDbLine
 10
77.499999980088774
 20
-41.00000312775785
 30
0.0
 11
77.499999980088774
 21
-42.800003127757805
 31
0.0
  0
LINE
  5
2AC
100
AcDbEntity
  8
0
  6
CONTINUOUS
 62
               2
100
AcDbLine
 10
72.499999999999943
 20
-36.494428060266785
 30
0.0
 11
72.499999999999943
 21
-46.007383087761525
 31
0.0
  0
LINE
  5
2AD
100
AcDbEntity
  8
0
  6
CONTINUOUS
 62
               7
100
AcDbLine
 10
77.499999980088774
 20
-41.00000312775785
 30
0.0
 11
56.999999980088774
 21
-41.00000312775785
 31
0.0
  0
LINE
  5
2AE
100
AcDbEntity
  8
0
  6
CONTINUOUS
 62
               7
100
AcDbLine
 10
44.499999939999952
 20
-42.800003127757805
 30
0.0
 11
80.500000059999934
 21
-42.800003127757805
 31
0.0
  0
LINE
  5
2AF
100
AcDbEntity
  8
0
  6
CONTINUOUS
 62
               2
100
AcDbLine
 10
45.999999999999943
 20
-74.108293886270644
 30
0.0
 11
45.999999999999943
 21
-82.305485581050959
 31
0.0
  0
LINE
  5
2B0
100
AcDbEntity
  8
0
  6
CONTINUOUS
 62
               2
100
AcDbLine
 10
78.999999999999943
 20
-74.108293886270644
 30
0.0
 11
78.999999999999943
 21
-82.305485581050959
 31
0.0
  0
CIRCLE
  5
2B1
100
AcDbEntity
  8
0
  6
CONTINUOUS
 62
               7
100
AcDbCircle
 10
94.999999999999943
 20
-200.00001525878901
 30
0.0
 40
5.0
  0
CIRCLE
  5
2B2
100
AcDbEntity
  8
0
  6
CONTINUOUS
 62
               7
100
AcDbCircle
 10
74.999999999999943
 20
-200.00001525878901
 30
0.0
 40
5.0
  0
CIRCLE
  5
2B3
100
AcDbEntity
  8
0
  6
CONTINUOUS
 62
               7
100
AcDbCircle
 10
74.999999999999943
 20
-220.00001525878903
 30
0.0
 40
5.0
  0
CIRCLE
  5
2B4
100
AcDbEntity
  8
0
  6
CONTINUOUS
 62
               7
100
AcDbCircle
 10
94.999999999999943
 20
-220.00001525878903
 30
0.0
 40
5.0
  0
CIRCLE
  5
2B5
100
AcDbEntity
  8
0
  6
CONTINUOUS
 62
               7
100
AcDbCircle
 10
-95.000000000000199
 20
-200.00001525878901
 30
0.0
 40
5.0
  0
CIRCLE
  5
2B6
100
AcDbEntity
  8
0
  6
CONTINUOUS
 62
               7
100
AcDbCircle
 10
-75.000000000000199
 20
-200.00001525878901
 30
0.0
 40
5.0
  0
CIRCLE
  5
2B7
100
AcDbEntity
  8
0
  6
CONTINUOUS
 62
               7
100
AcDbCircle
 10
-95.000000000000199
 20
-220.00001525878903
 30
0.0
 40
5.0
  0
CIRCLE
  5
2B8
100
AcDbEntity
  8
0
  6
CONTINUOUS
 62
               7
100
AcDbCircle
 10
-75.000000000000199
 20
-220.00001525878903
 30
0.0
 40
5.0
  0
LINE
  5
2B9
100
AcDbEntity
  8
0
  6
CONTINUOUS
 62
               7
100
AcDbLine
 10
83.499999999999943
 20
0.199996948242358
 30
0.0
 11
94.500061035156477
 21
0.199996948242358
 31
0.0
  0
LINE
  5
2BA
100
AcDbEntity
  8
0
  6
CONTINUOUS
 62
               7
100
AcDbLine
 10
105.91567680946082
 20
2.3499908447269036
 30
0.0
 11
105.0000610351567
 21
2.3499908447269036
 31
0.0
  0
LINE
  5
2BB
100
AcDbEntity
  8
0
  6
CONTINUOUS
 62
               7
100
AcDbLine
 10
94.500061035156477
 20
-1.000009536742823
 30
0.0
 11
94.500061035156477
 21
2.999990463257177
 31
0.0
  0
LINE
  5
2BC
100
AcDbEntity
  8
0
  6
CONTINUOUS
 62
               7
100
AcDbLine
 10
100.92442647690251
 20
3.8499904647697463
 30
0.0
 11
100.85006111262032
 21
2.9999904590277993
 31
0.0
  0
LINE
  5
2BD
100
AcDbEntity
  8
0
  6
CONTINUOUS
 62
               7
100
AcDbLine
 10
105.07569559341044
 20
3.8499904647695757
 30
0.0
 11
105.15006095769269
 21
2.9999904590277993
 31
0.0
  0
LINE
  5
2BE
100
AcDbEntity
  8
0
  6
CONTINUOUS
 62
               7
100
AcDbLine
 10
105.07569575309799
 20
3.8499904870989781
 30
0.0
 11
100.92442631721531
 21
3.8499904870988075
 31
0.0
  0
ARC
  5
2BF
100
AcDbEntity
  8
0
  6
CONTINUOUS
 62
               7
100
AcDbCircle
 10
109.50006103515642
 20
-4.0000095367429367
 30
0.0
 40
6.3499999999999996
100
AcDbArc
 50
61.871355243480195
 51
84.698116314596959
  0
LINE
  5
2C0
100
AcDbEntity
  8
0
  6
CONTINUOUS
 62
               7
100
AcDbLine
 10
105.0000610351567
 20
2.999990463257177
 30
0.0
 11
105.0000610351567
 21
1.6000000633333116
 31
0.0
  0
LINE
  5
2C1
100
AcDbEntity
  8
0
  6
CONTINUOUS
 62
               7
100
AcDbLine
 10
94.500061035156477
 20
2.999990463257177
 30
0.0
 11
105.15006095769269
 21
2.999990463257177
 31
0.0
  0
ARC
  5
2C2
100
AcDbEntity
  8
0
  6
CONTINUOUS
 62
               7
100
AcDbCircle
 10
103.0000610351567
 20
-2.1296653747555183
 30
0.0
 40
6.3296561241149902
100
AcDbArc
 50
70.857292686105737
 51
109.14270913512912
  0
ARC
  5
2C3
100
AcDbEntity
  8
0
  6
CONTINUOUS
 62
               7
100
AcDbCircle
 10
107.99999999999989
 20
-33.870346069335881
 30
0.0
 40
6.3296561241149902
100
AcDbArc
 50
250.85729006794102
 51
289.14270651696438
  0
CIRCLE
  5
2C4
100
AcDbEntity
  8
0
  6
CONTINUOUS
 62
               7
100
AcDbCircle
 10
-16.500000000000028
 20
-246.30000305175781
 30
0.0
 40
2.75
  0
CIRCLE
  5
2C5
100
AcDbEntity
  8
0
  6
CONTINUOUS
 62
               7
100
AcDbCircle
 10
-16.500000000000028
 20
-272.30000305175776
 30
0.0
 40
2.75
  0
CIRCLE
  5
2C6
100
AcDbEntity
  8
0
  6
CONTINUOUS
 62
               7
100
AcDbCircle
 10
16.499999999999943
 20
-272.30000305175776
 30
0.0
 40
2.75
  0
CIRCLE
  5
2C7
100
AcDbEntity
  8
0
  6
CONTINUOUS
 62
               7
100
AcDbCircle
 10
16.499999999999943
 20
-246.30000305175781
 30
0.0
 40
2.75
  0
ARC
  5
2C8
100
AcDbEntity
  8
0
  6
CONTINUOUS
 62
               7
100
AcDbCircle
 10
76.370361328124886
 20
-53.800003051757756
 30
0.0
 40
6.3296561241149902
100
AcDbArc
 50
340.85729086487191
 51
19.142707313895272
  0
ARC
  5
2C9
100
AcDbEntity
  8
0
  6
CONTINUOUS
 62
               7
100
AcDbCircle
 10
76.370361328124886
 20
-67.800003051757756
 30
0.0
 40
6.3296561241149902
100
AcDbArc
 50
340.85729086487191
 51
19.142707313895272
  0
CIRCLE
  5
2CA
100
AcDbEntity
  8
0
  6
CONTINUOUS
 62
               7
100
AcDbCircle
 10
49.499999999999943
 20
-3.4999999999999432
 30
0.0
 40
2.75
  0
CIRCLE
  5
2CB
100
AcDbEntity
  8
0
  6
CONTINUOUS
 62
               7
100
AcDbCircle
 10
75.499999999999886
 20
-3.4999999999999432
 30
0.0
 40
2.75
  0
ARC
  5
2CC
100
AcDbEntity
  8
0
  6
CONTINUOUS
 62
               7
100
AcDbCircle
 10
75.499999999999886
 20
-76.300003051757756
 30
0.0
 40
2.0
100
AcDbArc
 50
270.0
 51
315.00000125223909
  0
ARC
  5
2CD
100
AcDbEntity
  8
0
  6
CONTINUOUS
 62
               7
100
AcDbCircle
 10
49.499999999999943
 20
-76.300003051757756
 30
0.0
 40
2.0
100
AcDbArc
 50
224.99999874776091
 51
270.0
  0
ARC
  5
2CE
100
AcDbEntity
  8
0
  6
CONTINUOUS
 62
               7
100
AcDbCircle
 10
77.999999999999886
 20
-71.678695678710881
 30
0.0
 40
3.5000000000000004
100
AcDbArc
 50
315.00000125223909
 51
0.0000025044781673
  0
ARC
  5
2CF
100
AcDbEntity
  8
0
  6
CONTINUOUS
 62
               7
100
AcDbCircle
 10
-171.17529296875023
 20
-36.999999999999943
 30
0.0
 40
2.0
100
AcDbArc
 50
202.13136085930475
 51
270.0
  0
ARC
  5
2D0
100
AcDbEntity
  8
0
  6
CONTINUOUS
 62
               7
100
AcDbCircle
 10
-171.17529296875023
 20
-2.9999999999998295
 30
0.0
 40
2.0
100
AcDbArc
 50
90.000005008956336
 51
157.86863048927324
  0
ARC
  5
2D1
100
AcDbEntity
  8
0
  6
CONTINUOUS
 62
               7
100
AcDbCircle
 10
-167.45202636718773
 20
-2.9999999999998295
 30
0.0
 40
2.0
100
AcDbArc
 50
90.000005008956336
 51
170.84680953499787
  0
ARC
  5
2D2
100
AcDbEntity
  8
0
  6
CONTINUOUS
 62
               7
100
AcDbCircle
 10
-167.45202636718773
 20
-36.999999999999943
 30
0.0
 40
2.0
100
AcDbArc
 50
189.15318181358012
 51
270.0
  0
ARC
  5
2D3
100
AcDbEntity
  8
0
  6
CONTINUOUS
 62
               7
100
AcDbCircle
 10
-129.3750000000002
 20
-20.0
 30
0.0
 40
47.125
100
AcDbArc
 50
157.86864096192809
 51
202.13136085930475
  0
ARC
  5
2D4
100
AcDbEntity
  8
0
  6
CONTINUOUS
 62
               7
100
AcDbCircle
 10
-61.944702148437727
 20
-20.0
 30
0.0
 40
108.86813354492189
100
AcDbArc
 50
170.84681317746356
 51
189.15318181358012
  0
ARC
  5
2D5
100
AcDbEntity
  8
0
  6
CONTINUOUS
 62
               7
100
AcDbCircle
 10
-16.500000000000028
 20
-281.80000305175776
 30
0.0
 40
3.0
100
AcDbArc
 50
179.99999749552182
 51
0.0000025044781673
  0
ARC
  5
2D6
100
AcDbEntity
  8
0
  6
CONTINUOUS
 62
               7
100
AcDbCircle
 10
16.499999999999943
 20
-281.80000305175776
 30
0.0
 40
3.0
100
AcDbArc
 50
179.99999749552182
 51
0.0000025044781673
  0
CIRCLE
  5
2D7
100
AcDbEntity
  8
0
  6
CONTINUOUS
 62
               7
100
AcDbCircle
 10
16.499999999999943
 20
-246.30000305175781
 30
0.0
 40
1.7500000000000002
  0
CIRCLE
  5
2D8
100
AcDbEntity
  8
0
  6
CONTINUOUS
 62
               7
100
AcDbCircle
 10
16.499999999999943
 20
-246.30000305175781
 30
0.0
 40
3.25
  0
CIRCLE
  5
2D9
100
AcDbEntity
  8
0
  6
CONTINUOUS
 62
               7
100
AcDbCircle
 10
16.499999999999943
 20
-272.30000305175776
 30
0.0
 40
3.25
  0
CIRCLE
  5
2DA
100
AcDbEntity
  8
0
  6
CONTINUOUS
 62
               7
100
AcDbCircle
 10
16.499999999999943
 20
-272.30000305175776
 30
0.0
 40
1.7500000000000002
  0
CIRCLE
  5
2DB
100
AcDbEntity
  8
0
  6
CONTINUOUS
 62
               7
100
AcDbCircle
 10
-16.500000000000028
 20
-272.30000305175776
 30
0.0
 40
1.7500000000000002
  0
CIRCLE
  5
2DC
100
AcDbEntity
  8
0
  6
CONTINUOUS
 62
               7
100
AcDbCircle
 10
-16.500000000000028
 20
-272.30000305175776
 30
0.0
 40
3.25
  0
CIRCLE
  5
2DD
100
AcDbEntity
  8
0
  6
CONTINUOUS
 62
               2
100
AcDbCircle
 10
21.999999999999943
 20
-277.30000305175776
 30
0.0
 40
1.5
  0
CIRCLE
  5
2DE
100
AcDbEntity
  8
0
  6
CONTINUOUS
 62
               7
100
AcDbCircle
 10
21.999999999999943
 20
-277.30000305175776
 30
0.0
 40
1.25
  0
CIRCLE
  5
2DF
100
AcDbEntity
  8
0
  6
CONTINUOUS
 62
               7
100
AcDbCircle
 10
-22.0
 20
-277.30000305175776
 30
0.0
 40
1.25
  0
CIRCLE
  5
2E0
100
AcDbEntity
  8
0
  6
CONTINUOUS
 62
               2
100
AcDbCircle
 10
-22.0
 20
-277.30000305175776
 30
0.0
 40
1.5
  0
CIRCLE
  5
2E1
100
AcDbEntity
  8
0
  6
CONTINUOUS
 62
               2
100
AcDbCircle
 10
-22.0
 20
-241.30000305175776
 30
0.0
 40
1.5
  0
CIRCLE
  5
2E2
100
AcDbEntity
  8
0
  6
CONTINUOUS
 62
               7
100
AcDbCircle
 10
-22.0
 20
-241.30000305175776
 30
0.0
 40
1.25
  0
ARC
  5
2E3
100
AcDbEntity
  8
0
  6
CONTINUOUS
 62
               7
100
AcDbCircle
 10
-22.0
 20
-241.30000305175776
 30
0.0
 40
3.0
100
AcDbArc
 50
89.999994991043664
 51
179.99999749552182
  0
ARC
  5
2E4
100
AcDbEntity
  8
0
  6
CONTINUOUS
 62
               7
100
AcDbCircle
 10
-22.0
 20
-277.30000305175776
 30
0.0
 40
3.0
100
AcDbArc
 50
179.99999749552182
 51
270.0
  0
ARC
  5
2E5
100
AcDbEntity
  8
0
  6
CONTINUOUS
 62
               7
100
AcDbCircle
 10
21.999999999999943
 20
-277.30000305175776
 30
0.0
 40
3.0
100
AcDbArc
 50
270.0
 51
0.0000025044781673
  0
ARC
  5
2E6
100
AcDbEntity
  8
0
  6
CONTINUOUS
 62
               7
100
AcDbCircle
 10
21.999999999999943
 20
-241.30000305175776
 30
0.0
 40
3.0
100
AcDbArc
 50
0.0000025044781673
 51
90.000005008956336
  0
CIRCLE
  5
2E7
100
AcDbEntity
  8
0
  6
CONTINUOUS
 62
               7
100
AcDbCircle
 10
21.999999999999943
 20
-241.30000305175776
 30
0.0
 40
1.25
  0
CIRCLE
  5
2E8
100
AcDbEntity
  8
0
  6
CONTINUOUS
 62
               2
100
AcDbCircle
 10
21.999999999999943
 20
-241.30000305175776
 30
0.0
 40
1.5
  0
CIRCLE
  5
2E9
100
AcDbEntity
  8
0
  6
CONTINUOUS
 62
               7
100
AcDbCircle
 10
-16.500000000000028
 20
-246.30000305175781
 30
0.0
 40
3.25
  0
CIRCLE
  5
2EA
100
AcDbEntity
  8
0
  6
CONTINUOUS
 62
               7
100
AcDbCircle
 10
-16.500000000000028
 20
-246.30000305175781
 30
0.0
 40
1.7500000000000002
  0
ARC
  5
2EB
100
AcDbEntity
  8
0
  6
CONTINUOUS
 62
               7
100
AcDbCircle
 10
0.0
 20
-168.86357116699213
 30
0.0
 40
135.72679138183594
100
AcDbArc
 50
255.0562291149291
 51
284.94377088507088
  0
ARC
  5
2EC
100
AcDbEntity
  8
0
  6
CONTINUOUS
 62
               7
100
AcDbCircle
 10
104.0
 20
-301.79203796386713
 30
0.0
 40
1.0
100
AcDbArc
 50
271.98128483929463
 51
0.0000025044781673
  0
ARC
  5
2ED
100
AcDbEntity
  8
0
  6
CONTINUOUS
 62
               7
100
AcDbCircle
 10
-104.0000000000002
 20
-301.79203796386713
 30
0.0
 40
1.0
100
AcDbArc
 50
179.99999749552182
 51
268.01871516070537
  0
ARC
  5
2EE
100
AcDbEntity
  8
0
  6
CONTINUOUS
 62
               7
100
AcDbCircle
 10
0.0
 20
2704.5327606201167
 30
0.0
 40
3009.123046875
100
AcDbArc
 50
268.01871516070537
 51
271.98128483929463
  0
ARC
  5
2EF
100
AcDbEntity
  8
0
  6
CONTINUOUS
 62
               7
100
AcDbCircle
 10
104.0
 20
-302.80000305175776
 30
0.0
 40
1.0
100
AcDbArc
 50
270.0
 51
0.0000025044781673
  0
ARC
  5
2F0
100
AcDbEntity
  8
0
  6
CONTINUOUS
 62
               7
100
AcDbCircle
 10
104.0
 20
-302.89637756347656
 30
0.0
 40
1.0
100
AcDbArc
 50
276.49788211075821
 51
0.0000025044781673
  0
ARC
  5
2F1
100
AcDbEntity
  8
0
  6
CONTINUOUS
 62
               7
100
AcDbCircle
 10
-104.0000000000002
 20
-302.89637756347656
 30
0.0
 40
1.0
100
AcDbArc
 50
179.99999749552182
 51
263.50211788924179
  0
ARC
  5
2F2
100
AcDbEntity
  8
0
  6
CONTINUOUS
 62
               7
100
AcDbCircle
 10
0.0
 20
610.19999694824196
 30
0.0
 40
920.0
100
AcDbArc
 50
263.50211788924179
 51
276.49788211075821
  0
LINE
  5
2F3
100
AcDbEntity
  8
0
  6
CONTINUOUS
 62
               7
100
AcDbLine
 10
110.07562255859369
 20
-39.850006103515625
 30
0.0
 11
105.92437744140619
 21
-39.850006103515625
 31
0.0
  0
LINE
  5
2F4
100
AcDbEntity
  8
0
  6
CONTINUOUS
 62
               7
100
AcDbLine
 10
110.07566737549581
 20
-39.850008284729483
 30
0.0
 11
110.15003355702925
 21
-38.999998937764701
 31
0.0
  0
LINE
  5
2F5
100
AcDbEntity
  8
0
  6
CONTINUOUS
 62
               7
100
AcDbLine
 10
105.92436226736339
 20
-39.85002110754607
 30
0.0
 11
105.84999475593889
 21
-38.999996559856243
 31
0.0
  0
LINE
  5
2F6
100
AcDbEntity
  8
0
  6
CONTINUOUS
 62
               7
100
AcDbLine
 10
-17.943371991790656
 20
-246.2999963176116
 30
0.0
 11
-17.22169187413607
 21
-247.54998192262426
 31
0.0
  0
LINE
  5
2F7
100
AcDbEntity
  8
0
  6
CONTINUOUS
 62
               7
100
AcDbLine
 10
-17.221638385192875
 20
-245.05003765364015
 30
0.0
 11
-17.943316997306312
 21
-246.30002420499289
 31
0.0
  0
LINE
  5
2F8
100
AcDbEntity
  8
0
  6
CONTINUOUS
 62
               7
100
AcDbLine
 10
-15.778308916555972
 20
-245.05003009773526
 30
0.0
 11
-17.221668291555943
 21
-245.05003105140011
 31
0.0
  0
LINE
  5
2F9
100
AcDbEntity
  8
0
  6
CONTINUOUS
 62
               7
100
AcDbLine
 10
-15.056621052534013
 20
-246.3000164289187
 30
0.0
 11
-15.778300697018551
 21
-245.05003047978241
 31
0.0
  0
LINE
  5
2FA
100
AcDbEntity
  8
0
  6
CONTINUOUS
 62
               7
100
AcDbLine
 10
-15.778308544209324
 20
-247.54999710340411
 30
0.0
 11
-15.056623076999188
 21
-246.2999969073862
 31
0.0
  0
LINE
  5
2FB
100
AcDbEntity
  8
0
  6
CONTINUOUS
 62
               7
100
AcDbLine
 10
-15.778320312500057
 20
-247.55000305175781
 30
0.0
 11
-17.221679687500028
 21
-247.55000305175781
 31
0.0
  0
LINE
  5
2FC
100
AcDbEntity
  8
0
  6
CONTINUOUS
 62
               7
100
AcDbLine
 10
-17.943361705023591
 20
-272.29999763364316
 30
0.0
 11
-17.221681587369005
 21
-273.54998323865584
 31
0.0
  0
LINE
  5
2FD
100
AcDbEntity
  8
0
  6
CONTINUOUS
 62
               7
100
AcDbLine
 10
-17.221669519810348
 20
-271.05000965515683
 30
0.0
 11
-17.943355761307032
 21
-272.30000942101555
 31
0.0
  0
LINE
  5
2FE
100
AcDbEntity
  8
0
  6
CONTINUOUS
 62
               7
100
AcDbLine
 10
-15.778291737684015
 20
-271.05003009773526
 30
0.0
 11
-17.221712147840236
 21
-271.05003105144044
 31
0.0
  0
LINE
  5
2FF
100
AcDbEntity
  8
0
  6
CONTINUOUS
 62
               7
100
AcDbLine
 10
-15.056621246745692
 20
-272.30001885160885
 30
0.0
 11
-15.778300891230231
 21
-271.05003290247254
 31
0.0
  0
LINE
  5
300
100
AcDbEntity
  8
0
  6
CONTINUOUS
 62
               7
100
AcDbLine
 10
-15.778278496996847
 20
-273.55001257370895
 30
0.0
 11
-15.056600659161688
 21
-272.30002559220151
 31
0.0
  0
LINE
  5
301
100
AcDbEntity
  8
0
  6
CONTINUOUS
 62
               7
100
AcDbLine
 10
-15.778320312500057
 20
-273.55000305175776
 30
0.0
 11
-17.221679687500028
 21
-273.55000305175776
 31
0.0
  0
LINE
  5
302
100
AcDbEntity
  8
0
  6
CONTINUOUS
 62
               7
100
AcDbLine
 10
15.056601338335895
 20
-272.30000687868227
 30
0.0
 11
15.778281455990452
 21
-273.54999248369495
 31
0.0
  0
LINE
  5
303
100
AcDbEntity
  8
0
  6
CONTINUOUS
 62
               7
100
AcDbLine
 10
15.778332649684614
 20
-271.05001672841166
 30
0.0
 11
15.056654037571207
 21
-272.3000032797645
 31
0.0
  0
LINE
  5
304
100
AcDbEntity
  8
0
  6
CONTINUOUS
 62
               7
100
AcDbLine
 10
17.221708262316042
 20
-271.05000829378235
 30
0.0
 11
15.778287852159735
 21
-271.05000924748754
 31
0.0
  0
LINE
  5
305
100
AcDbEntity
  8
0
  6
CONTINUOUS
 62
               7
100
AcDbLine
 10
17.943396059206862
 20
-272.30001088183781
 30
0.0
 11
17.221716414722323
 21
-271.05002493270143
 31
0.0
  0
LINE
  5
306
100
AcDbEntity
  8
0
  6
CONTINUOUS
 62
               7
100
AcDbLine
 10
17.221715709013097
 20
-273.55001261320649
 30
0.0
 11
17.943401176223176
 21
-272.3000124171885
 31
0.0
  0
LINE
  5
307
100
AcDbEntity
  8
0
  6
CONTINUOUS
 62
               7
100
AcDbLine
 10
17.2216796875
 20
-273.55000305175776
 30
0.0
 11
15.7783203125
 21
-273.55000305175776
 31
0.0
  0
LINE
  5
308
100
AcDbEntity
  8
0
  6
CONTINUOUS
 62
               7
100
AcDbLine
 10
15.05659105156883
 20
-246.30000556265071
 30
0.0
 11
15.778271169223387
 21
-247.54999116766339
 31
0.0
  0
LINE
  5
309
100
AcDbEntity
  8
0
  6
CONTINUOUS
 62
               7
100
AcDbLine
 10
15.778318555661315
 20
-245.05000099485636
 30
0.0
 11
15.056632314164688
 21
-246.30000076071516
 31
0.0
  0
LINE
  5
30A
100
AcDbEntity
  8
0
  6
CONTINUOUS
 62
               7
100
AcDbLine
 10
17.221691083444057
 20
-245.05000829378238
 30
0.0
 11
15.778331708444
 21
-245.05000924744718
 31
0.0
  0
LINE
  5
30B
100
AcDbEntity
  8
0
  6
CONTINUOUS
 62
               7
100
AcDbLine
 10
17.943396253418484
 20
-246.30000845914759
 30
0.0
 11
17.221716608933946
 21
-245.05002251001127
 31
0.0
  0
LINE
  5
30C
100
AcDbEntity
  8
0
  6
CONTINUOUS
 62
               7
100
AcDbLine
 10
17.22168566180062
 20
-247.54999714290165
 30
0.0
 11
17.943371129010757
 21
-246.29999694688377
 31
0.0
  0
LINE
  5
30D
100
AcDbEntity
  8
0
  6
CONTINUOUS
 62
               7
100
AcDbLine
 10
17.2216796875
 20
-247.55000305175781
 30
0.0
 11
15.7783203125
 21
-247.55000305175781
 31
0.0
  0
LINE
  5
30E
100
AcDbEntity
  8
0
  6
CONTINUOUS
 62
               7
100
AcDbLine
 10
82.349975585966376
 20
-55.875640869031372
 30
0.0
 11
82.349975585965979
 21
-51.72436523426569
 31
0.0
  0
LINE
  5
30F
100
AcDbEntity
  8
0
  6
CONTINUOUS
 62
               7
100
AcDbLine
 10
82.350031823290863
 20
-55.875645692138164
 30
0.0
 11
81.500007275601035
 21
-55.950013203562662
 31
0.0
  0
LINE
  5
310
100
AcDbEntity
  8
0
  6
CONTINUOUS
 62
               7
100
AcDbLine
 10
82.350038759994447
 20
-51.724367100949053
 30
0.0
 11
81.50001421230462
 21
-51.649999589524555
 31
0.0
  0
LINE
  5
311
100
AcDbEntity
  8
0
  6
CONTINUOUS
 62
               7
100
AcDbLine
 10
82.349975585968025
 20
-69.875625610242253
 30
0.0
 11
82.349975585967513
 21
-65.724380493054753
 31
0.0
  0
LINE
  5
312
100
AcDbEntity
  8
0
  6
CONTINUOUS
 62
               7
100
AcDbLine
 10
82.349996680631193
 20
-69.875639576914125
 30
0.0
 11
81.500032935841716
 21
-69.9500017687742
 31
0.0
  0
LINE
  5
313
100
AcDbEntity
  8
0
  6
CONTINUOUS
 62
               7
100
AcDbLine
 10
82.350011769862647
 20
-65.724370866885579
 30
0.0
 11
81.50004802507317
 21
-65.650008675025617
 31
0.0
  0
LINE
  5
314
100
AcDbEntity
  8
0
  6
CONTINUOUS
 62
               7
100
AcDbLine
 10
48.056621815485357
 20
-3.5000015974000576
 30
0.0
 11
48.778301933139971
 21
-4.7499872024127399
 31
0.0
  0
LINE
  5
315
100
AcDbEntity
  8
0
  6
CONTINUOUS
 62
               7
100
AcDbLine
 10
48.778356919814541
 20
-2.2500389266005527
 30
0.0
 11
48.056678307700963
 21
-3.5000254779533293
 31
0.0
  0
LINE
  5
316
100
AcDbEntity
  8
0
  6
CONTINUOUS
 62
               7
100
AcDbLine
 10
50.221690803249771
 20
-2.2500119113373671
 30
0.0
 11
48.778331428249828
 21
-2.2500128650020201
 31
0.0
  0
LINE
  5
317
100
AcDbEntity
  8
0
  6
CONTINUOUS
 62
               7
100
AcDbLine
 10
50.943381604121839
 20
-3.4999834440714039
 30
0.0
 11
50.221701959637301
 21
-2.2499974949349166
 31
0.0
  0
LINE
  5
318
100
AcDbEntity
  8
0
  6
CONTINUOUS
 62
               7
100
AcDbLine
 10
50.221689841900968
 20
-4.7499883940708401
 30
0.0
 11
50.94336767973607
 21
-3.5000014125634493
 31
0.0
  0
LINE
  5
319
100
AcDbEntity
  8
0
  6
CONTINUOUS
 62
               7
100
AcDbLine
 10
50.221679687499886
 20
-4.7499999999999432
 30
0.0
 11
48.778320312499943
 21
-4.7499999999999432
 31
0.0
  0
LINE
  5
31A
100
AcDbEntity
  8
0
  6
CONTINUOUS
 62
               7
100
AcDbLine
 10
74.056623131516858
 20
-3.4999913106329927
 30
0.0
 11
74.778303249171586
 21
-4.749976915645675
 31
0.0
  0
LINE
  5
31B
100
AcDbEntity
  8
0
  6
CONTINUOUS
 62
               7
100
AcDbLine
 10
74.778359438863845
 20
-2.2500172031939769
 30
0.0
 11
74.056680826750267
 21
-3.5000037545468672
 31
0.0
  0
LINE
  5
31C
100
AcDbEntity
  8
0
  6
CONTINUOUS
 62
               7
100
AcDbLine
 10
76.221690803259833
 20
-2.2500099912544442
 30
0.0
 11
74.778331428259776
 21
-2.2500109449192109
 31
0.0
  0
LINE
  5
31D
100
AcDbEntity
  8
0
  6
CONTINUOUS
 62
               7
100
AcDbLine
 10
76.943384026812055
 20
-3.499983638282913
 30
0.0
 11
76.221704382327516
 21
-2.2499976891467099
 31
0.0
  0
LINE
  5
31E
100
AcDbEntity
  8
0
  6
CONTINUOUS
 62
               7
100
AcDbLine
 10
76.221676838945257
 20
-4.7499771465044773
 30
0.0
 11
76.943354676780359
 21
-3.4999901649970866
 31
0.0
  0
LINE
  5
31F
100
AcDbEntity
  8
0
  6
CONTINUOUS
 62
               7
100
AcDbLine
 10
76.2216796875
 20
-4.7499999999999432
 30
0.0
 11
74.778320312499943
 21
-4.7499999999999432
 31
0.0
  0
LINE
  5
320
100
AcDbEntity
  8
0
  6
CONTINUOUS
 62
               7
100
AcDbLine
 10
41.499999999999943
 20
-0.9999999999999432
 30
0.0
 11
-171.17529314359578
 21
-0.9999999999999432
 31
0.0
  0
LINE
  5
321
100
AcDbEntity
  8
0
  6
CONTINUOUS
 62
               7
100
AcDbLine
 10
41.499999999999943
 20
-6.6000061035154545
 30
0.0
 11
-164.50000000000023
 21
-6.6000061035154545
 31
0.0
  0
LINE
  5
322
100
AcDbEntity
  8
0
  6
CONTINUOUS
 62
               7
100
AcDbLine
 10
41.499999999999943
 20
-8.8000030517577557
 30
0.0
 11
-164.50000000000023
 21
-8.8000030517577557
 31
0.0
  0
LINE
  5
323
100
AcDbEntity
  8
0
  6
CONTINUOUS
 62
               7
100
AcDbLine
 10
41.499999999999943
 20
-31.199996948242017
 30
0.0
 11
-164.50000000000023
 21
-31.199996948242017
 31
0.0
  0
LINE
  5
324
100
AcDbEntity
  8
0
  6
CONTINUOUS
 62
               7
100
AcDbLine
 10
41.499999999999943
 20
-33.399993896484318
 30
0.0
 11
-164.50000000000023
 21
-33.399993896484318
 31
0.0
  0
LINE
  5
325
100
AcDbEntity
  8
0
  6
CONTINUOUS
 62
               7
100
AcDbLine
 10
41.499999999999943
 20
-38.999999999999943
 30
0.0
 11
-171.17529296875023
 21
-38.999999999999943
 31
0.0
  0
LINE
  5
326
100
AcDbEntity
  8
0
  6
CONTINUOUS
 62
               7
100
AcDbLine
 10
-175.72711181640648
 20
-28.499999999999943
 30
0.0
 11
-175.93395996093773
 21
-28.499999999999943
 31
0.0
  0
LINE
  5
327
100
AcDbEntity
  8
0
  6
CONTINUOUS
 62
               7
100
AcDbLine
 10
-175.72711181640648
 20
-11.499999999999943
 30
0.0
 11
-175.93395996093773
 21
-11.499999999999943
 31
0.0
  0
LINE
  5
328
100
AcDbEntity
  8
0
  6
CONTINUOUS
 62
               7
100
AcDbLine
 10
43.499999999999943
 20
-78.799972534179631
 30
0.0
 11
43.499999999999943
 21
-73.117457613761246
 31
0.0
  0
LINE
  5
329
100
AcDbEntity
  8
0
  6
CONTINUOUS
 62
               7
100
AcDbLine
 10
48.085783042524724
 20
-77.714211154108796
 30
0.0
 11
44.525131024516611
 21
-74.153559136100625
 31
0.0
  0
LINE
  5
32A
100
AcDbEntity
  8
0
  6
CONTINUOUS
 62
               7
100
AcDbLine
 10
76.914194561819329
 20
-77.714211154108796
 30
0.0
 11
80.474846579827442
 21
-74.153559136100625
 31
0.0
  0
LINE
  5
32B
100
AcDbEntity
  8
0
  6
CONTINUOUS
 62
               7
100
AcDbLine
 10
75.499999999999886
 20
-78.300003051757812
 30
0.0
 11
49.499999999999943
 21
-78.300003051757812
 31
0.0
  0
LINE
  5
32C
100
AcDbEntity
  8
0
  6
CONTINUOUS
 62
               7
100
AcDbLine
 10
81.5
 20
-78.799972534179631
 30
0.0
 11
81.5
 21
-45.800003051757813
 31
0.0
  0
LINE
  5
32D
100
AcDbEntity
  8
0
  6
CONTINUOUS
 62
               7
100
AcDbLine
 10
76.5
 20
-78.799972534179631
 30
0.0
 11
76.5
 21
-78.032053859326652
 31
0.0
  0
LINE
  5
32E
100
AcDbEntity
  8
0
  6
CONTINUOUS
 62
               7
100
AcDbLine
 10
48.499999999999943
 20
-78.799972534179631
 30
0.0
 11
48.499999999999943
 21
-78.032053859326652
 31
0.0
  0
LINE
  5
32F
100
AcDbEntity
  8
0
  6
CONTINUOUS
 62
               7
100
AcDbLine
 10
-164.50000000000023
 20
-38.999999999999943
 30
0.0
 11
-164.50000000000023
 21
-0.9999999999999432
 31
0.0
  0
LINE
  5
330
100
AcDbEntity
  8
0
  6
CONTINUOUS
 62
               7
100
AcDbLine
 10
181.35479736328125
 20
-33.830001831054517
 30
0.0
 11
105.36614990234369
 21
-33.830001831054517
 31
0.0
  0
LINE
  5
331
100
AcDbEntity
  8
0
  6
CONTINUOUS
 62
               7
100
AcDbLine
 10
104.49999999999994
 20
-0.9999999999999432
 30
0.0
 11
83.499999999999943
 21
-0.9999999999999432
 31
0.0
  0
LINE
  5
332
100
AcDbEntity
  8
0
  6
CONTINUOUS
 62
               7
100
AcDbLine
 10
104.49999999999994
 20
-31.199996948242017
 30
0.0
 11
83.499999999999943
 21
-31.199996948242017
 31
0.0
  0
LINE
  5
333
100
AcDbEntity
  8
0
  6
CONTINUOUS
 62
               7
100
AcDbLine
 10
182.50006103515631
 20
-38.999999999999943
 30
0.0
 11
83.499999999999943
 21
-38.999999999999943
 31
0.0
  0
LINE
  5
334
100
AcDbEntity
  8
0
  6
CONTINUOUS
 62
               7
100
AcDbLine
 10
182.50006103515631
 20
-38.999999999999943
 30
0.0
 11
182.50006103515631
 21
1.6000000633333116
 31
0.0
  0
LINE
  5
335
100
AcDbEntity
  8
0
  6
CONTINUOUS
 62
               7
100
AcDbLine
 10
104.49999999999994
 20
-8.8000030517577557
 30
0.0
 11
83.499999999999943
 21
-8.8000030517577557
 31
0.0
  0
LINE
  5
336
100
AcDbEntity
  8
0
  6
CONTINUOUS
 62
               7
100
AcDbLine
 10
104.49999999999994
 20
-6.6000061035154545
 30
0.0
 11
83.499999999999943
 21
-6.6000061035154545
 31
0.0
  0
LINE
  5
337
100
AcDbEntity
  8
0
  6
CONTINUOUS
 62
               7
100
AcDbLine
 10
104.49999999999994
 20
-33.399993896484318
 30
0.0
 11
83.499999999999943
 21
-33.399993896484318
 31
0.0
  0
LINE
  5
338
100
AcDbEntity
  8
0
  6
CONTINUOUS
 62
               7
100
AcDbLine
 10
104.49999999999994
 20
-38.999999999999943
 30
0.0
 11
104.49999999999994
 21
1.6000000633333116
 31
0.0
  0
LINE
  5
339
100
AcDbEntity
  8
0
  6
CONTINUOUS
 62
               7
100
AcDbLine
 10
181.17437744140631
 20
-6.1699981689452557
 30
0.0
 11
105.54644775390619
 21
-6.1699981689452557
 31
0.0
  0
LINE
  5
33A
100
AcDbEntity
  8
0
  6
CONTINUOUS
 62
               7
100
AcDbLine
 10
25.0
 20
-40.0
 30
0.0
 11
25.0
 21
-300.00001525878901
 31
0.0
  0
LINE
  5
33B
100
AcDbEntity
  8
0
  6
CONTINUOUS
 62
               7
100
AcDbLine
 10
-25.000000000000028
 20
-40.0
 30
0.0
 11
-25.000000000000028
 21
-300.00001525878901
 31
0.0
  0
LINE
  5
33C
100
AcDbEntity
  8
0
  6
CONTINUOUS
 62
               7
100
AcDbLine
 10
80.499999999999886
 20
-42.800003127757805
 30
0.0
 11
80.499999999999886
 21
0.199996948242358
 31
0.0
  0
LINE
  5
33D
100
AcDbEntity
  8
0
  6
CONTINUOUS
 62
               7
100
AcDbLine
 10
44.499999999999943
 20
-42.800003127757805
 30
0.0
 11
44.499999999999943
 21
0.199996948242358
 31
0.0
  0
LINE
  5
33E
100
AcDbEntity
  8
0
  6
CONTINUOUS
 62
               7
100
AcDbLine
 10
41.499999999999943
 20
0.199996948242358
 30
0.0
 11
83.499999999999943
 21
0.199996948242358
 31
0.0
  0
LINE
  5
33F
100
AcDbEntity
  8
0
  6
CONTINUOUS
 62
               7
100
AcDbLine
 10
19.499999999999943
 20
-280.30000305175776
 30
0.0
 11
19.499999999999943
 21
-281.80000305175776
 31
0.0
  0
LINE
  5
340
100
AcDbEntity
  8
0
  6
CONTINUOUS
 62
               7
100
AcDbLine
 10
13.499999999999943
 20
-280.30000305175776
 30
0.0
 11
13.499999999999943
 21
-281.80000305175776
 31
0.0
  0
LINE
  5
341
100
AcDbEntity
  8
0
  6
CONTINUOUS
 62
               7
100
AcDbLine
 10
-19.5
 20
-280.30000305175776
 30
0.0
 11
-19.5
 21
-281.80000305175776
 31
0.0
  0
LINE
  5
342
100
AcDbEntity
  8
0
  6
CONTINUOUS
 62
               7
100
AcDbLine
 10
-13.500000000000057
 20
-280.30000305175776
 30
0.0
 11
-13.500000000000057
 21
-281.80000305175776
 31
0.0
  0
LINE
  5
343
100
AcDbEntity
  8
0
  6
CONTINUOUS
 62
               7
100
AcDbLine
 10
-13.500000000000057
 20
-40.0
 30
0.0
 11
-13.500000000000057
 21
-238.30000305175778
 31
0.0
  0
LINE
  5
344
100
AcDbEntity
  8
0
  6
CONTINUOUS
 62
               7
100
AcDbLine
 10
-19.5
 20
-40.0
 30
0.0
 11
-19.5
 21
-238.30000305175778
 31
0.0
  0
LINE
  5
345
100
AcDbEntity
  8
0
  6
CONTINUOUS
 62
               7
100
AcDbLine
 10
13.499999999999943
 20
-40.0
 30
0.0
 11
13.499999999999943
 21
-238.30000305175778
 31
0.0
  0
LINE
  5
346
100
AcDbEntity
  8
0
  6
CONTINUOUS
 62
               2
100
AcDbLine
 10
24.499999999999943
 20
-277.30000305175776
 30
0.0
 11
19.499999999999943
 21
-277.30000305175776
 31
0.0
  0
LINE
  5
347
100
AcDbEntity
  8
0
  6
CONTINUOUS
 62
               2
100
AcDbLine
 10
21.999999999999943
 20
-274.80000305175776
 30
0.0
 11
21.999999999999943
 21
-279.80000305175776
 31
0.0
  0
LINE
  5
348
100
AcDbEntity
  8
0
  6
CONTINUOUS
 62
               2
100
AcDbLine
 10
-22.0
 20
-274.80000305175776
 30
0.0
 11
-22.0
 21
-279.80000305175776
 31
0.0
  0
LINE
  5
349
100
AcDbEntity
  8
0
  6
CONTINUOUS
 62
               2
100
AcDbLine
 10
-19.5
 20
-277.30000305175776
 30
0.0
 11
-24.5
 21
-277.30000305175776
 31
0.0
  0
LINE
  5
34A
100
AcDbEntity
  8
0
  6
CONTINUOUS
 62
               2
100
AcDbLine
 10
-22.0
 20
-238.80000305175776
 30
0.0
 11
-22.0
 21
-243.80000305175776
 31
0.0
  0
LINE
  5
34B
100
AcDbEntity
  8
0
  6
CONTINUOUS
 62
               2
100
AcDbLine
 10
-19.5
 20
-241.30000305175776
 30
0.0
 11
-24.5
 21
-241.30000305175776
 31
0.0
  0
LINE
  5
34C
100
AcDbEntity
  8
0
  6
CONTINUOUS
 62
               2
100
AcDbLine
 10
21.999999999999943
 20
-238.80000305175776
 30
0.0
 11
21.999999999999943
 21
-243.80000305175776
 31
0.0
  0
LINE
  5
34D
100
AcDbEntity
  8
0
  6
CONTINUOUS
 62
               2
100
AcDbLine
 10
24.499999999999943
 20
-241.30000305175776
 30
0.0
 11
19.499999999999943
 21
-241.30000305175776
 31
0.0
  0
LINE
  5
34E
100
AcDbEntity
  8
0
  6
CONTINUOUS
 62
               7
100
AcDbLine
 10
21.999999999999943
 20
-280.30000305175776
 30
0.0
 11
-22.0
 21
-280.30000305175776
 31
0.0
  0
LINE
  5
34F
100
AcDbEntity
  8
0
  6
CONTINUOUS
 62
               7
100
AcDbLine
 10
21.999999999999943
 20
-238.30000305175778
 30
0.0
 11
-22.0
 21
-238.30000305175778
 31
0.0
  0
LINE
  5
350
100
AcDbEntity
  8
0
  6
CONTINUOUS
 62
               7
100
AcDbLine
 10
-35.000000000000028
 20
-40.0
 30
0.0
 11
-35.000000000000028
 21
-300.00001525878901
 31
0.0
  0
LINE
  5
351
100
AcDbEntity
  8
0
  6
CONTINUOUS
 62
               7
100
AcDbLine
 10
34.999999999999943
 20
-40.0
 30
0.0
 11
34.999999999999943
 21
-300.00001525878901
 31
0.0
  0
LINE
  5
352
100
AcDbEntity
  8
0
  6
CONTINUOUS
 62
               7
100
AcDbLine
 10
83.499999999999943
 20
-40.0
 30
0.0
 11
104.99999999999994
 21
-40.0
 31
0.0
  0
LINE
  5
353
100
AcDbEntity
  8
0
  6
CONTINUOUS
 62
               7
100
AcDbLine
 10
104.99999999999994
 20
-38.999999999999943
 30
0.0
 11
104.99999999999994
 21
-302.80000305175781
 31
0.0
  0
LINE
  5
354
100
AcDbEntity
  8
0
  6
CONTINUOUS
 62
               2
100
AcDbLine
 10
0.0
 20
57.264309223846169
 30
0.0
 11
0.0
 21
-319.79998779296869
 31
0.0
  0
LINE
  5
355
100
AcDbEntity
  8
0
  6
CONTINUOUS
 62
               7
100
AcDbLine
 10
41.499999999999943
 20
-45.800003051757813
 30
0.0
 11
41.499999999999943
 21
0.199996948242358
 31
0.0
  0
LINE
  5
356
100
AcDbEntity
  8
0
  6
CONTINUOUS
 62
               7
100
AcDbLine
 10
83.499999999999943
 20
-45.800003051757813
 30
0.0
 11
83.499999999999943
 21
0.199996948242358
 31
0.0
  0
LINE
  5
357
100
AcDbEntity
  8
0
  6
CONTINUOUS
 62
               2
100
AcDbLine
 10
190.0
 20
-20.0
 30
0.0
 11
-188.95381194389955
 21
-20.0
 31
0.0
  0
LINE
  5
358
100
AcDbEntity
  8
0
  6
CONTINUOUS
 62
               7
100
AcDbLine
 10
-105.0000000000002
 20
-40.0
 30
0.0
 11
41.499999999999943
 21
-40.0
 31
0.0
  0
LINE
  5
359
100
AcDbEntity
  8
0
  6
CONTINUOUS
 62
               7
100
AcDbLine
 10
-105.0000000000002
 20
-300.00001525878901
 30
0.0
 11
104.99999999999994
 21
-300.00001525878901
 31
0.0
  0
LINE
  5
35A
100
AcDbEntity
  8
0
  6
CONTINUOUS
 62
               7
100
AcDbLine
 10
-105.0000000000002
 20
0.0
 30
0.0
 11
-105.0000000000002
 21
-0.9999999999999432
 31
0.0
  0
LINE
  5
35B
100
AcDbEntity
  8
0
  6
CONTINUOUS
 62
               7
100
AcDbLine
 10
-105.0000000000002
 20
0.0
 30
0.0
 11
41.499999999999943
 21
0.0
 31
0.0
  0
LINE
  5
35C
100
AcDbEntity
  8
0
  6
CONTINUOUS
 62
               2
100
AcDbLine
 10
-40.000000000000028
 20
-259.30000305175776
 30
0.0
 11
43.188084189114818
 21
-259.30000305175776
 31
0.0
  0
LINE
  5
35D
100
AcDbEntity
  8
0
  6
CONTINUOUS
 62
               7
100
AcDbLine
 10
44.0
 20
-79.299972534179574
 30
0.0
 11
47.999999999999943
 21
-79.299972534179574
 31
0.0
  0
LINE
  5
35E
100
AcDbEntity
  8
0
  6
CONTINUOUS
 62
               7
100
AcDbLine
 10
76.999999999999943
 20
-79.299972534179574
 30
0.0
 11
80.999999999999943
 21
-79.299972534179574
 31
0.0
  0
ARC
  5
35F
100
AcDbEntity
  8
0
  6
CONTINUOUS
 62
               7
100
AcDbCircle
 10
80.999999999999943
 20
-78.799972534179631
 30
0.0
 40
0.5
100
AcDbArc
 50
270.0
 51
0.0
  0
ARC
  5
360
100
AcDbEntity
  8
0
  6
CONTINUOUS
 62
               7
100
AcDbCircle
 10
76.999999999999943
 20
-78.799972534179631
 30
0.0
 40
0.5
100
AcDbArc
 50
180.0
 51
270.0
  0
ARC
  5
361
100
AcDbEntity
  8
0
  6
CONTINUOUS
 62
               7
100
AcDbCircle
 10
47.999999999999943
 20
-78.799972534179631
 30
0.0
 40
0.5
100
AcDbArc
 50
270.0
 51
0.0
  0
ARC
  5
362
100
AcDbEntity
  8
0
  6
CONTINUOUS
 62
               7
100
AcDbCircle
 10
44.0
 20
-78.799972534179631
 30
0.0
 40
0.5
100
AcDbArc
 50
180.0
 51
270.0
  0
LINE
  5
363
100
AcDbEntity
  8
0
  6
CONTINUOUS
 62
               7
100
AcDbLine
 10
19.499999999999943
 20
-40.0
 30
0.0
 11
19.499999999999943
 21
-238.30000305175778
 31
0.0
  0
LINE
  5
364
100
AcDbEntity
  8
0
  6
CONTINUOUS
 62
               7
100
AcDbLine
 10
-105.0000000000002
 20
-38.999999999999943
 30
0.0
 11
-105.0000000000002
 21
-302.89637756347656
 31
0.0
  0
LINE
  5
365
100
AcDbEntity
  8
0
  6
CONTINUOUS
 62
               2
100
AcDbLine
 10
62.499999999999943
 20
4.9310824110208387
 30
0.0
 11
62.499999999999943
 21
-81.924296831882884
 31
0.0
  0
LINE
  5
366
100
AcDbEntity
  8
0
  6
CONTINUOUS
 62
               2
100
AcDbLine
 10
-137.50000000000023
 20
4.5344825060037692
 30
0.0
 11
-137.50000000000023
 21
-43.850705937342696
 31
0.0
  0
LINE
  5
367
100
AcDbEntity
  8
0
  6
CONTINUOUS
 62
               2
100
AcDbLine
 10
-40.000000000000028
 20
-59.300003051757756
 30
0.0
 11
43.188084189114818
 21
-59.300003051757756
 31
0.0
  0
ENDBLK
  5
368
100
AcDbEntity
  8
0
100
AcDbBlockEnd
  0
BLOCK
  5
22
100
AcDbEntity
  8
0
  6
ByBlock
 62
               0
100
AcDbBlockBegin
  2
_OPEN30
 70
               2
 10
0.0
 20
0.0
 30
0.0
  3
_OPEN30
  1

  0
LINE
  5
23
100
AcDbEntity
  8
0
  6
ByBlock
 62
               0
100
AcDbLine
 10
-1.0
 20
0.267949
 30
0.0
 11
0.0
 21
0.0
 31
0.0
  0
LINE
  5
24
100
AcDbEntity
  8
0
  6
ByBlock
 62
               0
100
AcDbLine
 10
0.0
 20
0.0
 30
0.0
 11
-1.0
 21
-0.267949
 31
0.0
  0
LINE
  5
25
100
AcDbEntity
  8
0
  6
ByBlock
 62
               0
100
AcDbLine
 10
0.0
 20
0.0
 30
0.0
 11
-1.0
 21
0.0
 31
0.0
  0
ENDBLK
  5
26
100
AcDbEntity
  8
0
  6
ByBlock
 62
               0
100
AcDbBlockEnd
  0
BLOCK
  5
36D
100
AcDbEntity
  8
0
  6
ByBlock
 62
               0
100
AcDbBlockBegin
  2
*D4
 70
               1
 10
0.0
 20
0.0
 30
0.0
  3
*D4
  1

  0
LINE
  5
36E
100
AcDbEntity
  8
0
  6
CONTINUOUS
 62
               2
100
AcDbLine
 10
132.49999999999972
 20
507.68962133079941
 30
0.0
 11
332.49999999999994
 21
507.68962133079941
 31
0.0
  0
LINE
  5
36F
100
AcDbEntity
  8
0
  6
CONTINUOUS
 62
               2
100
AcDbLine
 10
132.49999999999972
 20
397.52288091331894
 30
0.0
 11
132.49999999999972
 21
509.18962133079941
 31
0.0
  0
LINE
  5
370
100
AcDbEntity
  8
0
  6
CONTINUOUS
 62
               2
100
AcDbLine
 10
332.49999999999994
 20
397.52288091331894
 30
0.0
 11
332.49999999999994
 21
509.18962133079941
 31
0.0
  0
INSERT
  5
371
100
AcDbEntity
  8
0
  6
CONTINUOUS
 62
               2
100
AcDbBlockReference
  2
_OPEN30
 10
132.49999999999972
 20
507.68962133079941
 30
0.0
 41
8.3100000000000005
 42
8.3100000000000005
 43
8.3100000000000005
 50
180.0
  0
INSERT
  5
372
100
AcDbEntity
  8
0
  6
CONTINUOUS
 62
               2
100
AcDbBlockReference
  2
_OPEN30
 10
332.49999999999994
 20
507.68962133079941
 30
0.0
 41
8.3100000000000005
 42
8.3100000000000005
 43
8.3100000000000005
  0
MTEXT
  5
374
100
AcDbEntity
  8
0
  6
CONTINUOUS
 62
               2
100
AcDbMText
 10
235.73266601562472
 20
514.68962133079935
 30
0.0
 40
12.0
 41
0.0
 71
               5
 72
               1
  1
\A1;X-STROKE(200）
  7
MX_DIMTXSTY_2
  0
POINT
  5
375
100
AcDbEntity
  8
DEFPOINTS
  6
CONTINUOUS
 62
               0
100
AcDbPoint
 10
132.49999999999972
 20
396.02288091331894
 30
0.0
  0
POINT
  5
376
100
AcDbEntity
  8
DEFPOINTS
  6
CONTINUOUS
 62
               0
100
AcDbPoint
 10
332.49999999999994
 20
396.02288091331894
 30
0.0
  0
POINT
  5
377
100
AcDbEntity
  8
DEFPOINTS
  6
CONTINUOUS
 62
               0
100
AcDbPoint
 10
332.49999999999994
 20
507.68962133079941
 30
0.0
  0
ENDBLK
  5
378
100
AcDbEntity
  8
0
  6
ByBlock
 62
               0
100
AcDbBlockEnd
  0
BLOCK
  5
37C
100
AcDbEntity
  8
0
  6
ByBlock
 62
               0
100
AcDbBlockBegin
  2
*D5
 70
               1
 10
0.0
 20
0.0
 30
0.0
  3
*D5
  1

  0
LINE
  5
37D
100
AcDbEntity
  8
0
  6
CONTINUOUS
 62
               2
100
AcDbLine
 10
75.097006451612913
 20
140.69999694824224
 30
0.0
 11
75.097006451612913
 21
340.69999694824224
 31
0.0
  0
LINE
  5
37E
100
AcDbEntity
  8
0
  6
CONTINUOUS
 62
               2
100
AcDbLine
 10
273.5000063295426
 20
140.69999694824224
 30
0.0
 11
73.597006451612913
 21
140.69999694824224
 31
0.0
  0
LINE
  5
37F
100
AcDbEntity
  8
0
  6
CONTINUOUS
 62
               2
100
AcDbLine
 10
273.5000063295426
 20
340.69999694824224
 30
0.0
 11
73.597006451612913
 21
340.69999694824224
 31
0.0
  0
INSERT
  5
380
100
AcDbEntity
  8
0
  6
CONTINUOUS
 62
               2
100
AcDbBlockReference
  2
_OPEN30
 10
75.097006451612913
 20
140.69999694824224
 30
0.0
 41
8.3100000000000005
 42
8.3100000000000005
 43
8.3100000000000005
 50
270.0
  0
INSERT
  5
381
100
AcDbEntity
  8
0
  6
CONTINUOUS
 62
               2
100
AcDbBlockReference
  2
_OPEN30
 10
75.097006451612913
 20
340.69999694824224
 30
0.0
 41
8.3100000000000005
 42
8.3100000000000005
 43
8.3100000000000005
 50
90.0
  0
MTEXT
  5
382
100
AcDbEntity
  8
0
  6
CONTINUOUS
 62
               2
100
AcDbMText
 10
68.097006451612913
 20
239.02854156494146
 30
0.0
 40
12.0
 41
0.0
 71
               5
 72
               1
  1
\A1;Y-STROKE(200）
  7
MX_DIMTXSTY_2
 11
0.0000000000000001
 21
1.0
 31
0.0
  0
POINT
  5
383
100
AcDbEntity
  8
DEFPOINTS
  6
CONTINUOUS
 62
               0
100
AcDbPoint
 10
275.0000063295426
 20
140.69999694824224
 30
0.0
  0
POINT
  5
384
100
AcDbEntity
  8
DEFPOINTS
  6
CONTINUOUS
 62
               0
100
AcDbPoint
 10
275.0000063295426
 20
340.69999694824224
 30
0.0
  0
POINT
  5
385
100
AcDbEntity
  8
DEFPOINTS
  6
CONTINUOUS
 62
               0
100
AcDbPoint
 10
75.097006451612913
 20
340.69999694824224
 30
0.0
  0
ENDBLK
  5
386
100
AcDbEntity
  8
0
  6
ByBlock
 62
               0
100
AcDbBlockEnd
  0
BLOCK
  5
38A
100
AcDbEntity
  8
0
  6
ByBlock
 62
               0
100
AcDbBlockBegin
  2
*D6
 70
               1
 10
0.0
 20
0.0
 30
0.0
  3
*D6
  1

  0
LINE
  5
38B
100
AcDbEntity
  8
0
  6
CONTINUOUS
 62
               2
100
AcDbLine
 10
98.790833683939013
 20
-204.29997253417952
 30
0.0
 11
98.790833683939013
 21
-154.29997253417952
 31
0.0
  0
LINE
  5
38C
100
AcDbEntity
  8
0
  6
CONTINUOUS
 62
               2
100
AcDbLine
 10
98.790833683939013
 20
-154.29997253417952
 30
0.0
 11
98.790833683939013
 21
4.4934997558595455
 31
0.0
  0
LINE
  5
38D
100
AcDbEntity
  8
0
  6
CONTINUOUS
 62
               2
100
AcDbLine
 10
337.75988885972026
 20
-204.29997253417952
 30
0.0
 11
97.290833683939013
 21
-204.29997253417952
 31
0.0
  0
LINE
  5
38E
100
AcDbEntity
  8
0
  6
CONTINUOUS
 62
               2
100
AcDbLine
 10
337.75988885972026
 20
-154.29997253417952
 30
0.0
 11
97.290833683939013
 21
-154.29997253417952
 31
0.0
  0
INSERT
  5
38F
100
AcDbEntity
  8
0
  6
CONTINUOUS
 62
               2
100
AcDbBlockReference
  2
_OPEN30
 10
98.790833683939013
 20
-204.29997253417952
 30
0.0
 41
8.3100000000000005
 42
8.3100000000000005
 43
8.3100000000000005
 50
270.0
  0
INSERT
  5
390
100
AcDbEntity
  8
0
  6
CONTINUOUS
 62
               2
100
AcDbBlockReference
  2
_OPEN30
 10
98.790833683939013
 20
-154.29997253417952
 30
0.0
 41
8.3100000000000005
 42
8.3100000000000005
 43
8.3100000000000005
 50
90.0
  0
MTEXT
  5
391
100
AcDbEntity
  8
0
  6
CONTINUOUS
 62
               2
100
AcDbMText
 10
91.790833683939013
 20
-67.506500244140454
 30
0.0
 40
12.0
 41
0.0
 71
               5
 72
               1
  1
\A1;Z-STROKE(50)
  7
MX_DIMTXSTY_2
 11
0.0000000000000001
 21
1.0
 31
0.0
  0
POINT
  5
392
100
AcDbEntity
  8
DEFPOINTS
  6
CONTINUOUS
 62
               0
100
AcDbPoint
 10
339.25988885972026
 20
-204.29997253417952
 30
0.0
  0
POINT
  5
393
100
AcDbEntity
  8
DEFPOINTS
  6
CONTINUOUS
 62
               0
100
AcDbPoint
 10
339.25988885972026
 20
-154.29997253417952
 30
0.0
  0
POINT
  5
394
100
AcDbEntity
  8
DEFPOINTS
  6
CONTINUOUS
 62
               0
100
AcDbPoint
 10
98.790833683939013
 20
-154.29997253417952
 30
0.0
  0
ENDBLK
  5
395
100
AcDbEntity
  8
0
  6
ByBlock
 62
               0
100
AcDbBlockEnd
  0
ENDSEC
  0
SECTION
  2
ENTITIES
  0
INSERT
  5
369
100
AcDbEntity
  8
0
  6
ByBlock
100
AcDbBlockReference
  2
DTHB-AL3-3
 10
270.0
 20
400.0
 30
0.0
  0
INSERT
  5
36A
100
AcDbEntity
  8
0
  6
ByBlock
100
AcDbBlockReference
  2
DTHB-AL3-2
 10
-400.0
 20
-430.0
 30
0.0
  0
INSERT
  5
36B
100
AcDbEntity
  8
0
  6
ByBlock
100
AcDbBlockReference
  2
DTHB-AL3-1
 10
270.0
 20
-430.0
 30
0.0
  0
DIMENSION
  5
379
100
AcDbEntity
  8
0
  6
CONTINUOUS
 62
               2
100
AcDbDimension
  2
*D4
 10
332.49999999999994
 20
507.68962133079941
 30
0.0
 11
235.73266601562472
 21
507.68962133079941
 31
0.0
 70
             128
  1
X-STROKE(200）
  3
MXDIMSTYLE
100
AcDbAlignedDimension
 13
132.49999999999972
 23
396.02288091331894
 33
0.0
 14
332.49999999999994
 24
396.02288091331894
 34
0.0
100
AcDbRotatedDimension
1001
ACAD
1000
DSTYLE
1002
{
1070
              41
1040
8.3100000000000005
1070
             140
1040
12.0
1070
             340
1005
373
1002
}
  0
MTEXT
  5
37A
100
AcDbEntity
  8
0
  6
CONTINUOUS
 62
               7
100
AcDbMText
 10
-678.5
 20
459.5
 30
0.0
 40
18.0
 41
0.0
 71
               4
 72
               1
  1
\A1;DTHB-ALL3
  0
DIMENSION
  5
387
100
AcDbEntity
  8
0
  6
CONTINUOUS
 62
               2
100
AcDbDimension
  2
*D5
 10
75.097006451612913
 20
340.69999694824224
 30
0.0
 11
75.097006451612913
 21
239.02854156494146
 31
0.0
 70
             128
  1
Y-STROKE(200）
  3
MXDIMSTYLE
100
AcDbAlignedDimension
 13
275.0000063295426
 23
140.69999694824224
 33
0.0
 14
275.0000063295426
 24
340.69999694824224
 34
0.0
 50
90.0
100
AcDbRotatedDimension
1001
ACAD
1000
DSTYLE
1002
{
1070
              41
1040
8.3100000000000005
1070
             140
1040
12.0
1070
             340
1005
373
1002
}
  0
MTEXT
  5
388
100
AcDbEntity
  8
0
  6
CONTINUOUS
 62
               7
100
AcDbMText
 10
-741.38679245283015
 20
562.0
 30
0.0
 40
18.0
 41
0.0
 71
               4
 72
               1
  1
\W1.038;\A1;CELL MASTER
  0
DIMENSION
  5
396
100
AcDbEntity
  8
0
  6
CONTINUOUS
 62
               2
100
AcDbDimension
  2
*D6
 10
98.790833683939013
 20
-154.29997253417952
 30
0.0
 11
98.790833683939013
 21
-67.506500244140454
 31
0.0
 70
             128
  1
Z-STROKE(50)
  3
MXDIMSTYLE
100
AcDbAlignedDimension
 13
339.25988885972026
 23
-204.29997253417952
 33
0.0
 14
339.25988885972026
 24
-154.29997253417952
 34
0.0
 50
90.0
100
AcDbRotatedDimension
1001
ACAD
1000
DSTYLE
1002
{
1070
              41
1040
8.3100000000000005
1070
             140
1040
12.0
1070
             340
1005
373
1002
}
  0
LINE
  5
397
100
AcDbEntity
  8
0
  6
CONTINUOUS
 62
               7
100
AcDbLine
 10
-820.5
 20
-574.5
 30
0.0
 11
820.5
 21
-574.5
 31
0.0
  0
LINE
  5
398
100
AcDbEntity
  8
0
  6
CONTINUOUS
 62
               7
100
AcDbLine
 10
-820.5
 20
574.5
 30
0.0
 11
-820.5
 21
-574.5
 31
0.0
  0
LINE
  5
399
100
AcDbEntity
  8
0
  6
CONTINUOUS
 62
               7
100
AcDbLine
 10
820.5
 20
574.5
 30
0.0
 11
820.5
 21
-574.5
 31
0.0
  0
LINE
  5
39A
100
AcDbEntity
  8
0
  6
CONTINUOUS
 62
               7
100
AcDbLine
 10
-820.5
 20
574.5
 30
0.0
 11
820.5
 21
574.5
 31
0.0
  0
LINE
  5
39B
100
AcDbEntity
  8
0
  6
CONTINUOUS
 62
               7
100
AcDbLine
 10
-820.5
 20
524.5
 30
0.0
 11
-470.5
 21
524.5
 31
0.0
  0
LINE
  5
39C
100
AcDbEntity
  8
0
  6
CONTINUOUS
 62
               7
100
AcDbLine
 10
470.5
 20
-524.5
 30
0.0
 11
820.5
 21
-524.5
 31
0.0
  0
LINE
  5
39D
100
AcDbEntity
  8
0
  6
CONTINUOUS
 62
               7
100
AcDbLine
 10
470.5
 20
574.5
 30
0.0
 11
470.5
 21
524.5
 31
0.0
  0
LINE
  5
39E
100
AcDbEntity
  8
0
  6
CONTINUOUS
 62
               7
100
AcDbLine
 10
-470.5
 20
574.5
 30
0.0
 11
-470.5
 21
524.5
 31
0.0
  0
LINE
  5
39F
100
AcDbEntity
  8
0
  6
CONTINUOUS
 62
               7
100
AcDbLine
 10
470.5
 20
-524.5
 30
0.0
 11
470.5
 21
-574.5
 31
0.0
  0
LINE
  5
3A0
100
AcDbEntity
  8
0
  6
CONTINUOUS
 62
               7
100
AcDbLine
 10
470.5
 20
524.5
 30
0.0
 11
820.5
 21
524.5
 31
0.0
  0
MTEXT
  5
3A1
100
AcDbEntity
  8
0
  6
CONTINUOUS
 62
               7
100
AcDbMText
 10
-786.35000000234697
 20
484.5
 30
0.0
 40
18.0
 41
0.0
 71
               4
 72
               1
  1
\W1.050;\A1;MODEL:DTHB-AL3
  0
MTEXT
  5
3A2
100
AcDbEntity
  8
0
  6
CONTINUOUS
 62
               7
100
AcDbMText
 10
487.66954021788825
 20
-549.5
 30
0.0
 40
25.0
 41
0.0
 71
               4
 72
               1
  1
\W1.121;\A1;KOGANEI CORP.
  0
MTEXT
  5
3A3
100
AcDbEntity
  8
0
  6
CONTINUOUS
 62
               7
100
AcDbMText
 10
577.43442619106395
 20
549.5
 30
0.0
 40
18.0
 41
0.0
 71
               4
 72
               1
  1
\W1.311;\A1;Ver. 1.0
  0
MTEXT
  5
3A4
100
AcDbEntity
  8
0
  6
CONTINUOUS
 62
               7
100
AcDbMText
 10
-714.5
 20
537.0
 30
0.0
 40
18.0
 41
0.0
 71
               4
 72
               1
  1
\A1;DTHB-AL3
  0
ENDSEC
  0
SECTION
  2
OBJECTS
  0
DICTIONARY
  5
19
100
AcDbDictionary
  3
ACAD_GROUP
350
1A
  3
ACAD_MLINESTYLE
350
1B
  0
DICTIONARY
  5
1A
102
{ACAD_REACTORS
330
19
102
}
100
AcDbDictionary
  0
DICTIONARY
  5
1B
102
{ACAD_REACTORS
330
19
102
}
100
AcDbDictionary
  3
STANDARD
350
1C
  0
MLINESTYLE
  5
1C
102
{ACAD_REACTORS
330
1B
102
}
100
AcDbMlineStyle
  2
Standard
 70
               0
  3

 62
               0
 51
90.0
 52
90.0
 71
               2
 49
0.5
 62
             256
  6
ByLayer
 49
-0.5
 62
             256
  6
ByLayer
  0
ENDSEC
  0
EOF
