  0
SECTION
  2
HEADER
  9
$ACADVER
  1
AC1012
  9
$DWGCODEPAGE
  3
dos932
  9
$INSBASE
 10
0.0
 20
0.0
 30
0.0
  9
$EXTMIN
 10
-399.25
 20
-276.75
 30
0.0
  9
$EXTMAX
 10
406.04981708526611
 20
276.25
 30
0.0
  9
$LIMMIN
 10
-399.25
 20
-276.75
  9
$LIMMAX
 10
406.04981708526611
 20
276.25
  9
$ORTHOMODE
 70
               0
  9
$REGENMODE
 70
               1
  9
$FILLMODE
 70
               1
  9
$QTEXTMODE
 70
               0
  9
$MIRRTEXT
 70
               1
  9
$DRAGMODE
 70
               2
  9
$LTSCALE
 40
1.0
  9
$OSMODE
 70
               0
  9
$ATTMODE
 70
               1
  9
$TEXTSIZE
 40
3.2000000476837158
  9
$TRACEWID
 40
0.05
  9
$TEXTSTYLE
  7
MX_NOTE_STANDARD
  9
$CLAYER
  8
0
  9
$CELTYPE
  6
CONTINUOUS
  9
$CECOLOR
 62
             256
  9
$CELTSCALE
 40
1.0
  9
$DELOBJ
 70
               1
  9
$DISPSILH
 70
               0
  9
$DIMSCALE
 40
1.0
  9
$DIMASZ
 40
2.5
  9
$DIMEXO
 40
1.5
  9
$DIMDLI
 40
3.75
  9
$DIMRND
 40
0.0
  9
$DIMDLE
 40
0.0
  9
$DIMEXE
 40
1.5
  9
$DIMTP
 40
0.0
  9
$DIMTM
 40
0.0
  9
$DIMTXT
 40
3.2000000476837158
  9
$DIMCEN
 40
2.5
  9
$DIMTSZ
 40
0.0
  9
$DIMTOL
 70
               0
  9
$DIMLIM
 70
               0
  9
$DIMTIH
 70
               0
  9
$DIMTOH
 70
               0
  9
$DIMSE1
 70
               0
  9
$DIMSE2
 70
               0
  9
$DIMTAD
 70
               1
  9
$DIMZIN
 70
               8
  9
$DIMBLK
  1

  9
$DIMASO
 70
               1
  9
$DIMSHO
 70
               1
  9
$DIMPOST
  1

  9
$DIMAPOST
  1

  9
$DIMALT
 70
               0
  9
$DIMALTD
 70
               4
  9
$DIMALTF
 40
0.0394
  9
$DIMLFAC
 40
1.0
  9
$DIMTOFL
 70
               1
  9
$DIMTVP
 40
0.0
  9
$DIMTIX
 70
               0
  9
$DIMSOXD
 70
               0
  9
$DIMSAH
 70
               0
  9
$DIMBLK1
  1

  9
$DIMBLK2
  1

  9
$DIMSTYLE
  2
MXDIMSTYLE
  9
$DIMCLRD
 70
               0
  9
$DIMCLRE
 70
               0
  9
$DIMCLRT
 70
               0
  9
$DIMTFAC
 40
1.0
  9
$DIMGAP
 40
1.0
  9
$DIMJUST
 70
               0
  9
$DIMSD1
 70
               0
  9
$DIMSD2
 70
               0
  9
$DIMTOLJ
 70
               1
  9
$DIMTZIN
 70
               0
  9
$DIMALTZ
 70
               0
  9
$DIMALTTZ
 70
               0
  9
$DIMFIT
 70
               3
  9
$DIMUPT
 70
               1
  9
$DIMUNIT
 70
               2
  9
$DIMDEC
 70
               4
  9
$DIMTDEC
 70
               4
  9
$DIMALTU
 70
               8
  9
$DIMALTTD
 70
               4
  9
$DIMTXSTY
  7
MX_NOTE_STANDARD
  9
$DIMAUNIT
 70
               0
  9
$LUNITS
 70
               2
  9
$LUPREC
 70
               4
  9
$SKETCHINC
 40
0.1
  9
$FILLETRAD
 40
0.0
  9
$AUNITS
 70
               0
  9
$AUPREC
 70
               0
  9
$MENU
  1
acad
  9
$ELEVATION
 40
0.0
  9
$PELEVATION
 40
0.0
  9
$THICKNESS
 40
0.0
  9
$LIMCHECK
 70
               0
  9
$BLIPMODE
 70
               1
  9
$CHAMFERA
 40
0.0
  9
$CHAMFERB
 40
0.0
  9
$CHAMFERC
 40
0.0
  9
$CHAMFERD
 40
0.0
  9
$SKPOLY
 70
               0
  9
$TDCREATE
 40
2452220.696608796
  9
$TDUPDATE
 40
2452220.696608796
  9
$TDINDWG
 40
0.0000000000
  9
$TDUSRTIMER
 40
0.0000000000
  9
$USRTIMER
 70
               1
  9
$ANGBASE
 50
0.0
  9
$ANGDIR
 70
               0
  9
$PDMODE
 70
               0
  9
$PDSIZE
 40
0.0
  9
$PLINEWID
 40
0.0
  9
$COORDS
 70
               1
  9
$SPLFRAME
 70
               0
  9
$SPLINETYPE
 70
               6
  9
$SPLINESEGS
 70
               8
  9
$ATTDIA
 70
               0
  9
$ATTREQ
 70
               1
  9
$HANDLING
 70
               1
  9
$HANDSEED
  5
71D
  9
$SURFTAB1
 70
               6
  9
$SURFTAB2
 70
               6
  9
$SURFTYPE
 70
               6
  9
$SURFU
 70
               6
  9
$SURFV
 70
               6
  9
$UCSNAME
  2

  9
$UCSORG
 10
0.0
 20
0.0
 30
0.0
  9
$UCSXDIR
 10
1.0
 20
0.0
 30
0.0
  9
$UCSYDIR
 10
0.0
 20
1.0
 30
0.0
  9
$PUCSNAME
  2

  9
$PUCSORG
 10
0.0
 20
0.0
 30
0.0
  9
$PUCSXDIR
 10
1.0
 20
0.0
 30
0.0
  9
$PUCSYDIR
 10
0.0
 20
1.0
 30
0.0
  9
$USERI1
 70
               0
  9
$USERI2
 70
               0
  9
$USERI3
 70
               0
  9
$USERI4
 70
               0
  9
$USERI5
 70
               0
  9
$USERR1
 40
0.0
  9
$USERR2
 40
0.0
  9
$USERR3
 40
0.0
  9
$USERR4
 40
0.0
  9
$USERR5
 40
0.0
  9
$WORLDVIEW
 70
               1
  9
$SHADEDGE
 70
               3
  9
$SHADEDIF
 70
              70
  9
$TILEMODE
 70
               1
  9
$MAXACTVP
 70
              16
  9
$PINSBASE
 10
0.0
 20
0.0
 30
0.0
  9
$PLIMCHECK
 70
               0
  9
$PEXTMIN
 10
1.0000000000000000E+20
 20
1.0000000000000000E+20
 30
1.0000000000000000E+20
  9
$PEXTMAX
 10
-1.0000000000000000E+20
 20
-1.0000000000000000E+20
 30
-1.0000000000000000E+20
  9
$PLIMMIN
 10
0.0
 20
0.0
  9
$PLIMMAX
 10
12.0
 20
9.0
  9
$UNITMODE
 70
               0
  9
$VISRETAIN
 70
               0
  9
$PLINEGEN
 70
               1
  9
$PSLTSCALE
 70
               0
  9
$TREEDEPTH
 70
            3020
  9
$PICKSTYLE
 70
               1
  9
$CMLSTYLE
  2
Standard
  9
$CMLJUST
 70
               0
  9
$CMLSCALE
 40
1.0
  9
$SAVEIMAGES
 70
               0
  0
ENDSEC
  0
SECTION
  2
CLASSES
  0
CLASS
  1
LWPOLYLINE
  2
AcDbPolyline
  3
"AutoCAD"
 90
        0
280
               0
281
               1
  0
CLASS
  1
IMAGE
  2
AcDbRasterImage
  3
ISM
 90
      127
280
               0
281
               1
  0
CLASS
  1
OLE2FRAME
  2
AcDbOle2Frame
  3
""
 90
        0
280
               0
281
               1
  0
CLASS
  1
HATCH
  2
AcDbHatch
  3
"ACAD_SEDONA"
 90
        0
280
               0
281
               1
  0
CLASS
  1
DICTIONARYVAR
  2
AcDbDictionaryVar
  3
"AutoCAD"
 90
        0
280
               0
281
               0
  0
CLASS
  1
RASTERVARIABLES
  2
AcDbRasterVariables
  3
ISM
 90
        0
280
               0
281
               0
  0
CLASS
  1
IMAGEDEF
  2
AcDbRasterImageDef
  3
ISM
 90
        0
280
               0
281
               0
  0
CLASS
  1
IMAGEDEF_REACTOR
  2
AcDbRasterImageDefReactor
  3
ISM
 90
        1
280
               0
281
               0
  0
CLASS
  1
IDBUFFER
  2
AcDbIdBuffer
  3
"Acad"
 90
        0
280
               0
281
               0
  0
CLASS
  1
SPATIAL_FILTER
  2
AcDbSpatialFilter
  3
"Acad"
 90
        0
280
               0
281
               0
  0
CLASS
  1
XRECORD
  2
AcDbXrecord
  3
"<Built In>"
 90
        0
280
               0
281
               0
  0
CLASS
  1
SORTENTSTABLE
  2
AcDbSortentsTable
  3
"AutoCAD"
 90
        0
280
               0
281
               0
  0
CLASS
  1
LAYER_INDEX
  2
AcDbLayerIndex
  3
"Acad"
 90
        0
280
               0
281
               0
  0
CLASS
  1
SPATIAL_INDEX
  2
AcDbSpatialIndex
  3
"Acad"
 90
        0
280
               0
281
               0
  0
CLASS
  1
OBJECT_PTR
  2
CAseDLPNTableRecord
  3
"ASE-LPNTableRecord"
 90
        1
280
               0
281
               0
  0
CLASS
  1
LAYOUT
  2
AcDbLayout
  3
"AutoCAD 2000"
 90
        1
280
               0
281
               0
  0
CLASS
  1
PLOTSETTINGS
  2
AcDbPlotSettings
  3
"AutoCAD 2000"
 90
        1
280
               0
281
               0
  0
CLASS
  1
ACDBDICTIONARYWDFLT
  2
AcDbDictionaryWithDefault
  3
"AutoCAD 2000"
 90
        1
280
               0
281
               0
  0
CLASS
  1
ACDBPLACEHOLDER
  2
AcDbPlaceHolder
  3
"AutoCAD 2000"
 90
        1
280
               0
281
               0
  0
CLASS
  1
VBA_PROJECT
  2
AcDbVbaProject
  3
"acadvba"
 90
        1
280
               0
281
               0
  0
CLASS
  1
WIPEOUT
  2
AcDbWipeout
  3
WipeOut|AutoCAD Express Tool|expresstools@autodesk.com
 90
      127
280
               0
281
               1
  0
CLASS
  1
WIPEOUTVARIABLES
  2
AcDbWipeoutVariables
  3
WipeOut|AutoCAD Express Tool|expresstools@autodesk.com
 90
        0
280
               0
281
               0
  0
CLASS
  1
RTEXT
  2
RText
  3
RText|AutoCAD Express Tool|expresstools@autodesk.com
 90
        0
280
               0
281
               1
  0
CLASS
  1
ARCALIGNEDTEXT
  2
AcDbArcAlignedText
  3
ATEXT|AutoCAD Express Tool|expresstools@autodesk.com
 90
        0
280
               0
281
               1
  0
ENDSEC
  0
SECTION
  2
TABLES
  0
TABLE
  2
VPORT
  5
7
100
AcDbSymbolTable
 70
               1
  0
VPORT
  5
15
100
AcDbSymbolTableRecord
100
AcDbViewportTableRecord
  2
*ACTIVE
 70
               0
 10
0.0
 20
0.0
 11
1.0
 21
1.0
 12
3.3999085426330566
 22
-0.25
 13
0.0
 23
0.0
 14
1.0
 24
1.0
 15
0.0
 25
0.0
 16
0.0
 26
0.0
 36
1.0
 17
0.0
 27
0.0
 37
0.0
 40
558.52999999999997
 41
1.7320508075688772
 42
50.0
 43
0.0
 44
0.0
 50
0.0
 51
0.0
 71
               0
 72
             100
 73
               1
 74
               1
 75
               0
 76
               0
 77
               0
 78
               0
  0
ENDTAB
  0
TABLE
  2
LTYPE
  5
4
100
AcDbSymbolTable
 70
               4
  0
LTYPE
  5
11
100
AcDbSymbolTableRecord
100
AcDbLinetypeTableRecord
  2
BYBLOCK
 70
              64
  3

 72
              65
 73
               0
 40
0.0
  0
LTYPE
  5
12
100
AcDbSymbolTableRecord
100
AcDbLinetypeTableRecord
  2
BYLAYER
 70
              64
  3

 72
              65
 73
               0
 40
0.0
  0
LTYPE
  5
13
100
AcDbSymbolTableRecord
100
AcDbLinetypeTableRecord
  2
CONTINUOUS
 70
              64
  3
Solid line
 72
              65
 73
               0
 40
0.0
  0
LTYPE
  5
11F
100
AcDbSymbolTableRecord
100
AcDbLinetypeTableRecord
  2
CENTER
 70
              64
  3
Center ____ _ ____ _ ____ _ ____ _ ____ _ ____
 72
              65
 73
               4
 40
50.800000000000004
 49
31.75
 74
               0
 49
-6.3499999999999996
 74
               0
 49
6.3499999999999996
 74
               0
 49
-6.3499999999999996
 74
               0
  0
ENDTAB
  0
TABLE
  2
LAYER
  5
2
100
AcDbSymbolTable
 70
               2
  0
LAYER
  5
14
100
AcDbSymbolTableRecord
100
AcDbLayerTableRecord
  2
0
 70
               0
 62
               7
  6
CONTINUOUS
  0
LAYER
  5
1D
100
AcDbSymbolTableRecord
100
AcDbLayerTableRecord
  2
DEFPOINTS
 70
               0
 62
               7
  6
CONTINUOUS
  0
ENDTAB
  0
TABLE
  2
STYLE
  5
3
100
AcDbSymbolTable
 70
               1
  0
STYLE
  5
17
100
AcDbSymbolTableRecord
100
AcDbTextStyleTableRecord
  2
MX_NOTE_STANDARD
 70
               0
 40
3.2000000476837158
 41
1.0
 50
0.0
 71
               0
 42
3.2000000476837158
  3
txt.shx
  4
extfont.shx
  0
ENDTAB
  0
TABLE
  2
VIEW
  5
5
100
AcDbSymbolTable
 70
               0
  0
ENDTAB
  0
TABLE
  2
UCS
  5
6
100
AcDbSymbolTable
 70
               0
  0
ENDTAB
  0
TABLE
  2
APPID
  5
8
100
AcDbSymbolTable
 70
               1
  0
APPID
  5
16
100
AcDbSymbolTableRecord
100
AcDbRegAppTableRecord
  2
ACAD
 70
               0
  0
ENDTAB
  0
TABLE
  2
DIMSTYLE
  5
9
100
AcDbSymbolTable
 70
               1
  0
DIMSTYLE
105
18
100
AcDbSymbolTableRecord
100
AcDbDimStyleTableRecord
  2
MXDIMSTYLE
 70
               0
  3

  4

  5

  6

  7

 40
1.0
 41
2.5
 42
1.5
 43
3.75
 44
1.5
 45
0.0
 46
0.0
 47
0.0
 48
0.0
 71
               0
 72
               0
 73
               0
 74
               0
 75
               0
 76
               0
 77
               1
 78
               8
140
3.2000000476837158
141
2.5
142
0.0
143
0.0394
144
1.0
145
0.0
146
1.0
147
1.0
170
               0
171
               4
172
               1
173
               0
174
               0
175
               0
176
               0
177
               0
178
               0
270
               2
271
               4
272
               4
273
               8
274
               4
275
               0
280
               0
281
               0
282
               0
283
               1
284
               0
285
               0
286
               0
287
               3
288
               1
340
17
  0
ENDTAB
  0
TABLE
  2
BLOCK_RECORD
  5
1
100
AcDbSymbolTable
 70
              10
  0
BLOCK_RECORD
  5
A
100
AcDbSymbolTableRecord
100
AcDbBlockTableRecord
  2
*MODEL_SPACE
  0
BLOCK_RECORD
  5
B
100
AcDbSymbolTableRecord
100
AcDbBlockTableRecord
  2
*PAPER_SPACE
  0
BLOCK_RECORD
  5
1E
100
AcDbSymbolTableRecord
100
AcDbBlockTableRecord
  2
MS_1
  0
BLOCK_RECORD
  5
1F
100
AcDbSymbolTableRecord
100
AcDbBlockTableRecord
  2
MS_2
  0
BLOCK_RECORD
  5
20
100
AcDbSymbolTableRecord
100
AcDbBlockTableRecord
  2
MS_3
  0
BLOCK_RECORD
  5
21
100
AcDbSymbolTableRecord
100
AcDbBlockTableRecord
  2
MS_4
  0
BLOCK_RECORD
  5
693
100
AcDbSymbolTableRecord
100
AcDbBlockTableRecord
  2
_OPEN30
  0
BLOCK_RECORD
  5
6A2
100
AcDbSymbolTableRecord
100
AcDbBlockTableRecord
  2
*D5
  0
BLOCK_RECORD
  5
6A7
100
AcDbSymbolTableRecord
100
AcDbBlockTableRecord
  2
_NONE
  0
BLOCK_RECORD
  5
6B2
100
AcDbSymbolTableRecord
100
AcDbBlockTableRecord
  2
*D7
  0
BLOCK_RECORD
  5
6BF
100
AcDbSymbolTableRecord
100
AcDbBlockTableRecord
  2
*D8
  0
BLOCK_RECORD
  5
6CC
100
AcDbSymbolTableRecord
100
AcDbBlockTableRecord
  2
*D9
  0
ENDTAB
  0
ENDSEC
  0
SECTION
  2
BLOCKS
  0
BLOCK
  5
D
100
AcDbEntity
  8
0
100
AcDbBlockBegin
  2
*MODEL_SPACE
 70
               0
 10
0.0
 20
0.0
 30
0.0
  3
*MODEL_SPACE
  1

  0
ENDBLK
  5
E
100
AcDbEntity
  8
0
100
AcDbBlockEnd
  0
BLOCK
  5
F
100
AcDbEntity
 67
               1
  8
0
100
AcDbBlockBegin
  2
*PAPER_SPACE
 70
               0
 10
0.0
 20
0.0
 30
0.0
  3
*PAPER_SPACE
  1

  0
ENDBLK
  5
10
100
AcDbEntity
 67
               1
  8
0
100
AcDbBlockEnd
  0
BLOCK
  5
22
100
AcDbEntity
  8
0
100
AcDbBlockBegin
  2
MS_1
 70
               0
 10
0.0
 20
0.0
 30
0.0
  3
MS_1
  1

  0
CIRCLE
  5
23
100
AcDbEntity
  8
0
  6
CONTINUOUS
 62
               4
100
AcDbCircle
 10
122.19998168945312
 20
-103.0
 30
0.0
 40
0.8500000238418579
  0
CIRCLE
  5
24
100
AcDbEntity
  8
0
  6
CONTINUOUS
 62
               4
100
AcDbCircle
 10
124.79995727539062
 20
-103.0
 30
0.0
 40
0.8500000238418579
  0
ARC
  5
25
100
AcDbEntity
  8
0
  6
CONTINUOUS
 62
               4
100
AcDbCircle
 10
124.8
 20
-103.0
 30
0.0
 40
1.7000000005368829
100
AcDbArc
 50
269.99999999999937
 51
89.999999999999801
  0
ARC
  5
26
100
AcDbEntity
  8
0
  6
CONTINUOUS
 62
               4
100
AcDbCircle
 10
122.2
 20
-103.0
 30
0.0
 40
1.7000000000986135
100
AcDbArc
 50
89.999999999999801
 51
269.99999999999937
  0
ARC
  5
27
100
AcDbEntity
  8
0
  6
CONTINUOUS
 62
               4
100
AcDbCircle
 10
132.25010785191225
 20
-111.69994847843805
 30
0.0
 40
2.0000515244698835
100
AcDbArc
 50
269.99691034990207
 51
319.45771842347756
  0
ARC
  5
28
100
AcDbEntity
  8
0
  6
CONTINUOUS
 62
               4
100
AcDbCircle
 10
132.27077447525491
 20
-111.70105944541253
 30
0.0
 40
1.9990485035627727
100
AcDbArc
 50
264.23577862897611
 51
269.40456113129108
  0
ARC
  5
29
100
AcDbEntity
  8
0
  6
CONTINUOUS
 62
               4
100
AcDbCircle
 10
130.74988146714864
 20
-111.69997167133437
 30
0.0
 40
2.0000283321780898
100
AcDbArc
 50
220.54197555866241
 51
270.00339566795634
  0
ARC
  5
2A
100
AcDbEntity
  8
0
  6
CONTINUOUS
 62
               4
100
AcDbCircle
 10
116.25010785191225
 20
-111.69994847843805
 30
0.0
 40
2.0000515244698782
100
AcDbArc
 50
269.99691034990207
 51
319.45771842347727
  0
ARC
  5
2B
100
AcDbEntity
  8
0
  6
CONTINUOUS
 62
               4
100
AcDbCircle
 10
114.74988146714865
 20
-111.69997167133437
 30
0.0
 40
2.0000283321780845
100
AcDbArc
 50
220.54197555866241
 51
270.00339566795594
  0
CIRCLE
  5
2C
100
AcDbEntity
  8
0
  6
CONTINUOUS
 62
               4
100
AcDbCircle
 10
94.199966430664063
 20
-87.999969482421875
 30
0.0
 40
0.8500000238418579
  0
CIRCLE
  5
2D
100
AcDbEntity
  8
0
  6
CONTINUOUS
 62
               4
100
AcDbCircle
 10
96.799942016601563
 20
-87.999969482421875
 30
0.0
 40
0.8500000238418579
  0
ARC
  5
2E
100
AcDbEntity
  8
0
  6
CONTINUOUS
 62
               4
100
AcDbCircle
 10
96.799999999999997
 20
-88.0
 30
0.0
 40
1.7000000009888483
100
AcDbArc
 50
269.99999999999937
 51
89.999999999999801
  0
ARC
  5
2F
100
AcDbEntity
  8
0
  6
CONTINUOUS
 62
               4
100
AcDbCircle
 10
94.200000000000003
 20
-88.0
 30
0.0
 40
1.7000000003314442
100
AcDbArc
 50
89.999999999999801
 51
269.99999999999937
  0
ARC
  5
30
100
AcDbEntity
  8
0
  6
CONTINUOUS
 62
               4
100
AcDbCircle
 10
104.25009358695057
 20
-96.699917503092692
 30
0.0
 40
2.0000824990968402
100
AcDbArc
 50
269.99731904194414
 51
319.45730973143532
  0
ARC
  5
31
100
AcDbEntity
  8
0
  6
CONTINUOUS
 62
               4
100
AcDbCircle
 10
104.27077612819899
 20
-96.701029692418984
 30
0.0
 40
1.9990782721278018
100
AcDbArc
 50
264.23581713964239
 51
269.40452262062524
  0
ARC
  5
32
100
AcDbEntity
  8
0
  6
CONTINUOUS
 62
               4
100
AcDbCircle
 10
102.74989039184246
 20
-96.699952291999253
 30
0.0
 40
2.0000477110041546
100
AcDbArc
 50
220.54223125910917
 51
270.00313996750918
  0
ARC
  5
33
100
AcDbEntity
  8
0
  6
CONTINUOUS
 62
               4
100
AcDbCircle
 10
88.25009358695057
 20
-96.699917503092692
 30
0.0
 40
2.0000824990968402
100
AcDbArc
 50
269.99731904194414
 51
319.45730973143532
  0
ARC
  5
34
100
AcDbEntity
  8
0
  6
CONTINUOUS
 62
               4
100
AcDbCircle
 10
86.749890391842456
 20
-96.699952291999253
 30
0.0
 40
2.0000477110041546
100
AcDbArc
 50
220.54223125910917
 51
270.00313996750918
  0
ARC
  5
35
100
AcDbEntity
  8
0
  6
CONTINUOUS
 62
               4
100
AcDbCircle
 10
122.2
 20
41.0
 30
0.0
 40
1.7000000000986135
100
AcDbArc
 50
89.999999999999801
 51
269.99999999999937
  0
ARC
  5
36
100
AcDbEntity
  8
0
  6
CONTINUOUS
 62
               4
100
AcDbCircle
 10
124.8
 20
41.0
 30
0.0
 40
1.7000000005368829
100
AcDbArc
 50
269.99999999999937
 51
89.999999999999801
  0
ARC
  5
37
100
AcDbEntity
  8
0
  6
CONTINUOUS
 62
               4
100
AcDbCircle
 10
114.74988146714865
 20
49.699971671334374
 30
0.0
 40
2.0000283321780845
100
AcDbArc
 50
89.996604332043262
 51
139.45802444133693
  0
ARC
  5
38
100
AcDbEntity
  8
0
  6
CONTINUOUS
 62
               4
100
AcDbCircle
 10
114.72922537209291
 20
49.701056697673245
 30
0.0
 40
1.9990512527400781
100
AcDbArc
 50
84.23578218554988
 51
89.404557574718467
  0
ARC
  5
39
100
AcDbEntity
  8
0
  6
CONTINUOUS
 62
               4
100
AcDbCircle
 10
116.25010785191225
 20
49.69994847843806
 30
0.0
 40
2.0000515244698782
100
AcDbArc
 50
40.542281576521603
 51
90.00308965009711
  0
ARC
  5
3A
100
AcDbEntity
  8
0
  6
CONTINUOUS
 62
               4
100
AcDbCircle
 10
130.74988146714864
 20
49.699971671334374
 30
0.0
 40
2.0000283321780898
100
AcDbArc
 50
89.996604332042864
 51
139.45802444133693
  0
ARC
  5
3B
100
AcDbEntity
  8
0
  6
CONTINUOUS
 62
               4
100
AcDbCircle
 10
132.25010785191225
 20
49.699948478438053
 30
0.0
 40
2.0000515244698835
100
AcDbArc
 50
40.542281576521489
 51
90.00308965009711
  0
CIRCLE
  5
3C
100
AcDbEntity
  8
0
  6
CONTINUOUS
 62
               4
100
AcDbCircle
 10
122.19998168945312
 20
41.0
 30
0.0
 40
0.8500000238418579
  0
CIRCLE
  5
3D
100
AcDbEntity
  8
0
  6
CONTINUOUS
 62
               4
100
AcDbCircle
 10
124.79995727539062
 20
41.0
 30
0.0
 40
0.8500000238418579
  0
ARC
  5
3E
100
AcDbEntity
  8
0
  6
CONTINUOUS
 62
               4
100
AcDbCircle
 10
94.200000000000003
 20
26.0
 30
0.0
 40
1.7000000003314404
100
AcDbArc
 50
89.999999999999801
 51
269.99999999999937
  0
ARC
  5
3F
100
AcDbEntity
  8
0
  6
CONTINUOUS
 62
               4
100
AcDbCircle
 10
96.799999999999997
 20
26.0
 30
0.0
 40
1.7000000009888447
100
AcDbArc
 50
269.99999999999937
 51
89.999999999999801
  0
ARC
  5
40
100
AcDbEntity
  8
0
  6
CONTINUOUS
 62
               4
100
AcDbCircle
 10
86.74987299959804
 20
34.699990058015715
 30
0.0
 40
2.0000099460165401
100
AcDbArc
 50
89.996361724576133
 51
139.4582670488042
  0
ARC
  5
41
100
AcDbEntity
  8
0
  6
CONTINUOUS
 62
               4
100
AcDbCircle
 10
86.729226179457513
 20
34.701071230236082
 30
0.0
 40
1.9990367125717912
100
AcDbArc
 50
84.235763375021094
 51
89.40457638524714
  0
ARC
  5
42
100
AcDbEntity
  8
0
  6
CONTINUOUS
 62
               4
100
AcDbCircle
 10
88.250110978892479
 20
34.699955268452278
 30
0.0
 40
2.0000447346267309
100
AcDbArc
 50
40.542191986651268
 51
90.003179239967437
  0
ARC
  5
43
100
AcDbEntity
  8
0
  6
CONTINUOUS
 62
               4
100
AcDbCircle
 10
102.74987299959804
 20
34.699990058015715
 30
0.0
 40
2.0000099460165401
100
AcDbArc
 50
89.996361724576133
 51
139.4582670488042
  0
ARC
  5
44
100
AcDbEntity
  8
0
  6
CONTINUOUS
 62
               4
100
AcDbCircle
 10
104.25011097889248
 20
34.699955268452278
 30
0.0
 40
2.0000447346267309
100
AcDbArc
 50
40.542191986651268
 51
90.003179239967437
  0
CIRCLE
  5
45
100
AcDbEntity
  8
0
  6
CONTINUOUS
 62
               4
100
AcDbCircle
 10
94.199966430664063
 20
26.000015258789063
 30
0.0
 40
0.8500000238418579
  0
CIRCLE
  5
46
100
AcDbEntity
  8
0
  6
CONTINUOUS
 62
               4
100
AcDbCircle
 10
96.799942016601563
 20
26.000015258789063
 30
0.0
 40
0.8500000238418579
  0
ARC
  5
47
100
AcDbEntity
  8
0
  6
CONTINUOUS
 62
               4
100
AcDbCircle
 10
66.200000000000003
 20
26.0
 30
0.0
 40
1.7000000007012304
100
AcDbArc
 50
89.999999999999801
 51
269.99999999999937
  0
ARC
  5
48
100
AcDbEntity
  8
0
  6
CONTINUOUS
 62
               4
100
AcDbCircle
 10
68.799999999999997
 20
26.0
 30
0.0
 40
1.7000000015777694
100
AcDbArc
 50
269.99999999999937
 51
89.999999999999801
  0
ARC
  5
49
100
AcDbEntity
  8
0
  6
CONTINUOUS
 62
               4
100
AcDbCircle
 10
58.74987612689803
 20
34.699983267307132
 30
0.0
 40
2.0000167365289752
100
AcDbArc
 50
89.996451326724753
 51
139.45817744665504
  0
ARC
  5
4A
100
AcDbEntity
  8
0
  6
CONTINUOUS
 62
               4
100
AcDbCircle
 10
58.72922529572817
 20
34.70105532310798
 30
0.0
 40
1.9990526280247165
100
AcDbArc
 50
84.235783964733272
 51
89.404555795534975
  0
ARC
  5
4B
100
AcDbEntity
  8
0
  6
CONTINUOUS
 62
               4
100
AcDbCircle
 10
60.250102511223787
 20
34.699936881514503
 30
0.0
 40
2.0000631211125559
100
AcDbArc
 50
40.542434589062466
 51
90.002936637557028
  0
ARC
  5
4C
100
AcDbEntity
  8
0
  6
CONTINUOUS
 62
               4
100
AcDbCircle
 10
74.749876126898045
 20
34.699983267307132
 30
0.0
 40
2.0000167365289725
100
AcDbArc
 50
89.99645132672515
 51
139.45817744665518
  0
ARC
  5
4D
100
AcDbEntity
  8
0
  6
CONTINUOUS
 62
               4
100
AcDbCircle
 10
76.250102511223773
 20
34.699936881514503
 30
0.0
 40
2.0000631211125532
100
AcDbArc
 50
40.542434589062339
 51
90.002936637556616
  0
CIRCLE
  5
4E
100
AcDbEntity
  8
0
  6
CONTINUOUS
 62
               4
100
AcDbCircle
 10
66.199951171875
 20
26.0
 30
0.0
 40
0.8500000238418579
  0
CIRCLE
  5
4F
100
AcDbEntity
  8
0
  6
CONTINUOUS
 62
               4
100
AcDbCircle
 10
68.7999267578125
 20
26.0
 30
0.0
 40
0.8500000238418579
  0
ARC
  5
50
100
AcDbEntity
  8
0
  6
CONTINUOUS
 62
               4
100
AcDbCircle
 10
38.200000000000003
 20
26.0
 30
0.0
 40
1.7000000007012304
100
AcDbArc
 50
89.999999999999801
 51
269.99999999999937
  0
ARC
  5
51
100
AcDbEntity
  8
0
  6
CONTINUOUS
 62
               4
100
AcDbCircle
 10
40.799999999999997
 20
26.0
 30
0.0
 40
1.7000000015777694
100
AcDbArc
 50
269.99999999999937
 51
89.999999999999801
  0
ARC
  5
52
100
AcDbEntity
  8
0
  6
CONTINUOUS
 62
               4
100
AcDbCircle
 10
30.749876126898037
 20
34.699983267307132
 30
0.0
 40
2.0000167365289738
100
AcDbArc
 50
89.996451326724952
 51
139.45817744665513
  0
ARC
  5
53
100
AcDbEntity
  8
0
  6
CONTINUOUS
 62
               4
100
AcDbCircle
 10
30.729225295728163
 20
34.70105532310798
 30
0.0
 40
1.9990526280247165
100
AcDbArc
 50
84.235783964733074
 51
89.404555795534776
  0
ARC
  5
54
100
AcDbEntity
  8
0
  6
CONTINUOUS
 62
               4
100
AcDbCircle
 10
32.250102511223787
 20
34.699936881514503
 30
0.0
 40
2.0000631211125559
100
AcDbArc
 50
40.542434589062466
 51
90.002936637557028
  0
ARC
  5
55
100
AcDbEntity
  8
0
  6
CONTINUOUS
 62
               4
100
AcDbCircle
 10
46.74987612689803
 20
34.699983267307132
 30
0.0
 40
2.0000167365289752
100
AcDbArc
 50
89.996451326724753
 51
139.45817744665504
  0
ARC
  5
56
100
AcDbEntity
  8
0
  6
CONTINUOUS
 62
               4
100
AcDbCircle
 10
48.250102511223787
 20
34.699936881514503
 30
0.0
 40
2.0000631211125559
100
AcDbArc
 50
40.542434589062466
 51
90.002936637557028
  0
CIRCLE
  5
57
100
AcDbEntity
  8
0
  6
CONTINUOUS
 62
               4
100
AcDbCircle
 10
38.199951171875
 20
26.0
 30
0.0
 40
0.8500000238418579
  0
CIRCLE
  5
58
100
AcDbEntity
  8
0
  6
CONTINUOUS
 62
               4
100
AcDbCircle
 10
40.7999267578125
 20
26.0
 30
0.0
 40
0.8500000238418579
  0
ARC
  5
59
100
AcDbEntity
  8
0
  6
CONTINUOUS
 62
               7
100
AcDbCircle
 10
149.39704323224981
 20
8.9017387204163665
 30
0.0
 40
0.7982667555134855
100
AcDbArc
 50
28.284710104723235
 51
89.787776831128596
  0
ARC
  5
5A
100
AcDbEntity
  8
0
  6
CONTINUOUS
 62
               7
100
AcDbCircle
 10
148.60294071082933
 20
8.9017654819511236
 30
0.0
 40
0.7982399348472242
100
AcDbArc
 50
90.211077763784772
 51
151.71643530036241
  0
CIRCLE
  5
5B
100
AcDbEntity
  8
0
  6
CONTINUOUS
 62
               7
100
AcDbCircle
 10
131.99996948242187
 20
-51.0
 30
0.0
 40
2.25
  0
CIRCLE
  5
5C
100
AcDbEntity
  8
0
  6
CONTINUOUS
 62
               7
100
AcDbCircle
 10
132.49996948242187
 20
-26.0
 30
0.0
 40
2.5
  0
CIRCLE
  5
5D
100
AcDbEntity
  8
0
  6
CONTINUOUS
 62
               7
100
AcDbCircle
 10
114.49996948242187
 20
-18.0
 30
0.0
 40
2.5
  0
CIRCLE
  5
5E
100
AcDbEntity
  8
0
  6
CONTINUOUS
 62
               7
100
AcDbCircle
 10
114.49996948242187
 20
-44.0
 30
0.0
 40
2.5
  0
ARC
  5
5F
100
AcDbEntity
  8
0
  6
CONTINUOUS
 62
               7
100
AcDbCircle
 10
132.5
 20
-26.0
 30
0.0
 40
3.0000000001552203
100
AcDbArc
 50
89.999999999999801
 51
269.99999999999937
  0
ARC
  5
60
100
AcDbEntity
  8
0
  6
CONTINUOUS
 62
               7
100
AcDbCircle
 10
114.5
 20
-18.0
 30
0.0
 40
3.0000000001552203
100
AcDbArc
 50
269.99999999999937
 51
89.999999999999801
  0
ARC
  5
61
100
AcDbEntity
  8
0
  6
CONTINUOUS
 62
               7
100
AcDbCircle
 10
114.5
 20
-44.0
 30
0.0
 40
3.0000000001552203
100
AcDbArc
 50
269.99999999999937
 51
89.999999999999801
  0
ARC
  5
62
100
AcDbEntity
  8
0
  6
CONTINUOUS
 62
               7
100
AcDbCircle
 10
115.0
 20
-11.0
 30
0.0
 40
2.5000000001862643
100
AcDbArc
 50
269.99999999999937
 51
89.999999999999801
  0
ARC
  5
63
100
AcDbEntity
  8
0
  6
CONTINUOUS
 62
               7
100
AcDbCircle
 10
132.0
 20
-51.0
 30
0.0
 40
2.5000000001862643
100
AcDbArc
 50
89.999999999999801
 51
269.99999999999937
  0
CIRCLE
  5
64
100
AcDbEntity
  8
0
  6
CONTINUOUS
 62
               7
100
AcDbCircle
 10
114.99996948242187
 20
-11.000015258789063
 30
0.0
 40
2.25
  0
ARC
  5
65
100
AcDbEntity
  8
0
  6
CONTINUOUS
 62
               7
100
AcDbCircle
 10
132.50809035546666
 20
-26.164762280348516
 30
0.0
 40
2.9964428794951696
100
AcDbArc
 50
3.1520529995972812
 51
5.645357710386004
  0
ARC
  5
66
100
AcDbEntity
  8
0
  6
CONTINUOUS
 62
               7
100
AcDbCircle
 10
132.50676680429416
 20
-26.143445228264508
 30
0.0
 40
2.9966683996377164
100
AcDbArc
 50
2.7436963431880783
 51
5.4275372167542022
  0
ARC
  5
67
100
AcDbEntity
  8
0
  6
CONTINUOUS
 62
               7
100
AcDbCircle
 10
132.49993198397513
 20
-26.484999999999999
 30
0.0
 40
3.0001055149403442
100
AcDbArc
 50
359.71352998446446
 51
0.2864700155347632
  0
CIRCLE
  5
68
100
AcDbEntity
  8
0
  6
CONTINUOUS
 62
               7
100
AcDbCircle
 10
123.49996948242187
 20
24.5
 30
0.0
 40
1.5
  0
CIRCLE
  5
69
100
AcDbEntity
  8
0
  6
CONTINUOUS
 62
               7
100
AcDbCircle
 10
123.49996948242187
 20
24.5
 30
0.0
 40
2.2999992370605469
  0
CIRCLE
  5
6A
100
AcDbEntity
  8
0
  6
CONTINUOUS
 62
               7
100
AcDbCircle
 10
123.49995422363281
 20
-86.5
 30
0.0
 40
1.5
  0
CIRCLE
  5
6B
100
AcDbEntity
  8
0
  6
CONTINUOUS
 62
               7
100
AcDbCircle
 10
123.49995422363281
 20
-86.5
 30
0.0
 40
2.2999992370605469
  0
ARC
  5
6C
100
AcDbEntity
  8
0
  6
CONTINUOUS
 62
               7
100
AcDbCircle
 10
132.50676680429416
 20
-25.143445228264508
 30
0.0
 40
2.9966683996377164
100
AcDbArc
 50
2.7436963431880783
 51
5.4275372167542022
  0
ARC
  5
6D
100
AcDbEntity
  8
0
  6
CONTINUOUS
 62
               7
100
AcDbCircle
 10
132.49993198397513
 20
-25.484999999999999
 30
0.0
 40
3.0001055149403442
100
AcDbArc
 50
359.71352998446446
 51
0.2864700155347632
  0
CIRCLE
  5
6E
100
AcDbEntity
  8
0
  6
CONTINUOUS
 62
               7
100
AcDbCircle
 10
95.499954223632813
 20
9.5000152587890625
 30
0.0
 40
2.2999992370605469
  0
CIRCLE
  5
6F
100
AcDbEntity
  8
0
  6
CONTINUOUS
 62
               7
100
AcDbCircle
 10
95.499954223632813
 20
9.5000152587890625
 30
0.0
 40
1.5
  0
CIRCLE
  5
70
100
AcDbEntity
  8
0
  6
CONTINUOUS
 62
               7
100
AcDbCircle
 10
86.999954223632813
 20
-10.999984741210938
 30
0.0
 40
2.25
  0
CIRCLE
  5
71
100
AcDbEntity
  8
0
  6
CONTINUOUS
 62
               7
100
AcDbCircle
 10
103.99995422363281
 20
-50.999969482421875
 30
0.0
 40
2.25
  0
CIRCLE
  5
72
100
AcDbEntity
  8
0
  6
CONTINUOUS
 62
               7
100
AcDbCircle
 10
104.49995422363281
 20
-25.999969482421875
 30
0.0
 40
2.5
  0
CIRCLE
  5
73
100
AcDbEntity
  8
0
  6
CONTINUOUS
 62
               7
100
AcDbCircle
 10
86.499954223632813
 20
-17.999969482421875
 30
0.0
 40
2.5
  0
CIRCLE
  5
74
100
AcDbEntity
  8
0
  6
CONTINUOUS
 62
               7
100
AcDbCircle
 10
86.499954223632813
 20
-43.999969482421875
 30
0.0
 40
2.5
  0
ARC
  5
75
100
AcDbEntity
  8
0
  6
CONTINUOUS
 62
               7
100
AcDbCircle
 10
87.0
 20
-11.0
 30
0.0
 40
2.500000000419095
100
AcDbArc
 50
269.99999999999937
 51
89.999999999999801
  0
ARC
  5
76
100
AcDbEntity
  8
0
  6
CONTINUOUS
 62
               7
100
AcDbCircle
 10
104.5
 20
-26.0
 30
0.0
 40
3.000000000349246
100
AcDbArc
 50
89.999999999999801
 51
269.99999999999937
  0
ARC
  5
77
100
AcDbEntity
  8
0
  6
CONTINUOUS
 62
               7
100
AcDbCircle
 10
86.5
 20
-18.0
 30
0.0
 40
3.000000000349246
100
AcDbArc
 50
269.99999999999937
 51
89.999999999999801
  0
ARC
  5
78
100
AcDbEntity
  8
0
  6
CONTINUOUS
 62
               7
100
AcDbCircle
 10
86.5
 20
-44.0
 30
0.0
 40
3.000000000349246
100
AcDbArc
 50
269.99999999999937
 51
89.999999999999801
  0
ARC
  5
79
100
AcDbEntity
  8
0
  6
CONTINUOUS
 62
               7
100
AcDbCircle
 10
104.0
 20
-51.0
 30
0.0
 40
2.500000000419095
100
AcDbArc
 50
89.999999999999801
 51
269.99999999999937
  0
ARC
  5
7A
100
AcDbEntity
  8
0
  6
CONTINUOUS
 62
               7
100
AcDbCircle
 10
104.50807547565995
 20
-26.164763424949356
 30
0.0
 40
2.9964577997276254
100
AcDbArc
 50
3.1520592080268672
 51
5.6453515019688094
  0
ARC
  5
7B
100
AcDbEntity
  8
0
  6
CONTINUOUS
 62
               7
100
AcDbCircle
 10
104.50675194442219
 20
-26.143446289684238
 30
0.0
 40
2.9966832932835139
100
AcDbArc
 50
2.7437030138163321
 51
5.4275305461375849
  0
ARC
  5
7C
100
AcDbEntity
  8
0
  6
CONTINUOUS
 62
               7
100
AcDbCircle
 10
104.49991680162789
 20
-26.484999999999999
 30
0.0
 40
3.00012069709781
100
AcDbArc
 50
359.71353143416246
 51
0.286468565836718
  0
CIRCLE
  5
7D
100
AcDbEntity
  8
0
  6
CONTINUOUS
 62
               7
100
AcDbCircle
 10
95.49993896484375
 20
-71.499969482421875
 30
0.0
 40
1.5
  0
CIRCLE
  5
7E
100
AcDbEntity
  8
0
  6
CONTINUOUS
 62
               7
100
AcDbCircle
 10
95.49993896484375
 20
-71.499969482421875
 30
0.0
 40
2.2999992370605469
  0
ARC
  5
7F
100
AcDbEntity
  8
0
  6
CONTINUOUS
 62
               7
100
AcDbCircle
 10
104.50675230032964
 20
-25.143446264262277
 30
0.0
 40
2.9966829365671526
100
AcDbArc
 50
2.7437028540496153
 51
5.4275307059042639
  0
ARC
  5
80
100
AcDbEntity
  8
0
  6
CONTINUOUS
 62
               7
100
AcDbCircle
 10
104.49991680162789
 20
-25.484999999999999
 30
0.0
 40
3.00012069709781
100
AcDbArc
 50
359.71353143416246
 51
0.286468565836718
  0
CIRCLE
  5
81
100
AcDbEntity
  8
0
  6
CONTINUOUS
 62
               7
100
AcDbCircle
 10
58.99993896484375
 20
-11.0
 30
0.0
 40
2.25
  0
CIRCLE
  5
82
100
AcDbEntity
  8
0
  6
CONTINUOUS
 62
               7
100
AcDbCircle
 10
75.99993896484375
 20
-50.999984741210938
 30
0.0
 40
2.25
  0
CIRCLE
  5
83
100
AcDbEntity
  8
0
  6
CONTINUOUS
 62
               7
100
AcDbCircle
 10
76.49993896484375
 20
-25.999984741210937
 30
0.0
 40
2.5
  0
CIRCLE
  5
84
100
AcDbEntity
  8
0
  6
CONTINUOUS
 62
               7
100
AcDbCircle
 10
58.49993896484375
 20
-17.999984741210937
 30
0.0
 40
2.5
  0
CIRCLE
  5
85
100
AcDbEntity
  8
0
  6
CONTINUOUS
 62
               7
100
AcDbCircle
 10
58.49993896484375
 20
-43.999984741210938
 30
0.0
 40
2.5
  0
ARC
  5
86
100
AcDbEntity
  8
0
  6
CONTINUOUS
 62
               7
100
AcDbCircle
 10
59.0
 20
-11.0
 30
0.0
 40
2.5000000007450582
100
AcDbArc
 50
269.99999999999937
 51
89.999999999999801
  0
ARC
  5
87
100
AcDbEntity
  8
0
  6
CONTINUOUS
 62
               7
100
AcDbCircle
 10
76.5
 20
-26.0
 30
0.0
 40
3.0000000006208816
100
AcDbArc
 50
89.999999999999801
 51
269.99999999999937
  0
ARC
  5
88
100
AcDbEntity
  8
0
  6
CONTINUOUS
 62
               7
100
AcDbCircle
 10
58.5
 20
-18.0
 30
0.0
 40
3.0000000006208816
100
AcDbArc
 50
269.99999999999937
 51
89.999999999999801
  0
ARC
  5
89
100
AcDbEntity
  8
0
  6
CONTINUOUS
 62
               7
100
AcDbCircle
 10
58.5
 20
-44.0
 30
0.0
 40
3.0000000006208816
100
AcDbArc
 50
269.99999999999937
 51
89.999999999999801
  0
ARC
  5
8A
100
AcDbEntity
  8
0
  6
CONTINUOUS
 62
               7
100
AcDbCircle
 10
76.0
 20
-51.0
 30
0.0
 40
2.5000000007450582
100
AcDbArc
 50
89.999999999999801
 51
269.99999999999937
  0
ARC
  5
8B
100
AcDbEntity
  8
0
  6
CONTINUOUS
 62
               7
100
AcDbCircle
 10
76.50805993493708
 20
-26.164764620389576
 30
0.0
 40
2.9964733826718475
100
AcDbArc
 50
3.1520656921436836
 51
5.6453450178519526
  0
ARC
  5
8C
100
AcDbEntity
  8
0
  6
CONTINUOUS
 62
               7
100
AcDbCircle
 10
76.506736372580392
 20
-26.143447401958653
 30
0.0
 40
2.9966989005173481
100
AcDbArc
 50
2.743710003972132
 51
5.4275235559818045
  0
ARC
  5
8D
100
AcDbEntity
  8
0
  6
CONTINUOUS
 62
               7
100
AcDbCircle
 10
76.499901466778411
 20
-26.484999999999999
 30
0.0
 40
3.0001360317556101
100
AcDbArc
 50
359.71353289840744
 51
0.2864671015917827
  0
CIRCLE
  5
8E
100
AcDbEntity
  8
0
  6
CONTINUOUS
 62
               7
100
AcDbCircle
 10
67.49993896484375
 20
9.5
 30
0.0
 40
1.5
  0
CIRCLE
  5
8F
100
AcDbEntity
  8
0
  6
CONTINUOUS
 62
               7
100
AcDbCircle
 10
67.49993896484375
 20
9.5
 30
0.0
 40
2.2999992370605469
  0
ARC
  5
90
100
AcDbEntity
  8
0
  6
CONTINUOUS
 62
               7
100
AcDbCircle
 10
76.506736728563467
 20
-25.143447376531288
 30
0.0
 40
2.9966985437251927
100
AcDbArc
 50
2.7437098441730998
 51
5.4275237157807403
  0
ARC
  5
91
100
AcDbEntity
  8
0
  6
CONTINUOUS
 62
               7
100
AcDbCircle
 10
76.499901466778411
 20
-25.484999999999999
 30
0.0
 40
3.0001360317556101
100
AcDbArc
 50
359.71353289840744
 51
0.2864671015917827
  0
CIRCLE
  5
92
100
AcDbEntity
  8
0
  6
CONTINUOUS
 62
               7
100
AcDbCircle
 10
30.99993896484375
 20
-11.0
 30
0.0
 40
2.25
  0
CIRCLE
  5
93
100
AcDbEntity
  8
0
  6
CONTINUOUS
 62
               7
100
AcDbCircle
 10
47.99993896484375
 20
-50.999984741210938
 30
0.0
 40
2.25
  0
CIRCLE
  5
94
100
AcDbEntity
  8
0
  6
CONTINUOUS
 62
               7
100
AcDbCircle
 10
48.49993896484375
 20
-25.999984741210937
 30
0.0
 40
2.5
  0
CIRCLE
  5
95
100
AcDbEntity
  8
0
  6
CONTINUOUS
 62
               7
100
AcDbCircle
 10
30.49993896484375
 20
-17.999984741210937
 30
0.0
 40
2.5
  0
CIRCLE
  5
96
100
AcDbEntity
  8
0
  6
CONTINUOUS
 62
               7
100
AcDbCircle
 10
30.49993896484375
 20
-43.999984741210938
 30
0.0
 40
2.5
  0
ARC
  5
97
100
AcDbEntity
  8
0
  6
CONTINUOUS
 62
               7
100
AcDbCircle
 10
31.0
 20
-11.0
 30
0.0
 40
2.5000000007450582
100
AcDbArc
 50
269.99999999999937
 51
89.999999999999801
  0
ARC
  5
98
100
AcDbEntity
  8
0
  6
CONTINUOUS
 62
               7
100
AcDbCircle
 10
48.5
 20
-26.0
 30
0.0
 40
3.0000000006208816
100
AcDbArc
 50
89.999999999999801
 51
269.99999999999937
  0
ARC
  5
99
100
AcDbEntity
  8
0
  6
CONTINUOUS
 62
               7
100
AcDbCircle
 10
30.5
 20
-18.0
 30
0.0
 40
3.0000000006208816
100
AcDbArc
 50
269.99999999999937
 51
89.999999999999801
  0
ARC
  5
9A
100
AcDbEntity
  8
0
  6
CONTINUOUS
 62
               7
100
AcDbCircle
 10
30.5
 20
-44.0
 30
0.0
 40
3.0000000006208816
100
AcDbArc
 50
269.99999999999937
 51
89.999999999999801
  0
ARC
  5
9B
100
AcDbEntity
  8
0
  6
CONTINUOUS
 62
               7
100
AcDbCircle
 10
48.0
 20
-51.0
 30
0.0
 40
2.5000000007450582
100
AcDbArc
 50
89.999999999999801
 51
269.99999999999937
  0
ARC
  5
9C
100
AcDbEntity
  8
0
  6
CONTINUOUS
 62
               7
100
AcDbCircle
 10
48.508059934937066
 20
-26.164764620389416
 30
0.0
 40
2.996473382671851
100
AcDbArc
 50
3.1520656921406163
 51
5.6453450178488707
  0
ARC
  5
9D
100
AcDbEntity
  8
0
  6
CONTINUOUS
 62
               7
100
AcDbCircle
 10
48.506736372580384
 20
-26.1434474019585
 30
0.0
 40
2.9966989005173517
100
AcDbArc
 50
2.7437100039692086
 51
5.4275235559788717
  0
ARC
  5
9E
100
AcDbEntity
  8
0
  6
CONTINUOUS
 62
               7
100
AcDbCircle
 10
48.499901466778418
 20
-26.484999999999999
 30
0.0
 40
3.0001360317556101
100
AcDbArc
 50
359.71353289840744
 51
0.2864671015917827
  0
CIRCLE
  5
9F
100
AcDbEntity
  8
0
  6
CONTINUOUS
 62
               7
100
AcDbCircle
 10
39.49993896484375
 20
9.5
 30
0.0
 40
1.5
  0
CIRCLE
  5
A0
100
AcDbEntity
  8
0
  6
CONTINUOUS
 62
               7
100
AcDbCircle
 10
39.49993896484375
 20
9.5
 30
0.0
 40
2.2999992370605469
  0
ARC
  5
A1
100
AcDbEntity
  8
0
  6
CONTINUOUS
 62
               7
100
AcDbCircle
 10
48.506736728563453
 20
-25.143447376531139
 30
0.0
 40
2.9966985437251963
100
AcDbArc
 50
2.7437098441702377
 51
5.4275237157778609
  0
ARC
  5
A2
100
AcDbEntity
  8
0
  6
CONTINUOUS
 62
               7
100
AcDbCircle
 10
48.499901466778418
 20
-25.484999999999999
 30
0.0
 40
3.0001360317556101
100
AcDbArc
 50
359.71353289840744
 51
0.2864671015917827
  0
CIRCLE
  5
A3
100
AcDbEntity
  8
0
  6
CONTINUOUS
 62
               4
100
AcDbCircle
 10
160.49998474121094
 20
-26.0
 30
0.0
 40
2.5
  0
CIRCLE
  5
A4
100
AcDbEntity
  8
0
  6
CONTINUOUS
 62
               4
100
AcDbCircle
 10
142.49998474121094
 20
-18.0
 30
0.0
 40
2.5
  0
CIRCLE
  5
A5
100
AcDbEntity
  8
0
  6
CONTINUOUS
 62
               4
100
AcDbCircle
 10
142.49998474121094
 20
-44.0
 30
0.0
 40
2.5
  0
ARC
  5
A6
100
AcDbEntity
  8
0
  6
CONTINUOUS
 62
               4
100
AcDbCircle
 10
160.5081055657314
 20
-26.164761110328151
 30
0.0
 40
2.9964276279069373
100
AcDbArc
 50
3.1520466532302684
 51
5.6453640567529861
  0
ARC
  5
A7
100
AcDbEntity
  8
0
  6
CONTINUOUS
 62
               4
100
AcDbCircle
 10
160.50678202015098
 20
-26.143444141417593
 30
0.0
 40
2.9966531491980248
100
AcDbArc
 50
2.74368951269473
 51
5.4275440472475891
  0
ARC
  5
A8
100
AcDbEntity
  8
0
  6
CONTINUOUS
 62
               4
100
AcDbCircle
 10
160.49994724257346
 20
-26.484999999999999
 30
0.0
 40
3.000090256532717
100
AcDbArc
 50
359.71352852747071
 51
0.2864714725284919
  0
ARC
  5
A9
100
AcDbEntity
  8
0
  6
CONTINUOUS
 62
               4
100
AcDbCircle
 10
160.50678202015098
 20
-25.143444141417593
 30
0.0
 40
2.9966531491980248
100
AcDbArc
 50
2.74368951269473
 51
5.4275440472475891
  0
ARC
  5
AA
100
AcDbEntity
  8
0
  6
CONTINUOUS
 62
               4
100
AcDbCircle
 10
160.49994724257346
 20
-25.484999999999999
 30
0.0
 40
3.000090256532717
100
AcDbArc
 50
359.71352852747071
 51
0.2864714725284919
  0
ARC
  5
AB
100
AcDbEntity
  8
0
  6
CONTINUOUS
 62
               7
100
AcDbCircle
 10
185.49998855599915
 20
-9.4999885559991526
 30
0.0
 40
1.999988556031894
100
AcDbArc
 50
89.999672151649207
 51
180.0003278483502
  0
ARC
  5
AC
100
AcDbEntity
  8
0
  6
CONTINUOUS
 62
               7
100
AcDbCircle
 10
193.99997329682446
 20
-5.4999732968244643
 30
0.0
 40
2.0000267033537984
100
AcDbArc
 50
270.00076497941456
 51
359.99923502058408
  0
ARC
  5
AD
100
AcDbEntity
  8
0
  6
CONTINUOUS
 62
               7
100
AcDbCircle
 10
193.99996185289638
 20
5.4999618528963765
 30
0.0
 40
2.0000381474674169
100
AcDbArc
 50
0.0010928131751758
 51
89.998907186824624
  0
ARC
  5
AE
100
AcDbEntity
  8
0
  6
CONTINUOUS
 62
               7
100
AcDbCircle
 10
185.49997711183096
 20
-54.500022888169042
 30
0.0
 40
1.9999771119619267
100
AcDbArc
 50
179.99934429475223
 51
270.00065570524674
  0
ARC
  5
AF
100
AcDbEntity
  8
0
  6
CONTINUOUS
 62
               7
100
AcDbCircle
 10
193.99996948218904
 20
-69.499969482189044
 30
0.0
 40
2.0000305180437863
100
AcDbArc
 50
270.00087425754293
 51
359.99912574245559
  0
ARC
  5
B0
100
AcDbEntity
  8
0
  6
CONTINUOUS
 62
               7
100
AcDbCircle
 10
191.0
 20
-64.0
 30
0.0
 40
2.5000000007450582
100
AcDbArc
 50
89.999999999999801
 51
269.99999999999937
  0
ARC
  5
B1
100
AcDbEntity
  8
0
  6
CONTINUOUS
 62
               7
100
AcDbCircle
 10
193.99996948218904
 20
-58.500030517810956
 30
0.0
 40
2.0000305180437863
100
AcDbArc
 50
0.0008742575435872
 51
89.999125742456215
  0
ARC
  5
B2
100
AcDbEntity
  8
0
  6
CONTINUOUS
 62
               7
100
AcDbCircle
 10
191.0
 20
0.0
 30
0.0
 40
2.5000000007450582
100
AcDbArc
 50
89.999999999999801
 51
269.99999999999937
  0
ARC
  5
B3
100
AcDbEntity
  8
0
  6
CONTINUOUS
 62
               7
100
AcDbCircle
 10
5.4999961852990964
 20
-9.5000038147009036
 30
0.0
 40
2.0000038147045416
100
AcDbArc
 50
0.0001092829224997
 51
89.999890717077292
  0
ARC
  5
B4
100
AcDbEntity
  8
0
  6
CONTINUOUS
 62
               7
100
AcDbCircle
 10
-2.9999885558172537
 20
-5.4999885558172537
 30
0.0
 40
2.0000114442154886
100
AcDbArc
 50
180.00032784980928
 51
269.99967215018967
  0
ARC
  5
B5
100
AcDbEntity
  8
0
  6
CONTINUOUS
 62
               7
100
AcDbCircle
 10
-2.9999771118018543
 20
5.4999771118018543
 30
0.0
 40
2.0000228883291116
100
AcDbArc
 50
90.000655691073177
 51
179.99934430892623
  0
ARC
  5
B6
100
AcDbEntity
  8
0
  6
CONTINUOUS
 62
               7
100
AcDbCircle
 10
5.5000076293799793
 20
-54.500007629379979
 30
0.0
 40
1.9999923706345726
100
AcDbArc
 50
269.99978143352905
 51
0.0002185664703221
  0
ARC
  5
B7
100
AcDbEntity
  8
0
  6
CONTINUOUS
 62
               7
100
AcDbCircle
 10
-2.9999847411527298
 20
-69.49998474115273
 30
0.0
 40
2.0000152589054778
100
AcDbArc
 50
180.00043713043894
 51
269.99956286956007
  0
ARC
  5
B8
100
AcDbEntity
  8
0
  6
CONTINUOUS
 62
               7
100
AcDbCircle
 10
0.0
 20
-64.0
 30
0.0
 40
2.5
100
AcDbArc
 50
269.99999999999937
 51
89.999999999999801
  0
ARC
  5
B9
100
AcDbEntity
  8
0
  6
CONTINUOUS
 62
               7
100
AcDbCircle
 10
-2.9999847411527298
 20
-58.50001525884727
 30
0.0
 40
2.0000152589054778
100
AcDbArc
 50
90.000437130439153
 51
179.99956286956026
  0
ARC
  5
BA
100
AcDbEntity
  8
0
  6
CONTINUOUS
 62
               7
100
AcDbCircle
 10
0.0
 20
0.0
 30
0.0
 40
2.5
100
AcDbArc
 50
269.99999999999937
 51
89.999999999999801
  0
ARC
  5
BB
100
AcDbEntity
  8
0
  6
CONTINUOUS
 62
               7
100
AcDbCircle
 10
156.10294071082933
 20
8.9017654819511236
 30
0.0
 40
0.7982399348472242
100
AcDbArc
 50
90.211077763784772
 51
151.71643530036241
  0
ARC
  5
BC
100
AcDbEntity
  8
0
  6
CONTINUOUS
 62
               7
100
AcDbCircle
 10
156.89704323224981
 20
8.9017387204163665
 30
0.0
 40
0.7982667555134855
100
AcDbArc
 50
28.284710104723235
 51
89.787776831128596
  0
LINE
  5
BD
100
AcDbEntity
  8
0
  6
CONTINUOUS
 62
               4
100
AcDbLine
 10
113.0
 20
-113.0
 30
0.0
 11
112.0
 21
-111.0
 31
0.0
  0
LINE
  5
BE
100
AcDbEntity
  8
0
  6
CONTINUOUS
 62
               4
100
AcDbLine
 10
122.2
 20
-101.3
 30
0.0
 11
124.8
 21
-101.3
 31
0.0
  0
LINE
  5
BF
100
AcDbEntity
  8
0
  6
CONTINUOUS
 62
               4
100
AcDbLine
 10
122.2
 20
-104.7
 30
0.0
 11
124.8
 21
-104.7
 31
0.0
  0
LINE
  5
C0
100
AcDbEntity
  8
0
  6
CONTINUOUS
 62
               4
100
AcDbLine
 10
112.0
 20
-109.0
 30
0.0
 11
135.0
 21
-109.0
 31
0.0
  0
LINE
  5
C1
100
AcDbEntity
  8
0
  6
CONTINUOUS
 62
               4
100
AcDbLine
 10
130.75
 20
-113.7
 30
0.0
 11
132.25
 21
-113.7
 31
0.0
  0
LINE
  5
C2
100
AcDbEntity
  8
0
  6
CONTINUOUS
 62
               4
100
AcDbLine
 10
114.75
 20
-113.7
 30
0.0
 11
116.25
 21
-113.7
 31
0.0
  0
LINE
  5
C3
100
AcDbEntity
  8
0
  6
CONTINUOUS
 62
               4
100
AcDbLine
 10
113.0
 20
-113.0
 30
0.0
 11
134.0
 21
-113.0
 31
0.0
  0
LINE
  5
C4
100
AcDbEntity
  8
0
  6
CONTINUOUS
 62
               4
100
AcDbLine
 10
134.0
 20
-113.0
 30
0.0
 11
135.0
 21
-111.0
 31
0.0
  0
LINE
  5
C5
100
AcDbEntity
  8
0
  6
CONTINUOUS
 62
               4
100
AcDbLine
 10
112.0
 20
-111.0
 30
0.0
 11
135.0
 21
-111.0
 31
0.0
  0
LINE
  5
C6
100
AcDbEntity
  8
0
  6
CONTINUOUS
 62
               4
100
AcDbLine
 10
112.0
 20
-110.0
 30
0.0
 11
135.0
 21
-110.0
 31
0.0
  0
LINE
  5
C7
100
AcDbEntity
  8
0
  6
CONTINUOUS
 62
               4
100
AcDbLine
 10
135.0
 20
-111.0
 30
0.0
 11
135.0
 21
-90.0
 31
0.0
  0
LINE
  5
C8
100
AcDbEntity
  8
0
  6
CONTINUOUS
 62
               4
100
AcDbLine
 10
112.0
 20
-111.0
 30
0.0
 11
112.0
 21
-90.0
 31
0.0
  0
LINE
  5
C9
100
AcDbEntity
  8
0
  6
CONTINUOUS
 62
               4
100
AcDbLine
 10
85.0
 20
-98.0
 30
0.0
 11
84.0
 21
-96.0
 31
0.0
  0
LINE
  5
CA
100
AcDbEntity
  8
0
  6
CONTINUOUS
 62
               4
100
AcDbLine
 10
94.200000000000003
 20
-86.299999999999997
 30
0.0
 11
96.799999999999997
 21
-86.299999999999997
 31
0.0
  0
LINE
  5
CB
100
AcDbEntity
  8
0
  6
CONTINUOUS
 62
               4
100
AcDbLine
 10
94.200000000000003
 20
-89.700000000000003
 30
0.0
 11
96.799999999999997
 21
-89.700000000000003
 31
0.0
  0
LINE
  5
CC
100
AcDbEntity
  8
0
  6
CONTINUOUS
 62
               4
100
AcDbLine
 10
84.0
 20
-94.0
 30
0.0
 11
107.0
 21
-94.0
 31
0.0
  0
LINE
  5
CD
100
AcDbEntity
  8
0
  6
CONTINUOUS
 62
               4
100
AcDbLine
 10
102.75
 20
-98.700000000000003
 30
0.0
 11
104.25
 21
-98.700000000000003
 31
0.0
  0
LINE
  5
CE
100
AcDbEntity
  8
0
  6
CONTINUOUS
 62
               4
100
AcDbLine
 10
86.75
 20
-98.700000000000003
 30
0.0
 11
88.25
 21
-98.700000000000003
 31
0.0
  0
LINE
  5
CF
100
AcDbEntity
  8
0
  6
CONTINUOUS
 62
               4
100
AcDbLine
 10
85.0
 20
-98.0
 30
0.0
 11
106.0
 21
-98.0
 31
0.0
  0
LINE
  5
D0
100
AcDbEntity
  8
0
  6
CONTINUOUS
 62
               4
100
AcDbLine
 10
106.0
 20
-98.0
 30
0.0
 11
107.0
 21
-96.0
 31
0.0
  0
LINE
  5
D1
100
AcDbEntity
  8
0
  6
CONTINUOUS
 62
               4
100
AcDbLine
 10
84.0
 20
-96.0
 30
0.0
 11
107.0
 21
-96.0
 31
0.0
  0
LINE
  5
D2
100
AcDbEntity
  8
0
  6
CONTINUOUS
 62
               4
100
AcDbLine
 10
84.0
 20
-95.0
 30
0.0
 11
107.0
 21
-95.0
 31
0.0
  0
LINE
  5
D3
100
AcDbEntity
  8
0
  6
CONTINUOUS
 62
               4
100
AcDbLine
 10
107.0
 20
-96.0
 30
0.0
 11
107.0
 21
-75.0
 31
0.0
  0
LINE
  5
D4
100
AcDbEntity
  8
0
  6
CONTINUOUS
 62
               4
100
AcDbLine
 10
84.0
 20
-96.0
 30
0.0
 11
84.0
 21
-75.0
 31
0.0
  0
LINE
  5
D5
100
AcDbEntity
  8
0
  6
CONTINUOUS
 62
               4
100
AcDbLine
 10
134.0
 20
51.0
 30
0.0
 11
135.0
 21
49.0
 31
0.0
  0
LINE
  5
D6
100
AcDbEntity
  8
0
  6
CONTINUOUS
 62
               4
100
AcDbLine
 10
124.8
 20
39.299999999999997
 30
0.0
 11
122.2
 21
39.299999999999997
 31
0.0
  0
LINE
  5
D7
100
AcDbEntity
  8
0
  6
CONTINUOUS
 62
               4
100
AcDbLine
 10
124.8
 20
42.700000000000003
 30
0.0
 11
122.2
 21
42.700000000000003
 31
0.0
  0
LINE
  5
D8
100
AcDbEntity
  8
0
  6
CONTINUOUS
 62
               4
100
AcDbLine
 10
135.0
 20
47.0
 30
0.0
 11
112.0
 21
47.0
 31
0.0
  0
LINE
  5
D9
100
AcDbEntity
  8
0
  6
CONTINUOUS
 62
               4
100
AcDbLine
 10
116.25
 20
51.700000000000003
 30
0.0
 11
114.75
 21
51.700000000000003
 31
0.0
  0
LINE
  5
DA
100
AcDbEntity
  8
0
  6
CONTINUOUS
 62
               4
100
AcDbLine
 10
132.25
 20
51.700000000000003
 30
0.0
 11
130.75
 21
51.700000000000003
 31
0.0
  0
LINE
  5
DB
100
AcDbEntity
  8
0
  6
CONTINUOUS
 62
               4
100
AcDbLine
 10
134.0
 20
51.0
 30
0.0
 11
113.0
 21
51.0
 31
0.0
  0
LINE
  5
DC
100
AcDbEntity
  8
0
  6
CONTINUOUS
 62
               4
100
AcDbLine
 10
113.0
 20
51.0
 30
0.0
 11
112.0
 21
49.0
 31
0.0
  0
LINE
  5
DD
100
AcDbEntity
  8
0
  6
CONTINUOUS
 62
               4
100
AcDbLine
 10
135.0
 20
49.0
 30
0.0
 11
112.0
 21
49.0
 31
0.0
  0
LINE
  5
DE
100
AcDbEntity
  8
0
  6
CONTINUOUS
 62
               4
100
AcDbLine
 10
135.0
 20
48.0
 30
0.0
 11
112.0
 21
48.0
 31
0.0
  0
LINE
  5
DF
100
AcDbEntity
  8
0
  6
CONTINUOUS
 62
               4
100
AcDbLine
 10
112.0
 20
49.0
 30
0.0
 11
112.0
 21
28.0
 31
0.0
  0
LINE
  5
E0
100
AcDbEntity
  8
0
  6
CONTINUOUS
 62
               4
100
AcDbLine
 10
135.0
 20
49.0
 30
0.0
 11
135.0
 21
28.0
 31
0.0
  0
LINE
  5
E1
100
AcDbEntity
  8
0
  6
CONTINUOUS
 62
               4
100
AcDbLine
 10
106.0
 20
36.0
 30
0.0
 11
107.0
 21
34.0
 31
0.0
  0
LINE
  5
E2
100
AcDbEntity
  8
0
  6
CONTINUOUS
 62
               4
100
AcDbLine
 10
96.799999999999997
 20
24.300000000000001
 30
0.0
 11
94.200000000000003
 21
24.300000000000001
 31
0.0
  0
LINE
  5
E3
100
AcDbEntity
  8
0
  6
CONTINUOUS
 62
               4
100
AcDbLine
 10
96.799999999999997
 20
27.699999999999999
 30
0.0
 11
94.200000000000003
 21
27.699999999999999
 31
0.0
  0
LINE
  5
E4
100
AcDbEntity
  8
0
  6
CONTINUOUS
 62
               4
100
AcDbLine
 10
107.0
 20
32.0
 30
0.0
 11
84.0
 21
32.0
 31
0.0
  0
LINE
  5
E5
100
AcDbEntity
  8
0
  6
CONTINUOUS
 62
               4
100
AcDbLine
 10
88.25
 20
36.700000000000003
 30
0.0
 11
86.75
 21
36.700000000000003
 31
0.0
  0
LINE
  5
E6
100
AcDbEntity
  8
0
  6
CONTINUOUS
 62
               4
100
AcDbLine
 10
104.25
 20
36.700000000000003
 30
0.0
 11
102.75
 21
36.700000000000003
 31
0.0
  0
LINE
  5
E7
100
AcDbEntity
  8
0
  6
CONTINUOUS
 62
               4
100
AcDbLine
 10
106.0
 20
36.0
 30
0.0
 11
85.0
 21
36.0
 31
0.0
  0
LINE
  5
E8
100
AcDbEntity
  8
0
  6
CONTINUOUS
 62
               4
100
AcDbLine
 10
85.0
 20
36.0
 30
0.0
 11
84.0
 21
34.0
 31
0.0
  0
LINE
  5
E9
100
AcDbEntity
  8
0
  6
CONTINUOUS
 62
               4
100
AcDbLine
 10
107.0
 20
34.0
 30
0.0
 11
84.0
 21
34.0
 31
0.0
  0
LINE
  5
EA
100
AcDbEntity
  8
0
  6
CONTINUOUS
 62
               4
100
AcDbLine
 10
107.0
 20
33.0
 30
0.0
 11
84.0
 21
33.0
 31
0.0
  0
LINE
  5
EB
100
AcDbEntity
  8
0
  6
CONTINUOUS
 62
               4
100
AcDbLine
 10
84.0
 20
34.0
 30
0.0
 11
84.0
 21
13.0
 31
0.0
  0
LINE
  5
EC
100
AcDbEntity
  8
0
  6
CONTINUOUS
 62
               4
100
AcDbLine
 10
107.0
 20
34.0
 30
0.0
 11
107.0
 21
13.0
 31
0.0
  0
LINE
  5
ED
100
AcDbEntity
  8
0
  6
CONTINUOUS
 62
               4
100
AcDbLine
 10
78.0
 20
36.0
 30
0.0
 11
79.0
 21
34.0
 31
0.0
  0
LINE
  5
EE
100
AcDbEntity
  8
0
  6
CONTINUOUS
 62
               4
100
AcDbLine
 10
68.799999999999997
 20
24.300000000000001
 30
0.0
 11
66.200000000000003
 21
24.300000000000001
 31
0.0
  0
LINE
  5
EF
100
AcDbEntity
  8
0
  6
CONTINUOUS
 62
               4
100
AcDbLine
 10
68.799999999999997
 20
27.699999999999999
 30
0.0
 11
66.200000000000003
 21
27.699999999999999
 31
0.0
  0
LINE
  5
F0
100
AcDbEntity
  8
0
  6
CONTINUOUS
 62
               4
100
AcDbLine
 10
79.0
 20
32.0
 30
0.0
 11
56.0
 21
32.0
 31
0.0
  0
LINE
  5
F1
100
AcDbEntity
  8
0
  6
CONTINUOUS
 62
               4
100
AcDbLine
 10
60.25
 20
36.700000000000003
 30
0.0
 11
58.75
 21
36.700000000000003
 31
0.0
  0
LINE
  5
F2
100
AcDbEntity
  8
0
  6
CONTINUOUS
 62
               4
100
AcDbLine
 10
76.25
 20
36.700000000000003
 30
0.0
 11
74.75
 21
36.700000000000003
 31
0.0
  0
LINE
  5
F3
100
AcDbEntity
  8
0
  6
CONTINUOUS
 62
               4
100
AcDbLine
 10
78.0
 20
36.0
 30
0.0
 11
57.0
 21
36.0
 31
0.0
  0
LINE
  5
F4
100
AcDbEntity
  8
0
  6
CONTINUOUS
 62
               4
100
AcDbLine
 10
57.0
 20
36.0
 30
0.0
 11
56.0
 21
34.0
 31
0.0
  0
LINE
  5
F5
100
AcDbEntity
  8
0
  6
CONTINUOUS
 62
               4
100
AcDbLine
 10
79.0
 20
34.0
 30
0.0
 11
56.0
 21
34.0
 31
0.0
  0
LINE
  5
F6
100
AcDbEntity
  8
0
  6
CONTINUOUS
 62
               4
100
AcDbLine
 10
79.0
 20
33.0
 30
0.0
 11
56.0
 21
33.0
 31
0.0
  0
LINE
  5
F7
100
AcDbEntity
  8
0
  6
CONTINUOUS
 62
               4
100
AcDbLine
 10
56.0
 20
34.0
 30
0.0
 11
56.0
 21
13.0
 31
0.0
  0
LINE
  5
F8
100
AcDbEntity
  8
0
  6
CONTINUOUS
 62
               4
100
AcDbLine
 10
79.0
 20
34.0
 30
0.0
 11
79.0
 21
13.0
 31
0.0
  0
LINE
  5
F9
100
AcDbEntity
  8
0
  6
CONTINUOUS
 62
               4
100
AcDbLine
 10
50.0
 20
36.0
 30
0.0
 11
51.0
 21
34.0
 31
0.0
  0
LINE
  5
FA
100
AcDbEntity
  8
0
  6
CONTINUOUS
 62
               4
100
AcDbLine
 10
40.799999999999997
 20
24.300000000000001
 30
0.0
 11
38.200000000000003
 21
24.300000000000001
 31
0.0
  0
LINE
  5
FB
100
AcDbEntity
  8
0
  6
CONTINUOUS
 62
               4
100
AcDbLine
 10
40.799999999999997
 20
27.699999999999999
 30
0.0
 11
38.200000000000003
 21
27.699999999999999
 31
0.0
  0
LINE
  5
FC
100
AcDbEntity
  8
0
  6
CONTINUOUS
 62
               4
100
AcDbLine
 10
51.0
 20
32.0
 30
0.0
 11
28.0
 21
32.0
 31
0.0
  0
LINE
  5
FD
100
AcDbEntity
  8
0
  6
CONTINUOUS
 62
               4
100
AcDbLine
 10
32.25
 20
36.700000000000003
 30
0.0
 11
30.75
 21
36.700000000000003
 31
0.0
  0
LINE
  5
FE
100
AcDbEntity
  8
0
  6
CONTINUOUS
 62
               4
100
AcDbLine
 10
48.25
 20
36.700000000000003
 30
0.0
 11
46.75
 21
36.700000000000003
 31
0.0
  0
LINE
  5
FF
100
AcDbEntity
  8
0
  6
CONTINUOUS
 62
               4
100
AcDbLine
 10
50.0
 20
36.0
 30
0.0
 11
29.0
 21
36.0
 31
0.0
  0
LINE
  5
100
100
AcDbEntity
  8
0
  6
CONTINUOUS
 62
               4
100
AcDbLine
 10
29.0
 20
36.0
 30
0.0
 11
28.0
 21
34.0
 31
0.0
  0
LINE
  5
101
100
AcDbEntity
  8
0
  6
CONTINUOUS
 62
               4
100
AcDbLine
 10
51.0
 20
34.0
 30
0.0
 11
28.0
 21
34.0
 31
0.0
  0
LINE
  5
102
100
AcDbEntity
  8
0
  6
CONTINUOUS
 62
               4
100
AcDbLine
 10
51.0
 20
33.0
 30
0.0
 11
28.0
 21
33.0
 31
0.0
  0
LINE
  5
103
100
AcDbEntity
  8
0
  6
CONTINUOUS
 62
               4
100
AcDbLine
 10
28.0
 20
34.0
 30
0.0
 11
28.0
 21
13.0
 31
0.0
  0
LINE
  5
104
100
AcDbEntity
  8
0
  6
CONTINUOUS
 62
               4
100
AcDbLine
 10
51.0
 20
34.0
 30
0.0
 11
51.0
 21
13.0
 31
0.0
  0
LINE
  5
105
100
AcDbEntity
  8
0
  6
CONTINUOUS
 62
               7
100
AcDbLine
 10
149.40000000000001
 20
9.6999999999999993
 30
0.0
 11
148.59999999999999
 21
9.6999999999999993
 31
0.0
  0
LINE
  5
106
100
AcDbEntity
  8
0
  6
CONTINUOUS
 62
               7
100
AcDbLine
 10
150.09999999999999
 20
8.9000000000000004
 30
0.0
 11
147.90000000000001
 21
8.9000000000000004
 31
0.0
  0
LINE
  5
107
100
AcDbEntity
  8
0
  6
CONTINUOUS
 62
               7
100
AcDbLine
 10
150.09999999999999
 20
9.2599999999999998
 30
0.0
 11
150.09999999999999
 21
8.6999999999999993
 31
0.0
  0
LINE
  5
108
100
AcDbEntity
  8
0
  6
CONTINUOUS
 62
               7
100
AcDbLine
 10
147.90000000000001
 20
9.2599999999999998
 30
0.0
 11
147.90000000000001
 21
8.6999999999999993
 31
0.0
  0
LINE
  5
109
100
AcDbEntity
  8
0
  6
CONTINUOUS
 62
               7
100
AcDbLine
 10
46.0
 20
-73.5
 30
0.0
 11
44.0
 21
-71.5
 31
0.0
  0
LINE
  5
10A
100
AcDbEntity
  8
0
  6
CONTINUOUS
 62
               7
100
AcDbLine
 10
51.0
 20
-73.5
 30
0.0
 11
53.0
 21
-71.5
 31
0.0
  0
LINE
  5
10B
100
AcDbEntity
  8
0
  6
CONTINUOUS
 62
               7
100
AcDbLine
 10
46.0
 20
-73.5
 30
0.0
 11
51.0
 21
-73.5
 31
0.0
  0
LINE
  5
10C
100
AcDbEntity
  8
0
  6
CONTINUOUS
 62
               7
100
AcDbLine
 10
52.0
 20
-74.5
 30
0.0
 11
52.0
 21
-72.5
 31
0.0
  0
LINE
  5
10D
100
AcDbEntity
  8
0
  6
CONTINUOUS
 62
               7
100
AcDbLine
 10
45.0
 20
-74.5
 30
0.0
 11
52.0
 21
-74.5
 31
0.0
  0
LINE
  5
10E
100
AcDbEntity
  8
0
  6
CONTINUOUS
 62
               7
100
AcDbLine
 10
45.0
 20
-74.5
 30
0.0
 11
45.0
 21
-72.5
 31
0.0
  0
LINE
  5
10F
100
AcDbEntity
  8
0
  6
CONTINUOUS
 62
               7
100
AcDbLine
 10
18.0
 20
-73.5
 30
0.0
 11
16.0
 21
-71.5
 31
0.0
  0
LINE
  5
110
100
AcDbEntity
  8
0
  6
CONTINUOUS
 62
               7
100
AcDbLine
 10
23.0
 20
-73.5
 30
0.0
 11
25.0
 21
-71.5
 31
0.0
  0
LINE
  5
111
100
AcDbEntity
  8
0
  6
CONTINUOUS
 62
               7
100
AcDbLine
 10
18.0
 20
-73.5
 30
0.0
 11
23.0
 21
-73.5
 31
0.0
  0
LINE
  5
112
100
AcDbEntity
  8
0
  6
CONTINUOUS
 62
               7
100
AcDbLine
 10
24.0
 20
-74.5
 30
0.0
 11
24.0
 21
-72.5
 31
0.0
  0
LINE
  5
113
100
AcDbEntity
  8
0
  6
CONTINUOUS
 62
               7
100
AcDbLine
 10
17.0
 20
-74.5
 30
0.0
 11
24.0
 21
-74.5
 31
0.0
  0
LINE
  5
114
100
AcDbEntity
  8
0
  6
CONTINUOUS
 62
               7
100
AcDbLine
 10
17.0
 20
-74.5
 30
0.0
 11
17.0
 21
-72.5
 31
0.0
  0
LINE
  5
115
100
AcDbEntity
  8
0
  6
CONTINUOUS
 62
               7
100
AcDbLine
 10
80.0
 20
8.6999999999999993
 30
0.0
 11
80.0
 21
7.5
 31
0.0
  0
LINE
  5
116
100
AcDbEntity
  8
0
  6
CONTINUOUS
 62
               7
100
AcDbLine
 10
80.0
 20
8.6999999999999993
 30
0.0
 11
79.0
 21
8.6999999999999993
 31
0.0
  0
LINE
  5
117
100
AcDbEntity
  8
0
  6
CONTINUOUS
 62
               7
100
AcDbLine
 10
108.0
 20
8.6999999999999993
 30
0.0
 11
108.0
 21
7.5
 31
0.0
  0
LINE
  5
118
100
AcDbEntity
  8
0
  6
CONTINUOUS
 62
               7
100
AcDbLine
 10
108.0
 20
8.6999999999999993
 30
0.0
 11
107.0
 21
8.6999999999999993
 31
0.0
  0
LINE
  5
119
100
AcDbEntity
  8
0
  6
CONTINUOUS
 62
               7
100
AcDbLine
 10
136.0
 20
8.6999999999999993
 30
0.0
 11
136.0
 21
7.5
 31
0.0
  0
LINE
  5
11A
100
AcDbEntity
  8
0
  6
CONTINUOUS
 62
               7
100
AcDbLine
 10
136.0
 20
8.6999999999999993
 30
0.0
 11
135.0
 21
8.6999999999999993
 31
0.0
  0
LINE
  5
11B
100
AcDbEntity
  8
0
  6
CONTINUOUS
 62
               7
100
AcDbLine
 10
52.0
 20
8.6999999999999993
 30
0.0
 11
51.0
 21
8.6999999999999993
 31
0.0
  0
LINE
  5
11C
100
AcDbEntity
  8
0
  6
CONTINUOUS
 62
               7
100
AcDbLine
 10
52.0
 20
8.6999999999999993
 30
0.0
 11
52.0
 21
7.5
 31
0.0
  0
LINE
  5
11D
100
AcDbEntity
  8
0
  6
CONTINUOUS
 62
               7
100
AcDbLine
 10
164.0
 20
7.5
 30
0.0
 11
164.0
 21
8.6999999999999993
 31
0.0
  0
LINE
  5
11E
100
AcDbEntity
  8
0
  6
CONTINUOUS
 62
               7
100
AcDbLine
 10
146.0
 20
8.6999999999999993
 30
0.0
 11
164.0
 21
8.6999999999999993
 31
0.0
  0
LINE
  5
120
100
AcDbEntity
  8
0
  6
CENTER
 62
               2
100
AcDbLine
 10
151.5
 20
-75.0
 30
0.0
 11
151.5
 21
13.0
 31
0.0
  0
LINE
  5
121
100
AcDbEntity
  8
0
  6
CONTINUOUS
 62
               7
100
AcDbLine
 10
113.44
 20
-42.93
 30
0.0
 11
115.56
 21
-45.060000000000002
 31
0.0
  0
LINE
  5
122
100
AcDbEntity
  8
0
  6
CONTINUOUS
 62
               7
100
AcDbLine
 10
113.44
 20
-45.060000000000002
 30
0.0
 11
115.56
 21
-42.93
 31
0.0
  0
LINE
  5
123
100
AcDbEntity
  8
0
  6
CONTINUOUS
 62
               7
100
AcDbLine
 10
131.44
 20
-24.93
 30
0.0
 11
133.56
 21
-27.059999999999999
 31
0.0
  0
LINE
  5
124
100
AcDbEntity
  8
0
  6
CONTINUOUS
 62
               7
100
AcDbLine
 10
131.44
 20
-27.059999999999999
 30
0.0
 11
133.56
 21
-24.93
 31
0.0
  0
LINE
  5
125
100
AcDbEntity
  8
0
  6
CONTINUOUS
 62
               7
100
AcDbLine
 10
113.44
 20
-16.93
 30
0.0
 11
115.56
 21
-19.059999999999999
 31
0.0
  0
LINE
  5
126
100
AcDbEntity
  8
0
  6
CONTINUOUS
 62
               7
100
AcDbLine
 10
113.44
 20
-19.059999999999999
 30
0.0
 11
115.56
 21
-16.93
 31
0.0
  0
LINE
  5
127
100
AcDbEntity
  8
0
  6
CONTINUOUS
 62
               7
100
AcDbLine
 10
130.94
 20
-49.93
 30
0.0
 11
133.06
 21
-52.060000000000002
 31
0.0
  0
LINE
  5
128
100
AcDbEntity
  8
0
  6
CONTINUOUS
 62
               7
100
AcDbLine
 10
113.94
 20
-9.9299999999999997
 30
0.0
 11
116.06
 21
-12.06
 31
0.0
  0
LINE
  5
129
100
AcDbEntity
  8
0
  6
CONTINUOUS
 62
               7
100
AcDbLine
 10
113.94
 20
-12.06
 30
0.0
 11
116.06
 21
-9.9299999999999997
 31
0.0
  0
LINE
  5
12A
100
AcDbEntity
  8
0
  6
CONTINUOUS
 62
               7
100
AcDbLine
 10
130.94
 20
-52.060000000000002
 30
0.0
 11
133.06
 21
-49.93
 31
0.0
  0
LINE
  5
12B
100
AcDbEntity
  8
0
  6
CONTINUOUS
 62
               7
100
AcDbLine
 10
112.0
 20
-4.5
 30
0.0
 11
113.5
 21
-6.0
 31
0.0
  0
LINE
  5
12C
100
AcDbEntity
  8
0
  6
CONTINUOUS
 62
               7
100
AcDbLine
 10
135.0
 20
-4.5
 30
0.0
 11
133.5
 21
-6.0
 31
0.0
  0
LINE
  5
12D
100
AcDbEntity
  8
0
  6
CONTINUOUS
 62
               7
100
AcDbLine
 10
133.5
 20
-56.0
 30
0.0
 11
135.0
 21
-57.5
 31
0.0
  0
LINE
  5
12E
100
AcDbEntity
  8
0
  6
CONTINUOUS
 62
               7
100
AcDbLine
 10
112.0
 20
-57.5
 30
0.0
 11
113.5
 21
-56.0
 31
0.0
  0
LINE
  5
12F
100
AcDbEntity
  8
0
  6
CONTINUOUS
 62
               7
100
AcDbLine
 10
133.5
 20
-53.5
 30
0.0
 11
133.5
 21
-56.0
 31
0.0
  0
LINE
  5
130
100
AcDbEntity
  8
0
  6
CONTINUOUS
 62
               7
100
AcDbLine
 10
133.5
 20
-29.0
 30
0.0
 11
133.5
 21
-48.5
 31
0.0
  0
LINE
  5
131
100
AcDbEntity
  8
0
  6
CONTINUOUS
 62
               7
100
AcDbLine
 10
113.5
 20
-13.5
 30
0.0
 11
113.5
 21
-15.0
 31
0.0
  0
LINE
  5
132
100
AcDbEntity
  8
0
  6
CONTINUOUS
 62
               7
100
AcDbLine
 10
113.5
 20
-21.0
 30
0.0
 11
113.5
 21
-41.0
 31
0.0
  0
LINE
  5
133
100
AcDbEntity
  8
0
  6
CONTINUOUS
 62
               7
100
AcDbLine
 10
113.5
 20
-47.0
 30
0.0
 11
113.5
 21
-56.0
 31
0.0
  0
LINE
  5
134
100
AcDbEntity
  8
0
  6
CONTINUOUS
 62
               7
100
AcDbLine
 10
113.5
 20
-56.0
 30
0.0
 11
133.5
 21
-56.0
 31
0.0
  0
LINE
  5
135
100
AcDbEntity
  8
0
  6
CONTINUOUS
 62
               7
100
AcDbLine
 10
113.5
 20
-6.0
 30
0.0
 11
133.5
 21
-6.0
 31
0.0
  0
LINE
  5
136
100
AcDbEntity
  8
0
  6
CONTINUOUS
 62
               7
100
AcDbLine
 10
112.0
 20
-4.5
 30
0.0
 11
135.0
 21
-4.5
 31
0.0
  0
LINE
  5
137
100
AcDbEntity
  8
0
  6
CONTINUOUS
 62
               7
100
AcDbLine
 10
112.0
 20
-57.5
 30
0.0
 11
135.0
 21
-57.5
 31
0.0
  0
LINE
  5
138
100
AcDbEntity
  8
0
  6
CONTINUOUS
 62
               7
100
AcDbLine
 10
133.5
 20
-6.0
 30
0.0
 11
133.5
 21
-23.0
 31
0.0
  0
LINE
  5
139
100
AcDbEntity
  8
0
  6
CONTINUOUS
 62
               7
100
AcDbLine
 10
113.5
 20
-6.0
 30
0.0
 11
113.5
 21
-8.5
 31
0.0
  0
LINE
  5
13A
100
AcDbEntity
  8
0
  6
CONTINUOUS
 62
               7
100
AcDbLine
 10
114.5
 20
-21.0
 30
0.0
 11
112.0
 21
-21.0
 31
0.0
  0
LINE
  5
13B
100
AcDbEntity
  8
0
  6
CONTINUOUS
 62
               7
100
AcDbLine
 10
114.5
 20
-15.0
 30
0.0
 11
112.0
 21
-15.0
 31
0.0
  0
LINE
  5
13C
100
AcDbEntity
  8
0
  6
CONTINUOUS
 62
               7
100
AcDbLine
 10
115.0
 20
-13.5
 30
0.0
 11
112.0
 21
-13.5
 31
0.0
  0
LINE
  5
13D
100
AcDbEntity
  8
0
  6
CONTINUOUS
 62
               7
100
AcDbLine
 10
115.0
 20
-8.5
 30
0.0
 11
112.0
 21
-8.5
 31
0.0
  0
LINE
  5
13E
100
AcDbEntity
  8
0
  6
CONTINUOUS
 62
               7
100
AcDbLine
 10
132.5
 20
-23.0
 30
0.0
 11
135.0
 21
-23.0
 31
0.0
  0
LINE
  5
13F
100
AcDbEntity
  8
0
  6
CONTINUOUS
 62
               7
100
AcDbLine
 10
132.5
 20
-29.0
 30
0.0
 11
135.0
 21
-29.0
 31
0.0
  0
LINE
  5
140
100
AcDbEntity
  8
0
  6
CONTINUOUS
 62
               7
100
AcDbLine
 10
132.0
 20
-48.5
 30
0.0
 11
135.0
 21
-48.5
 31
0.0
  0
LINE
  5
141
100
AcDbEntity
  8
0
  6
CONTINUOUS
 62
               7
100
AcDbLine
 10
132.0
 20
-53.5
 30
0.0
 11
135.0
 21
-53.5
 31
0.0
  0
LINE
  5
142
100
AcDbEntity
  8
0
  6
CONTINUOUS
 62
               7
100
AcDbLine
 10
114.5
 20
-47.0
 30
0.0
 11
112.0
 21
-47.0
 31
0.0
  0
LINE
  5
143
100
AcDbEntity
  8
0
  6
CONTINUOUS
 62
               7
100
AcDbLine
 10
114.5
 20
-41.0
 30
0.0
 11
112.0
 21
-41.0
 31
0.0
  0
LINE
  5
144
100
AcDbEntity
  8
0
  6
CONTINUOUS
 62
               7
100
AcDbLine
 10
135.0
 20
-73.5
 30
0.0
 11
137.0
 21
-71.5
 31
0.0
  0
LINE
  5
145
100
AcDbEntity
  8
0
  6
CONTINUOUS
 62
               7
100
AcDbLine
 10
136.0
 20
-74.5
 30
0.0
 11
136.0
 21
-72.5
 31
0.0
  0
LINE
  5
146
100
AcDbEntity
  8
0
  6
CONTINUOUS
 62
               7
100
AcDbLine
 10
135.0
 20
-74.5
 30
0.0
 11
136.0
 21
-74.5
 31
0.0
  0
LINE
  5
147
100
AcDbEntity
  8
0
  6
CONTINUOUS
 62
               7
100
AcDbLine
 10
112.0
 20
9.5
 30
0.0
 11
110.0
 21
7.5
 31
0.0
  0
LINE
  5
148
100
AcDbEntity
  8
0
  6
CONTINUOUS
 62
               7
100
AcDbLine
 10
111.0
 20
10.199999999999999
 30
0.0
 11
112.0
 21
10.199999999999999
 31
0.0
  0
LINE
  5
149
100
AcDbEntity
  8
0
  6
CONTINUOUS
 62
               7
100
AcDbLine
 10
111.52
 20
10.5
 30
0.0
 11
112.0
 21
10.5
 31
0.0
  0
LINE
  5
14A
100
AcDbEntity
  8
0
  6
CONTINUOUS
 62
               7
100
AcDbLine
 10
111.0
 20
10.199999999999999
 30
0.0
 11
111.52
 21
10.5
 31
0.0
  0
LINE
  5
14B
100
AcDbEntity
  8
0
  6
CONTINUOUS
 62
               7
100
AcDbLine
 10
111.0
 20
10.199999999999999
 30
0.0
 11
111.0
 21
8.5
 31
0.0
  0
LINE
  5
14C
100
AcDbEntity
  8
0
  6
CONTINUOUS
 62
               7
100
AcDbLine
 10
112.0
 20
28.0
 30
0.0
 11
135.0
 21
28.0
 31
0.0
  0
LINE
  5
14D
100
AcDbEntity
  8
0
  6
CONTINUOUS
 62
               7
100
AcDbLine
 10
135.0
 20
-71.5
 30
0.0
 11
137.5
 21
-71.5
 31
0.0
  0
LINE
  5
14E
100
AcDbEntity
  8
0
  6
CONTINUOUS
 62
               7
100
AcDbLine
 10
112.0
 20
-70.5
 30
0.0
 11
109.5
 21
-70.5
 31
0.0
  0
LINE
  5
14F
100
AcDbEntity
  8
0
  6
CONTINUOUS
 62
               7
100
AcDbLine
 10
137.5
 20
-71.5
 30
0.0
 11
137.5
 21
7.5
 31
0.0
  0
LINE
  5
150
100
AcDbEntity
  8
0
  6
CONTINUOUS
 62
               7
100
AcDbLine
 10
137.5
 20
-70.5
 30
0.0
 11
135.0
 21
-70.5
 31
0.0
  0
LINE
  5
151
100
AcDbEntity
  8
0
  6
CONTINUOUS
 62
               7
100
AcDbLine
 10
135.0
 20
7.5
 30
0.0
 11
137.5
 21
7.5
 31
0.0
  0
LINE
  5
152
100
AcDbEntity
  8
0
  6
CONTINUOUS
 62
               7
100
AcDbLine
 10
109.5
 20
-71.5
 30
0.0
 11
109.5
 21
7.5
 31
0.0
  0
LINE
  5
153
100
AcDbEntity
  8
0
  6
CONTINUOUS
 62
               7
100
AcDbLine
 10
109.5
 20
7.5
 30
0.0
 11
112.0
 21
7.5
 31
0.0
  0
LINE
  5
154
100
AcDbEntity
  8
0
  6
CONTINUOUS
 62
               7
100
AcDbLine
 10
109.5
 20
-71.5
 30
0.0
 11
112.0
 21
-71.5
 31
0.0
  0
LINE
  5
155
100
AcDbEntity
  8
0
  6
CONTINUOUS
 62
               7
100
AcDbLine
 10
135.0
 20
-90.0
 30
0.0
 11
112.0
 21
-90.0
 31
0.0
  0
LINE
  5
156
100
AcDbEntity
  8
0
  6
CENTER
 62
               2
100
AcDbLine
 10
123.5
 20
52.359999999999999
 30
0.0
 11
123.5
 21
-121.0
 31
0.0
  0
LINE
  5
157
100
AcDbEntity
  8
0
  6
CONTINUOUS
 62
               7
100
AcDbLine
 10
135.0
 20
28.0
 30
0.0
 11
135.0
 21
-90.0
 31
0.0
  0
LINE
  5
158
100
AcDbEntity
  8
0
  6
CONTINUOUS
 62
               7
100
AcDbLine
 10
112.0
 20
28.0
 30
0.0
 11
112.0
 21
-90.0
 31
0.0
  0
LINE
  5
159
100
AcDbEntity
  8
0
  6
CONTINUOUS
 62
               7
100
AcDbLine
 10
107.0
 20
-71.5
 30
0.0
 11
109.5
 21
-71.5
 31
0.0
  0
LINE
  5
15A
100
AcDbEntity
  8
0
  6
CONTINUOUS
 62
               7
100
AcDbLine
 10
84.0
 20
-70.5
 30
0.0
 11
81.5
 21
-70.5
 31
0.0
  0
LINE
  5
15B
100
AcDbEntity
  8
0
  6
CONTINUOUS
 62
               7
100
AcDbLine
 10
84.0
 20
13.0
 30
0.0
 11
107.0
 21
13.0
 31
0.0
  0
LINE
  5
15C
100
AcDbEntity
  8
0
  6
CONTINUOUS
 62
               7
100
AcDbLine
 10
85.430000000000007
 20
-42.93
 30
0.0
 11
87.560000000000002
 21
-45.060000000000002
 31
0.0
  0
LINE
  5
15D
100
AcDbEntity
  8
0
  6
CONTINUOUS
 62
               7
100
AcDbLine
 10
85.430000000000007
 20
-45.060000000000002
 30
0.0
 11
87.560000000000002
 21
-42.93
 31
0.0
  0
LINE
  5
15E
100
AcDbEntity
  8
0
  6
CONTINUOUS
 62
               7
100
AcDbLine
 10
103.44
 20
-24.93
 30
0.0
 11
105.56
 21
-27.059999999999999
 31
0.0
  0
LINE
  5
15F
100
AcDbEntity
  8
0
  6
CONTINUOUS
 62
               7
100
AcDbLine
 10
103.44
 20
-27.059999999999999
 30
0.0
 11
105.56
 21
-24.93
 31
0.0
  0
LINE
  5
160
100
AcDbEntity
  8
0
  6
CONTINUOUS
 62
               7
100
AcDbLine
 10
85.430000000000007
 20
-16.93
 30
0.0
 11
87.560000000000002
 21
-19.059999999999999
 31
0.0
  0
LINE
  5
161
100
AcDbEntity
  8
0
  6
CONTINUOUS
 62
               7
100
AcDbLine
 10
85.430000000000007
 20
-19.059999999999999
 30
0.0
 11
87.560000000000002
 21
-16.93
 31
0.0
  0
LINE
  5
162
100
AcDbEntity
  8
0
  6
CONTINUOUS
 62
               7
100
AcDbLine
 10
102.94
 20
-49.93
 30
0.0
 11
105.06
 21
-52.060000000000002
 31
0.0
  0
LINE
  5
163
100
AcDbEntity
  8
0
  6
CONTINUOUS
 62
               7
100
AcDbLine
 10
85.930000000000007
 20
-9.9299999999999997
 30
0.0
 11
88.060000000000002
 21
-12.06
 31
0.0
  0
LINE
  5
164
100
AcDbEntity
  8
0
  6
CONTINUOUS
 62
               7
100
AcDbLine
 10
85.930000000000007
 20
-12.06
 30
0.0
 11
88.060000000000002
 21
-9.9299999999999997
 31
0.0
  0
LINE
  5
165
100
AcDbEntity
  8
0
  6
CONTINUOUS
 62
               7
100
AcDbLine
 10
102.94
 20
-52.060000000000002
 30
0.0
 11
105.06
 21
-49.93
 31
0.0
  0
LINE
  5
166
100
AcDbEntity
  8
0
  6
CONTINUOUS
 62
               7
100
AcDbLine
 10
84.0
 20
-4.5
 30
0.0
 11
85.5
 21
-6.0
 31
0.0
  0
LINE
  5
167
100
AcDbEntity
  8
0
  6
CONTINUOUS
 62
               7
100
AcDbLine
 10
107.0
 20
-4.5
 30
0.0
 11
105.5
 21
-6.0
 31
0.0
  0
LINE
  5
168
100
AcDbEntity
  8
0
  6
CONTINUOUS
 62
               7
100
AcDbLine
 10
105.5
 20
-56.0
 30
0.0
 11
107.0
 21
-57.5
 31
0.0
  0
LINE
  5
169
100
AcDbEntity
  8
0
  6
CONTINUOUS
 62
               7
100
AcDbLine
 10
84.0
 20
-57.5
 30
0.0
 11
85.5
 21
-56.0
 31
0.0
  0
LINE
  5
16A
100
AcDbEntity
  8
0
  6
CONTINUOUS
 62
               7
100
AcDbLine
 10
105.5
 20
-53.5
 30
0.0
 11
105.5
 21
-56.0
 31
0.0
  0
LINE
  5
16B
100
AcDbEntity
  8
0
  6
CONTINUOUS
 62
               7
100
AcDbLine
 10
105.5
 20
-29.0
 30
0.0
 11
105.5
 21
-48.5
 31
0.0
  0
LINE
  5
16C
100
AcDbEntity
  8
0
  6
CONTINUOUS
 62
               7
100
AcDbLine
 10
85.5
 20
-13.5
 30
0.0
 11
85.5
 21
-15.0
 31
0.0
  0
LINE
  5
16D
100
AcDbEntity
  8
0
  6
CONTINUOUS
 62
               7
100
AcDbLine
 10
85.5
 20
-21.0
 30
0.0
 11
85.5
 21
-41.0
 31
0.0
  0
LINE
  5
16E
100
AcDbEntity
  8
0
  6
CONTINUOUS
 62
               7
100
AcDbLine
 10
85.5
 20
-47.0
 30
0.0
 11
85.5
 21
-56.0
 31
0.0
  0
LINE
  5
16F
100
AcDbEntity
  8
0
  6
CONTINUOUS
 62
               7
100
AcDbLine
 10
85.5
 20
-56.0
 30
0.0
 11
105.5
 21
-56.0
 31
0.0
  0
LINE
  5
170
100
AcDbEntity
  8
0
  6
CONTINUOUS
 62
               7
100
AcDbLine
 10
85.5
 20
-6.0
 30
0.0
 11
105.5
 21
-6.0
 31
0.0
  0
LINE
  5
171
100
AcDbEntity
  8
0
  6
CONTINUOUS
 62
               7
100
AcDbLine
 10
84.0
 20
-4.5
 30
0.0
 11
107.0
 21
-4.5
 31
0.0
  0
LINE
  5
172
100
AcDbEntity
  8
0
  6
CONTINUOUS
 62
               7
100
AcDbLine
 10
84.0
 20
-57.5
 30
0.0
 11
107.0
 21
-57.5
 31
0.0
  0
LINE
  5
173
100
AcDbEntity
  8
0
  6
CONTINUOUS
 62
               7
100
AcDbLine
 10
105.5
 20
-6.0
 30
0.0
 11
105.5
 21
-23.0
 31
0.0
  0
LINE
  5
174
100
AcDbEntity
  8
0
  6
CONTINUOUS
 62
               7
100
AcDbLine
 10
85.5
 20
-6.0
 30
0.0
 11
85.5
 21
-8.5
 31
0.0
  0
LINE
  5
175
100
AcDbEntity
  8
0
  6
CONTINUOUS
 62
               7
100
AcDbLine
 10
86.5
 20
-21.0
 30
0.0
 11
84.0
 21
-21.0
 31
0.0
  0
LINE
  5
176
100
AcDbEntity
  8
0
  6
CONTINUOUS
 62
               7
100
AcDbLine
 10
86.5
 20
-15.0
 30
0.0
 11
84.0
 21
-15.0
 31
0.0
  0
LINE
  5
177
100
AcDbEntity
  8
0
  6
CONTINUOUS
 62
               7
100
AcDbLine
 10
87.0
 20
-13.5
 30
0.0
 11
84.0
 21
-13.5
 31
0.0
  0
LINE
  5
178
100
AcDbEntity
  8
0
  6
CONTINUOUS
 62
               7
100
AcDbLine
 10
87.0
 20
-8.5
 30
0.0
 11
84.0
 21
-8.5
 31
0.0
  0
LINE
  5
179
100
AcDbEntity
  8
0
  6
CONTINUOUS
 62
               7
100
AcDbLine
 10
104.5
 20
-23.0
 30
0.0
 11
107.0
 21
-23.0
 31
0.0
  0
LINE
  5
17A
100
AcDbEntity
  8
0
  6
CONTINUOUS
 62
               7
100
AcDbLine
 10
104.5
 20
-29.0
 30
0.0
 11
107.0
 21
-29.0
 31
0.0
  0
LINE
  5
17B
100
AcDbEntity
  8
0
  6
CONTINUOUS
 62
               7
100
AcDbLine
 10
104.0
 20
-48.5
 30
0.0
 11
107.0
 21
-48.5
 31
0.0
  0
LINE
  5
17C
100
AcDbEntity
  8
0
  6
CONTINUOUS
 62
               7
100
AcDbLine
 10
104.0
 20
-53.5
 30
0.0
 11
107.0
 21
-53.5
 31
0.0
  0
LINE
  5
17D
100
AcDbEntity
  8
0
  6
CONTINUOUS
 62
               7
100
AcDbLine
 10
86.5
 20
-47.0
 30
0.0
 11
84.0
 21
-47.0
 31
0.0
  0
LINE
  5
17E
100
AcDbEntity
  8
0
  6
CONTINUOUS
 62
               7
100
AcDbLine
 10
86.5
 20
-41.0
 30
0.0
 11
84.0
 21
-41.0
 31
0.0
  0
LINE
  5
17F
100
AcDbEntity
  8
0
  6
CONTINUOUS
 62
               7
100
AcDbLine
 10
81.5
 20
-71.5
 30
0.0
 11
84.0
 21
-71.5
 31
0.0
  0
LINE
  5
180
100
AcDbEntity
  8
0
  6
CONTINUOUS
 62
               7
100
AcDbLine
 10
84.0
 20
9.5
 30
0.0
 11
82.0
 21
7.5
 31
0.0
  0
LINE
  5
181
100
AcDbEntity
  8
0
  6
CONTINUOUS
 62
               7
100
AcDbLine
 10
83.0
 20
10.199999999999999
 30
0.0
 11
84.0
 21
10.199999999999999
 31
0.0
  0
LINE
  5
182
100
AcDbEntity
  8
0
  6
CONTINUOUS
 62
               7
100
AcDbLine
 10
83.519999999999996
 20
10.5
 30
0.0
 11
84.0
 21
10.5
 31
0.0
  0
LINE
  5
183
100
AcDbEntity
  8
0
  6
CONTINUOUS
 62
               7
100
AcDbLine
 10
83.0
 20
10.199999999999999
 30
0.0
 11
83.519999999999996
 21
10.5
 31
0.0
  0
LINE
  5
184
100
AcDbEntity
  8
0
  6
CONTINUOUS
 62
               7
100
AcDbLine
 10
83.0
 20
10.199999999999999
 30
0.0
 11
83.0
 21
8.5
 31
0.0
  0
LINE
  5
185
100
AcDbEntity
  8
0
  6
CONTINUOUS
 62
               7
100
AcDbLine
 10
107.0
 20
-75.0
 30
0.0
 11
84.0
 21
-75.0
 31
0.0
  0
LINE
  5
186
100
AcDbEntity
  8
0
  6
CONTINUOUS
 62
               7
100
AcDbLine
 10
107.0
 20
-73.5
 30
0.0
 11
109.0
 21
-71.5
 31
0.0
  0
LINE
  5
187
100
AcDbEntity
  8
0
  6
CONTINUOUS
 62
               7
100
AcDbLine
 10
108.0
 20
-74.5
 30
0.0
 11
108.0
 21
-72.5
 31
0.0
  0
LINE
  5
188
100
AcDbEntity
  8
0
  6
CONTINUOUS
 62
               7
100
AcDbLine
 10
107.0
 20
-74.5
 30
0.0
 11
108.0
 21
-74.5
 31
0.0
  0
LINE
  5
189
100
AcDbEntity
  8
0
  6
CONTINUOUS
 62
               7
100
AcDbLine
 10
109.5
 20
-71.5
 30
0.0
 11
109.5
 21
7.5
 31
0.0
  0
LINE
  5
18A
100
AcDbEntity
  8
0
  6
CONTINUOUS
 62
               7
100
AcDbLine
 10
109.5
 20
-70.5
 30
0.0
 11
107.0
 21
-70.5
 31
0.0
  0
LINE
  5
18B
100
AcDbEntity
  8
0
  6
CONTINUOUS
 62
               7
100
AcDbLine
 10
107.0
 20
7.5
 30
0.0
 11
109.5
 21
7.5
 31
0.0
  0
LINE
  5
18C
100
AcDbEntity
  8
0
  6
CONTINUOUS
 62
               7
100
AcDbLine
 10
81.5
 20
-71.5
 30
0.0
 11
81.5
 21
7.5
 31
0.0
  0
LINE
  5
18D
100
AcDbEntity
  8
0
  6
CONTINUOUS
 62
               7
100
AcDbLine
 10
81.5
 20
7.5
 30
0.0
 11
84.0
 21
7.5
 31
0.0
  0
LINE
  5
18E
100
AcDbEntity
  8
0
  6
CENTER
 62
               2
100
AcDbLine
 10
95.5
 20
38.829999999999998
 30
0.0
 11
95.5
 21
-106.0
 31
0.0
  0
LINE
  5
18F
100
AcDbEntity
  8
0
  6
CONTINUOUS
 62
               7
100
AcDbLine
 10
107.0
 20
13.0
 30
0.0
 11
107.0
 21
-75.0
 31
0.0
  0
LINE
  5
190
100
AcDbEntity
  8
0
  6
CONTINUOUS
 62
               7
100
AcDbLine
 10
84.0
 20
13.0
 30
0.0
 11
84.0
 21
-75.0
 31
0.0
  0
LINE
  5
191
100
AcDbEntity
  8
0
  6
CONTINUOUS
 62
               7
100
AcDbLine
 10
57.43
 20
-42.93
 30
0.0
 11
59.560000000000002
 21
-45.060000000000002
 31
0.0
  0
LINE
  5
192
100
AcDbEntity
  8
0
  6
CONTINUOUS
 62
               7
100
AcDbLine
 10
57.43
 20
-45.060000000000002
 30
0.0
 11
59.560000000000002
 21
-42.93
 31
0.0
  0
LINE
  5
193
100
AcDbEntity
  8
0
  6
CONTINUOUS
 62
               7
100
AcDbLine
 10
75.430000000000007
 20
-24.93
 30
0.0
 11
77.560000000000002
 21
-27.059999999999999
 31
0.0
  0
LINE
  5
194
100
AcDbEntity
  8
0
  6
CONTINUOUS
 62
               7
100
AcDbLine
 10
75.430000000000007
 20
-27.059999999999999
 30
0.0
 11
77.560000000000002
 21
-24.93
 31
0.0
  0
LINE
  5
195
100
AcDbEntity
  8
0
  6
CONTINUOUS
 62
               7
100
AcDbLine
 10
57.43
 20
-16.93
 30
0.0
 11
59.560000000000002
 21
-19.059999999999999
 31
0.0
  0
LINE
  5
196
100
AcDbEntity
  8
0
  6
CONTINUOUS
 62
               7
100
AcDbLine
 10
57.43
 20
-19.059999999999999
 30
0.0
 11
59.560000000000002
 21
-16.93
 31
0.0
  0
LINE
  5
197
100
AcDbEntity
  8
0
  6
CONTINUOUS
 62
               7
100
AcDbLine
 10
74.930000000000007
 20
-49.93
 30
0.0
 11
77.060000000000002
 21
-52.060000000000002
 31
0.0
  0
LINE
  5
198
100
AcDbEntity
  8
0
  6
CONTINUOUS
 62
               7
100
AcDbLine
 10
57.93
 20
-9.9299999999999997
 30
0.0
 11
60.060000000000002
 21
-12.06
 31
0.0
  0
LINE
  5
199
100
AcDbEntity
  8
0
  6
CONTINUOUS
 62
               7
100
AcDbLine
 10
57.93
 20
-12.06
 30
0.0
 11
60.060000000000002
 21
-9.9299999999999997
 31
0.0
  0
LINE
  5
19A
100
AcDbEntity
  8
0
  6
CONTINUOUS
 62
               7
100
AcDbLine
 10
74.930000000000007
 20
-52.060000000000002
 30
0.0
 11
77.060000000000002
 21
-49.93
 31
0.0
  0
LINE
  5
19B
100
AcDbEntity
  8
0
  6
CONTINUOUS
 62
               7
100
AcDbLine
 10
56.0
 20
-4.5
 30
0.0
 11
57.5
 21
-6.0
 31
0.0
  0
LINE
  5
19C
100
AcDbEntity
  8
0
  6
CONTINUOUS
 62
               7
100
AcDbLine
 10
79.0
 20
-4.5
 30
0.0
 11
77.5
 21
-6.0
 31
0.0
  0
LINE
  5
19D
100
AcDbEntity
  8
0
  6
CONTINUOUS
 62
               7
100
AcDbLine
 10
77.5
 20
-56.0
 30
0.0
 11
79.0
 21
-57.5
 31
0.0
  0
LINE
  5
19E
100
AcDbEntity
  8
0
  6
CONTINUOUS
 62
               7
100
AcDbLine
 10
56.0
 20
-57.5
 30
0.0
 11
57.5
 21
-56.0
 31
0.0
  0
LINE
  5
19F
100
AcDbEntity
  8
0
  6
CONTINUOUS
 62
               7
100
AcDbLine
 10
77.5
 20
-53.5
 30
0.0
 11
77.5
 21
-56.0
 31
0.0
  0
LINE
  5
1A0
100
AcDbEntity
  8
0
  6
CONTINUOUS
 62
               7
100
AcDbLine
 10
77.5
 20
-29.0
 30
0.0
 11
77.5
 21
-48.5
 31
0.0
  0
LINE
  5
1A1
100
AcDbEntity
  8
0
  6
CONTINUOUS
 62
               7
100
AcDbLine
 10
57.5
 20
-13.5
 30
0.0
 11
57.5
 21
-15.0
 31
0.0
  0
LINE
  5
1A2
100
AcDbEntity
  8
0
  6
CONTINUOUS
 62
               7
100
AcDbLine
 10
57.5
 20
-21.0
 30
0.0
 11
57.5
 21
-41.0
 31
0.0
  0
LINE
  5
1A3
100
AcDbEntity
  8
0
  6
CONTINUOUS
 62
               7
100
AcDbLine
 10
57.5
 20
-47.0
 30
0.0
 11
57.5
 21
-56.0
 31
0.0
  0
LINE
  5
1A4
100
AcDbEntity
  8
0
  6
CONTINUOUS
 62
               7
100
AcDbLine
 10
57.5
 20
-56.0
 30
0.0
 11
77.5
 21
-56.0
 31
0.0
  0
LINE
  5
1A5
100
AcDbEntity
  8
0
  6
CONTINUOUS
 62
               7
100
AcDbLine
 10
57.5
 20
-6.0
 30
0.0
 11
77.5
 21
-6.0
 31
0.0
  0
LINE
  5
1A6
100
AcDbEntity
  8
0
  6
CONTINUOUS
 62
               7
100
AcDbLine
 10
56.0
 20
-4.5
 30
0.0
 11
79.0
 21
-4.5
 31
0.0
  0
LINE
  5
1A7
100
AcDbEntity
  8
0
  6
CONTINUOUS
 62
               7
100
AcDbLine
 10
56.0
 20
-57.5
 30
0.0
 11
79.0
 21
-57.5
 31
0.0
  0
LINE
  5
1A8
100
AcDbEntity
  8
0
  6
CONTINUOUS
 62
               7
100
AcDbLine
 10
77.5
 20
-6.0
 30
0.0
 11
77.5
 21
-23.0
 31
0.0
  0
LINE
  5
1A9
100
AcDbEntity
  8
0
  6
CONTINUOUS
 62
               7
100
AcDbLine
 10
57.5
 20
-6.0
 30
0.0
 11
57.5
 21
-8.5
 31
0.0
  0
LINE
  5
1AA
100
AcDbEntity
  8
0
  6
CONTINUOUS
 62
               7
100
AcDbLine
 10
58.5
 20
-21.0
 30
0.0
 11
56.0
 21
-21.0
 31
0.0
  0
LINE
  5
1AB
100
AcDbEntity
  8
0
  6
CONTINUOUS
 62
               7
100
AcDbLine
 10
58.5
 20
-15.0
 30
0.0
 11
56.0
 21
-15.0
 31
0.0
  0
LINE
  5
1AC
100
AcDbEntity
  8
0
  6
CONTINUOUS
 62
               7
100
AcDbLine
 10
59.0
 20
-13.5
 30
0.0
 11
56.0
 21
-13.5
 31
0.0
  0
LINE
  5
1AD
100
AcDbEntity
  8
0
  6
CONTINUOUS
 62
               7
100
AcDbLine
 10
59.0
 20
-8.5
 30
0.0
 11
56.0
 21
-8.5
 31
0.0
  0
LINE
  5
1AE
100
AcDbEntity
  8
0
  6
CONTINUOUS
 62
               7
100
AcDbLine
 10
76.5
 20
-23.0
 30
0.0
 11
79.0
 21
-23.0
 31
0.0
  0
LINE
  5
1AF
100
AcDbEntity
  8
0
  6
CONTINUOUS
 62
               7
100
AcDbLine
 10
76.5
 20
-29.0
 30
0.0
 11
79.0
 21
-29.0
 31
0.0
  0
LINE
  5
1B0
100
AcDbEntity
  8
0
  6
CONTINUOUS
 62
               7
100
AcDbLine
 10
76.0
 20
-48.5
 30
0.0
 11
79.0
 21
-48.5
 31
0.0
  0
LINE
  5
1B1
100
AcDbEntity
  8
0
  6
CONTINUOUS
 62
               7
100
AcDbLine
 10
76.0
 20
-53.5
 30
0.0
 11
79.0
 21
-53.5
 31
0.0
  0
LINE
  5
1B2
100
AcDbEntity
  8
0
  6
CONTINUOUS
 62
               7
100
AcDbLine
 10
58.5
 20
-47.0
 30
0.0
 11
56.0
 21
-47.0
 31
0.0
  0
LINE
  5
1B3
100
AcDbEntity
  8
0
  6
CONTINUOUS
 62
               7
100
AcDbLine
 10
58.5
 20
-41.0
 30
0.0
 11
56.0
 21
-41.0
 31
0.0
  0
LINE
  5
1B4
100
AcDbEntity
  8
0
  6
CONTINUOUS
 62
               7
100
AcDbLine
 10
53.5
 20
-71.5
 30
0.0
 11
81.5
 21
-71.5
 31
0.0
  0
LINE
  5
1B5
100
AcDbEntity
  8
0
  6
CONTINUOUS
 62
               7
100
AcDbLine
 10
56.0
 20
9.5
 30
0.0
 11
54.0
 21
7.5
 31
0.0
  0
LINE
  5
1B6
100
AcDbEntity
  8
0
  6
CONTINUOUS
 62
               7
100
AcDbLine
 10
55.0
 20
10.199999999999999
 30
0.0
 11
56.0
 21
10.199999999999999
 31
0.0
  0
LINE
  5
1B7
100
AcDbEntity
  8
0
  6
CONTINUOUS
 62
               7
100
AcDbLine
 10
55.520000000000003
 20
10.5
 30
0.0
 11
56.0
 21
10.5
 31
0.0
  0
LINE
  5
1B8
100
AcDbEntity
  8
0
  6
CONTINUOUS
 62
               7
100
AcDbLine
 10
55.0
 20
10.199999999999999
 30
0.0
 11
55.520000000000003
 21
10.5
 31
0.0
  0
LINE
  5
1B9
100
AcDbEntity
  8
0
  6
CONTINUOUS
 62
               7
100
AcDbLine
 10
55.0
 20
10.199999999999999
 30
0.0
 11
55.0
 21
8.5
 31
0.0
  0
LINE
  5
1BA
100
AcDbEntity
  8
0
  6
CONTINUOUS
 62
               7
100
AcDbLine
 10
56.0
 20
13.0
 30
0.0
 11
79.0
 21
13.0
 31
0.0
  0
LINE
  5
1BB
100
AcDbEntity
  8
0
  6
CONTINUOUS
 62
               7
100
AcDbLine
 10
81.5
 20
-71.5
 30
0.0
 11
81.5
 21
7.5
 31
0.0
  0
LINE
  5
1BC
100
AcDbEntity
  8
0
  6
CONTINUOUS
 62
               7
100
AcDbLine
 10
81.5
 20
-70.5
 30
0.0
 11
53.5
 21
-70.5
 31
0.0
  0
LINE
  5
1BD
100
AcDbEntity
  8
0
  6
CONTINUOUS
 62
               7
100
AcDbLine
 10
79.0
 20
7.5
 30
0.0
 11
81.5
 21
7.5
 31
0.0
  0
LINE
  5
1BE
100
AcDbEntity
  8
0
  6
CONTINUOUS
 62
               7
100
AcDbLine
 10
53.5
 20
-71.5
 30
0.0
 11
53.5
 21
7.5
 31
0.0
  0
LINE
  5
1BF
100
AcDbEntity
  8
0
  6
CONTINUOUS
 62
               7
100
AcDbLine
 10
53.5
 20
7.5
 30
0.0
 11
56.0
 21
7.5
 31
0.0
  0
LINE
  5
1C0
100
AcDbEntity
  8
0
  6
CONTINUOUS
 62
               7
100
AcDbLine
 10
56.0
 20
-66.5
 30
0.0
 11
79.0
 21
-66.5
 31
0.0
  0
LINE
  5
1C1
100
AcDbEntity
  8
0
  6
CENTER
 62
               2
100
AcDbLine
 10
67.5
 20
37.359999999999999
 30
0.0
 11
67.5
 21
-74.069999999999993
 31
0.0
  0
LINE
  5
1C2
100
AcDbEntity
  8
0
  6
CONTINUOUS
 62
               7
100
AcDbLine
 10
79.0
 20
13.0
 30
0.0
 11
79.0
 21
-66.5
 31
0.0
  0
LINE
  5
1C3
100
AcDbEntity
  8
0
  6
CONTINUOUS
 62
               7
100
AcDbLine
 10
56.0
 20
13.0
 30
0.0
 11
56.0
 21
-66.5
 31
0.0
  0
LINE
  5
1C4
100
AcDbEntity
  8
0
  6
CONTINUOUS
 62
               7
100
AcDbLine
 10
29.43
 20
-42.93
 30
0.0
 11
31.559999999999999
 21
-45.060000000000002
 31
0.0
  0
LINE
  5
1C5
100
AcDbEntity
  8
0
  6
CONTINUOUS
 62
               7
100
AcDbLine
 10
29.43
 20
-45.060000000000002
 30
0.0
 11
31.559999999999999
 21
-42.93
 31
0.0
  0
LINE
  5
1C6
100
AcDbEntity
  8
0
  6
CONTINUOUS
 62
               7
100
AcDbLine
 10
47.43
 20
-24.93
 30
0.0
 11
49.560000000000002
 21
-27.059999999999999
 31
0.0
  0
LINE
  5
1C7
100
AcDbEntity
  8
0
  6
CONTINUOUS
 62
               7
100
AcDbLine
 10
47.43
 20
-27.059999999999999
 30
0.0
 11
49.560000000000002
 21
-24.93
 31
0.0
  0
LINE
  5
1C8
100
AcDbEntity
  8
0
  6
CONTINUOUS
 62
               7
100
AcDbLine
 10
29.43
 20
-16.93
 30
0.0
 11
31.559999999999999
 21
-19.059999999999999
 31
0.0
  0
LINE
  5
1C9
100
AcDbEntity
  8
0
  6
CONTINUOUS
 62
               7
100
AcDbLine
 10
29.43
 20
-19.059999999999999
 30
0.0
 11
31.559999999999999
 21
-16.93
 31
0.0
  0
LINE
  5
1CA
100
AcDbEntity
  8
0
  6
CONTINUOUS
 62
               7
100
AcDbLine
 10
46.93
 20
-49.93
 30
0.0
 11
49.060000000000002
 21
-52.060000000000002
 31
0.0
  0
LINE
  5
1CB
100
AcDbEntity
  8
0
  6
CONTINUOUS
 62
               7
100
AcDbLine
 10
29.93
 20
-9.9299999999999997
 30
0.0
 11
32.060000000000002
 21
-12.06
 31
0.0
  0
LINE
  5
1CC
100
AcDbEntity
  8
0
  6
CONTINUOUS
 62
               7
100
AcDbLine
 10
29.93
 20
-12.06
 30
0.0
 11
32.060000000000002
 21
-9.9299999999999997
 31
0.0
  0
LINE
  5
1CD
100
AcDbEntity
  8
0
  6
CONTINUOUS
 62
               7
100
AcDbLine
 10
46.93
 20
-52.060000000000002
 30
0.0
 11
49.060000000000002
 21
-49.93
 31
0.0
  0
LINE
  5
1CE
100
AcDbEntity
  8
0
  6
CONTINUOUS
 62
               7
100
AcDbLine
 10
28.0
 20
-4.5
 30
0.0
 11
29.5
 21
-6.0
 31
0.0
  0
LINE
  5
1CF
100
AcDbEntity
  8
0
  6
CONTINUOUS
 62
               7
100
AcDbLine
 10
51.0
 20
-4.5
 30
0.0
 11
49.5
 21
-6.0
 31
0.0
  0
LINE
  5
1D0
100
AcDbEntity
  8
0
  6
CONTINUOUS
 62
               7
100
AcDbLine
 10
49.5
 20
-56.0
 30
0.0
 11
51.0
 21
-57.5
 31
0.0
  0
LINE
  5
1D1
100
AcDbEntity
  8
0
  6
CONTINUOUS
 62
               7
100
AcDbLine
 10
28.0
 20
-57.5
 30
0.0
 11
29.5
 21
-56.0
 31
0.0
  0
LINE
  5
1D2
100
AcDbEntity
  8
0
  6
CONTINUOUS
 62
               7
100
AcDbLine
 10
49.5
 20
-53.5
 30
0.0
 11
49.5
 21
-56.0
 31
0.0
  0
LINE
  5
1D3
100
AcDbEntity
  8
0
  6
CONTINUOUS
 62
               7
100
AcDbLine
 10
49.5
 20
-29.0
 30
0.0
 11
49.5
 21
-48.5
 31
0.0
  0
LINE
  5
1D4
100
AcDbEntity
  8
0
  6
CONTINUOUS
 62
               7
100
AcDbLine
 10
29.5
 20
-13.5
 30
0.0
 11
29.5
 21
-15.0
 31
0.0
  0
LINE
  5
1D5
100
AcDbEntity
  8
0
  6
CONTINUOUS
 62
               7
100
AcDbLine
 10
29.5
 20
-21.0
 30
0.0
 11
29.5
 21
-41.0
 31
0.0
  0
LINE
  5
1D6
100
AcDbEntity
  8
0
  6
CONTINUOUS
 62
               7
100
AcDbLine
 10
29.5
 20
-47.0
 30
0.0
 11
29.5
 21
-56.0
 31
0.0
  0
LINE
  5
1D7
100
AcDbEntity
  8
0
  6
CONTINUOUS
 62
               7
100
AcDbLine
 10
29.5
 20
-56.0
 30
0.0
 11
49.5
 21
-56.0
 31
0.0
  0
LINE
  5
1D8
100
AcDbEntity
  8
0
  6
CONTINUOUS
 62
               7
100
AcDbLine
 10
29.5
 20
-6.0
 30
0.0
 11
49.5
 21
-6.0
 31
0.0
  0
LINE
  5
1D9
100
AcDbEntity
  8
0
  6
CONTINUOUS
 62
               7
100
AcDbLine
 10
28.0
 20
-4.5
 30
0.0
 11
51.0
 21
-4.5
 31
0.0
  0
LINE
  5
1DA
100
AcDbEntity
  8
0
  6
CONTINUOUS
 62
               7
100
AcDbLine
 10
28.0
 20
-57.5
 30
0.0
 11
51.0
 21
-57.5
 31
0.0
  0
LINE
  5
1DB
100
AcDbEntity
  8
0
  6
CONTINUOUS
 62
               7
100
AcDbLine
 10
49.5
 20
-6.0
 30
0.0
 11
49.5
 21
-23.0
 31
0.0
  0
LINE
  5
1DC
100
AcDbEntity
  8
0
  6
CONTINUOUS
 62
               7
100
AcDbLine
 10
29.5
 20
-6.0
 30
0.0
 11
29.5
 21
-8.5
 31
0.0
  0
LINE
  5
1DD
100
AcDbEntity
  8
0
  6
CONTINUOUS
 62
               7
100
AcDbLine
 10
30.5
 20
-21.0
 30
0.0
 11
28.0
 21
-21.0
 31
0.0
  0
LINE
  5
1DE
100
AcDbEntity
  8
0
  6
CONTINUOUS
 62
               7
100
AcDbLine
 10
30.5
 20
-15.0
 30
0.0
 11
28.0
 21
-15.0
 31
0.0
  0
LINE
  5
1DF
100
AcDbEntity
  8
0
  6
CONTINUOUS
 62
               7
100
AcDbLine
 10
31.0
 20
-13.5
 30
0.0
 11
28.0
 21
-13.5
 31
0.0
  0
LINE
  5
1E0
100
AcDbEntity
  8
0
  6
CONTINUOUS
 62
               7
100
AcDbLine
 10
31.0
 20
-8.5
 30
0.0
 11
28.0
 21
-8.5
 31
0.0
  0
LINE
  5
1E1
100
AcDbEntity
  8
0
  6
CONTINUOUS
 62
               7
100
AcDbLine
 10
48.5
 20
-23.0
 30
0.0
 11
51.0
 21
-23.0
 31
0.0
  0
LINE
  5
1E2
100
AcDbEntity
  8
0
  6
CONTINUOUS
 62
               7
100
AcDbLine
 10
48.5
 20
-29.0
 30
0.0
 11
51.0
 21
-29.0
 31
0.0
  0
LINE
  5
1E3
100
AcDbEntity
  8
0
  6
CONTINUOUS
 62
               7
100
AcDbLine
 10
48.0
 20
-48.5
 30
0.0
 11
51.0
 21
-48.5
 31
0.0
  0
LINE
  5
1E4
100
AcDbEntity
  8
0
  6
CONTINUOUS
 62
               7
100
AcDbLine
 10
48.0
 20
-53.5
 30
0.0
 11
51.0
 21
-53.5
 31
0.0
  0
LINE
  5
1E5
100
AcDbEntity
  8
0
  6
CONTINUOUS
 62
               7
100
AcDbLine
 10
30.5
 20
-47.0
 30
0.0
 11
28.0
 21
-47.0
 31
0.0
  0
LINE
  5
1E6
100
AcDbEntity
  8
0
  6
CONTINUOUS
 62
               7
100
AcDbLine
 10
30.5
 20
-41.0
 30
0.0
 11
28.0
 21
-41.0
 31
0.0
  0
LINE
  5
1E7
100
AcDbEntity
  8
0
  6
CONTINUOUS
 62
               7
100
AcDbLine
 10
25.5
 20
-71.5
 30
0.0
 11
53.5
 21
-71.5
 31
0.0
  0
LINE
  5
1E8
100
AcDbEntity
  8
0
  6
CONTINUOUS
 62
               7
100
AcDbLine
 10
28.0
 20
9.5
 30
0.0
 11
26.0
 21
7.5
 31
0.0
  0
LINE
  5
1E9
100
AcDbEntity
  8
0
  6
CONTINUOUS
 62
               7
100
AcDbLine
 10
27.0
 20
10.199999999999999
 30
0.0
 11
28.0
 21
10.199999999999999
 31
0.0
  0
LINE
  5
1EA
100
AcDbEntity
  8
0
  6
CONTINUOUS
 62
               7
100
AcDbLine
 10
27.52
 20
10.5
 30
0.0
 11
28.0
 21
10.5
 31
0.0
  0
LINE
  5
1EB
100
AcDbEntity
  8
0
  6
CONTINUOUS
 62
               7
100
AcDbLine
 10
27.0
 20
10.199999999999999
 30
0.0
 11
27.52
 21
10.5
 31
0.0
  0
LINE
  5
1EC
100
AcDbEntity
  8
0
  6
CONTINUOUS
 62
               7
100
AcDbLine
 10
27.0
 20
10.199999999999999
 30
0.0
 11
27.0
 21
8.5
 31
0.0
  0
LINE
  5
1ED
100
AcDbEntity
  8
0
  6
CONTINUOUS
 62
               7
100
AcDbLine
 10
28.0
 20
13.0
 30
0.0
 11
51.0
 21
13.0
 31
0.0
  0
LINE
  5
1EE
100
AcDbEntity
  8
0
  6
CONTINUOUS
 62
               7
100
AcDbLine
 10
53.5
 20
-71.5
 30
0.0
 11
53.5
 21
7.5
 31
0.0
  0
LINE
  5
1EF
100
AcDbEntity
  8
0
  6
CONTINUOUS
 62
               7
100
AcDbLine
 10
53.5
 20
-70.5
 30
0.0
 11
25.5
 21
-70.5
 31
0.0
  0
LINE
  5
1F0
100
AcDbEntity
  8
0
  6
CONTINUOUS
 62
               7
100
AcDbLine
 10
51.0
 20
7.5
 30
0.0
 11
53.5
 21
7.5
 31
0.0
  0
LINE
  5
1F1
100
AcDbEntity
  8
0
  6
CONTINUOUS
 62
               7
100
AcDbLine
 10
25.5
 20
-71.5
 30
0.0
 11
25.5
 21
7.5
 31
0.0
  0
LINE
  5
1F2
100
AcDbEntity
  8
0
  6
CONTINUOUS
 62
               7
100
AcDbLine
 10
25.5
 20
7.5
 30
0.0
 11
28.0
 21
7.5
 31
0.0
  0
LINE
  5
1F3
100
AcDbEntity
  8
0
  6
CONTINUOUS
 62
               7
100
AcDbLine
 10
28.0
 20
-66.5
 30
0.0
 11
51.0
 21
-66.5
 31
0.0
  0
LINE
  5
1F4
100
AcDbEntity
  8
0
  6
CENTER
 62
               2
100
AcDbLine
 10
39.5
 20
37.359999999999999
 30
0.0
 11
39.5
 21
-74.069999999999993
 31
0.0
  0
LINE
  5
1F5
100
AcDbEntity
  8
0
  6
CONTINUOUS
 62
               7
100
AcDbLine
 10
51.0
 20
13.0
 30
0.0
 11
51.0
 21
-66.5
 31
0.0
  0
LINE
  5
1F6
100
AcDbEntity
  8
0
  6
CONTINUOUS
 62
               7
100
AcDbLine
 10
28.0
 20
13.0
 30
0.0
 11
28.0
 21
-66.5
 31
0.0
  0
LINE
  5
1F7
100
AcDbEntity
  8
0
  6
CONTINUOUS
 62
               7
100
AcDbLine
 10
140.0
 20
9.5
 30
0.0
 11
138.0
 21
7.5
 31
0.0
  0
LINE
  5
1F8
100
AcDbEntity
  8
0
  6
CONTINUOUS
 62
               7
100
AcDbLine
 10
145.0
 20
9.5
 30
0.0
 11
146.0
 21
8.5
 31
0.0
  0
LINE
  5
1F9
100
AcDbEntity
  8
0
  6
CONTINUOUS
 62
               7
100
AcDbLine
 10
140.0
 20
9.5
 30
0.0
 11
145.0
 21
9.5
 31
0.0
  0
LINE
  5
1FA
100
AcDbEntity
  8
0
  6
CONTINUOUS
 62
               7
100
AcDbLine
 10
146.0
 20
10.5
 30
0.0
 11
146.0
 21
7.5
 31
0.0
  0
LINE
  5
1FB
100
AcDbEntity
  8
0
  6
CONTINUOUS
 62
               7
100
AcDbLine
 10
139.0
 20
10.5
 30
0.0
 11
146.0
 21
10.5
 31
0.0
  0
LINE
  5
1FC
100
AcDbEntity
  8
0
  6
CONTINUOUS
 62
               7
100
AcDbLine
 10
139.0
 20
10.5
 30
0.0
 11
139.0
 21
8.5
 31
0.0
  0
LINE
  5
1FD
100
AcDbEntity
  8
0
  6
CONTINUOUS
 62
               7
100
AcDbLine
 10
168.0
 20
9.5
 30
0.0
 11
166.0
 21
7.5
 31
0.0
  0
LINE
  5
1FE
100
AcDbEntity
  8
0
  6
CONTINUOUS
 62
               7
100
AcDbLine
 10
173.0
 20
9.5
 30
0.0
 11
175.0
 21
7.5
 31
0.0
  0
LINE
  5
1FF
100
AcDbEntity
  8
0
  6
CONTINUOUS
 62
               7
100
AcDbLine
 10
168.0
 20
9.5
 30
0.0
 11
173.0
 21
9.5
 31
0.0
  0
LINE
  5
200
100
AcDbEntity
  8
0
  6
CONTINUOUS
 62
               7
100
AcDbLine
 10
174.0
 20
10.5
 30
0.0
 11
174.0
 21
8.5
 31
0.0
  0
LINE
  5
201
100
AcDbEntity
  8
0
  6
CONTINUOUS
 62
               7
100
AcDbLine
 10
167.0
 20
10.5
 30
0.0
 11
174.0
 21
10.5
 31
0.0
  0
LINE
  5
202
100
AcDbEntity
  8
0
  6
CONTINUOUS
 62
               7
100
AcDbLine
 10
167.0
 20
10.5
 30
0.0
 11
167.0
 21
8.5
 31
0.0
  0
LINE
  5
203
100
AcDbEntity
  8
0
  6
CONTINUOUS
 62
               4
100
AcDbLine
 10
163.0
 20
-57.5
 30
0.0
 11
163.0
 21
-4.5
 31
0.0
  0
LINE
  5
204
100
AcDbEntity
  8
0
  6
CONTINUOUS
 62
               4
100
AcDbLine
 10
140.0
 20
-4.5
 30
0.0
 11
140.0
 21
-57.5
 31
0.0
  0
LINE
  5
205
100
AcDbEntity
  8
0
  6
CONTINUOUS
 62
               4
100
AcDbLine
 10
141.44
 20
-42.93
 30
0.0
 11
143.56
 21
-45.060000000000002
 31
0.0
  0
LINE
  5
206
100
AcDbEntity
  8
0
  6
CONTINUOUS
 62
               4
100
AcDbLine
 10
141.44
 20
-45.060000000000002
 30
0.0
 11
143.56
 21
-42.93
 31
0.0
  0
LINE
  5
207
100
AcDbEntity
  8
0
  6
CONTINUOUS
 62
               4
100
AcDbLine
 10
159.44
 20
-24.93
 30
0.0
 11
161.56
 21
-27.059999999999999
 31
0.0
  0
LINE
  5
208
100
AcDbEntity
  8
0
  6
CONTINUOUS
 62
               4
100
AcDbLine
 10
159.44
 20
-27.059999999999999
 30
0.0
 11
161.56
 21
-24.93
 31
0.0
  0
LINE
  5
209
100
AcDbEntity
  8
0
  6
CONTINUOUS
 62
               4
100
AcDbLine
 10
141.44
 20
-16.93
 30
0.0
 11
143.56
 21
-19.059999999999999
 31
0.0
  0
LINE
  5
20A
100
AcDbEntity
  8
0
  6
CONTINUOUS
 62
               4
100
AcDbLine
 10
141.44
 20
-19.059999999999999
 30
0.0
 11
143.56
 21
-16.93
 31
0.0
  0
LINE
  5
20B
100
AcDbEntity
  8
0
  6
CONTINUOUS
 62
               4
100
AcDbLine
 10
140.0
 20
-4.5
 30
0.0
 11
163.0
 21
-4.5
 31
0.0
  0
LINE
  5
20C
100
AcDbEntity
  8
0
  6
CONTINUOUS
 62
               4
100
AcDbLine
 10
140.0
 20
-57.5
 30
0.0
 11
163.0
 21
-57.5
 31
0.0
  0
LINE
  5
20D
100
AcDbEntity
  8
0
  6
CONTINUOUS
 62
               7
100
AcDbLine
 10
165.5
 20
-70.5
 30
0.0
 11
137.5
 21
-70.5
 31
0.0
  0
LINE
  5
20E
100
AcDbEntity
  8
0
  6
CONTINUOUS
 62
               7
100
AcDbLine
 10
165.5
 20
-71.5
 30
0.0
 11
165.5
 21
7.5
 31
0.0
  0
LINE
  5
20F
100
AcDbEntity
  8
0
  6
CONTINUOUS
 62
               7
100
AcDbLine
 10
137.5
 20
-71.5
 30
0.0
 11
137.5
 21
7.5
 31
0.0
  0
LINE
  5
210
100
AcDbEntity
  8
0
  6
CONTINUOUS
 62
               7
100
AcDbLine
 10
137.5
 20
7.5
 30
0.0
 11
165.5
 21
7.5
 31
0.0
  0
LINE
  5
211
100
AcDbEntity
  8
0
  6
CONTINUOUS
 62
               7
100
AcDbLine
 10
137.5
 20
-71.5
 30
0.0
 11
165.5
 21
-71.5
 31
0.0
  0
LINE
  5
212
100
AcDbEntity
  8
0
  6
CONTINUOUS
 62
               7
100
AcDbLine
 10
165.5
 20
-70.5
 30
0.0
 11
183.5
 21
-70.5
 31
0.0
  0
LINE
  5
213
100
AcDbEntity
  8
0
  6
CONTINUOUS
 62
               7
100
AcDbLine
 10
194.0
 20
-7.5
 30
0.0
 11
185.5
 21
-7.5
 31
0.0
  0
LINE
  5
214
100
AcDbEntity
  8
0
  6
CONTINUOUS
 62
               7
100
AcDbLine
 10
194.0
 20
7.5
 30
0.0
 11
183.5
 21
7.5
 31
0.0
  0
LINE
  5
215
100
AcDbEntity
  8
0
  6
CONTINUOUS
 62
               7
100
AcDbLine
 10
194.0
 20
-56.5
 30
0.0
 11
185.5
 21
-56.5
 31
0.0
  0
LINE
  5
216
100
AcDbEntity
  8
0
  6
CONTINUOUS
 62
               7
100
AcDbLine
 10
194.0
 20
-71.5
 30
0.0
 11
183.5
 21
-71.5
 31
0.0
  0
LINE
  5
217
100
AcDbEntity
  8
0
  6
CONTINUOUS
 62
               7
100
AcDbLine
 10
196.0
 20
-61.5
 30
0.0
 11
191.0
 21
-61.5
 31
0.0
  0
LINE
  5
218
100
AcDbEntity
  8
0
  6
CONTINUOUS
 62
               7
100
AcDbLine
 10
196.0
 20
-66.5
 30
0.0
 11
191.0
 21
-66.5
 31
0.0
  0
LINE
  5
219
100
AcDbEntity
  8
0
  6
CENTER
 62
               2
100
AcDbLine
 10
191.0
 20
-69.739999999999995
 30
0.0
 11
191.0
 21
-58.119999999999997
 31
0.0
  0
LINE
  5
21A
100
AcDbEntity
  8
0
  6
CONTINUOUS
 62
               7
100
AcDbLine
 10
196.0
 20
-69.5
 30
0.0
 11
196.0
 21
-66.5
 31
0.0
  0
LINE
  5
21B
100
AcDbEntity
  8
0
  6
CONTINUOUS
 62
               7
100
AcDbLine
 10
196.0
 20
-61.5
 30
0.0
 11
196.0
 21
-58.5
 31
0.0
  0
LINE
  5
21C
100
AcDbEntity
  8
0
  6
CENTER
 62
               2
100
AcDbLine
 10
195.99000000000001
 20
-64.0
 30
0.0
 11
185.21000000000001
 21
-64.0
 31
0.0
  0
LINE
  5
21D
100
AcDbEntity
  8
0
  6
CONTINUOUS
 62
               7
100
AcDbLine
 10
196.0
 20
2.5
 30
0.0
 11
191.0
 21
2.5
 31
0.0
  0
LINE
  5
21E
100
AcDbEntity
  8
0
  6
CONTINUOUS
 62
               7
100
AcDbLine
 10
196.0
 20
-2.5
 30
0.0
 11
191.0
 21
-2.5
 31
0.0
  0
LINE
  5
21F
100
AcDbEntity
  8
0
  6
CENTER
 62
               2
100
AcDbLine
 10
191.0
 20
-5.7400000000000002
 30
0.0
 11
191.0
 21
5.8700000000000001
 31
0.0
  0
LINE
  5
220
100
AcDbEntity
  8
0
  6
CONTINUOUS
 62
               7
100
AcDbLine
 10
196.0
 20
-5.5
 30
0.0
 11
196.0
 21
-2.5
 31
0.0
  0
LINE
  5
221
100
AcDbEntity
  8
0
  6
CONTINUOUS
 62
               7
100
AcDbLine
 10
196.0
 20
2.5
 30
0.0
 11
196.0
 21
5.5
 31
0.0
  0
LINE
  5
222
100
AcDbEntity
  8
0
  6
CENTER
 62
               2
100
AcDbLine
 10
195.99000000000001
 20
0.0
 30
0.0
 11
185.21000000000001
 21
0.0
 31
0.0
  0
LINE
  5
223
100
AcDbEntity
  8
0
  6
CONTINUOUS
 62
               7
100
AcDbLine
 10
183.5
 20
-71.5
 30
0.0
 11
165.5
 21
-71.5
 31
0.0
  0
LINE
  5
224
100
AcDbEntity
  8
0
  6
CONTINUOUS
 62
               7
100
AcDbLine
 10
183.5
 20
7.5
 30
0.0
 11
183.5
 21
-71.5
 31
0.0
  0
LINE
  5
225
100
AcDbEntity
  8
0
  6
CONTINUOUS
 62
               7
100
AcDbLine
 10
165.5
 20
-71.5
 30
0.0
 11
165.5
 21
7.5
 31
0.0
  0
LINE
  5
226
100
AcDbEntity
  8
0
  6
CONTINUOUS
 62
               7
100
AcDbLine
 10
183.5
 20
7.5
 30
0.0
 11
165.5
 21
7.5
 31
0.0
  0
LINE
  5
227
100
AcDbEntity
  8
0
  6
CONTINUOUS
 62
               7
100
AcDbLine
 10
7.5
 20
7.5
 30
0.0
 11
7.5
 21
-71.5
 31
0.0
  0
LINE
  5
228
100
AcDbEntity
  8
0
  6
CONTINUOUS
 62
               7
100
AcDbLine
 10
25.5
 20
7.5
 30
0.0
 11
25.5
 21
-71.5
 31
0.0
  0
LINE
  5
229
100
AcDbEntity
  8
0
  6
CONTINUOUS
 62
               7
100
AcDbLine
 10
-3.0
 20
-7.5
 30
0.0
 11
5.5
 21
-7.5
 31
0.0
  0
LINE
  5
22A
100
AcDbEntity
  8
0
  6
CONTINUOUS
 62
               7
100
AcDbLine
 10
-3.0
 20
7.5
 30
0.0
 11
25.5
 21
7.5
 31
0.0
  0
LINE
  5
22B
100
AcDbEntity
  8
0
  6
CONTINUOUS
 62
               7
100
AcDbLine
 10
-3.0
 20
-56.5
 30
0.0
 11
5.5
 21
-56.5
 31
0.0
  0
LINE
  5
22C
100
AcDbEntity
  8
0
  6
CONTINUOUS
 62
               7
100
AcDbLine
 10
-3.0
 20
-71.5
 30
0.0
 11
7.5
 21
-71.5
 31
0.0
  0
LINE
  5
22D
100
AcDbEntity
  8
0
  6
CONTINUOUS
 62
               7
100
AcDbLine
 10
-5.0
 20
-61.5
 30
0.0
 11
0.0
 21
-61.5
 31
0.0
  0
LINE
  5
22E
100
AcDbEntity
  8
0
  6
CONTINUOUS
 62
               7
100
AcDbLine
 10
-5.0
 20
-66.5
 30
0.0
 11
0.0
 21
-66.5
 31
0.0
  0
LINE
  5
22F
100
AcDbEntity
  8
0
  6
CENTER
 62
               2
100
AcDbLine
 10
0.0
 20
-69.739999999999995
 30
0.0
 11
0.0
 21
-58.119999999999997
 31
0.0
  0
LINE
  5
230
100
AcDbEntity
  8
0
  6
CONTINUOUS
 62
               7
100
AcDbLine
 10
-5.0
 20
-69.5
 30
0.0
 11
-5.0
 21
-66.5
 31
0.0
  0
LINE
  5
231
100
AcDbEntity
  8
0
  6
CONTINUOUS
 62
               7
100
AcDbLine
 10
-5.0
 20
-61.5
 30
0.0
 11
-5.0
 21
-58.5
 31
0.0
  0
LINE
  5
232
100
AcDbEntity
  8
0
  6
CENTER
 62
               2
100
AcDbLine
 10
-4.9900000000000002
 20
-64.0
 30
0.0
 11
5.7800000000000002
 21
-64.0
 31
0.0
  0
LINE
  5
233
100
AcDbEntity
  8
0
  6
CONTINUOUS
 62
               7
100
AcDbLine
 10
-5.0
 20
2.5
 30
0.0
 11
0.0
 21
2.5
 31
0.0
  0
LINE
  5
234
100
AcDbEntity
  8
0
  6
CONTINUOUS
 62
               7
100
AcDbLine
 10
-5.0
 20
-2.5
 30
0.0
 11
0.0
 21
-2.5
 31
0.0
  0
LINE
  5
235
100
AcDbEntity
  8
0
  6
CENTER
 62
               2
100
AcDbLine
 10
0.0
 20
-5.7400000000000002
 30
0.0
 11
0.0
 21
5.8700000000000001
 31
0.0
  0
LINE
  5
236
100
AcDbEntity
  8
0
  6
CONTINUOUS
 62
               7
100
AcDbLine
 10
-5.0
 20
-5.5
 30
0.0
 11
-5.0
 21
-2.5
 31
0.0
  0
LINE
  5
237
100
AcDbEntity
  8
0
  6
CONTINUOUS
 62
               7
100
AcDbLine
 10
-5.0
 20
2.5
 30
0.0
 11
-5.0
 21
5.5
 31
0.0
  0
LINE
  5
238
100
AcDbEntity
  8
0
  6
CENTER
 62
               2
100
AcDbLine
 10
-4.9900000000000002
 20
0.0
 30
0.0
 11
5.7800000000000002
 21
0.0
 31
0.0
  0
LINE
  5
239
100
AcDbEntity
  8
0
  6
CONTINUOUS
 62
               7
100
AcDbLine
 10
7.5
 20
-71.5
 30
0.0
 11
25.5
 21
-71.5
 31
0.0
  0
LINE
  5
23A
100
AcDbEntity
  8
0
  6
CONTINUOUS
 62
               7
100
AcDbLine
 10
156.90000000000001
 20
9.6999999999999993
 30
0.0
 11
156.09999999999999
 21
9.6999999999999993
 31
0.0
  0
LINE
  5
23B
100
AcDbEntity
  8
0
  6
CONTINUOUS
 62
               7
100
AcDbLine
 10
157.59999999999999
 20
8.9000000000000004
 30
0.0
 11
155.40000000000001
 21
8.9000000000000004
 31
0.0
  0
LINE
  5
23C
100
AcDbEntity
  8
0
  6
CONTINUOUS
 62
               7
100
AcDbLine
 10
157.59999999999999
 20
9.2599999999999998
 30
0.0
 11
157.59999999999999
 21
8.6999999999999993
 31
0.0
  0
LINE
  5
23D
100
AcDbEntity
  8
0
  6
CONTINUOUS
 62
               7
100
AcDbLine
 10
155.40000000000001
 20
9.2599999999999998
 30
0.0
 11
155.40000000000001
 21
8.6999999999999993
 31
0.0
  0
LINE
  5
23E
100
AcDbEntity
  8
0
  6
CONTINUOUS
 62
               7
100
AcDbLine
 10
74.0
 20
-73.5
 30
0.0
 11
72.0
 21
-71.5
 31
0.0
  0
LINE
  5
23F
100
AcDbEntity
  8
0
  6
CONTINUOUS
 62
               7
100
AcDbLine
 10
79.0
 20
-73.5
 30
0.0
 11
81.0
 21
-71.5
 31
0.0
  0
LINE
  5
240
100
AcDbEntity
  8
0
  6
CONTINUOUS
 62
               7
100
AcDbLine
 10
74.0
 20
-73.5
 30
0.0
 11
79.0
 21
-73.5
 31
0.0
  0
LINE
  5
241
100
AcDbEntity
  8
0
  6
CONTINUOUS
 62
               7
100
AcDbLine
 10
80.0
 20
-74.5
 30
0.0
 11
80.0
 21
-72.5
 31
0.0
  0
LINE
  5
242
100
AcDbEntity
  8
0
  6
CONTINUOUS
 62
               7
100
AcDbLine
 10
73.0
 20
-74.5
 30
0.0
 11
80.0
 21
-74.5
 31
0.0
  0
LINE
  5
243
100
AcDbEntity
  8
0
  6
CONTINUOUS
 62
               7
100
AcDbLine
 10
73.0
 20
-74.5
 30
0.0
 11
73.0
 21
-72.5
 31
0.0
  0
LINE
  5
244
100
AcDbEntity
  8
0
  6
CONTINUOUS
 62
               7
100
AcDbLine
 10
163.0
 20
-73.5
 30
0.0
 11
165.0
 21
-71.5
 31
0.0
  0
LINE
  5
245
100
AcDbEntity
  8
0
  6
CONTINUOUS
 62
               7
100
AcDbLine
 10
158.0
 20
-73.5
 30
0.0
 11
156.0
 21
-71.5
 31
0.0
  0
LINE
  5
246
100
AcDbEntity
  8
0
  6
CONTINUOUS
 62
               7
100
AcDbLine
 10
163.0
 20
-73.5
 30
0.0
 11
158.0
 21
-73.5
 31
0.0
  0
LINE
  5
247
100
AcDbEntity
  8
0
  6
CONTINUOUS
 62
               7
100
AcDbLine
 10
157.0
 20
-74.5
 30
0.0
 11
157.0
 21
-72.5
 31
0.0
  0
LINE
  5
248
100
AcDbEntity
  8
0
  6
CONTINUOUS
 62
               7
100
AcDbLine
 10
164.0
 20
-74.5
 30
0.0
 11
157.0
 21
-74.5
 31
0.0
  0
LINE
  5
249
100
AcDbEntity
  8
0
  6
CONTINUOUS
 62
               7
100
AcDbLine
 10
164.0
 20
-74.5
 30
0.0
 11
164.0
 21
-72.5
 31
0.0
  0
ENDBLK
  5
24A
100
AcDbEntity
  8
0
100
AcDbBlockEnd
  0
BLOCK
  5
24B
100
AcDbEntity
  8
0
100
AcDbBlockBegin
  2
MS_2
 70
               0
 10
0.0
 20
0.0
 30
0.0
  3
MS_2
  1

  0
ARC
  5
24C
100
AcDbEntity
  8
0
  6
CONTINUOUS
 62
               4
100
AcDbCircle
 10
-56.741847596150123
 20
-111.70377124312384
 30
0.0
 40
1.9962454036184629
100
AcDbArc
 50
220.49135972666321
 51
269.76601091678174
  0
ARC
  5
24D
100
AcDbEntity
  8
0
  6
CONTINUOUS
 62
               4
100
AcDbCircle
 10
-55.249886807545209
 20
-111.69996007504467
 30
0.0
 40
2.0000399281583903
100
AcDbArc
 50
269.99675733976824
 51
319.45787143361042
  0
ARC
  5
24E
100
AcDbEntity
  8
0
  6
CONTINUOUS
 62
               4
100
AcDbCircle
 10
-76.750006103506308
 20
-111.70000610350631
 30
0.0
 40
1.9999938965030029
100
AcDbArc
 50
179.99982514689015
 51
270.00017485310889
  0
ARC
  5
24F
100
AcDbEntity
  8
0
  6
CONTINUOUS
 62
               4
100
AcDbCircle
 10
-75.249993896493692
 20
-111.70000610350631
 30
0.0
 40
1.9999938965030029
100
AcDbArc
 50
269.99982514688992
 51
0.0001748531094711
  0
ARC
  5
250
100
AcDbEntity
  8
0
  6
CONTINUOUS
 62
               4
100
AcDbCircle
 10
-75.249886807545224
 20
49.699960075044686
 30
0.0
 40
2.0000399281583876
100
AcDbArc
 50
40.542128566388378
 51
90.003242660230512
  0
ARC
  5
251
100
AcDbEntity
  8
0
  6
CONTINUOUS
 62
               4
100
AcDbCircle
 10
-76.750113192454776
 20
49.699960075044686
 30
0.0
 40
2.0000399281583876
100
AcDbArc
 50
89.99675733976909
 51
139.45787143361122
  0
ARC
  5
252
100
AcDbEntity
  8
0
  6
CONTINUOUS
 62
               4
100
AcDbCircle
 10
-55.249993896493692
 20
49.700006103506311
 30
0.0
 40
1.9999938965030029
100
AcDbArc
 50
359.99982514688975
 51
90.000174853109272
  0
ARC
  5
253
100
AcDbEntity
  8
0
  6
CONTINUOUS
 62
               4
100
AcDbCircle
 10
-56.750006103506308
 20
49.700006103506311
 30
0.0
 40
1.9999938965030029
100
AcDbArc
 50
89.999825146890345
 51
180.00017485310903
  0
ARC
  5
254
100
AcDbEntity
  8
0
  6
CONTINUOUS
 62
               7
100
AcDbCircle
 10
-42.897052542345207
 20
8.9017542372420024
 30
0.0
 40
0.7982512043634638
100
AcDbArc
 50
90.211559051499393
 51
151.71595401264651
  0
ARC
  5
255
100
AcDbEntity
  8
0
  6
CONTINUOUS
 62
               7
100
AcDbCircle
 10
-42.102963514348644
 20
8.901727476085588
 30
0.0
 40
0.7982780247845844
100
AcDbArc
 50
28.285191343906376
 51
89.787295591946631
  0
ARC
  5
256
100
AcDbEntity
  8
0
  6
CONTINUOUS
 62
               4
100
AcDbCircle
 10
-54.369608539741996
 20
-46.134626332501043
 30
0.0
 40
0.6653737826531321
100
AcDbArc
 50
209.27545688270791
 51
269.96629109455523
  0
ARC
  5
257
100
AcDbEntity
  8
0
  6
CONTINUOUS
 62
               4
100
AcDbCircle
 10
-54.373895508094371
 20
-41.867850319106864
 30
0.0
 40
0.6678616800763803
100
AcDbArc
 50
89.66580289732488
 51
149.61096447897717
  0
ARC
  5
258
100
AcDbEntity
  8
0
  6
CONTINUOUS
 62
               4
100
AcDbCircle
 10
-50.60000392840314
 20
-43.995000000000005
 30
0.0
 40
4.9998690805768238
100
AcDbArc
 50
150.46119554631576
 51
209.53880445368335
  0
ARC
  5
259
100
AcDbEntity
  8
0
  6
CONTINUOUS
 62
               4
100
AcDbCircle
 10
-54.369608539741989
 20
-28.13462633250105
 30
0.0
 40
0.6653737826531339
100
AcDbArc
 50
209.27545688270706
 51
269.96629109455461
  0
ARC
  5
25A
100
AcDbEntity
  8
0
  6
CONTINUOUS
 62
               4
100
AcDbCircle
 10
-54.373895508094371
 20
-23.867850319106861
 30
0.0
 40
0.667861680076382
100
AcDbArc
 50
89.66580289732488
 51
149.61096447897742
  0
ARC
  5
25B
100
AcDbEntity
  8
0
  6
CONTINUOUS
 62
               4
100
AcDbCircle
 10
-50.60000392840314
 20
-25.995000000000001
 30
0.0
 40
4.9998690805768238
100
AcDbArc
 50
150.46119554631576
 51
209.53880445368341
  0
ARC
  5
25C
100
AcDbEntity
  8
0
  6
CONTINUOUS
 62
               4
100
AcDbCircle
 10
-54.369608539741989
 20
-20.13462633250105
 30
0.0
 40
0.6653737826531339
100
AcDbArc
 50
209.27545688270706
 51
269.96629109455461
  0
ARC
  5
25D
100
AcDbEntity
  8
0
  6
CONTINUOUS
 62
               4
100
AcDbCircle
 10
-54.373892234580993
 20
-15.867856072554613
 30
0.0
 40
0.6678674143406815
100
AcDbArc
 50
89.666086603462986
 51
149.61068077283949
  0
ARC
  5
25E
100
AcDbEntity
  8
0
  6
CONTINUOUS
 62
               4
100
AcDbCircle
 10
-50.60000392840314
 20
-17.995000000000001
 30
0.0
 40
4.9998690805768238
100
AcDbArc
 50
150.46119554631576
 51
209.53880445368341
  0
ARC
  5
25F
100
AcDbEntity
  8
0
  6
CONTINUOUS
 62
               7
100
AcDbCircle
 10
-84.701985439525572
 20
-26.996637061203757
 30
0.0
 40
1.9980173906213174
100
AcDbArc
 50
180.09643674357687
 51
241.3483851609964
  0
ARC
  5
260
100
AcDbEntity
  8
0
  6
CONTINUOUS
 62
               7
100
AcDbCircle
 10
-84.701978757241548
 20
-25.003366909982176
 30
0.0
 40
1.9980240795838509
100
AcDbArc
 50
118.65172839491854
 51
179.90344970050666
  0
ARC
  5
261
100
AcDbEntity
  8
0
  6
CONTINUOUS
 62
               7
100
AcDbCircle
 10
-85.501926900087398
 20
-51.796572453842529
 30
0.0
 40
1.6980765591455045
100
AcDbArc
 50
180.11565088818008
 51
238.86216473636404
  0
ARC
  5
262
100
AcDbEntity
  8
0
  6
CONTINUOUS
 62
               7
100
AcDbCircle
 10
-85.501933414917858
 20
-50.203423861908526
 30
0.0
 40
1.6980700368956785
100
AcDbArc
 50
121.13771139475128
 51
179.88447298070272
  0
CIRCLE
  5
263
100
AcDbEntity
  8
0
  6
CONTINUOUS
 62
               7
100
AcDbCircle
 10
-17.0
 20
-45.000015258789063
 30
0.0
 40
5.7499990463256836
  0
CIRCLE
  5
264
100
AcDbEntity
  8
0
  6
CONTINUOUS
 62
               2
100
AcDbCircle
 10
-17.0
 20
-45.000015258789063
 30
0.0
 40
6.5999994277954102
  0
ARC
  5
265
100
AcDbEntity
  8
0
  6
CONTINUOUS
 62
               7
100
AcDbCircle
 10
-46.000007629132597
 20
6.5000076291325968
 30
0.0
 40
0.9999923708965053
100
AcDbArc
 50
89.999562879565815
 51
180.00043712043356
  0
ARC
  5
266
100
AcDbEntity
  8
0
  6
CONTINUOUS
 62
               7
100
AcDbCircle
 10
-46.000030517578125
 20
-70.500030517578125
 30
0.0
 40
0.9999694828875505
100
AcDbArc
 50
179.99825141821015
 51
270.00174858178883
  0
CIRCLE
  5
267
100
AcDbEntity
  8
0
  6
CONTINUOUS
 62
               7
100
AcDbCircle
 10
-32.0
 20
-30.000015258789063
 30
0.0
 40
5.7499990463256836
  0
CIRCLE
  5
268
100
AcDbEntity
  8
0
  6
CONTINUOUS
 62
               7
100
AcDbCircle
 10
-17.0
 20
-14.000022888183594
 30
0.0
 40
5.7499990463256836
  0
CIRCLE
  5
269
100
AcDbEntity
  8
0
  6
CONTINUOUS
 62
               2
100
AcDbCircle
 10
-32.0
 20
-30.000015258789063
 30
0.0
 40
6.5999994277954102
  0
CIRCLE
  5
26A
100
AcDbEntity
  8
0
  6
CONTINUOUS
 62
               2
100
AcDbCircle
 10
-17.0
 20
-14.000022888183594
 30
0.0
 40
6.5999994277954102
  0
CIRCLE
  5
26B
100
AcDbEntity
  8
0
  6
CONTINUOUS
 62
               7
100
AcDbCircle
 10
-37.000030517578125
 20
-56.000015258789063
 30
0.0
 40
4.2999992370605469
  0
CIRCLE
  5
26C
100
AcDbEntity
  8
0
  6
CONTINUOUS
 62
               2
100
AcDbCircle
 10
-37.000030517578125
 20
-56.000015258789063
 30
0.0
 40
4.899998664855957
  0
LINE
  5
26D
100
AcDbEntity
  8
0
  6
CENTER
 62
             200
100
AcDbLine
 10
-107.55
 20
-103.0
 30
0.0
 11
-81.480000000000004
 21
-103.0
 31
0.0
  0
LINE
  5
26E
100
AcDbEntity
  8
0
  6
CONTINUOUS
 62
               4
100
AcDbLine
 10
-85.5
 20
-104.7
 30
0.0
 11
-83.5
 21
-104.7
 31
0.0
  0
LINE
  5
26F
100
AcDbEntity
  8
0
  6
CONTINUOUS
 62
               4
100
AcDbLine
 10
-85.5
 20
-104.7
 30
0.0
 11
-85.5
 21
-101.3
 31
0.0
  0
LINE
  5
270
100
AcDbEntity
  8
0
  6
CONTINUOUS
 62
               4
100
AcDbLine
 10
-85.5
 20
-101.3
 30
0.0
 11
-83.5
 21
-101.3
 31
0.0
  0
LINE
  5
271
100
AcDbEntity
  8
0
  6
CONTINUOUS
 62
               4
100
AcDbLine
 10
-89.489999999999995
 20
-103.84999999999999
 30
0.0
 11
-85.5
 21
-103.84999999999999
 31
0.0
  0
LINE
  5
272
100
AcDbEntity
  8
0
  6
CONTINUOUS
 62
               4
100
AcDbLine
 10
-89.950000000000003
 20
-102.15000000000001
 30
0.0
 11
-85.5
 21
-102.15000000000001
 31
0.0
  0
LINE
  5
273
100
AcDbEntity
  8
0
  6
CONTINUOUS
 62
             200
100
AcDbLine
 10
-90.480000000000004
 20
-100.15000000000001
 30
0.0
 11
-88.959999999999994
 21
-105.84999999999999
 31
0.0
  0
LINE
  5
274
100
AcDbEntity
  8
0
  6
CONTINUOUS
 62
             200
100
AcDbLine
 10
-92.040000000000006
 20
-100.15000000000001
 30
0.0
 11
-90.510000000000005
 21
-105.84999999999999
 31
0.0
  0
LINE
  5
275
100
AcDbEntity
  8
0
  6
CONTINUOUS
 62
               4
100
AcDbLine
 10
-105.5
 20
-103.31999999999999
 30
0.0
 11
-105.5
 21
-102.68000000000001
 31
0.0
  0
LINE
  5
276
100
AcDbEntity
  8
0
  6
CONTINUOUS
 62
               4
100
AcDbLine
 10
-95.5
 20
-103.84999999999999
 30
0.0
 11
-95.5
 21
-102.15000000000001
 31
0.0
  0
LINE
  5
277
100
AcDbEntity
  8
0
  6
CONTINUOUS
 62
               4
100
AcDbLine
 10
-105.5
 20
-103.31999999999999
 30
0.0
 11
-95.5
 21
-103.31999999999999
 31
0.0
  0
LINE
  5
278
100
AcDbEntity
  8
0
  6
CONTINUOUS
 62
               4
100
AcDbLine
 10
-105.5
 20
-102.68000000000001
 30
0.0
 11
-95.5
 21
-102.68000000000001
 31
0.0
  0
LINE
  5
279
100
AcDbEntity
  8
0
  6
CONTINUOUS
 62
               4
100
AcDbLine
 10
-95.5
 20
-103.84999999999999
 30
0.0
 11
-91.040000000000006
 21
-103.84999999999999
 31
0.0
  0
LINE
  5
27A
100
AcDbEntity
  8
0
  6
CONTINUOUS
 62
               4
100
AcDbLine
 10
-95.5
 20
-102.15000000000001
 30
0.0
 11
-91.5
 21
-102.15000000000001
 31
0.0
  0
LINE
  5
27B
100
AcDbEntity
  8
0
  6
CONTINUOUS
 62
               7
100
AcDbLine
 10
-48.5
 20
-90.0
 30
0.0
 11
-83.5
 21
-90.0
 31
0.0
  0
LINE
  5
27C
100
AcDbEntity
  8
0
  6
CENTER
 62
             200
100
AcDbLine
 10
-107.55
 20
-88.0
 30
0.0
 11
-81.480000000000004
 21
-88.0
 31
0.0
  0
LINE
  5
27D
100
AcDbEntity
  8
0
  6
CONTINUOUS
 62
               4
100
AcDbLine
 10
-80.0
 20
-113.0
 30
0.0
 11
-80.0
 21
-111.0
 31
0.0
  0
LINE
  5
27E
100
AcDbEntity
  8
0
  6
CONTINUOUS
 62
               4
100
AcDbLine
 10
-85.5
 20
-89.700000000000003
 30
0.0
 11
-83.5
 21
-89.700000000000003
 31
0.0
  0
LINE
  5
27F
100
AcDbEntity
  8
0
  6
CONTINUOUS
 62
               4
100
AcDbLine
 10
-85.5
 20
-89.700000000000003
 30
0.0
 11
-85.5
 21
-86.299999999999997
 31
0.0
  0
LINE
  5
280
100
AcDbEntity
  8
0
  6
CONTINUOUS
 62
               4
100
AcDbLine
 10
-85.5
 20
-86.299999999999997
 30
0.0
 11
-83.5
 21
-86.299999999999997
 31
0.0
  0
LINE
  5
281
100
AcDbEntity
  8
0
  6
CONTINUOUS
 62
               4
100
AcDbLine
 10
-89.489999999999995
 20
-88.849999999999994
 30
0.0
 11
-85.5
 21
-88.849999999999994
 31
0.0
  0
LINE
  5
282
100
AcDbEntity
  8
0
  6
CONTINUOUS
 62
               4
100
AcDbLine
 10
-89.950000000000003
 20
-87.150000000000006
 30
0.0
 11
-85.5
 21
-87.150000000000006
 31
0.0
  0
LINE
  5
283
100
AcDbEntity
  8
0
  6
CONTINUOUS
 62
             200
100
AcDbLine
 10
-90.480000000000004
 20
-85.150000000000006
 30
0.0
 11
-88.959999999999994
 21
-90.849999999999994
 31
0.0
  0
LINE
  5
284
100
AcDbEntity
  8
0
  6
CONTINUOUS
 62
             200
100
AcDbLine
 10
-92.040000000000006
 20
-85.150000000000006
 30
0.0
 11
-90.510000000000005
 21
-90.849999999999994
 31
0.0
  0
LINE
  5
285
100
AcDbEntity
  8
0
  6
CONTINUOUS
 62
               4
100
AcDbLine
 10
-105.5
 20
-88.319999999999993
 30
0.0
 11
-105.5
 21
-87.680000000000007
 31
0.0
  0
LINE
  5
286
100
AcDbEntity
  8
0
  6
CONTINUOUS
 62
               4
100
AcDbLine
 10
-95.5
 20
-88.849999999999994
 30
0.0
 11
-95.5
 21
-87.150000000000006
 31
0.0
  0
LINE
  5
287
100
AcDbEntity
  8
0
  6
CONTINUOUS
 62
               4
100
AcDbLine
 10
-105.5
 20
-88.319999999999993
 30
0.0
 11
-95.5
 21
-88.319999999999993
 31
0.0
  0
LINE
  5
288
100
AcDbEntity
  8
0
  6
CONTINUOUS
 62
               4
100
AcDbLine
 10
-105.5
 20
-87.680000000000007
 30
0.0
 11
-95.5
 21
-87.680000000000007
 31
0.0
  0
LINE
  5
289
100
AcDbEntity
  8
0
  6
CONTINUOUS
 62
               4
100
AcDbLine
 10
-95.5
 20
-88.849999999999994
 30
0.0
 11
-91.040000000000006
 21
-88.849999999999994
 31
0.0
  0
LINE
  5
28A
100
AcDbEntity
  8
0
  6
CONTINUOUS
 62
               4
100
AcDbLine
 10
-95.5
 20
-87.150000000000006
 30
0.0
 11
-91.5
 21
-87.150000000000006
 31
0.0
  0
LINE
  5
28B
100
AcDbEntity
  8
0
  6
CONTINUOUS
 62
               4
100
AcDbLine
 10
-78.269999999999996
 20
-113.0
 30
0.0
 11
-82.5
 21
-113.0
 31
0.0
  0
LINE
  5
28C
100
AcDbEntity
  8
0
  6
CONTINUOUS
 62
               4
100
AcDbLine
 10
-49.5
 20
-113.0
 30
0.0
 11
-73.730000000000004
 21
-113.0
 31
0.0
  0
LINE
  5
28D
100
AcDbEntity
  8
0
  6
CONTINUOUS
 62
               4
100
AcDbLine
 10
-55.25
 20
-113.7
 30
0.0
 11
-56.75
 21
-113.7
 31
0.0
  0
LINE
  5
28E
100
AcDbEntity
  8
0
  6
CONTINUOUS
 62
               4
100
AcDbLine
 10
-75.25
 20
-113.7
 30
0.0
 11
-76.75
 21
-113.7
 31
0.0
  0
LINE
  5
28F
100
AcDbEntity
  8
0
  6
CONTINUOUS
 62
               4
100
AcDbLine
 10
-73.25
 20
-111.7
 30
0.0
 11
-73.25
 21
-111.0
 31
0.0
  0
LINE
  5
290
100
AcDbEntity
  8
0
  6
CONTINUOUS
 62
               4
100
AcDbLine
 10
-78.75
 20
-111.7
 30
0.0
 11
-78.75
 21
-111.0
 31
0.0
  0
LINE
  5
291
100
AcDbEntity
  8
0
  6
CONTINUOUS
 62
               4
100
AcDbLine
 10
-73.25
 20
-111.7
 30
0.0
 11
-78.75
 21
-111.7
 31
0.0
  0
LINE
  5
292
100
AcDbEntity
  8
0
  6
CONTINUOUS
 62
               4
100
AcDbLine
 10
-82.5
 20
-113.0
 30
0.0
 11
-83.5
 21
-111.0
 31
0.0
  0
LINE
  5
293
100
AcDbEntity
  8
0
  6
CONTINUOUS
 62
               4
100
AcDbLine
 10
-72.0
 20
-113.0
 30
0.0
 11
-72.0
 21
-111.0
 31
0.0
  0
LINE
  5
294
100
AcDbEntity
  8
0
  6
CONTINUOUS
 62
               4
100
AcDbLine
 10
-48.5
 20
-111.0
 30
0.0
 11
-49.5
 21
-113.0
 31
0.0
  0
LINE
  5
295
100
AcDbEntity
  8
0
  6
CONTINUOUS
 62
               4
100
AcDbLine
 10
-48.5
 20
-111.0
 30
0.0
 11
-48.5
 21
-110.0
 31
0.0
  0
LINE
  5
296
100
AcDbEntity
  8
0
  6
CONTINUOUS
 62
               4
100
AcDbLine
 10
-48.5
 20
-111.0
 30
0.0
 11
-83.5
 21
-111.0
 31
0.0
  0
LINE
  5
297
100
AcDbEntity
  8
0
  6
CONTINUOUS
 62
               4
100
AcDbLine
 10
-48.5
 20
-110.0
 30
0.0
 11
-48.5
 21
-90.0
 31
0.0
  0
LINE
  5
298
100
AcDbEntity
  8
0
  6
CONTINUOUS
 62
               4
100
AcDbLine
 10
-48.5
 20
-110.0
 30
0.0
 11
-83.5
 21
-110.0
 31
0.0
  0
LINE
  5
299
100
AcDbEntity
  8
0
  6
CONTINUOUS
 62
               4
100
AcDbLine
 10
-83.5
 20
-111.0
 30
0.0
 11
-83.5
 21
-90.0
 31
0.0
  0
LINE
  5
29A
100
AcDbEntity
  8
0
  6
CONTINUOUS
 62
               7
100
AcDbLine
 10
-48.5
 20
28.0
 30
0.0
 11
-83.5
 21
28.0
 31
0.0
  0
LINE
  5
29B
100
AcDbEntity
  8
0
  6
CONTINUOUS
 62
             200
100
AcDbLine
 10
-92.040000000000006
 20
23.149999999999999
 30
0.0
 11
-90.510000000000005
 21
28.850000000000001
 31
0.0
  0
LINE
  5
29C
100
AcDbEntity
  8
0
  6
CONTINUOUS
 62
             200
100
AcDbLine
 10
-92.040000000000006
 20
38.149999999999999
 30
0.0
 11
-90.510000000000005
 21
43.850000000000001
 31
0.0
  0
LINE
  5
29D
100
AcDbEntity
  8
0
  6
CONTINUOUS
 62
             200
100
AcDbLine
 10
-90.480000000000004
 20
38.149999999999999
 30
0.0
 11
-88.959999999999994
 21
43.850000000000001
 31
0.0
  0
LINE
  5
29E
100
AcDbEntity
  8
0
  6
CENTER
 62
             200
100
AcDbLine
 10
-107.55
 20
41.0
 30
0.0
 11
-81.480000000000004
 21
41.0
 31
0.0
  0
LINE
  5
29F
100
AcDbEntity
  8
0
  6
CENTER
 62
             200
100
AcDbLine
 10
-107.55
 20
26.0
 30
0.0
 11
-81.480000000000004
 21
26.0
 31
0.0
  0
LINE
  5
2A0
100
AcDbEntity
  8
0
  6
CONTINUOUS
 62
             200
100
AcDbLine
 10
-90.480000000000004
 20
23.149999999999999
 30
0.0
 11
-88.959999999999994
 21
28.850000000000001
 31
0.0
  0
LINE
  5
2A1
100
AcDbEntity
  8
0
  6
CONTINUOUS
 62
               4
100
AcDbLine
 10
-85.5
 20
42.700000000000003
 30
0.0
 11
-83.5
 21
42.700000000000003
 31
0.0
  0
LINE
  5
2A2
100
AcDbEntity
  8
0
  6
CONTINUOUS
 62
               4
100
AcDbLine
 10
-85.5
 20
42.700000000000003
 30
0.0
 11
-85.5
 21
39.299999999999997
 31
0.0
  0
LINE
  5
2A3
100
AcDbEntity
  8
0
  6
CONTINUOUS
 62
               4
100
AcDbLine
 10
-85.5
 20
39.299999999999997
 30
0.0
 11
-83.5
 21
39.299999999999997
 31
0.0
  0
LINE
  5
2A4
100
AcDbEntity
  8
0
  6
CONTINUOUS
 62
               4
100
AcDbLine
 10
-89.489999999999995
 20
41.850000000000001
 30
0.0
 11
-85.5
 21
41.850000000000001
 31
0.0
  0
LINE
  5
2A5
100
AcDbEntity
  8
0
  6
CONTINUOUS
 62
               4
100
AcDbLine
 10
-89.950000000000003
 20
40.149999999999999
 30
0.0
 11
-85.5
 21
40.149999999999999
 31
0.0
  0
LINE
  5
2A6
100
AcDbEntity
  8
0
  6
CONTINUOUS
 62
               4
100
AcDbLine
 10
-105.5
 20
41.32
 30
0.0
 11
-105.5
 21
40.68
 31
0.0
  0
LINE
  5
2A7
100
AcDbEntity
  8
0
  6
CONTINUOUS
 62
               4
100
AcDbLine
 10
-95.5
 20
41.850000000000001
 30
0.0
 11
-95.5
 21
40.149999999999999
 31
0.0
  0
LINE
  5
2A8
100
AcDbEntity
  8
0
  6
CONTINUOUS
 62
               4
100
AcDbLine
 10
-105.5
 20
41.32
 30
0.0
 11
-95.5
 21
41.32
 31
0.0
  0
LINE
  5
2A9
100
AcDbEntity
  8
0
  6
CONTINUOUS
 62
               4
100
AcDbLine
 10
-105.5
 20
40.68
 30
0.0
 11
-95.5
 21
40.68
 31
0.0
  0
LINE
  5
2AA
100
AcDbEntity
  8
0
  6
CONTINUOUS
 62
               4
100
AcDbLine
 10
-95.5
 20
41.850000000000001
 30
0.0
 11
-91.040000000000006
 21
41.850000000000001
 31
0.0
  0
LINE
  5
2AB
100
AcDbEntity
  8
0
  6
CONTINUOUS
 62
               4
100
AcDbLine
 10
-95.5
 20
40.149999999999999
 30
0.0
 11
-91.5
 21
40.149999999999999
 31
0.0
  0
LINE
  5
2AC
100
AcDbEntity
  8
0
  6
CONTINUOUS
 62
               4
100
AcDbLine
 10
-52.0
 20
51.0
 30
0.0
 11
-52.0
 21
49.0
 31
0.0
  0
LINE
  5
2AD
100
AcDbEntity
  8
0
  6
CONTINUOUS
 62
               4
100
AcDbLine
 10
-85.5
 20
27.699999999999999
 30
0.0
 11
-83.5
 21
27.699999999999999
 31
0.0
  0
LINE
  5
2AE
100
AcDbEntity
  8
0
  6
CONTINUOUS
 62
               4
100
AcDbLine
 10
-85.5
 20
27.699999999999999
 30
0.0
 11
-85.5
 21
24.300000000000001
 31
0.0
  0
LINE
  5
2AF
100
AcDbEntity
  8
0
  6
CONTINUOUS
 62
               4
100
AcDbLine
 10
-85.5
 20
24.300000000000001
 30
0.0
 11
-83.5
 21
24.300000000000001
 31
0.0
  0
LINE
  5
2B0
100
AcDbEntity
  8
0
  6
CONTINUOUS
 62
               4
100
AcDbLine
 10
-89.489999999999995
 20
26.850000000000001
 30
0.0
 11
-85.5
 21
26.850000000000001
 31
0.0
  0
LINE
  5
2B1
100
AcDbEntity
  8
0
  6
CONTINUOUS
 62
               4
100
AcDbLine
 10
-89.950000000000003
 20
25.149999999999999
 30
0.0
 11
-85.5
 21
25.149999999999999
 31
0.0
  0
LINE
  5
2B2
100
AcDbEntity
  8
0
  6
CONTINUOUS
 62
               4
100
AcDbLine
 10
-105.5
 20
26.32
 30
0.0
 11
-105.5
 21
25.68
 31
0.0
  0
LINE
  5
2B3
100
AcDbEntity
  8
0
  6
CONTINUOUS
 62
               4
100
AcDbLine
 10
-95.5
 20
26.850000000000001
 30
0.0
 11
-95.5
 21
25.149999999999999
 31
0.0
  0
LINE
  5
2B4
100
AcDbEntity
  8
0
  6
CONTINUOUS
 62
               4
100
AcDbLine
 10
-105.5
 20
26.32
 30
0.0
 11
-95.5
 21
26.32
 31
0.0
  0
LINE
  5
2B5
100
AcDbEntity
  8
0
  6
CONTINUOUS
 62
               4
100
AcDbLine
 10
-105.5
 20
25.68
 30
0.0
 11
-95.5
 21
25.68
 31
0.0
  0
LINE
  5
2B6
100
AcDbEntity
  8
0
  6
CONTINUOUS
 62
               4
100
AcDbLine
 10
-95.5
 20
26.850000000000001
 30
0.0
 11
-91.040000000000006
 21
26.850000000000001
 31
0.0
  0
LINE
  5
2B7
100
AcDbEntity
  8
0
  6
CONTINUOUS
 62
               4
100
AcDbLine
 10
-95.5
 20
25.149999999999999
 30
0.0
 11
-91.5
 21
25.149999999999999
 31
0.0
  0
LINE
  5
2B8
100
AcDbEntity
  8
0
  6
CONTINUOUS
 62
               4
100
AcDbLine
 10
-58.270000000000003
 20
51.0
 30
0.0
 11
-82.5
 21
51.0
 31
0.0
  0
LINE
  5
2B9
100
AcDbEntity
  8
0
  6
CONTINUOUS
 62
               4
100
AcDbLine
 10
-49.5
 20
51.0
 30
0.0
 11
-53.729999999999997
 21
51.0
 31
0.0
  0
LINE
  5
2BA
100
AcDbEntity
  8
0
  6
CONTINUOUS
 62
               4
100
AcDbLine
 10
-76.75
 20
51.700000000000003
 30
0.0
 11
-75.25
 21
51.700000000000003
 31
0.0
  0
LINE
  5
2BB
100
AcDbEntity
  8
0
  6
CONTINUOUS
 62
               4
100
AcDbLine
 10
-56.75
 20
51.700000000000003
 30
0.0
 11
-55.25
 21
51.700000000000003
 31
0.0
  0
LINE
  5
2BC
100
AcDbEntity
  8
0
  6
CONTINUOUS
 62
               4
100
AcDbLine
 10
-58.75
 20
49.700000000000003
 30
0.0
 11
-58.75
 21
49.0
 31
0.0
  0
LINE
  5
2BD
100
AcDbEntity
  8
0
  6
CONTINUOUS
 62
               4
100
AcDbLine
 10
-53.25
 20
49.700000000000003
 30
0.0
 11
-53.25
 21
49.0
 31
0.0
  0
LINE
  5
2BE
100
AcDbEntity
  8
0
  6
CONTINUOUS
 62
               4
100
AcDbLine
 10
-58.75
 20
49.700000000000003
 30
0.0
 11
-53.25
 21
49.700000000000003
 31
0.0
  0
LINE
  5
2BF
100
AcDbEntity
  8
0
  6
CONTINUOUS
 62
               4
100
AcDbLine
 10
-82.5
 20
51.0
 30
0.0
 11
-83.5
 21
49.0
 31
0.0
  0
LINE
  5
2C0
100
AcDbEntity
  8
0
  6
CONTINUOUS
 62
               4
100
AcDbLine
 10
-60.0
 20
51.0
 30
0.0
 11
-60.0
 21
49.0
 31
0.0
  0
LINE
  5
2C1
100
AcDbEntity
  8
0
  6
CONTINUOUS
 62
               4
100
AcDbLine
 10
-48.5
 20
49.0
 30
0.0
 11
-49.5
 21
51.0
 31
0.0
  0
LINE
  5
2C2
100
AcDbEntity
  8
0
  6
CONTINUOUS
 62
               4
100
AcDbLine
 10
-48.5
 20
49.0
 30
0.0
 11
-48.5
 21
48.0
 31
0.0
  0
LINE
  5
2C3
100
AcDbEntity
  8
0
  6
CONTINUOUS
 62
               4
100
AcDbLine
 10
-48.5
 20
49.0
 30
0.0
 11
-83.5
 21
49.0
 31
0.0
  0
LINE
  5
2C4
100
AcDbEntity
  8
0
  6
CONTINUOUS
 62
               4
100
AcDbLine
 10
-48.5
 20
48.0
 30
0.0
 11
-48.5
 21
28.0
 31
0.0
  0
LINE
  5
2C5
100
AcDbEntity
  8
0
  6
CONTINUOUS
 62
               4
100
AcDbLine
 10
-48.5
 20
48.0
 30
0.0
 11
-83.5
 21
48.0
 31
0.0
  0
LINE
  5
2C6
100
AcDbEntity
  8
0
  6
CONTINUOUS
 62
               4
100
AcDbLine
 10
-83.5
 20
49.0
 30
0.0
 11
-83.5
 21
28.0
 31
0.0
  0
LINE
  5
2C7
100
AcDbEntity
  8
0
  6
CONTINUOUS
 62
               7
100
AcDbLine
 10
-47.5
 20
-57.5
 30
0.0
 11
-47.0
 21
-57.5
 31
0.0
  0
LINE
  5
2C8
100
AcDbEntity
  8
0
  6
CONTINUOUS
 62
               7
100
AcDbLine
 10
-47.5
 20
-4.5
 30
0.0
 11
-47.0
 21
-4.5
 31
0.0
  0
LINE
  5
2C9
100
AcDbEntity
  8
0
  6
CONTINUOUS
 62
               7
100
AcDbLine
 10
-47.5
 20
-4.5
 30
0.0
 11
-47.5
 21
-57.5
 31
0.0
  0
LINE
  5
2CA
100
AcDbEntity
  8
0
  6
CONTINUOUS
 62
               7
100
AcDbLine
 10
-43.600000000000001
 20
8.9000000000000004
 30
0.0
 11
-43.600000000000001
 21
8.6999999999999993
 31
0.0
  0
LINE
  5
2CB
100
AcDbEntity
  8
0
  6
CONTINUOUS
 62
               7
100
AcDbLine
 10
-41.399999999999999
 20
8.9000000000000004
 30
0.0
 11
-41.399999999999999
 21
8.6999999999999993
 31
0.0
  0
LINE
  5
2CC
100
AcDbEntity
  8
0
  6
CONTINUOUS
 62
               7
100
AcDbLine
 10
-42.100000000000001
 20
9.6999999999999993
 30
0.0
 11
-42.899999999999999
 21
9.6999999999999993
 31
0.0
  0
LINE
  5
2CD
100
AcDbEntity
  8
0
  6
CONTINUOUS
 62
               7
100
AcDbLine
 10
-41.399999999999999
 20
8.9000000000000004
 30
0.0
 11
-43.600000000000001
 21
8.9000000000000004
 31
0.0
  0
LINE
  5
2CE
100
AcDbEntity
  8
0
  6
CONTINUOUS
 62
               7
100
AcDbLine
 10
-41.399999999999999
 20
9.2599999999999998
 30
0.0
 11
-41.399999999999999
 21
8.9000000000000004
 31
0.0
  0
LINE
  5
2CF
100
AcDbEntity
  8
0
  6
CONTINUOUS
 62
               7
100
AcDbLine
 10
-43.600000000000001
 20
9.2599999999999998
 30
0.0
 11
-43.600000000000001
 21
8.9000000000000004
 31
0.0
  0
LINE
  5
2D0
100
AcDbEntity
  8
0
  6
CONTINUOUS
 62
               7
100
AcDbLine
 10
-87.0
 20
-52.600000000000001
 30
0.0
 11
-87.0
 21
-56.0
 31
0.0
  0
LINE
  5
2D1
100
AcDbEntity
  8
0
  6
CONTINUOUS
 62
               7
100
AcDbLine
 10
-45.5
 20
8.6999999999999993
 30
0.0
 11
-45.5
 21
7.5
 31
0.0
  0
LINE
  5
2D2
100
AcDbEntity
  8
0
  6
CONTINUOUS
 62
               4
100
AcDbLine
 10
-52.5
 20
-41.049999999999997
 30
0.0
 11
-53.200000000000003
 21
-41.049999999999997
 31
0.0
  0
LINE
  5
2D3
100
AcDbEntity
  8
0
  6
CONTINUOUS
 62
               4
100
AcDbLine
 10
-53.200000000000003
 20
-46.950000000000003
 30
0.0
 11
-53.200000000000003
 21
-41.049999999999997
 31
0.0
  0
LINE
  5
2D4
100
AcDbEntity
  8
0
  6
CONTINUOUS
 62
               4
100
AcDbLine
 10
-52.5
 20
-46.950000000000003
 30
0.0
 11
-53.200000000000003
 21
-46.950000000000003
 31
0.0
  0
LINE
  5
2D5
100
AcDbEntity
  8
0
  6
CONTINUOUS
 62
               4
100
AcDbLine
 10
-53.200000000000003
 20
-41.200000000000003
 30
0.0
 11
-53.200000000000003
 21
-46.799999999999997
 31
0.0
  0
LINE
  5
2D6
100
AcDbEntity
  8
0
  6
CONTINUOUS
 62
               4
100
AcDbLine
 10
-54.369999999999997
 20
-46.799999999999997
 30
0.0
 11
-53.200000000000003
 21
-46.799999999999997
 31
0.0
  0
LINE
  5
2D7
100
AcDbEntity
  8
0
  6
CONTINUOUS
 62
               4
100
AcDbLine
 10
-54.369999999999997
 20
-41.200000000000003
 30
0.0
 11
-53.200000000000003
 21
-41.200000000000003
 31
0.0
  0
LINE
  5
2D8
100
AcDbEntity
  8
0
  6
CONTINUOUS
 62
               4
100
AcDbLine
 10
-52.5
 20
-23.050000000000001
 30
0.0
 11
-53.200000000000003
 21
-23.050000000000001
 31
0.0
  0
LINE
  5
2D9
100
AcDbEntity
  8
0
  6
CONTINUOUS
 62
               4
100
AcDbLine
 10
-53.200000000000003
 20
-28.949999999999999
 30
0.0
 11
-53.200000000000003
 21
-23.050000000000001
 31
0.0
  0
LINE
  5
2DA
100
AcDbEntity
  8
0
  6
CONTINUOUS
 62
               4
100
AcDbLine
 10
-52.5
 20
-28.949999999999999
 30
0.0
 11
-53.200000000000003
 21
-28.949999999999999
 31
0.0
  0
LINE
  5
2DB
100
AcDbEntity
  8
0
  6
CONTINUOUS
 62
               4
100
AcDbLine
 10
-53.200000000000003
 20
-23.199999999999999
 30
0.0
 11
-53.200000000000003
 21
-28.800000000000001
 31
0.0
  0
LINE
  5
2DC
100
AcDbEntity
  8
0
  6
CONTINUOUS
 62
               4
100
AcDbLine
 10
-54.369999999999997
 20
-28.800000000000001
 30
0.0
 11
-53.200000000000003
 21
-28.800000000000001
 31
0.0
  0
LINE
  5
2DD
100
AcDbEntity
  8
0
  6
CONTINUOUS
 62
               4
100
AcDbLine
 10
-54.369999999999997
 20
-23.199999999999999
 30
0.0
 11
-53.200000000000003
 21
-23.199999999999999
 31
0.0
  0
LINE
  5
2DE
100
AcDbEntity
  8
0
  6
CONTINUOUS
 62
               4
100
AcDbLine
 10
-52.5
 20
-15.050000000000001
 30
0.0
 11
-53.200000000000003
 21
-15.050000000000001
 31
0.0
  0
LINE
  5
2DF
100
AcDbEntity
  8
0
  6
CONTINUOUS
 62
               4
100
AcDbLine
 10
-53.200000000000003
 20
-20.949999999999999
 30
0.0
 11
-53.200000000000003
 21
-15.050000000000001
 31
0.0
  0
LINE
  5
2E0
100
AcDbEntity
  8
0
  6
CONTINUOUS
 62
               4
100
AcDbLine
 10
-52.5
 20
-20.949999999999999
 30
0.0
 11
-53.200000000000003
 21
-20.949999999999999
 31
0.0
  0
LINE
  5
2E1
100
AcDbEntity
  8
0
  6
CONTINUOUS
 62
               4
100
AcDbLine
 10
-53.200000000000003
 20
-15.199999999999999
 30
0.0
 11
-53.200000000000003
 21
-20.800000000000001
 31
0.0
  0
LINE
  5
2E2
100
AcDbEntity
  8
0
  6
CONTINUOUS
 62
               4
100
AcDbLine
 10
-54.369999999999997
 20
-20.800000000000001
 30
0.0
 11
-53.200000000000003
 21
-20.800000000000001
 31
0.0
  0
LINE
  5
2E3
100
AcDbEntity
  8
0
  6
CONTINUOUS
 62
               4
100
AcDbLine
 10
-54.369999999999997
 20
-15.199999999999999
 30
0.0
 11
-53.200000000000003
 21
-15.199999999999999
 31
0.0
  0
LINE
  5
2E4
100
AcDbEntity
  8
0
  6
CONTINUOUS
 62
               4
100
AcDbLine
 10
-52.5
 20
-4.5
 30
0.0
 11
-52.5
 21
-57.5
 31
0.0
  0
LINE
  5
2E5
100
AcDbEntity
  8
0
  6
CONTINUOUS
 62
               4
100
AcDbLine
 10
-52.5
 20
-57.5
 30
0.0
 11
-48.5
 21
-57.5
 31
0.0
  0
LINE
  5
2E6
100
AcDbEntity
  8
0
  6
CONTINUOUS
 62
               4
100
AcDbLine
 10
-52.5
 20
-4.5
 30
0.0
 11
-48.5
 21
-4.5
 31
0.0
  0
LINE
  5
2E7
100
AcDbEntity
  8
0
  6
CONTINUOUS
 62
               7
100
AcDbLine
 10
-48.5
 20
28.0
 30
0.0
 11
-48.5
 21
-90.0
 31
0.0
  0
LINE
  5
2E8
100
AcDbEntity
  8
0
  6
CONTINUOUS
 62
               7
100
AcDbLine
 10
-48.5
 20
-57.5
 30
0.0
 11
-47.5
 21
-57.5
 31
0.0
  0
LINE
  5
2E9
100
AcDbEntity
  8
0
  6
CONTINUOUS
 62
               7
100
AcDbLine
 10
-48.5
 20
-4.5
 30
0.0
 11
-47.5
 21
-4.5
 31
0.0
  0
LINE
  5
2EA
100
AcDbEntity
  8
0
  6
CENTER
 62
               2
100
AcDbLine
 10
2.4900000000000002
 20
-64.0
 30
0.0
 11
-8.2799999999999994
 21
-64.0
 31
0.0
  0
LINE
  5
2EB
100
AcDbEntity
  8
0
  6
CENTER
 62
               2
100
AcDbLine
 10
2.4900000000000002
 20
0.0
 30
0.0
 11
-8.2799999999999994
 21
0.0
 31
0.0
  0
LINE
  5
2EC
100
AcDbEntity
  8
0
  6
CONTINUOUS
 62
               7
100
AcDbLine
 10
-45.5
 20
8.6999999999999993
 30
0.0
 11
-28.0
 21
8.6999999999999993
 31
0.0
  0
LINE
  5
2ED
100
AcDbEntity
  8
0
  6
CONTINUOUS
 62
               7
100
AcDbLine
 10
-23.5
 20
-73.5
 30
0.0
 11
-21.5
 21
-71.5
 31
0.0
  0
LINE
  5
2EE
100
AcDbEntity
  8
0
  6
CONTINUOUS
 62
               7
100
AcDbLine
 10
-28.5
 20
-73.5
 30
0.0
 11
-30.5
 21
-71.5
 31
0.0
  0
LINE
  5
2EF
100
AcDbEntity
  8
0
  6
CONTINUOUS
 62
               7
100
AcDbLine
 10
-23.5
 20
-73.5
 30
0.0
 11
-28.5
 21
-73.5
 31
0.0
  0
LINE
  5
2F0
100
AcDbEntity
  8
0
  6
CONTINUOUS
 62
               7
100
AcDbLine
 10
-29.5
 20
-74.5
 30
0.0
 11
-29.5
 21
-72.5
 31
0.0
  0
LINE
  5
2F1
100
AcDbEntity
  8
0
  6
CONTINUOUS
 62
               7
100
AcDbLine
 10
-22.5
 20
-74.5
 30
0.0
 11
-29.5
 21
-74.5
 31
0.0
  0
LINE
  5
2F2
100
AcDbEntity
  8
0
  6
CONTINUOUS
 62
               7
100
AcDbLine
 10
-22.5
 20
-74.5
 30
0.0
 11
-22.5
 21
-72.5
 31
0.0
  0
LINE
  5
2F3
100
AcDbEntity
  8
0
  6
CONTINUOUS
 62
               7
100
AcDbLine
 10
-22.0
 20
9.5
 30
0.0
 11
-20.0
 21
7.5
 31
0.0
  0
LINE
  5
2F4
100
AcDbEntity
  8
0
  6
CONTINUOUS
 62
               7
100
AcDbLine
 10
-27.0
 20
9.5
 30
0.0
 11
-29.0
 21
7.5
 31
0.0
  0
LINE
  5
2F5
100
AcDbEntity
  8
0
  6
CONTINUOUS
 62
               7
100
AcDbLine
 10
-22.0
 20
9.5
 30
0.0
 11
-27.0
 21
9.5
 31
0.0
  0
LINE
  5
2F6
100
AcDbEntity
  8
0
  6
CONTINUOUS
 62
               7
100
AcDbLine
 10
-28.0
 20
10.5
 30
0.0
 11
-28.0
 21
8.5
 31
0.0
  0
LINE
  5
2F7
100
AcDbEntity
  8
0
  6
CONTINUOUS
 62
               7
100
AcDbLine
 10
-21.0
 20
10.5
 30
0.0
 11
-28.0
 21
10.5
 31
0.0
  0
LINE
  5
2F8
100
AcDbEntity
  8
0
  6
CONTINUOUS
 62
               7
100
AcDbLine
 10
-21.0
 20
10.5
 30
0.0
 11
-21.0
 21
8.5
 31
0.0
  0
LINE
  5
2F9
100
AcDbEntity
  8
0
  6
CONTINUOUS
 62
               7
100
AcDbLine
 10
-47.0
 20
6.5
 30
0.0
 11
-47.0
 21
-70.5
 31
0.0
  0
LINE
  5
2FA
100
AcDbEntity
  8
0
  6
CONTINUOUS
 62
               7
100
AcDbLine
 10
-87.200000000000003
 20
-50.200000000000003
 30
0.0
 11
-87.200000000000003
 21
-51.799999999999997
 31
0.0
  0
LINE
  5
2FB
100
AcDbEntity
  8
0
  6
CONTINUOUS
 62
               7
100
AcDbLine
 10
-86.700000000000003
 20
-25.0
 30
0.0
 11
-86.700000000000003
 21
-27.0
 31
0.0
  0
LINE
  5
2FC
100
AcDbEntity
  8
0
  6
CONTINUOUS
 62
               7
100
AcDbLine
 10
-84.700000000000003
 20
-23.25
 30
0.0
 11
-84.700000000000003
 21
-28.75
 31
0.0
  0
LINE
  5
2FD
100
AcDbEntity
  8
0
  6
CONTINUOUS
 62
               7
100
AcDbLine
 10
-85.659999999999997
 20
-23.25
 30
0.0
 11
-84.0
 21
-23.25
 31
0.0
  0
LINE
  5
2FE
100
AcDbEntity
  8
0
  6
CONTINUOUS
 62
               7
100
AcDbLine
 10
-85.659999999999997
 20
-28.75
 30
0.0
 11
-84.0
 21
-28.75
 31
0.0
  0
LINE
  5
2FF
100
AcDbEntity
  8
0
  6
CONTINUOUS
 62
               7
100
AcDbLine
 10
-87.0
 20
-6.0
 30
0.0
 11
-87.0
 21
-49.399999999999999
 31
0.0
  0
LINE
  5
300
100
AcDbEntity
  8
0
  6
CONTINUOUS
 62
               7
100
AcDbLine
 10
-86.379999999999995
 20
-53.25
 30
0.0
 11
-85.5
 21
-53.25
 31
0.0
  0
LINE
  5
301
100
AcDbEntity
  8
0
  6
CONTINUOUS
 62
               7
100
AcDbLine
 10
-86.379999999999995
 20
-48.75
 30
0.0
 11
-85.5
 21
-48.75
 31
0.0
  0
LINE
  5
302
100
AcDbEntity
  8
0
  6
CONTINUOUS
 62
               7
100
AcDbLine
 10
-83.5
 20
28.0
 30
0.0
 11
-83.5
 21
-90.0
 31
0.0
  0
LINE
  5
303
100
AcDbEntity
  8
0
  6
CONTINUOUS
 62
               7
100
AcDbLine
 10
-84.0
 20
-4.5
 30
0.0
 11
-84.0
 21
-57.5
 31
0.0
  0
LINE
  5
304
100
AcDbEntity
  8
0
  6
CONTINUOUS
 62
               7
100
AcDbLine
 10
-87.0
 20
-53.5
 30
0.0
 11
-85.5
 21
-53.5
 31
0.0
  0
LINE
  5
305
100
AcDbEntity
  8
0
  6
CONTINUOUS
 62
               7
100
AcDbLine
 10
-87.0
 20
-48.5
 30
0.0
 11
-85.5
 21
-48.5
 31
0.0
  0
LINE
  5
306
100
AcDbEntity
  8
0
  6
CONTINUOUS
 62
               7
100
AcDbLine
 10
-85.5
 20
-29.0
 30
0.0
 11
-85.5
 21
-57.5
 31
0.0
  0
LINE
  5
307
100
AcDbEntity
  8
0
  6
CONTINUOUS
 62
               7
100
AcDbLine
 10
-87.0
 20
-23.0
 30
0.0
 11
-84.0
 21
-23.0
 31
0.0
  0
LINE
  5
308
100
AcDbEntity
  8
0
  6
CONTINUOUS
 62
               7
100
AcDbLine
 10
-87.0
 20
-29.0
 30
0.0
 11
-84.0
 21
-29.0
 31
0.0
  0
LINE
  5
309
100
AcDbEntity
  8
0
  6
CONTINUOUS
 62
               7
100
AcDbLine
 10
-87.0
 20
-56.0
 30
0.0
 11
-85.5
 21
-57.5
 31
0.0
  0
LINE
  5
30A
100
AcDbEntity
  8
0
  6
CONTINUOUS
 62
               7
100
AcDbLine
 10
-85.5
 20
-4.5
 30
0.0
 11
-87.0
 21
-6.0
 31
0.0
  0
LINE
  5
30B
100
AcDbEntity
  8
0
  6
CONTINUOUS
 62
               7
100
AcDbLine
 10
-85.5
 20
-4.5
 30
0.0
 11
-48.5
 21
-4.5
 31
0.0
  0
LINE
  5
30C
100
AcDbEntity
  8
0
  6
CONTINUOUS
 62
               7
100
AcDbLine
 10
-85.5
 20
-57.5
 30
0.0
 11
-48.5
 21
-57.5
 31
0.0
  0
LINE
  5
30D
100
AcDbEntity
  8
0
  6
CONTINUOUS
 62
               7
100
AcDbLine
 10
-85.5
 20
-4.5
 30
0.0
 11
-85.5
 21
-23.0
 31
0.0
  0
LINE
  5
30E
100
AcDbEntity
  8
0
  6
CENTER
 62
               2
100
AcDbLine
 10
-24.5
 20
-45.0
 30
0.0
 11
-8.4499999999999993
 21
-45.0
 31
0.0
  0
LINE
  5
30F
100
AcDbEntity
  8
0
  6
CONTINUOUS
 62
               7
100
AcDbLine
 10
-46.0
 20
7.5
 30
0.0
 11
0.0
 21
7.5
 31
0.0
  0
LINE
  5
310
100
AcDbEntity
  8
0
  6
CONTINUOUS
 62
               7
100
AcDbLine
 10
-46.0
 20
-71.5
 30
0.0
 11
0.0
 21
-71.5
 31
0.0
  0
LINE
  5
311
100
AcDbEntity
  8
0
  6
CONTINUOUS
 62
               7
100
AcDbLine
 10
-5.5
 20
7.5
 30
0.0
 11
0.0
 21
7.5
 31
0.0
  0
LINE
  5
312
100
AcDbEntity
  8
0
  6
CONTINUOUS
 62
               7
100
AcDbLine
 10
-5.0
 20
-7.5
 30
0.0
 11
0.0
 21
-7.5
 31
0.0
  0
LINE
  5
313
100
AcDbEntity
  8
0
  6
CONTINUOUS
 62
               7
100
AcDbLine
 10
-5.0
 20
2.5
 30
0.0
 11
0.0
 21
2.5
 31
0.0
  0
LINE
  5
314
100
AcDbEntity
  8
0
  6
CONTINUOUS
 62
               7
100
AcDbLine
 10
-5.0
 20
-2.5
 30
0.0
 11
0.0
 21
-2.5
 31
0.0
  0
LINE
  5
315
100
AcDbEntity
  8
0
  6
CONTINUOUS
 62
               7
100
AcDbLine
 10
-5.0
 20
7.5
 30
0.0
 11
-5.0
 21
-7.5
 31
0.0
  0
LINE
  5
316
100
AcDbEntity
  8
0
  6
CONTINUOUS
 62
               7
100
AcDbLine
 10
-5.0
 20
-56.5
 30
0.0
 11
-5.0
 21
-71.5
 31
0.0
  0
LINE
  5
317
100
AcDbEntity
  8
0
  6
CONTINUOUS
 62
               7
100
AcDbLine
 10
-5.0
 20
-56.5
 30
0.0
 11
0.0
 21
-56.5
 31
0.0
  0
LINE
  5
318
100
AcDbEntity
  8
0
  6
CONTINUOUS
 62
               7
100
AcDbLine
 10
-5.0
 20
-61.5
 30
0.0
 11
0.0
 21
-61.5
 31
0.0
  0
LINE
  5
319
100
AcDbEntity
  8
0
  6
CONTINUOUS
 62
               7
100
AcDbLine
 10
-5.0
 20
-66.5
 30
0.0
 11
0.0
 21
-66.5
 31
0.0
  0
LINE
  5
31A
100
AcDbEntity
  8
0
  6
CENTER
 62
               2
100
AcDbLine
 10
-24.5
 20
-14.0
 30
0.0
 11
-8.4499999999999993
 21
-14.0
 31
0.0
  0
LINE
  5
31B
100
AcDbEntity
  8
0
  6
CENTER
 62
               2
100
AcDbLine
 10
-17.0
 20
-37.719999999999999
 30
0.0
 11
-17.0
 21
-53.490000000000002
 31
0.0
  0
LINE
  5
31C
100
AcDbEntity
  8
0
  6
CENTER
 62
               2
100
AcDbLine
 10
-43.68
 20
-56.0
 30
0.0
 11
-30.890000000000001
 21
-56.0
 31
0.0
  0
LINE
  5
31D
100
AcDbEntity
  8
0
  6
CENTER
 62
               2
100
AcDbLine
 10
-40.549999999999997
 20
-30.0
 30
0.0
 11
-24.210000000000001
 21
-30.0
 31
0.0
  0
LINE
  5
31E
100
AcDbEntity
  8
0
  6
CENTER
 62
               2
100
AcDbLine
 10
-17.0
 20
-6.1799999999999997
 30
0.0
 11
-17.0
 21
-22.23
 31
0.0
  0
LINE
  5
31F
100
AcDbEntity
  8
0
  6
CENTER
 62
               2
100
AcDbLine
 10
-32.0
 20
-20.390000000000001
 30
0.0
 11
-32.0
 21
-40.560000000000002
 31
0.0
  0
LINE
  5
320
100
AcDbEntity
  8
0
  6
CENTER
 62
               2
100
AcDbLine
 10
-37.0
 20
-49.509999999999998
 30
0.0
 11
-37.0
 21
-62.719999999999999
 31
0.0
  0
LINE
  5
321
100
AcDbEntity
  8
0
  6
CONTINUOUS
 62
               7
100
AcDbLine
 10
0.0
 20
7.5
 30
0.0
 11
0.0
 21
-71.5
 31
0.0
  0
ENDBLK
  5
322
100
AcDbEntity
  8
0
100
AcDbBlockEnd
  0
BLOCK
  5
323
100
AcDbEntity
  8
0
100
AcDbBlockBegin
  2
MS_3
 70
               0
 10
0.0
 20
0.0
 30
0.0
  3
MS_3
  1

  0
LINE
  5
324
100
AcDbEntity
  8
0
  6
CENTER
 62
               2
100
AcDbLine
 10
95.5
 20
92.269999999999996
 30
0.0
 11
95.5
 21
-2.0
 31
0.0
  0
LINE
  5
325
100
AcDbEntity
  8
0
  6
CENTER
 62
               2
100
AcDbLine
 10
123.5
 20
92.269999999999996
 30
0.0
 11
123.5
 21
-2.0
 31
0.0
  0
ARC
  5
326
100
AcDbEntity
  8
0
  6
CONTINUOUS
 62
               4
100
AcDbCircle
 10
115.5
 20
56.0
 30
0.0
 40
4.0000000001164153
100
AcDbArc
 50
269.99999999999937
 51
89.999999999999801
  0
CIRCLE
  5
327
100
AcDbEntity
  8
0
  6
CONTINUOUS
 62
               4
100
AcDbCircle
 10
131.49996948242187
 20
76.0
 30
0.0
 40
2.75
  0
CIRCLE
  5
328
100
AcDbEntity
  8
0
  6
CONTINUOUS
 62
               4
100
AcDbCircle
 10
115.49996948242187
 20
56.0
 30
0.0
 40
2.75
  0
ARC
  5
329
100
AcDbEntity
  8
0
  6
CONTINUOUS
 62
               4
100
AcDbCircle
 10
131.5
 20
76.0
 30
0.0
 40
4.0000000001164153
100
AcDbArc
 50
89.999999999999801
 51
269.99999999999937
  0
ARC
  5
32A
100
AcDbEntity
  8
0
  6
CONTINUOUS
 62
               4
100
AcDbCircle
 10
87.5
 20
56.0
 30
0.0
 40
4.0000000002619345
100
AcDbArc
 50
269.99999999999937
 51
89.999999999999801
  0
CIRCLE
  5
32B
100
AcDbEntity
  8
0
  6
CONTINUOUS
 62
               4
100
AcDbCircle
 10
103.49995422363281
 20
76.000015258789063
 30
0.0
 40
2.75
  0
CIRCLE
  5
32C
100
AcDbEntity
  8
0
  6
CONTINUOUS
 62
               4
100
AcDbCircle
 10
87.499954223632813
 20
56.000015258789063
 30
0.0
 40
2.75
  0
ARC
  5
32D
100
AcDbEntity
  8
0
  6
CONTINUOUS
 62
               4
100
AcDbCircle
 10
103.5
 20
76.0
 30
0.0
 40
4.0000000002619345
100
AcDbArc
 50
89.999999999999801
 51
269.99999999999937
  0
CIRCLE
  5
32E
100
AcDbEntity
  8
0
  6
CONTINUOUS
 62
               7
100
AcDbCircle
 10
104.49998474121094
 20
26.0
 30
0.0
 40
3.5
  0
CIRCLE
  5
32F
100
AcDbEntity
  8
0
  6
CONTINUOUS
 62
               7
100
AcDbCircle
 10
104.49998474121094
 20
26.0
 30
0.0
 40
1.7999992370605469
  0
CIRCLE
  5
330
100
AcDbEntity
  8
0
  6
CONTINUOUS
 62
               7
100
AcDbCircle
 10
76.499984741210937
 20
26.0
 30
0.0
 40
3.5
  0
CIRCLE
  5
331
100
AcDbEntity
  8
0
  6
CONTINUOUS
 62
               7
100
AcDbCircle
 10
76.499984741210937
 20
26.0
 30
0.0
 40
1.7999992370605469
  0
CIRCLE
  5
332
100
AcDbEntity
  8
0
  6
CONTINUOUS
 62
               7
100
AcDbCircle
 10
48.499984741210937
 20
26.0
 30
0.0
 40
3.5
  0
CIRCLE
  5
333
100
AcDbEntity
  8
0
  6
CONTINUOUS
 62
               7
100
AcDbCircle
 10
48.499984741210937
 20
26.0
 30
0.0
 40
1.7999992370605469
  0
CIRCLE
  5
334
100
AcDbEntity
  8
0
  6
CONTINUOUS
 62
               7
100
AcDbCircle
 10
132.49998474121094
 20
26.0
 30
0.0
 40
1.7999992370605469
  0
CIRCLE
  5
335
100
AcDbEntity
  8
0
  6
CONTINUOUS
 62
               7
100
AcDbCircle
 10
132.49998474121094
 20
26.0
 30
0.0
 40
3.5
  0
CIRCLE
  5
336
100
AcDbEntity
  8
0
  6
CONTINUOUS
 62
               7
100
AcDbCircle
 10
38.499984741210937
 20
12.5
 30
0.0
 40
6.0
  0
CIRCLE
  5
337
100
AcDbEntity
  8
0
  6
CONTINUOUS
 62
               7
100
AcDbCircle
 10
35.499984741210938
 20
38.5
 30
0.0
 40
6.0
  0
CIRCLE
  5
338
100
AcDbEntity
  8
0
  6
CONTINUOUS
 62
               2
100
AcDbCircle
 10
38.499984741210937
 20
12.5
 30
0.0
 40
6.4999990463256836
  0
CIRCLE
  5
339
100
AcDbEntity
  8
0
  6
CONTINUOUS
 62
               2
100
AcDbCircle
 10
35.499984741210938
 20
38.5
 30
0.0
 40
6.4999990463256836
  0
CIRCLE
  5
33A
100
AcDbEntity
  8
0
  6
CONTINUOUS
 62
               7
100
AcDbCircle
 10
66.5
 20
12.5
 30
0.0
 40
6.0
  0
CIRCLE
  5
33B
100
AcDbEntity
  8
0
  6
CONTINUOUS
 62
               7
100
AcDbCircle
 10
63.5
 20
38.5
 30
0.0
 40
6.0
  0
CIRCLE
  5
33C
100
AcDbEntity
  8
0
  6
CONTINUOUS
 62
               2
100
AcDbCircle
 10
66.5
 20
12.5
 30
0.0
 40
6.4999990463256836
  0
CIRCLE
  5
33D
100
AcDbEntity
  8
0
  6
CONTINUOUS
 62
               2
100
AcDbCircle
 10
63.5
 20
38.5
 30
0.0
 40
6.4999990463256836
  0
CIRCLE
  5
33E
100
AcDbEntity
  8
0
  6
CONTINUOUS
 62
               7
100
AcDbCircle
 10
150.49996948242187
 20
12.5
 30
0.0
 40
6.0
  0
CIRCLE
  5
33F
100
AcDbEntity
  8
0
  6
CONTINUOUS
 62
               7
100
AcDbCircle
 10
147.49996948242187
 20
38.5
 30
0.0
 40
6.0
  0
CIRCLE
  5
340
100
AcDbEntity
  8
0
  6
CONTINUOUS
 62
               2
100
AcDbCircle
 10
150.49996948242187
 20
12.5
 30
0.0
 40
6.4999990463256836
  0
CIRCLE
  5
341
100
AcDbEntity
  8
0
  6
CONTINUOUS
 62
               2
100
AcDbCircle
 10
147.49996948242187
 20
38.5
 30
0.0
 40
6.4999990463256836
  0
CIRCLE
  5
342
100
AcDbEntity
  8
0
  6
CONTINUOUS
 62
               7
100
AcDbCircle
 10
160.49996948242187
 20
26.0
 30
0.0
 40
1.7999992370605469
  0
CIRCLE
  5
343
100
AcDbEntity
  8
0
  6
CONTINUOUS
 62
               7
100
AcDbCircle
 10
160.49996948242187
 20
26.0
 30
0.0
 40
3.5
  0
CIRCLE
  5
344
100
AcDbEntity
  8
0
  6
CONTINUOUS
 62
               7
100
AcDbCircle
 10
122.49995422363281
 20
12.5
 30
0.0
 40
6.0
  0
CIRCLE
  5
345
100
AcDbEntity
  8
0
  6
CONTINUOUS
 62
               7
100
AcDbCircle
 10
119.49995422363281
 20
38.5
 30
0.0
 40
6.0
  0
CIRCLE
  5
346
100
AcDbEntity
  8
0
  6
CONTINUOUS
 62
               2
100
AcDbCircle
 10
122.49995422363281
 20
12.5
 30
0.0
 40
6.4999990463256836
  0
CIRCLE
  5
347
100
AcDbEntity
  8
0
  6
CONTINUOUS
 62
               2
100
AcDbCircle
 10
119.49995422363281
 20
38.5
 30
0.0
 40
6.4999990463256836
  0
CIRCLE
  5
348
100
AcDbEntity
  8
0
  6
CONTINUOUS
 62
               7
100
AcDbCircle
 10
94.499969482421875
 20
12.5
 30
0.0
 40
6.0
  0
CIRCLE
  5
349
100
AcDbEntity
  8
0
  6
CONTINUOUS
 62
               7
100
AcDbCircle
 10
91.499969482421875
 20
38.5
 30
0.0
 40
6.0
  0
CIRCLE
  5
34A
100
AcDbEntity
  8
0
  6
CONTINUOUS
 62
               2
100
AcDbCircle
 10
94.499969482421875
 20
12.5
 30
0.0
 40
6.4999990463256836
  0
CIRCLE
  5
34B
100
AcDbEntity
  8
0
  6
CONTINUOUS
 62
               2
100
AcDbCircle
 10
91.499969482421875
 20
38.5
 30
0.0
 40
6.4999990463256836
  0
CIRCLE
  5
34C
100
AcDbEntity
  8
0
  6
CONTINUOUS
 62
               7
100
AcDbCircle
 10
74.49993896484375
 20
54.5
 30
0.0
 40
1.1999998092651367
  0
CIRCLE
  5
34D
100
AcDbEntity
  8
0
  6
CONTINUOUS
 62
               7
100
AcDbCircle
 10
60.49993896484375
 20
77.5
 30
0.0
 40
1.1999998092651367
  0
CIRCLE
  5
34E
100
AcDbEntity
  8
0
  6
CONTINUOUS
 62
               2
100
AcDbCircle
 10
74.49993896484375
 20
54.5
 30
0.0
 40
1.5
  0
CIRCLE
  5
34F
100
AcDbEntity
  8
0
  6
CONTINUOUS
 62
               2
100
AcDbCircle
 10
60.49993896484375
 20
77.5
 30
0.0
 40
1.5
  0
CIRCLE
  5
350
100
AcDbEntity
  8
0
  6
CONTINUOUS
 62
               7
100
AcDbCircle
 10
74.49993896484375
 20
54.5
 30
0.0
 40
2.2999992370605469
  0
CIRCLE
  5
351
100
AcDbEntity
  8
0
  6
CONTINUOUS
 62
               7
100
AcDbCircle
 10
60.49993896484375
 20
77.5
 30
0.0
 40
2.2999992370605469
  0
CIRCLE
  5
352
100
AcDbEntity
  8
0
  6
CONTINUOUS
 62
               7
100
AcDbCircle
 10
59.49993896484375
 20
56.0
 30
0.0
 40
2.75
  0
CIRCLE
  5
353
100
AcDbEntity
  8
0
  6
CONTINUOUS
 62
               7
100
AcDbCircle
 10
75.49993896484375
 20
76.0
 30
0.0
 40
2.75
  0
ARC
  5
354
100
AcDbEntity
  8
0
  6
CONTINUOUS
 62
               7
100
AcDbCircle
 10
59.499969482266657
 20
56.000030517733343
 30
0.0
 40
3.0000305178885656
100
AcDbArc
 50
270.00058283984401
 51
359.99941716015456
  0
ARC
  5
355
100
AcDbEntity
  8
0
  6
CONTINUOUS
 62
               7
100
AcDbCircle
 10
75.5
 20
76.0
 30
0.0
 40
3.0000000006208816
100
AcDbArc
 50
89.999999999999801
 51
269.99999999999937
  0
ARC
  5
356
100
AcDbEntity
  8
0
  6
CONTINUOUS
 62
               7
100
AcDbCircle
 10
75.505637353867584
 20
75.875709156924415
 30
0.0
 40
2.9969410855446648
100
AcDbArc
 50
2.3768848097819273
 51
5.2512648588023261
  0
ARC
  5
357
100
AcDbEntity
  8
0
  6
CONTINUOUS
 62
               7
100
AcDbCircle
 10
59.499969482266657
 20
55.999969482266657
 30
0.0
 40
3.0000305178885656
100
AcDbArc
 50
0.0005828398446173
 51
89.99941716015519
  0
CIRCLE
  5
358
100
AcDbEntity
  8
0
  6
CONTINUOUS
 62
               7
100
AcDbCircle
 10
46.49993896484375
 20
54.5
 30
0.0
 40
1.1999998092651367
  0
CIRCLE
  5
359
100
AcDbEntity
  8
0
  6
CONTINUOUS
 62
               7
100
AcDbCircle
 10
32.49993896484375
 20
77.5
 30
0.0
 40
1.1999998092651367
  0
CIRCLE
  5
35A
100
AcDbEntity
  8
0
  6
CONTINUOUS
 62
               2
100
AcDbCircle
 10
46.49993896484375
 20
54.5
 30
0.0
 40
1.5
  0
CIRCLE
  5
35B
100
AcDbEntity
  8
0
  6
CONTINUOUS
 62
               2
100
AcDbCircle
 10
32.49993896484375
 20
77.5
 30
0.0
 40
1.5
  0
CIRCLE
  5
35C
100
AcDbEntity
  8
0
  6
CONTINUOUS
 62
               7
100
AcDbCircle
 10
46.49993896484375
 20
54.5
 30
0.0
 40
2.2999992370605469
  0
CIRCLE
  5
35D
100
AcDbEntity
  8
0
  6
CONTINUOUS
 62
               7
100
AcDbCircle
 10
32.49993896484375
 20
77.5
 30
0.0
 40
2.2999992370605469
  0
CIRCLE
  5
35E
100
AcDbEntity
  8
0
  6
CONTINUOUS
 62
               7
100
AcDbCircle
 10
31.49993896484375
 20
56.0
 30
0.0
 40
2.75
  0
CIRCLE
  5
35F
100
AcDbEntity
  8
0
  6
CONTINUOUS
 62
               7
100
AcDbCircle
 10
47.49993896484375
 20
76.0
 30
0.0
 40
2.75
  0
ARC
  5
360
100
AcDbEntity
  8
0
  6
CONTINUOUS
 62
               7
100
AcDbCircle
 10
31.499969482266653
 20
56.000030517733343
 30
0.0
 40
3.0000305178885656
100
AcDbArc
 50
270.00058283984407
 51
359.99941716015456
  0
ARC
  5
361
100
AcDbEntity
  8
0
  6
CONTINUOUS
 62
               7
100
AcDbCircle
 10
47.5
 20
76.0
 30
0.0
 40
3.0000000006208816
100
AcDbArc
 50
89.999999999999801
 51
269.99999999999937
  0
ARC
  5
362
100
AcDbEntity
  8
0
  6
CONTINUOUS
 62
               7
100
AcDbCircle
 10
47.50563735386757
 20
75.875709156924557
 30
0.0
 40
2.9969410855446683
100
AcDbArc
 50
2.376884809779201
 51
5.2512648587995834
  0
ARC
  5
363
100
AcDbEntity
  8
0
  6
CONTINUOUS
 62
               7
100
AcDbCircle
 10
31.499969482266653
 20
55.999969482266657
 30
0.0
 40
3.0000305178885656
100
AcDbArc
 50
0.0005828398446173
 51
89.999417160155119
  0
ARC
  5
364
100
AcDbEntity
  8
0
  6
CONTINUOUS
 62
               4
100
AcDbCircle
 10
160.5
 20
50.600006103341975
 30
0.0
 40
4.9979545280410225
100
AcDbArc
 50
55.928350994658011
 51
124.07164900534158
  0
ARC
  5
365
100
AcDbEntity
  8
0
  6
CONTINUOUS
 62
               4
100
AcDbCircle
 10
142.5
 20
50.600006103341975
 30
0.0
 40
4.9979545280410225
100
AcDbArc
 50
55.928350994658011
 51
124.07164900534158
  0
ARC
  5
366
100
AcDbEntity
  8
0
  6
CONTINUOUS
 62
               7
100
AcDbCircle
 10
181.49996948218904
 20
44.999969482189044
 30
0.0
 40
2.0000305180437863
100
AcDbArc
 50
0.0008742575435872
 51
89.999125742456215
  0
ARC
  5
367
100
AcDbEntity
  8
0
  6
CONTINUOUS
 62
               7
100
AcDbCircle
 10
193.99996948218904
 20
2.9999694821890444
 30
0.0
 40
2.0000305180437863
100
AcDbArc
 50
0.0008742575435872
 51
89.999125742456215
  0
ARC
  5
368
100
AcDbEntity
  8
0
  6
CONTINUOUS
 62
               7
100
AcDbCircle
 10
186.49996948257709
 20
7.9999694825770948
 30
0.0
 40
2.9999694827323156
100
AcDbArc
 50
179.99941715422594
 51
270.00058284577324
  0
CIRCLE
  5
369
100
AcDbEntity
  8
0
  6
CONTINUOUS
 62
               7
100
AcDbCircle
 10
20.5
 20
26.0
 30
0.0
 40
1.7999982833862305
  0
CIRCLE
  5
36A
100
AcDbEntity
  8
0
  6
CONTINUOUS
 62
               7
100
AcDbCircle
 10
20.5
 20
26.0
 30
0.0
 40
3.4999990463256836
  0
ARC
  5
36B
100
AcDbEntity
  8
0
  6
CONTINUOUS
 62
               7
100
AcDbCircle
 10
9.5
 20
45.0
 30
0.0
 40
2.0
100
AcDbArc
 50
89.999999999999801
 51
179.9999999999996
  0
ARC
  5
36C
100
AcDbEntity
  8
0
  6
CONTINUOUS
 62
               7
100
AcDbCircle
 10
-3.0
 20
3.0
 30
0.0
 40
2.0
100
AcDbArc
 50
89.999999999999801
 51
179.9999999999996
  0
ARC
  5
36D
100
AcDbEntity
  8
0
  6
CONTINUOUS
 62
               7
100
AcDbCircle
 10
4.5
 20
8.0
 30
0.0
 40
3.0
100
AcDbArc
 50
269.99999999999937
 51
0.0
  0
LINE
  5
36E
100
AcDbEntity
  8
0
  6
CONTINUOUS
 62
               4
100
AcDbLine
 10
134.0
 20
72.0
 30
0.0
 11
134.0
 21
49.5
 31
0.0
  0
LINE
  5
36F
100
AcDbEntity
  8
0
  6
CONTINUOUS
 62
               4
100
AcDbLine
 10
112.0
 20
83.5
 30
0.0
 11
113.0
 21
82.5
 31
0.0
  0
LINE
  5
370
100
AcDbEntity
  8
0
  6
CONTINUOUS
 62
               4
100
AcDbLine
 10
135.0
 20
83.5
 30
0.0
 11
134.0
 21
82.5
 31
0.0
  0
LINE
  5
371
100
AcDbEntity
  8
0
  6
CONTINUOUS
 62
               4
100
AcDbLine
 10
135.0
 20
48.5
 30
0.0
 11
134.0
 21
49.5
 31
0.0
  0
LINE
  5
372
100
AcDbEntity
  8
0
  6
CONTINUOUS
 62
               4
100
AcDbLine
 10
112.0
 20
48.5
 30
0.0
 11
113.0
 21
49.5
 31
0.0
  0
LINE
  5
373
100
AcDbEntity
  8
0
  6
CONTINUOUS
 62
               4
100
AcDbLine
 10
84.0
 20
48.5
 30
0.0
 11
85.0
 21
49.5
 31
0.0
  0
LINE
  5
374
100
AcDbEntity
  8
0
  6
CONTINUOUS
 62
               4
100
AcDbLine
 10
107.0
 20
48.5
 30
0.0
 11
106.0
 21
49.5
 31
0.0
  0
LINE
  5
375
100
AcDbEntity
  8
0
  6
CONTINUOUS
 62
               4
100
AcDbLine
 10
107.0
 20
83.5
 30
0.0
 11
106.0
 21
82.5
 31
0.0
  0
LINE
  5
376
100
AcDbEntity
  8
0
  6
CONTINUOUS
 62
               4
100
AcDbLine
 10
84.0
 20
83.5
 30
0.0
 11
85.0
 21
82.5
 31
0.0
  0
LINE
  5
377
100
AcDbEntity
  8
0
  6
CONTINUOUS
 62
               4
100
AcDbLine
 10
113.0
 20
52.0
 30
0.0
 11
113.0
 21
49.5
 31
0.0
  0
LINE
  5
378
100
AcDbEntity
  8
0
  6
CONTINUOUS
 62
               4
100
AcDbLine
 10
85.0
 20
49.5
 30
0.0
 11
106.0
 21
49.5
 31
0.0
  0
LINE
  5
379
100
AcDbEntity
  8
0
  6
CONTINUOUS
 62
               4
100
AcDbLine
 10
85.0
 20
82.5
 30
0.0
 11
106.0
 21
82.5
 31
0.0
  0
LINE
  5
37A
100
AcDbEntity
  8
0
  6
CONTINUOUS
 62
               4
100
AcDbLine
 10
113.0
 20
49.5
 30
0.0
 11
134.0
 21
49.5
 31
0.0
  0
LINE
  5
37B
100
AcDbEntity
  8
0
  6
CONTINUOUS
 62
               4
100
AcDbLine
 10
113.0
 20
82.5
 30
0.0
 11
134.0
 21
82.5
 31
0.0
  0
LINE
  5
37C
100
AcDbEntity
  8
0
  6
CONTINUOUS
 62
               4
100
AcDbLine
 10
134.0
 20
82.5
 30
0.0
 11
134.0
 21
80.0
 31
0.0
  0
LINE
  5
37D
100
AcDbEntity
  8
0
  6
CONTINUOUS
 62
               4
100
AcDbLine
 10
85.0
 20
52.0
 30
0.0
 11
85.0
 21
49.5
 31
0.0
  0
LINE
  5
37E
100
AcDbEntity
  8
0
  6
CONTINUOUS
 62
               4
100
AcDbLine
 10
106.0
 20
82.5
 30
0.0
 11
106.0
 21
80.0
 31
0.0
  0
LINE
  5
37F
100
AcDbEntity
  8
0
  6
CONTINUOUS
 62
               4
100
AcDbLine
 10
106.0
 20
72.0
 30
0.0
 11
106.0
 21
49.5
 31
0.0
  0
LINE
  5
380
100
AcDbEntity
  8
0
  6
CONTINUOUS
 62
               4
100
AcDbLine
 10
113.0
 20
82.5
 30
0.0
 11
113.0
 21
60.0
 31
0.0
  0
LINE
  5
381
100
AcDbEntity
  8
0
  6
CONTINUOUS
 62
               4
100
AcDbLine
 10
85.0
 20
82.5
 30
0.0
 11
85.0
 21
60.0
 31
0.0
  0
LINE
  5
382
100
AcDbEntity
  8
0
  6
CENTER
 62
             200
100
AcDbLine
 10
122.2
 20
107.56
 30
0.0
 11
122.2
 21
81.5
 31
0.0
  0
LINE
  5
383
100
AcDbEntity
  8
0
  6
CONTINUOUS
 62
               4
100
AcDbLine
 10
122.52
 20
105.5
 30
0.0
 11
121.88
 21
105.5
 31
0.0
  0
LINE
  5
384
100
AcDbEntity
  8
0
  6
CONTINUOUS
 62
               4
100
AcDbLine
 10
123.05
 20
95.5
 30
0.0
 11
121.34999999999999
 21
95.5
 31
0.0
  0
LINE
  5
385
100
AcDbEntity
  8
0
  6
CONTINUOUS
 62
               4
100
AcDbLine
 10
122.52
 20
105.5
 30
0.0
 11
122.52
 21
95.5
 31
0.0
  0
LINE
  5
386
100
AcDbEntity
  8
0
  6
CONTINUOUS
 62
               4
100
AcDbLine
 10
121.88
 20
105.5
 30
0.0
 11
121.88
 21
95.5
 31
0.0
  0
LINE
  5
387
100
AcDbEntity
  8
0
  6
CONTINUOUS
 62
               4
100
AcDbLine
 10
123.05
 20
95.5
 30
0.0
 11
123.05
 21
91.159999999999997
 31
0.0
  0
LINE
  5
388
100
AcDbEntity
  8
0
  6
CONTINUOUS
 62
               4
100
AcDbLine
 10
121.34999999999999
 20
95.5
 30
0.0
 11
121.34999999999999
 21
90.709999999999994
 31
0.0
  0
LINE
  5
389
100
AcDbEntity
  8
0
  6
CONTINUOUS
 62
               4
100
AcDbLine
 10
121.34999999999999
 20
89.150000000000006
 30
0.0
 11
121.34999999999999
 21
85.5
 31
0.0
  0
LINE
  5
38A
100
AcDbEntity
  8
0
  6
CONTINUOUS
 62
               4
100
AcDbLine
 10
125.12
 20
105.5
 30
0.0
 11
124.48
 21
105.5
 31
0.0
  0
LINE
  5
38B
100
AcDbEntity
  8
0
  6
CONTINUOUS
 62
               4
100
AcDbLine
 10
125.65000000000001
 20
95.5
 30
0.0
 11
123.95
 21
95.5
 31
0.0
  0
LINE
  5
38C
100
AcDbEntity
  8
0
  6
CONTINUOUS
 62
               4
100
AcDbLine
 10
125.12
 20
105.5
 30
0.0
 11
125.12
 21
95.5
 31
0.0
  0
LINE
  5
38D
100
AcDbEntity
  8
0
  6
CONTINUOUS
 62
               4
100
AcDbLine
 10
124.48
 20
105.5
 30
0.0
 11
124.48
 21
95.5
 31
0.0
  0
LINE
  5
38E
100
AcDbEntity
  8
0
  6
CONTINUOUS
 62
               4
100
AcDbLine
 10
125.65000000000001
 20
95.5
 30
0.0
 11
125.65000000000001
 21
91.859999999999999
 31
0.0
  0
LINE
  5
38F
100
AcDbEntity
  8
0
  6
CONTINUOUS
 62
               4
100
AcDbLine
 10
123.95
 20
95.5
 30
0.0
 11
123.95
 21
91.400000000000006
 31
0.0
  0
LINE
  5
390
100
AcDbEntity
  8
0
  6
CENTER
 62
             200
100
AcDbLine
 10
124.8
 20
107.56
 30
0.0
 11
124.8
 21
81.5
 31
0.0
  0
LINE
  5
391
100
AcDbEntity
  8
0
  6
CONTINUOUS
 62
             200
100
AcDbLine
 10
126.34999999999999
 20
90.489999999999995
 30
0.0
 11
120.65000000000001
 21
88.969999999999999
 31
0.0
  0
LINE
  5
392
100
AcDbEntity
  8
0
  6
CONTINUOUS
 62
             200
100
AcDbLine
 10
126.34999999999999
 20
92.049999999999997
 30
0.0
 11
120.65000000000001
 21
90.519999999999996
 31
0.0
  0
LINE
  5
393
100
AcDbEntity
  8
0
  6
CONTINUOUS
 62
               4
100
AcDbLine
 10
97.650000000000006
 20
90.310000000000002
 30
0.0
 11
97.650000000000006
 21
85.5
 31
0.0
  0
LINE
  5
394
100
AcDbEntity
  8
0
  6
CONTINUOUS
 62
               4
100
AcDbLine
 10
95.950000000000003
 20
89.849999999999994
 30
0.0
 11
95.950000000000003
 21
85.5
 31
0.0
  0
LINE
  5
395
100
AcDbEntity
  8
0
  6
CONTINUOUS
 62
               4
100
AcDbLine
 10
95.049999999999997
 20
89.609999999999999
 30
0.0
 11
95.049999999999997
 21
85.5
 31
0.0
  0
LINE
  5
396
100
AcDbEntity
  8
0
  6
CONTINUOUS
 62
               4
100
AcDbLine
 10
93.349999999999994
 20
89.150000000000006
 30
0.0
 11
93.349999999999994
 21
85.5
 31
0.0
  0
LINE
  5
397
100
AcDbEntity
  8
0
  6
CENTER
 62
             200
100
AcDbLine
 10
94.200000000000003
 20
107.56
 30
0.0
 11
94.200000000000003
 21
81.5
 31
0.0
  0
LINE
  5
398
100
AcDbEntity
  8
0
  6
CONTINUOUS
 62
               4
100
AcDbLine
 10
94.519999999999996
 20
105.5
 30
0.0
 11
93.879999999999995
 21
105.5
 31
0.0
  0
LINE
  5
399
100
AcDbEntity
  8
0
  6
CONTINUOUS
 62
               4
100
AcDbLine
 10
95.049999999999997
 20
95.5
 30
0.0
 11
93.349999999999994
 21
95.5
 31
0.0
  0
LINE
  5
39A
100
AcDbEntity
  8
0
  6
CONTINUOUS
 62
               4
100
AcDbLine
 10
94.519999999999996
 20
105.5
 30
0.0
 11
94.519999999999996
 21
95.5
 31
0.0
  0
LINE
  5
39B
100
AcDbEntity
  8
0
  6
CONTINUOUS
 62
               4
100
AcDbLine
 10
93.879999999999995
 20
105.5
 30
0.0
 11
93.879999999999995
 21
95.5
 31
0.0
  0
LINE
  5
39C
100
AcDbEntity
  8
0
  6
CONTINUOUS
 62
               4
100
AcDbLine
 10
95.049999999999997
 20
95.5
 30
0.0
 11
95.049999999999997
 21
91.159999999999997
 31
0.0
  0
LINE
  5
39D
100
AcDbEntity
  8
0
  6
CONTINUOUS
 62
               4
100
AcDbLine
 10
93.349999999999994
 20
95.5
 30
0.0
 11
93.349999999999994
 21
90.709999999999994
 31
0.0
  0
LINE
  5
39E
100
AcDbEntity
  8
0
  6
CONTINUOUS
 62
               4
100
AcDbLine
 10
123.05
 20
89.609999999999999
 30
0.0
 11
123.05
 21
85.5
 31
0.0
  0
LINE
  5
39F
100
AcDbEntity
  8
0
  6
CONTINUOUS
 62
               4
100
AcDbLine
 10
97.120000000000005
 20
105.5
 30
0.0
 11
96.480000000000004
 21
105.5
 31
0.0
  0
LINE
  5
3A0
100
AcDbEntity
  8
0
  6
CONTINUOUS
 62
               4
100
AcDbLine
 10
97.650000000000006
 20
95.5
 30
0.0
 11
95.950000000000003
 21
95.5
 31
0.0
  0
LINE
  5
3A1
100
AcDbEntity
  8
0
  6
CONTINUOUS
 62
               4
100
AcDbLine
 10
97.120000000000005
 20
105.5
 30
0.0
 11
97.120000000000005
 21
95.5
 31
0.0
  0
LINE
  5
3A2
100
AcDbEntity
  8
0
  6
CONTINUOUS
 62
               4
100
AcDbLine
 10
96.480000000000004
 20
105.5
 30
0.0
 11
96.480000000000004
 21
95.5
 31
0.0
  0
LINE
  5
3A3
100
AcDbEntity
  8
0
  6
CONTINUOUS
 62
               4
100
AcDbLine
 10
97.650000000000006
 20
95.5
 30
0.0
 11
97.650000000000006
 21
91.859999999999999
 31
0.0
  0
LINE
  5
3A4
100
AcDbEntity
  8
0
  6
CONTINUOUS
 62
               4
100
AcDbLine
 10
95.950000000000003
 20
95.5
 30
0.0
 11
95.950000000000003
 21
91.400000000000006
 31
0.0
  0
LINE
  5
3A5
100
AcDbEntity
  8
0
  6
CENTER
 62
             200
100
AcDbLine
 10
96.799999999999997
 20
107.56
 30
0.0
 11
96.799999999999997
 21
81.5
 31
0.0
  0
LINE
  5
3A6
100
AcDbEntity
  8
0
  6
CONTINUOUS
 62
             200
100
AcDbLine
 10
98.349999999999994
 20
90.489999999999995
 30
0.0
 11
92.650000000000006
 21
88.969999999999999
 31
0.0
  0
LINE
  5
3A7
100
AcDbEntity
  8
0
  6
CONTINUOUS
 62
             200
100
AcDbLine
 10
98.349999999999994
 20
92.049999999999997
 30
0.0
 11
92.650000000000006
 21
90.519999999999996
 31
0.0
  0
LINE
  5
3A8
100
AcDbEntity
  8
0
  6
CONTINUOUS
 62
               4
100
AcDbLine
 10
123.95
 20
89.849999999999994
 30
0.0
 11
123.95
 21
85.5
 31
0.0
  0
LINE
  5
3A9
100
AcDbEntity
  8
0
  6
CONTINUOUS
 62
               4
100
AcDbLine
 10
125.65000000000001
 20
90.310000000000002
 30
0.0
 11
125.65000000000001
 21
85.5
 31
0.0
  0
LINE
  5
3AA
100
AcDbEntity
  8
0
  6
CONTINUOUS
 62
               7
100
AcDbLine
 10
97.650000000000006
 20
87.0
 30
0.0
 11
105.5
 21
87.0
 31
0.0
  0
LINE
  5
3AB
100
AcDbEntity
  8
0
  6
CONTINUOUS
 62
               7
100
AcDbLine
 10
84.0
 20
85.5
 30
0.0
 11
85.5
 21
87.0
 31
0.0
  0
LINE
  5
3AC
100
AcDbEntity
  8
0
  6
CONTINUOUS
 62
               7
100
AcDbLine
 10
105.5
 20
87.0
 30
0.0
 11
107.0
 21
85.5
 31
0.0
  0
LINE
  5
3AD
100
AcDbEntity
  8
0
  6
CONTINUOUS
 62
               7
100
AcDbLine
 10
84.0
 20
85.5
 30
0.0
 11
92.5
 21
85.5
 31
0.0
  0
LINE
  5
3AE
100
AcDbEntity
  8
0
  6
CONTINUOUS
 62
               7
100
AcDbLine
 10
85.5
 20
87.0
 30
0.0
 11
93.349999999999994
 21
87.0
 31
0.0
  0
LINE
  5
3AF
100
AcDbEntity
  8
0
  6
CONTINUOUS
 62
               7
100
AcDbLine
 10
95.049999999999997
 20
87.0
 30
0.0
 11
95.950000000000003
 21
87.0
 31
0.0
  0
LINE
  5
3B0
100
AcDbEntity
  8
0
  6
CONTINUOUS
 62
               7
100
AcDbLine
 10
98.5
 20
85.5
 30
0.0
 11
107.0
 21
85.5
 31
0.0
  0
LINE
  5
3B1
100
AcDbEntity
  8
0
  6
CONTINUOUS
 62
               7
100
AcDbLine
 10
84.0
 20
85.5
 30
0.0
 11
84.0
 21
83.5
 31
0.0
  0
LINE
  5
3B2
100
AcDbEntity
  8
0
  6
CONTINUOUS
 62
               7
100
AcDbLine
 10
107.0
 20
85.5
 30
0.0
 11
107.0
 21
83.5
 31
0.0
  0
LINE
  5
3B3
100
AcDbEntity
  8
0
  6
CONTINUOUS
 62
               7
100
AcDbLine
 10
135.0
 20
85.5
 30
0.0
 11
135.0
 21
83.5
 31
0.0
  0
LINE
  5
3B4
100
AcDbEntity
  8
0
  6
CONTINUOUS
 62
               7
100
AcDbLine
 10
112.0
 20
85.5
 30
0.0
 11
112.0
 21
83.5
 31
0.0
  0
LINE
  5
3B5
100
AcDbEntity
  8
0
  6
CONTINUOUS
 62
               7
100
AcDbLine
 10
126.5
 20
85.5
 30
0.0
 11
135.0
 21
85.5
 31
0.0
  0
LINE
  5
3B6
100
AcDbEntity
  8
0
  6
CONTINUOUS
 62
               7
100
AcDbLine
 10
123.05
 20
87.0
 30
0.0
 11
123.95
 21
87.0
 31
0.0
  0
LINE
  5
3B7
100
AcDbEntity
  8
0
  6
CONTINUOUS
 62
               7
100
AcDbLine
 10
125.65000000000001
 20
87.0
 30
0.0
 11
133.5
 21
87.0
 31
0.0
  0
LINE
  5
3B8
100
AcDbEntity
  8
0
  6
CONTINUOUS
 62
               7
100
AcDbLine
 10
56.0
 20
85.5
 30
0.0
 11
57.5
 21
87.0
 31
0.0
  0
LINE
  5
3B9
100
AcDbEntity
  8
0
  6
CONTINUOUS
 62
               7
100
AcDbLine
 10
56.0
 20
85.5
 30
0.0
 11
79.0
 21
85.5
 31
0.0
  0
LINE
  5
3BA
100
AcDbEntity
  8
0
  6
CONTINUOUS
 62
               7
100
AcDbLine
 10
77.5
 20
87.0
 30
0.0
 11
79.0
 21
85.5
 31
0.0
  0
LINE
  5
3BB
100
AcDbEntity
  8
0
  6
CONTINUOUS
 62
               7
100
AcDbLine
 10
57.5
 20
87.0
 30
0.0
 11
77.5
 21
87.0
 31
0.0
  0
LINE
  5
3BC
100
AcDbEntity
  8
0
  6
CONTINUOUS
 62
               4
100
AcDbLine
 10
69.650000000000006
 20
90.310000000000002
 30
0.0
 11
69.650000000000006
 21
87.0
 31
0.0
  0
LINE
  5
3BD
100
AcDbEntity
  8
0
  6
CONTINUOUS
 62
               4
100
AcDbLine
 10
67.950000000000003
 20
89.849999999999994
 30
0.0
 11
67.950000000000003
 21
87.0
 31
0.0
  0
LINE
  5
3BE
100
AcDbEntity
  8
0
  6
CONTINUOUS
 62
               4
100
AcDbLine
 10
67.049999999999997
 20
89.609999999999999
 30
0.0
 11
67.049999999999997
 21
87.0
 31
0.0
  0
LINE
  5
3BF
100
AcDbEntity
  8
0
  6
CONTINUOUS
 62
               4
100
AcDbLine
 10
65.349999999999994
 20
89.150000000000006
 30
0.0
 11
65.349999999999994
 21
87.0
 31
0.0
  0
LINE
  5
3C0
100
AcDbEntity
  8
0
  6
CENTER
 62
             200
100
AcDbLine
 10
66.200000000000003
 20
107.56
 30
0.0
 11
66.200000000000003
 21
84.769999999999996
 31
0.0
  0
LINE
  5
3C1
100
AcDbEntity
  8
0
  6
CONTINUOUS
 62
               4
100
AcDbLine
 10
66.519999999999996
 20
105.5
 30
0.0
 11
65.879999999999995
 21
105.5
 31
0.0
  0
LINE
  5
3C2
100
AcDbEntity
  8
0
  6
CONTINUOUS
 62
               4
100
AcDbLine
 10
67.049999999999997
 20
95.5
 30
0.0
 11
65.349999999999994
 21
95.5
 31
0.0
  0
LINE
  5
3C3
100
AcDbEntity
  8
0
  6
CONTINUOUS
 62
               4
100
AcDbLine
 10
66.519999999999996
 20
105.5
 30
0.0
 11
66.519999999999996
 21
95.5
 31
0.0
  0
LINE
  5
3C4
100
AcDbEntity
  8
0
  6
CONTINUOUS
 62
               4
100
AcDbLine
 10
65.879999999999995
 20
105.5
 30
0.0
 11
65.879999999999995
 21
95.5
 31
0.0
  0
LINE
  5
3C5
100
AcDbEntity
  8
0
  6
CONTINUOUS
 62
               4
100
AcDbLine
 10
67.049999999999997
 20
95.5
 30
0.0
 11
67.049999999999997
 21
91.159999999999997
 31
0.0
  0
LINE
  5
3C6
100
AcDbEntity
  8
0
  6
CONTINUOUS
 62
               4
100
AcDbLine
 10
65.349999999999994
 20
95.5
 30
0.0
 11
65.349999999999994
 21
90.709999999999994
 31
0.0
  0
LINE
  5
3C7
100
AcDbEntity
  8
0
  6
CONTINUOUS
 62
               4
100
AcDbLine
 10
120.5
 20
85.5
 30
0.0
 11
126.5
 21
85.5
 31
0.0
  0
LINE
  5
3C8
100
AcDbEntity
  8
0
  6
CONTINUOUS
 62
               4
100
AcDbLine
 10
120.5
 20
85.5
 30
0.0
 11
120.5
 21
83.5
 31
0.0
  0
LINE
  5
3C9
100
AcDbEntity
  8
0
  6
CONTINUOUS
 62
               4
100
AcDbLine
 10
126.5
 20
85.5
 30
0.0
 11
126.5
 21
83.5
 31
0.0
  0
LINE
  5
3CA
100
AcDbEntity
  8
0
  6
CONTINUOUS
 62
               4
100
AcDbLine
 10
69.120000000000005
 20
105.5
 30
0.0
 11
68.480000000000004
 21
105.5
 31
0.0
  0
LINE
  5
3CB
100
AcDbEntity
  8
0
  6
CONTINUOUS
 62
               4
100
AcDbLine
 10
69.650000000000006
 20
95.5
 30
0.0
 11
67.950000000000003
 21
95.5
 31
0.0
  0
LINE
  5
3CC
100
AcDbEntity
  8
0
  6
CONTINUOUS
 62
               4
100
AcDbLine
 10
69.120000000000005
 20
105.5
 30
0.0
 11
69.120000000000005
 21
95.5
 31
0.0
  0
LINE
  5
3CD
100
AcDbEntity
  8
0
  6
CONTINUOUS
 62
               4
100
AcDbLine
 10
68.480000000000004
 20
105.5
 30
0.0
 11
68.480000000000004
 21
95.5
 31
0.0
  0
LINE
  5
3CE
100
AcDbEntity
  8
0
  6
CONTINUOUS
 62
               4
100
AcDbLine
 10
69.650000000000006
 20
95.5
 30
0.0
 11
69.650000000000006
 21
91.859999999999999
 31
0.0
  0
LINE
  5
3CF
100
AcDbEntity
  8
0
  6
CONTINUOUS
 62
               4
100
AcDbLine
 10
67.950000000000003
 20
95.5
 30
0.0
 11
67.950000000000003
 21
91.400000000000006
 31
0.0
  0
LINE
  5
3D0
100
AcDbEntity
  8
0
  6
CONTINUOUS
 62
               4
100
AcDbLine
 10
112.0
 20
48.5
 30
0.0
 11
135.0
 21
48.5
 31
0.0
  0
LINE
  5
3D1
100
AcDbEntity
  8
0
  6
CONTINUOUS
 62
               4
100
AcDbLine
 10
131.5
 20
72.0
 30
0.0
 11
135.0
 21
72.0
 31
0.0
  0
LINE
  5
3D2
100
AcDbEntity
  8
0
  6
CONTINUOUS
 62
               4
100
AcDbLine
 10
132.66
 20
74.829999999999998
 30
0.0
 11
130.47
 21
77.030000000000001
 31
0.0
  0
LINE
  5
3D3
100
AcDbEntity
  8
0
  6
CONTINUOUS
 62
               4
100
AcDbLine
 10
132.58000000000001
 20
77.079999999999998
 30
0.0
 11
130.53
 21
75.030000000000001
 31
0.0
  0
LINE
  5
3D4
100
AcDbEntity
  8
0
  6
CONTINUOUS
 62
               4
100
AcDbLine
 10
115.5
 20
52.0
 30
0.0
 11
112.0
 21
52.0
 31
0.0
  0
LINE
  5
3D5
100
AcDbEntity
  8
0
  6
CONTINUOUS
 62
               4
100
AcDbLine
 10
115.5
 20
60.0
 30
0.0
 11
112.0
 21
60.0
 31
0.0
  0
LINE
  5
3D6
100
AcDbEntity
  8
0
  6
CONTINUOUS
 62
               4
100
AcDbLine
 10
131.5
 20
80.0
 30
0.0
 11
135.0
 21
80.0
 31
0.0
  0
LINE
  5
3D7
100
AcDbEntity
  8
0
  6
CONTINUOUS
 62
               4
100
AcDbLine
 10
114.34
 20
57.159999999999997
 30
0.0
 11
116.53
 21
54.960000000000001
 31
0.0
  0
LINE
  5
3D8
100
AcDbEntity
  8
0
  6
CONTINUOUS
 62
               4
100
AcDbLine
 10
114.41
 20
54.909999999999997
 30
0.0
 11
116.45999999999999
 21
56.960000000000001
 31
0.0
  0
LINE
  5
3D9
100
AcDbEntity
  8
0
  6
CONTINUOUS
 62
               4
100
AcDbLine
 10
112.0
 20
83.5
 30
0.0
 11
112.0
 21
48.5
 31
0.0
  0
LINE
  5
3DA
100
AcDbEntity
  8
0
  6
CONTINUOUS
 62
               4
100
AcDbLine
 10
112.0
 20
83.5
 30
0.0
 11
135.0
 21
83.5
 31
0.0
  0
LINE
  5
3DB
100
AcDbEntity
  8
0
  6
CONTINUOUS
 62
               4
100
AcDbLine
 10
135.0
 20
83.5
 30
0.0
 11
135.0
 21
48.5
 31
0.0
  0
LINE
  5
3DC
100
AcDbEntity
  8
0
  6
CENTER
 62
             200
100
AcDbLine
 10
68.799999999999997
 20
107.56
 30
0.0
 11
68.799999999999997
 21
84.769999999999996
 31
0.0
  0
LINE
  5
3DD
100
AcDbEntity
  8
0
  6
CONTINUOUS
 62
             200
100
AcDbLine
 10
70.349999999999994
 20
90.489999999999995
 30
0.0
 11
64.650000000000006
 21
88.969999999999999
 31
0.0
  0
LINE
  5
3DE
100
AcDbEntity
  8
0
  6
CONTINUOUS
 62
             200
100
AcDbLine
 10
70.349999999999994
 20
92.049999999999997
 30
0.0
 11
64.650000000000006
 21
90.519999999999996
 31
0.0
  0
LINE
  5
3DF
100
AcDbEntity
  8
0
  6
CONTINUOUS
 62
               7
100
AcDbLine
 10
112.0
 20
48.5
 30
0.0
 11
135.0
 21
48.5
 31
0.0
  0
LINE
  5
3E0
100
AcDbEntity
  8
0
  6
CONTINUOUS
 62
               4
100
AcDbLine
 10
41.649999999999999
 20
90.310000000000002
 30
0.0
 11
41.649999999999999
 21
87.0
 31
0.0
  0
LINE
  5
3E1
100
AcDbEntity
  8
0
  6
CONTINUOUS
 62
               4
100
AcDbLine
 10
39.950000000000003
 20
89.849999999999994
 30
0.0
 11
39.950000000000003
 21
87.0
 31
0.0
  0
LINE
  5
3E2
100
AcDbEntity
  8
0
  6
CONTINUOUS
 62
               4
100
AcDbLine
 10
39.049999999999997
 20
89.609999999999999
 30
0.0
 11
39.049999999999997
 21
87.0
 31
0.0
  0
LINE
  5
3E3
100
AcDbEntity
  8
0
  6
CONTINUOUS
 62
               4
100
AcDbLine
 10
37.350000000000001
 20
89.150000000000006
 30
0.0
 11
37.350000000000001
 21
87.0
 31
0.0
  0
LINE
  5
3E4
100
AcDbEntity
  8
0
  6
CENTER
 62
             200
100
AcDbLine
 10
38.200000000000003
 20
107.56
 30
0.0
 11
38.200000000000003
 21
84.769999999999996
 31
0.0
  0
LINE
  5
3E5
100
AcDbEntity
  8
0
  6
CONTINUOUS
 62
               4
100
AcDbLine
 10
38.520000000000003
 20
105.5
 30
0.0
 11
37.880000000000003
 21
105.5
 31
0.0
  0
LINE
  5
3E6
100
AcDbEntity
  8
0
  6
CONTINUOUS
 62
               4
100
AcDbLine
 10
39.049999999999997
 20
95.5
 30
0.0
 11
37.350000000000001
 21
95.5
 31
0.0
  0
LINE
  5
3E7
100
AcDbEntity
  8
0
  6
CONTINUOUS
 62
               4
100
AcDbLine
 10
38.520000000000003
 20
105.5
 30
0.0
 11
38.520000000000003
 21
95.5
 31
0.0
  0
LINE
  5
3E8
100
AcDbEntity
  8
0
  6
CONTINUOUS
 62
               4
100
AcDbLine
 10
37.880000000000003
 20
105.5
 30
0.0
 11
37.880000000000003
 21
95.5
 31
0.0
  0
LINE
  5
3E9
100
AcDbEntity
  8
0
  6
CONTINUOUS
 62
               4
100
AcDbLine
 10
39.049999999999997
 20
95.5
 30
0.0
 11
39.049999999999997
 21
91.159999999999997
 31
0.0
  0
LINE
  5
3EA
100
AcDbEntity
  8
0
  6
CONTINUOUS
 62
               4
100
AcDbLine
 10
37.350000000000001
 20
95.5
 30
0.0
 11
37.350000000000001
 21
90.709999999999994
 31
0.0
  0
LINE
  5
3EB
100
AcDbEntity
  8
0
  6
CONTINUOUS
 62
               4
100
AcDbLine
 10
92.5
 20
85.5
 30
0.0
 11
98.5
 21
85.5
 31
0.0
  0
LINE
  5
3EC
100
AcDbEntity
  8
0
  6
CONTINUOUS
 62
               4
100
AcDbLine
 10
92.5
 20
85.5
 30
0.0
 11
92.5
 21
83.5
 31
0.0
  0
LINE
  5
3ED
100
AcDbEntity
  8
0
  6
CONTINUOUS
 62
               4
100
AcDbLine
 10
98.5
 20
85.5
 30
0.0
 11
98.5
 21
83.5
 31
0.0
  0
LINE
  5
3EE
100
AcDbEntity
  8
0
  6
CONTINUOUS
 62
               4
100
AcDbLine
 10
41.119999999999997
 20
105.5
 30
0.0
 11
40.479999999999997
 21
105.5
 31
0.0
  0
LINE
  5
3EF
100
AcDbEntity
  8
0
  6
CONTINUOUS
 62
               4
100
AcDbLine
 10
41.649999999999999
 20
95.5
 30
0.0
 11
39.950000000000003
 21
95.5
 31
0.0
  0
LINE
  5
3F0
100
AcDbEntity
  8
0
  6
CONTINUOUS
 62
               4
100
AcDbLine
 10
41.119999999999997
 20
105.5
 30
0.0
 11
41.119999999999997
 21
95.5
 31
0.0
  0
LINE
  5
3F1
100
AcDbEntity
  8
0
  6
CONTINUOUS
 62
               4
100
AcDbLine
 10
40.479999999999997
 20
105.5
 30
0.0
 11
40.479999999999997
 21
95.5
 31
0.0
  0
LINE
  5
3F2
100
AcDbEntity
  8
0
  6
CONTINUOUS
 62
               4
100
AcDbLine
 10
41.649999999999999
 20
95.5
 30
0.0
 11
41.649999999999999
 21
91.859999999999999
 31
0.0
  0
LINE
  5
3F3
100
AcDbEntity
  8
0
  6
CONTINUOUS
 62
               4
100
AcDbLine
 10
39.950000000000003
 20
95.5
 30
0.0
 11
39.950000000000003
 21
91.400000000000006
 31
0.0
  0
LINE
  5
3F4
100
AcDbEntity
  8
0
  6
CONTINUOUS
 62
               4
100
AcDbLine
 10
84.0
 20
48.5
 30
0.0
 11
107.0
 21
48.5
 31
0.0
  0
LINE
  5
3F5
100
AcDbEntity
  8
0
  6
CONTINUOUS
 62
               4
100
AcDbLine
 10
103.5
 20
72.0
 30
0.0
 11
107.0
 21
72.0
 31
0.0
  0
LINE
  5
3F6
100
AcDbEntity
  8
0
  6
CONTINUOUS
 62
               4
100
AcDbLine
 10
104.66
 20
74.829999999999998
 30
0.0
 11
102.47
 21
77.030000000000001
 31
0.0
  0
LINE
  5
3F7
100
AcDbEntity
  8
0
  6
CONTINUOUS
 62
               4
100
AcDbLine
 10
104.58
 20
77.079999999999998
 30
0.0
 11
102.53
 21
75.030000000000001
 31
0.0
  0
LINE
  5
3F8
100
AcDbEntity
  8
0
  6
CONTINUOUS
 62
               4
100
AcDbLine
 10
87.5
 20
52.0
 30
0.0
 11
84.0
 21
52.0
 31
0.0
  0
LINE
  5
3F9
100
AcDbEntity
  8
0
  6
CONTINUOUS
 62
               4
100
AcDbLine
 10
87.5
 20
60.0
 30
0.0
 11
84.0
 21
60.0
 31
0.0
  0
LINE
  5
3FA
100
AcDbEntity
  8
0
  6
CONTINUOUS
 62
               4
100
AcDbLine
 10
103.5
 20
80.0
 30
0.0
 11
107.0
 21
80.0
 31
0.0
  0
LINE
  5
3FB
100
AcDbEntity
  8
0
  6
CONTINUOUS
 62
               4
100
AcDbLine
 10
86.329999999999998
 20
57.159999999999997
 30
0.0
 11
88.530000000000001
 21
54.960000000000001
 31
0.0
  0
LINE
  5
3FC
100
AcDbEntity
  8
0
  6
CONTINUOUS
 62
               4
100
AcDbLine
 10
86.409999999999997
 20
54.909999999999997
 30
0.0
 11
88.459999999999994
 21
56.960000000000001
 31
0.0
  0
LINE
  5
3FD
100
AcDbEntity
  8
0
  6
CONTINUOUS
 62
               4
100
AcDbLine
 10
84.0
 20
83.5
 30
0.0
 11
84.0
 21
48.5
 31
0.0
  0
LINE
  5
3FE
100
AcDbEntity
  8
0
  6
CONTINUOUS
 62
               4
100
AcDbLine
 10
84.0
 20
83.5
 30
0.0
 11
107.0
 21
83.5
 31
0.0
  0
LINE
  5
3FF
100
AcDbEntity
  8
0
  6
CONTINUOUS
 62
               4
100
AcDbLine
 10
107.0
 20
83.5
 30
0.0
 11
107.0
 21
48.5
 31
0.0
  0
LINE
  5
400
100
AcDbEntity
  8
0
  6
CENTER
 62
             200
100
AcDbLine
 10
40.799999999999997
 20
107.56
 30
0.0
 11
40.799999999999997
 21
84.769999999999996
 31
0.0
  0
LINE
  5
401
100
AcDbEntity
  8
0
  6
CONTINUOUS
 62
             200
100
AcDbLine
 10
42.350000000000001
 20
90.489999999999995
 30
0.0
 11
36.649999999999999
 21
88.969999999999999
 31
0.0
  0
LINE
  5
402
100
AcDbEntity
  8
0
  6
CONTINUOUS
 62
             200
100
AcDbLine
 10
42.350000000000001
 20
92.049999999999997
 30
0.0
 11
36.649999999999999
 21
90.519999999999996
 31
0.0
  0
LINE
  5
403
100
AcDbEntity
  8
0
  6
CONTINUOUS
 62
               7
100
AcDbLine
 10
84.0
 20
48.5
 30
0.0
 11
107.0
 21
48.5
 31
0.0
  0
LINE
  5
404
100
AcDbEntity
  8
0
  6
CONTINUOUS
 62
               7
100
AcDbLine
 10
100.0
 20
21.100000000000001
 30
0.0
 11
109.0
 21
21.100000000000001
 31
0.0
  0
LINE
  5
405
100
AcDbEntity
  8
0
  6
CONTINUOUS
 62
               7
100
AcDbLine
 10
113.09999999999999
 20
20.600000000000001
 30
0.0
 11
115.0
 21
22.489999999999998
 31
0.0
  0
LINE
  5
406
100
AcDbEntity
  8
0
  6
CONTINUOUS
 62
               7
100
AcDbLine
 10
112.90000000000001
 20
31.399999999999999
 30
0.0
 11
112.90000000000001
 21
20.600000000000001
 31
0.0
  0
LINE
  5
407
100
AcDbEntity
  8
0
  6
CONTINUOUS
 62
               7
100
AcDbLine
 10
113.09999999999999
 20
31.399999999999999
 30
0.0
 11
115.0
 21
29.5
 31
0.0
  0
LINE
  5
408
100
AcDbEntity
  8
0
  6
CONTINUOUS
 62
               7
100
AcDbLine
 10
115.0
 20
29.5
 30
0.0
 11
115.0
 21
22.489999999999998
 31
0.0
  0
LINE
  5
409
100
AcDbEntity
  8
0
  6
CONTINUOUS
 62
               7
100
AcDbLine
 10
95.890000000000001
 20
31.399999999999999
 30
0.0
 11
113.09999999999999
 21
31.399999999999999
 31
0.0
  0
LINE
  5
40A
100
AcDbEntity
  8
0
  6
CONTINUOUS
 62
               7
100
AcDbLine
 10
94.0
 20
29.5
 30
0.0
 11
95.890000000000001
 21
31.399999999999999
 31
0.0
  0
LINE
  5
40B
100
AcDbEntity
  8
0
  6
CONTINUOUS
 62
               7
100
AcDbLine
 10
94.0
 20
29.5
 30
0.0
 11
94.0
 21
22.489999999999998
 31
0.0
  0
LINE
  5
40C
100
AcDbEntity
  8
0
  6
CONTINUOUS
 62
               7
100
AcDbLine
 10
104.5
 20
27.82
 30
0.0
 11
106.04000000000001
 21
26.93
 31
0.0
  0
LINE
  5
40D
100
AcDbEntity
  8
0
  6
CONTINUOUS
 62
               7
100
AcDbLine
 10
102.95999999999999
 20
25.059999999999999
 30
0.0
 11
104.5
 21
24.170000000000002
 31
0.0
  0
LINE
  5
40E
100
AcDbEntity
  8
0
  6
CONTINUOUS
 62
               7
100
AcDbLine
 10
104.5
 20
24.170000000000002
 30
0.0
 11
106.04000000000001
 21
25.059999999999999
 31
0.0
  0
LINE
  5
40F
100
AcDbEntity
  8
0
  6
CONTINUOUS
 62
               7
100
AcDbLine
 10
102.95999999999999
 20
26.93
 30
0.0
 11
104.5
 21
27.82
 31
0.0
  0
LINE
  5
410
100
AcDbEntity
  8
0
  6
CONTINUOUS
 62
               7
100
AcDbLine
 10
102.95999999999999
 20
26.93
 30
0.0
 11
102.95999999999999
 21
25.059999999999999
 31
0.0
  0
LINE
  5
411
100
AcDbEntity
  8
0
  6
CONTINUOUS
 62
               7
100
AcDbLine
 10
106.04000000000001
 20
26.93
 30
0.0
 11
106.04000000000001
 21
25.059999999999999
 31
0.0
  0
LINE
  5
412
100
AcDbEntity
  8
0
  6
CONTINUOUS
 62
               7
100
AcDbLine
 10
109.0
 20
22.199999999999999
 30
0.0
 11
109.0
 21
21.100000000000001
 31
0.0
  0
LINE
  5
413
100
AcDbEntity
  8
0
  6
CONTINUOUS
 62
               7
100
AcDbLine
 10
100.0
 20
22.199999999999999
 30
0.0
 11
100.0
 21
21.100000000000001
 31
0.0
  0
LINE
  5
414
100
AcDbEntity
  8
0
  6
CONTINUOUS
 62
               7
100
AcDbLine
 10
100.0
 20
30.899999999999999
 30
0.0
 11
100.0
 21
29.800000000000001
 31
0.0
  0
LINE
  5
415
100
AcDbEntity
  8
0
  6
CONTINUOUS
 62
               7
100
AcDbLine
 10
109.0
 20
30.899999999999999
 30
0.0
 11
109.0
 21
29.800000000000001
 31
0.0
  0
LINE
  5
416
100
AcDbEntity
  8
0
  6
CONTINUOUS
 62
               7
100
AcDbLine
 10
107.0
 20
22.199999999999999
 30
0.0
 11
107.0
 21
21.100000000000001
 31
0.0
  0
LINE
  5
417
100
AcDbEntity
  8
0
  6
CONTINUOUS
 62
               7
100
AcDbLine
 10
102.0
 20
30.899999999999999
 30
0.0
 11
102.0
 21
29.800000000000001
 31
0.0
  0
LINE
  5
418
100
AcDbEntity
  8
0
  6
CONTINUOUS
 62
               7
100
AcDbLine
 10
102.0
 20
22.199999999999999
 30
0.0
 11
102.0
 21
21.100000000000001
 31
0.0
  0
LINE
  5
419
100
AcDbEntity
  8
0
  6
CONTINUOUS
 62
               7
100
AcDbLine
 10
107.0
 20
30.899999999999999
 30
0.0
 11
107.0
 21
29.800000000000001
 31
0.0
  0
LINE
  5
41A
100
AcDbEntity
  8
0
  6
CONTINUOUS
 62
               7
100
AcDbLine
 10
100.0
 20
29.800000000000001
 30
0.0
 11
109.0
 21
29.800000000000001
 31
0.0
  0
LINE
  5
41B
100
AcDbEntity
  8
0
  6
CONTINUOUS
 62
               7
100
AcDbLine
 10
100.0
 20
22.199999999999999
 30
0.0
 11
109.0
 21
22.199999999999999
 31
0.0
  0
LINE
  5
41C
100
AcDbEntity
  8
0
  6
CONTINUOUS
 62
               7
100
AcDbLine
 10
96.099999999999994
 20
31.399999999999999
 30
0.0
 11
96.099999999999994
 21
20.600000000000001
 31
0.0
  0
LINE
  5
41D
100
AcDbEntity
  8
0
  6
CONTINUOUS
 62
               7
100
AcDbLine
 10
100.0
 20
30.899999999999999
 30
0.0
 11
109.0
 21
30.899999999999999
 31
0.0
  0
LINE
  5
41E
100
AcDbEntity
  8
0
  6
CONTINUOUS
 62
               7
100
AcDbLine
 10
95.890000000000001
 20
20.600000000000001
 30
0.0
 11
113.09999999999999
 21
20.600000000000001
 31
0.0
  0
LINE
  5
41F
100
AcDbEntity
  8
0
  6
CONTINUOUS
 62
               7
100
AcDbLine
 10
94.0
 20
22.489999999999998
 30
0.0
 11
95.890000000000001
 21
20.600000000000001
 31
0.0
  0
LINE
  5
420
100
AcDbEntity
  8
0
  6
CONTINUOUS
 62
               7
100
AcDbLine
 10
109.5
 20
20.600000000000001
 30
0.0
 11
109.5
 21
1.0
 31
0.0
  0
LINE
  5
421
100
AcDbEntity
  8
0
  6
CONTINUOUS
 62
               7
100
AcDbLine
 10
109.5
 20
47.0
 30
0.0
 11
109.5
 21
31.399999999999999
 31
0.0
  0
LINE
  5
422
100
AcDbEntity
  8
0
  6
CONTINUOUS
 62
               7
100
AcDbLine
 10
72.0
 20
21.100000000000001
 30
0.0
 11
81.0
 21
21.100000000000001
 31
0.0
  0
LINE
  5
423
100
AcDbEntity
  8
0
  6
CONTINUOUS
 62
               7
100
AcDbLine
 10
85.099999999999994
 20
20.600000000000001
 30
0.0
 11
87.0
 21
22.489999999999998
 31
0.0
  0
LINE
  5
424
100
AcDbEntity
  8
0
  6
CONTINUOUS
 62
               7
100
AcDbLine
 10
84.900000000000006
 20
31.399999999999999
 30
0.0
 11
84.900000000000006
 21
20.600000000000001
 31
0.0
  0
LINE
  5
425
100
AcDbEntity
  8
0
  6
CONTINUOUS
 62
               7
100
AcDbLine
 10
85.099999999999994
 20
31.399999999999999
 30
0.0
 11
87.0
 21
29.5
 31
0.0
  0
LINE
  5
426
100
AcDbEntity
  8
0
  6
CONTINUOUS
 62
               7
100
AcDbLine
 10
87.0
 20
29.5
 30
0.0
 11
87.0
 21
22.489999999999998
 31
0.0
  0
LINE
  5
427
100
AcDbEntity
  8
0
  6
CONTINUOUS
 62
               7
100
AcDbLine
 10
67.890000000000001
 20
31.399999999999999
 30
0.0
 11
85.099999999999994
 21
31.399999999999999
 31
0.0
  0
LINE
  5
428
100
AcDbEntity
  8
0
  6
CONTINUOUS
 62
               7
100
AcDbLine
 10
66.0
 20
29.5
 30
0.0
 11
67.890000000000001
 21
31.399999999999999
 31
0.0
  0
LINE
  5
429
100
AcDbEntity
  8
0
  6
CONTINUOUS
 62
               7
100
AcDbLine
 10
66.0
 20
29.5
 30
0.0
 11
66.0
 21
22.489999999999998
 31
0.0
  0
LINE
  5
42A
100
AcDbEntity
  8
0
  6
CONTINUOUS
 62
               7
100
AcDbLine
 10
76.5
 20
27.82
 30
0.0
 11
78.040000000000006
 21
26.93
 31
0.0
  0
LINE
  5
42B
100
AcDbEntity
  8
0
  6
CONTINUOUS
 62
               7
100
AcDbLine
 10
74.959999999999994
 20
25.059999999999999
 30
0.0
 11
76.5
 21
24.170000000000002
 31
0.0
  0
LINE
  5
42C
100
AcDbEntity
  8
0
  6
CONTINUOUS
 62
               7
100
AcDbLine
 10
76.5
 20
24.170000000000002
 30
0.0
 11
78.040000000000006
 21
25.059999999999999
 31
0.0
  0
LINE
  5
42D
100
AcDbEntity
  8
0
  6
CONTINUOUS
 62
               7
100
AcDbLine
 10
74.959999999999994
 20
26.93
 30
0.0
 11
76.5
 21
27.82
 31
0.0
  0
LINE
  5
42E
100
AcDbEntity
  8
0
  6
CONTINUOUS
 62
               7
100
AcDbLine
 10
74.959999999999994
 20
26.93
 30
0.0
 11
74.959999999999994
 21
25.059999999999999
 31
0.0
  0
LINE
  5
42F
100
AcDbEntity
  8
0
  6
CONTINUOUS
 62
               7
100
AcDbLine
 10
78.040000000000006
 20
26.93
 30
0.0
 11
78.040000000000006
 21
25.059999999999999
 31
0.0
  0
LINE
  5
430
100
AcDbEntity
  8
0
  6
CONTINUOUS
 62
               7
100
AcDbLine
 10
81.0
 20
22.199999999999999
 30
0.0
 11
81.0
 21
21.100000000000001
 31
0.0
  0
LINE
  5
431
100
AcDbEntity
  8
0
  6
CONTINUOUS
 62
               7
100
AcDbLine
 10
72.0
 20
22.199999999999999
 30
0.0
 11
72.0
 21
21.100000000000001
 31
0.0
  0
LINE
  5
432
100
AcDbEntity
  8
0
  6
CONTINUOUS
 62
               7
100
AcDbLine
 10
72.0
 20
30.899999999999999
 30
0.0
 11
72.0
 21
29.800000000000001
 31
0.0
  0
LINE
  5
433
100
AcDbEntity
  8
0
  6
CONTINUOUS
 62
               7
100
AcDbLine
 10
81.0
 20
30.899999999999999
 30
0.0
 11
81.0
 21
29.800000000000001
 31
0.0
  0
LINE
  5
434
100
AcDbEntity
  8
0
  6
CONTINUOUS
 62
               7
100
AcDbLine
 10
79.0
 20
22.199999999999999
 30
0.0
 11
79.0
 21
21.100000000000001
 31
0.0
  0
LINE
  5
435
100
AcDbEntity
  8
0
  6
CONTINUOUS
 62
               7
100
AcDbLine
 10
74.0
 20
30.899999999999999
 30
0.0
 11
74.0
 21
29.800000000000001
 31
0.0
  0
LINE
  5
436
100
AcDbEntity
  8
0
  6
CONTINUOUS
 62
               7
100
AcDbLine
 10
74.0
 20
22.199999999999999
 30
0.0
 11
74.0
 21
21.100000000000001
 31
0.0
  0
LINE
  5
437
100
AcDbEntity
  8
0
  6
CONTINUOUS
 62
               7
100
AcDbLine
 10
79.0
 20
30.899999999999999
 30
0.0
 11
79.0
 21
29.800000000000001
 31
0.0
  0
LINE
  5
438
100
AcDbEntity
  8
0
  6
CONTINUOUS
 62
               7
100
AcDbLine
 10
72.0
 20
29.800000000000001
 30
0.0
 11
81.0
 21
29.800000000000001
 31
0.0
  0
LINE
  5
439
100
AcDbEntity
  8
0
  6
CONTINUOUS
 62
               7
100
AcDbLine
 10
72.0
 20
22.199999999999999
 30
0.0
 11
81.0
 21
22.199999999999999
 31
0.0
  0
LINE
  5
43A
100
AcDbEntity
  8
0
  6
CONTINUOUS
 62
               7
100
AcDbLine
 10
68.099999999999994
 20
31.399999999999999
 30
0.0
 11
68.099999999999994
 21
20.600000000000001
 31
0.0
  0
LINE
  5
43B
100
AcDbEntity
  8
0
  6
CONTINUOUS
 62
               7
100
AcDbLine
 10
72.0
 20
30.899999999999999
 30
0.0
 11
81.0
 21
30.899999999999999
 31
0.0
  0
LINE
  5
43C
100
AcDbEntity
  8
0
  6
CONTINUOUS
 62
               7
100
AcDbLine
 10
67.890000000000001
 20
20.600000000000001
 30
0.0
 11
85.099999999999994
 21
20.600000000000001
 31
0.0
  0
LINE
  5
43D
100
AcDbEntity
  8
0
  6
CONTINUOUS
 62
               7
100
AcDbLine
 10
66.0
 20
22.489999999999998
 30
0.0
 11
67.890000000000001
 21
20.600000000000001
 31
0.0
  0
LINE
  5
43E
100
AcDbEntity
  8
0
  6
CONTINUOUS
 62
               7
100
AcDbLine
 10
81.5
 20
20.600000000000001
 30
0.0
 11
81.5
 21
1.0
 31
0.0
  0
LINE
  5
43F
100
AcDbEntity
  8
0
  6
CONTINUOUS
 62
               7
100
AcDbLine
 10
81.5
 20
47.0
 30
0.0
 11
81.5
 21
31.399999999999999
 31
0.0
  0
LINE
  5
440
100
AcDbEntity
  8
0
  6
CONTINUOUS
 62
               7
100
AcDbLine
 10
44.0
 20
21.100000000000001
 30
0.0
 11
53.0
 21
21.100000000000001
 31
0.0
  0
LINE
  5
441
100
AcDbEntity
  8
0
  6
CONTINUOUS
 62
               7
100
AcDbLine
 10
57.100000000000001
 20
20.600000000000001
 30
0.0
 11
59.0
 21
22.489999999999998
 31
0.0
  0
LINE
  5
442
100
AcDbEntity
  8
0
  6
CONTINUOUS
 62
               7
100
AcDbLine
 10
56.899999999999999
 20
31.399999999999999
 30
0.0
 11
56.899999999999999
 21
20.600000000000001
 31
0.0
  0
LINE
  5
443
100
AcDbEntity
  8
0
  6
CONTINUOUS
 62
               7
100
AcDbLine
 10
57.100000000000001
 20
31.399999999999999
 30
0.0
 11
59.0
 21
29.5
 31
0.0
  0
LINE
  5
444
100
AcDbEntity
  8
0
  6
CONTINUOUS
 62
               7
100
AcDbLine
 10
59.0
 20
29.5
 30
0.0
 11
59.0
 21
22.489999999999998
 31
0.0
  0
LINE
  5
445
100
AcDbEntity
  8
0
  6
CONTINUOUS
 62
               7
100
AcDbLine
 10
39.890000000000001
 20
31.399999999999999
 30
0.0
 11
57.100000000000001
 21
31.399999999999999
 31
0.0
  0
LINE
  5
446
100
AcDbEntity
  8
0
  6
CONTINUOUS
 62
               7
100
AcDbLine
 10
38.0
 20
29.5
 30
0.0
 11
39.890000000000001
 21
31.399999999999999
 31
0.0
  0
LINE
  5
447
100
AcDbEntity
  8
0
  6
CONTINUOUS
 62
               7
100
AcDbLine
 10
38.0
 20
29.5
 30
0.0
 11
38.0
 21
22.489999999999998
 31
0.0
  0
LINE
  5
448
100
AcDbEntity
  8
0
  6
CONTINUOUS
 62
               7
100
AcDbLine
 10
48.5
 20
27.82
 30
0.0
 11
50.039999999999999
 21
26.93
 31
0.0
  0
LINE
  5
449
100
AcDbEntity
  8
0
  6
CONTINUOUS
 62
               7
100
AcDbLine
 10
46.960000000000001
 20
25.059999999999999
 30
0.0
 11
48.5
 21
24.170000000000002
 31
0.0
  0
LINE
  5
44A
100
AcDbEntity
  8
0
  6
CONTINUOUS
 62
               7
100
AcDbLine
 10
48.5
 20
24.170000000000002
 30
0.0
 11
50.039999999999999
 21
25.059999999999999
 31
0.0
  0
LINE
  5
44B
100
AcDbEntity
  8
0
  6
CONTINUOUS
 62
               7
100
AcDbLine
 10
46.960000000000001
 20
26.93
 30
0.0
 11
48.5
 21
27.82
 31
0.0
  0
LINE
  5
44C
100
AcDbEntity
  8
0
  6
CONTINUOUS
 62
               7
100
AcDbLine
 10
46.960000000000001
 20
26.93
 30
0.0
 11
46.960000000000001
 21
25.059999999999999
 31
0.0
  0
LINE
  5
44D
100
AcDbEntity
  8
0
  6
CONTINUOUS
 62
               7
100
AcDbLine
 10
50.039999999999999
 20
26.93
 30
0.0
 11
50.039999999999999
 21
25.059999999999999
 31
0.0
  0
LINE
  5
44E
100
AcDbEntity
  8
0
  6
CONTINUOUS
 62
               7
100
AcDbLine
 10
53.0
 20
22.199999999999999
 30
0.0
 11
53.0
 21
21.100000000000001
 31
0.0
  0
LINE
  5
44F
100
AcDbEntity
  8
0
  6
CONTINUOUS
 62
               7
100
AcDbLine
 10
44.0
 20
22.199999999999999
 30
0.0
 11
44.0
 21
21.100000000000001
 31
0.0
  0
LINE
  5
450
100
AcDbEntity
  8
0
  6
CONTINUOUS
 62
               7
100
AcDbLine
 10
44.0
 20
30.899999999999999
 30
0.0
 11
44.0
 21
29.800000000000001
 31
0.0
  0
LINE
  5
451
100
AcDbEntity
  8
0
  6
CONTINUOUS
 62
               7
100
AcDbLine
 10
53.0
 20
30.899999999999999
 30
0.0
 11
53.0
 21
29.800000000000001
 31
0.0
  0
LINE
  5
452
100
AcDbEntity
  8
0
  6
CONTINUOUS
 62
               7
100
AcDbLine
 10
51.0
 20
22.199999999999999
 30
0.0
 11
51.0
 21
21.100000000000001
 31
0.0
  0
LINE
  5
453
100
AcDbEntity
  8
0
  6
CONTINUOUS
 62
               7
100
AcDbLine
 10
46.0
 20
30.899999999999999
 30
0.0
 11
46.0
 21
29.800000000000001
 31
0.0
  0
LINE
  5
454
100
AcDbEntity
  8
0
  6
CONTINUOUS
 62
               7
100
AcDbLine
 10
46.0
 20
22.199999999999999
 30
0.0
 11
46.0
 21
21.100000000000001
 31
0.0
  0
LINE
  5
455
100
AcDbEntity
  8
0
  6
CONTINUOUS
 62
               7
100
AcDbLine
 10
51.0
 20
30.899999999999999
 30
0.0
 11
51.0
 21
29.800000000000001
 31
0.0
  0
LINE
  5
456
100
AcDbEntity
  8
0
  6
CONTINUOUS
 62
               7
100
AcDbLine
 10
44.0
 20
29.800000000000001
 30
0.0
 11
53.0
 21
29.800000000000001
 31
0.0
  0
LINE
  5
457
100
AcDbEntity
  8
0
  6
CONTINUOUS
 62
               7
100
AcDbLine
 10
44.0
 20
22.199999999999999
 30
0.0
 11
53.0
 21
22.199999999999999
 31
0.0
  0
LINE
  5
458
100
AcDbEntity
  8
0
  6
CONTINUOUS
 62
               7
100
AcDbLine
 10
40.100000000000001
 20
31.399999999999999
 30
0.0
 11
40.100000000000001
 21
20.600000000000001
 31
0.0
  0
LINE
  5
459
100
AcDbEntity
  8
0
  6
CONTINUOUS
 62
               7
100
AcDbLine
 10
44.0
 20
30.899999999999999
 30
0.0
 11
53.0
 21
30.899999999999999
 31
0.0
  0
LINE
  5
45A
100
AcDbEntity
  8
0
  6
CONTINUOUS
 62
               7
100
AcDbLine
 10
39.890000000000001
 20
20.600000000000001
 30
0.0
 11
57.100000000000001
 21
20.600000000000001
 31
0.0
  0
LINE
  5
45B
100
AcDbEntity
  8
0
  6
CONTINUOUS
 62
               7
100
AcDbLine
 10
38.0
 20
22.489999999999998
 30
0.0
 11
39.890000000000001
 21
20.600000000000001
 31
0.0
  0
LINE
  5
45C
100
AcDbEntity
  8
0
  6
CONTINUOUS
 62
               7
100
AcDbLine
 10
53.5
 20
20.600000000000001
 30
0.0
 11
53.5
 21
1.0
 31
0.0
  0
LINE
  5
45D
100
AcDbEntity
  8
0
  6
CONTINUOUS
 62
               7
100
AcDbLine
 10
53.5
 20
47.0
 30
0.0
 11
53.5
 21
31.399999999999999
 31
0.0
  0
LINE
  5
45E
100
AcDbEntity
  8
0
  6
CENTER
 62
               2
100
AcDbLine
 10
191.0
 20
9.7699999999999996
 30
0.0
 11
191.0
 21
-4.9699999999999998
 31
0.0
  0
LINE
  5
45F
100
AcDbEntity
  8
0
  6
CENTER
 62
               2
100
AcDbLine
 10
0.0
 20
9.7699999999999996
 30
0.0
 11
0.0
 21
-4.9699999999999998
 31
0.0
  0
LINE
  5
460
100
AcDbEntity
  8
0
  6
CONTINUOUS
 62
               7
100
AcDbLine
 10
163.0
 20
48.5
 30
0.0
 11
163.0
 21
47.5
 31
0.0
  0
LINE
  5
461
100
AcDbEntity
  8
0
  6
CONTINUOUS
 62
               7
100
AcDbLine
 10
140.0
 20
48.5
 30
0.0
 11
140.0
 21
47.5
 31
0.0
  0
LINE
  5
462
100
AcDbEntity
  8
0
  6
CONTINUOUS
 62
               7
100
AcDbLine
 10
128.0
 20
21.100000000000001
 30
0.0
 11
137.0
 21
21.100000000000001
 31
0.0
  0
LINE
  5
463
100
AcDbEntity
  8
0
  6
CONTINUOUS
 62
               7
100
AcDbLine
 10
141.09999999999999
 20
20.600000000000001
 30
0.0
 11
143.0
 21
22.489999999999998
 31
0.0
  0
LINE
  5
464
100
AcDbEntity
  8
0
  6
CONTINUOUS
 62
               7
100
AcDbLine
 10
140.90000000000001
 20
31.399999999999999
 30
0.0
 11
140.90000000000001
 21
20.600000000000001
 31
0.0
  0
LINE
  5
465
100
AcDbEntity
  8
0
  6
CONTINUOUS
 62
               7
100
AcDbLine
 10
141.09999999999999
 20
31.399999999999999
 30
0.0
 11
143.0
 21
29.5
 31
0.0
  0
LINE
  5
466
100
AcDbEntity
  8
0
  6
CONTINUOUS
 62
               7
100
AcDbLine
 10
143.0
 20
29.5
 30
0.0
 11
143.0
 21
22.489999999999998
 31
0.0
  0
LINE
  5
467
100
AcDbEntity
  8
0
  6
CONTINUOUS
 62
               7
100
AcDbLine
 10
123.89
 20
31.399999999999999
 30
0.0
 11
141.09999999999999
 21
31.399999999999999
 31
0.0
  0
LINE
  5
468
100
AcDbEntity
  8
0
  6
CONTINUOUS
 62
               7
100
AcDbLine
 10
122.0
 20
29.5
 30
0.0
 11
123.89
 21
31.399999999999999
 31
0.0
  0
LINE
  5
469
100
AcDbEntity
  8
0
  6
CONTINUOUS
 62
               7
100
AcDbLine
 10
122.0
 20
29.5
 30
0.0
 11
122.0
 21
22.489999999999998
 31
0.0
  0
LINE
  5
46A
100
AcDbEntity
  8
0
  6
CONTINUOUS
 62
               7
100
AcDbLine
 10
132.5
 20
27.82
 30
0.0
 11
134.03999999999999
 21
26.93
 31
0.0
  0
LINE
  5
46B
100
AcDbEntity
  8
0
  6
CONTINUOUS
 62
               7
100
AcDbLine
 10
130.96000000000001
 20
25.059999999999999
 30
0.0
 11
132.5
 21
24.170000000000002
 31
0.0
  0
LINE
  5
46C
100
AcDbEntity
  8
0
  6
CONTINUOUS
 62
               7
100
AcDbLine
 10
132.5
 20
24.170000000000002
 30
0.0
 11
134.03999999999999
 21
25.059999999999999
 31
0.0
  0
LINE
  5
46D
100
AcDbEntity
  8
0
  6
CONTINUOUS
 62
               7
100
AcDbLine
 10
130.96000000000001
 20
26.93
 30
0.0
 11
132.5
 21
27.82
 31
0.0
  0
LINE
  5
46E
100
AcDbEntity
  8
0
  6
CONTINUOUS
 62
               7
100
AcDbLine
 10
130.96000000000001
 20
26.93
 30
0.0
 11
130.96000000000001
 21
25.059999999999999
 31
0.0
  0
LINE
  5
46F
100
AcDbEntity
  8
0
  6
CONTINUOUS
 62
               7
100
AcDbLine
 10
134.03999999999999
 20
26.93
 30
0.0
 11
134.03999999999999
 21
25.059999999999999
 31
0.0
  0
LINE
  5
470
100
AcDbEntity
  8
0
  6
CONTINUOUS
 62
               7
100
AcDbLine
 10
137.0
 20
22.199999999999999
 30
0.0
 11
137.0
 21
21.100000000000001
 31
0.0
  0
LINE
  5
471
100
AcDbEntity
  8
0
  6
CONTINUOUS
 62
               7
100
AcDbLine
 10
128.0
 20
22.199999999999999
 30
0.0
 11
128.0
 21
21.100000000000001
 31
0.0
  0
LINE
  5
472
100
AcDbEntity
  8
0
  6
CONTINUOUS
 62
               7
100
AcDbLine
 10
128.0
 20
30.899999999999999
 30
0.0
 11
128.0
 21
29.800000000000001
 31
0.0
  0
LINE
  5
473
100
AcDbEntity
  8
0
  6
CONTINUOUS
 62
               7
100
AcDbLine
 10
137.0
 20
30.899999999999999
 30
0.0
 11
137.0
 21
29.800000000000001
 31
0.0
  0
LINE
  5
474
100
AcDbEntity
  8
0
  6
CONTINUOUS
 62
               7
100
AcDbLine
 10
135.0
 20
22.199999999999999
 30
0.0
 11
135.0
 21
21.100000000000001
 31
0.0
  0
LINE
  5
475
100
AcDbEntity
  8
0
  6
CONTINUOUS
 62
               7
100
AcDbLine
 10
130.0
 20
30.899999999999999
 30
0.0
 11
130.0
 21
29.800000000000001
 31
0.0
  0
LINE
  5
476
100
AcDbEntity
  8
0
  6
CONTINUOUS
 62
               7
100
AcDbLine
 10
130.0
 20
22.199999999999999
 30
0.0
 11
130.0
 21
21.100000000000001
 31
0.0
  0
LINE
  5
477
100
AcDbEntity
  8
0
  6
CONTINUOUS
 62
               7
100
AcDbLine
 10
135.0
 20
30.899999999999999
 30
0.0
 11
135.0
 21
29.800000000000001
 31
0.0
  0
LINE
  5
478
100
AcDbEntity
  8
0
  6
CONTINUOUS
 62
               7
100
AcDbLine
 10
128.0
 20
29.800000000000001
 30
0.0
 11
137.0
 21
29.800000000000001
 31
0.0
  0
LINE
  5
479
100
AcDbEntity
  8
0
  6
CONTINUOUS
 62
               7
100
AcDbLine
 10
128.0
 20
22.199999999999999
 30
0.0
 11
137.0
 21
22.199999999999999
 31
0.0
  0
LINE
  5
47A
100
AcDbEntity
  8
0
  6
CONTINUOUS
 62
               7
100
AcDbLine
 10
124.09999999999999
 20
31.399999999999999
 30
0.0
 11
124.09999999999999
 21
20.600000000000001
 31
0.0
  0
LINE
  5
47B
100
AcDbEntity
  8
0
  6
CONTINUOUS
 62
               7
100
AcDbLine
 10
128.0
 20
30.899999999999999
 30
0.0
 11
137.0
 21
30.899999999999999
 31
0.0
  0
LINE
  5
47C
100
AcDbEntity
  8
0
  6
CONTINUOUS
 62
               7
100
AcDbLine
 10
123.89
 20
20.600000000000001
 30
0.0
 11
141.09999999999999
 21
20.600000000000001
 31
0.0
  0
LINE
  5
47D
100
AcDbEntity
  8
0
  6
CONTINUOUS
 62
               7
100
AcDbLine
 10
122.0
 20
22.489999999999998
 30
0.0
 11
123.89
 21
20.600000000000001
 31
0.0
  0
LINE
  5
47E
100
AcDbEntity
  8
0
  6
CONTINUOUS
 62
               7
100
AcDbLine
 10
30.5
 20
29.300000000000001
 30
0.0
 11
28.899999999999999
 21
30.899999999999999
 31
0.0
  0
LINE
  5
47F
100
AcDbEntity
  8
0
  6
CONTINUOUS
 62
               7
100
AcDbLine
 10
51.5
 20
47.5
 30
0.0
 11
51.5
 21
47.0
 31
0.0
  0
LINE
  5
480
100
AcDbEntity
  8
0
  6
CONTINUOUS
 62
               7
100
AcDbLine
 10
27.5
 20
47.5
 30
0.0
 11
27.5
 21
47.0
 31
0.0
  0
LINE
  5
481
100
AcDbEntity
  8
0
  6
CONTINUOUS
 62
               7
100
AcDbLine
 10
27.5
 20
47.5
 30
0.0
 11
51.5
 21
47.5
 31
0.0
  0
LINE
  5
482
100
AcDbEntity
  8
0
  6
CENTER
 62
               2
100
AcDbLine
 10
39.5
 20
92.269999999999996
 30
0.0
 11
39.5
 21
-2.0
 31
0.0
  0
LINE
  5
483
100
AcDbEntity
  8
0
  6
CONTINUOUS
 62
               7
100
AcDbLine
 10
25.5
 20
21.100000000000001
 30
0.0
 11
25.5
 21
1.0
 31
0.0
  0
LINE
  5
484
100
AcDbEntity
  8
0
  6
CONTINUOUS
 62
               7
100
AcDbLine
 10
29.100000000000001
 20
31.399999999999999
 30
0.0
 11
31.0
 21
29.5
 31
0.0
  0
LINE
  5
485
100
AcDbEntity
  8
0
  6
CONTINUOUS
 62
               7
100
AcDbLine
 10
31.0
 20
29.5
 30
0.0
 11
31.0
 21
22.489999999999998
 31
0.0
  0
LINE
  5
486
100
AcDbEntity
  8
0
  6
CONTINUOUS
 62
               7
100
AcDbLine
 10
29.100000000000001
 20
20.600000000000001
 30
0.0
 11
31.0
 21
22.489999999999998
 31
0.0
  0
LINE
  5
487
100
AcDbEntity
  8
0
  6
CONTINUOUS
 62
               7
100
AcDbLine
 10
25.5
 20
20.600000000000001
 30
0.0
 11
29.100000000000001
 21
20.600000000000001
 31
0.0
  0
LINE
  5
488
100
AcDbEntity
  8
0
  6
CONTINUOUS
 62
               7
100
AcDbLine
 10
25.5
 20
31.399999999999999
 30
0.0
 11
29.100000000000001
 21
31.399999999999999
 31
0.0
  0
LINE
  5
489
100
AcDbEntity
  8
0
  6
CONTINUOUS
 62
               7
100
AcDbLine
 10
28.899999999999999
 20
21.100000000000001
 30
0.0
 11
30.5
 21
22.699999999999999
 31
0.0
  0
LINE
  5
48A
100
AcDbEntity
  8
0
  6
CONTINUOUS
 62
               7
100
AcDbLine
 10
28.899999999999999
 20
30.899999999999999
 30
0.0
 11
28.899999999999999
 21
21.100000000000001
 31
0.0
  0
LINE
  5
48B
100
AcDbEntity
  8
0
  6
CONTINUOUS
 62
               7
100
AcDbLine
 10
30.5
 20
29.300000000000001
 30
0.0
 11
30.5
 21
22.699999999999999
 31
0.0
  0
LINE
  5
48C
100
AcDbEntity
  8
0
  6
CONTINUOUS
 62
               7
100
AcDbLine
 10
25.5
 20
1.5
 30
0.0
 11
53.5
 21
1.5
 31
0.0
  0
LINE
  5
48D
100
AcDbEntity
  8
0
  6
CONTINUOUS
 62
               7
100
AcDbLine
 10
25.5
 20
1.0
 30
0.0
 11
53.5
 21
1.0
 31
0.0
  0
LINE
  5
48E
100
AcDbEntity
  8
0
  6
CENTER
 62
               2
100
AcDbLine
 10
38.5
 20
20.609999999999999
 30
0.0
 11
38.5
 21
4.7199999999999998
 31
0.0
  0
LINE
  5
48F
100
AcDbEntity
  8
0
  6
CENTER
 62
               2
100
AcDbLine
 10
30.960000000000001
 20
12.5
 30
0.0
 11
46.189999999999998
 21
12.5
 31
0.0
  0
LINE
  5
490
100
AcDbEntity
  8
0
  6
CENTER
 62
               2
100
AcDbLine
 10
35.5
 20
45.969999999999999
 30
0.0
 11
35.5
 21
29.800000000000001
 31
0.0
  0
LINE
  5
491
100
AcDbEntity
  8
0
  6
CENTER
 62
               2
100
AcDbLine
 10
27.879999999999999
 20
38.5
 30
0.0
 11
44.509999999999998
 21
38.5
 31
0.0
  0
LINE
  5
492
100
AcDbEntity
  8
0
  6
CONTINUOUS
 62
               7
100
AcDbLine
 10
25.5
 20
46.0
 30
0.0
 11
53.5
 21
46.0
 31
0.0
  0
LINE
  5
493
100
AcDbEntity
  8
0
  6
CONTINUOUS
 62
               7
100
AcDbLine
 10
25.5
 20
47.0
 30
0.0
 11
53.5
 21
47.0
 31
0.0
  0
LINE
  5
494
100
AcDbEntity
  8
0
  6
CONTINUOUS
 62
               7
100
AcDbLine
 10
25.5
 20
47.0
 30
0.0
 11
25.5
 21
30.899999999999999
 31
0.0
  0
LINE
  5
495
100
AcDbEntity
  8
0
  6
CONTINUOUS
 62
               7
100
AcDbLine
 10
79.5
 20
47.5
 30
0.0
 11
79.5
 21
47.0
 31
0.0
  0
LINE
  5
496
100
AcDbEntity
  8
0
  6
CONTINUOUS
 62
               7
100
AcDbLine
 10
55.5
 20
47.5
 30
0.0
 11
55.5
 21
47.0
 31
0.0
  0
LINE
  5
497
100
AcDbEntity
  8
0
  6
CONTINUOUS
 62
               7
100
AcDbLine
 10
55.5
 20
47.5
 30
0.0
 11
79.5
 21
47.5
 31
0.0
  0
LINE
  5
498
100
AcDbEntity
  8
0
  6
CENTER
 62
               2
100
AcDbLine
 10
67.5
 20
92.269999999999996
 30
0.0
 11
67.5
 21
-2.0
 31
0.0
  0
LINE
  5
499
100
AcDbEntity
  8
0
  6
CONTINUOUS
 62
               7
100
AcDbLine
 10
137.5
 20
20.600000000000001
 30
0.0
 11
137.5
 21
1.0
 31
0.0
  0
LINE
  5
49A
100
AcDbEntity
  8
0
  6
CONTINUOUS
 62
               7
100
AcDbLine
 10
53.5
 20
1.5
 30
0.0
 11
81.5
 21
1.5
 31
0.0
  0
LINE
  5
49B
100
AcDbEntity
  8
0
  6
CONTINUOUS
 62
               7
100
AcDbLine
 10
53.5
 20
1.0
 30
0.0
 11
81.5
 21
1.0
 31
0.0
  0
LINE
  5
49C
100
AcDbEntity
  8
0
  6
CENTER
 62
               2
100
AcDbLine
 10
66.5
 20
20.609999999999999
 30
0.0
 11
66.5
 21
4.7199999999999998
 31
0.0
  0
LINE
  5
49D
100
AcDbEntity
  8
0
  6
CENTER
 62
               2
100
AcDbLine
 10
58.960000000000001
 20
12.5
 30
0.0
 11
74.189999999999998
 21
12.5
 31
0.0
  0
LINE
  5
49E
100
AcDbEntity
  8
0
  6
CENTER
 62
               2
100
AcDbLine
 10
63.5
 20
45.969999999999999
 30
0.0
 11
63.5
 21
29.800000000000001
 31
0.0
  0
LINE
  5
49F
100
AcDbEntity
  8
0
  6
CENTER
 62
               2
100
AcDbLine
 10
55.880000000000003
 20
38.5
 30
0.0
 11
72.510000000000005
 21
38.5
 31
0.0
  0
LINE
  5
4A0
100
AcDbEntity
  8
0
  6
CONTINUOUS
 62
               7
100
AcDbLine
 10
53.5
 20
46.0
 30
0.0
 11
81.5
 21
46.0
 31
0.0
  0
LINE
  5
4A1
100
AcDbEntity
  8
0
  6
CONTINUOUS
 62
               7
100
AcDbLine
 10
53.5
 20
47.0
 30
0.0
 11
81.5
 21
47.0
 31
0.0
  0
LINE
  5
4A2
100
AcDbEntity
  8
0
  6
CONTINUOUS
 62
               7
100
AcDbLine
 10
137.5
 20
47.0
 30
0.0
 11
137.5
 21
31.399999999999999
 31
0.0
  0
LINE
  5
4A3
100
AcDbEntity
  8
0
  6
CONTINUOUS
 62
               7
100
AcDbLine
 10
163.5
 20
47.5
 30
0.0
 11
163.5
 21
47.0
 31
0.0
  0
LINE
  5
4A4
100
AcDbEntity
  8
0
  6
CONTINUOUS
 62
               7
100
AcDbLine
 10
139.5
 20
47.5
 30
0.0
 11
139.5
 21
47.0
 31
0.0
  0
LINE
  5
4A5
100
AcDbEntity
  8
0
  6
CONTINUOUS
 62
               7
100
AcDbLine
 10
139.5
 20
47.5
 30
0.0
 11
163.5
 21
47.5
 31
0.0
  0
LINE
  5
4A6
100
AcDbEntity
  8
0
  6
CENTER
 62
               2
100
AcDbLine
 10
151.5
 20
57.170000000000002
 30
0.0
 11
151.5
 21
-2.0
 31
0.0
  0
LINE
  5
4A7
100
AcDbEntity
  8
0
  6
CONTINUOUS
 62
               7
100
AcDbLine
 10
150.0
 20
22.489999999999998
 30
0.0
 11
151.88999999999999
 21
20.600000000000001
 31
0.0
  0
LINE
  5
4A8
100
AcDbEntity
  8
0
  6
CONTINUOUS
 62
               7
100
AcDbLine
 10
151.88999999999999
 20
20.600000000000001
 30
0.0
 11
171.0
 21
20.600000000000001
 31
0.0
  0
LINE
  5
4A9
100
AcDbEntity
  8
0
  6
CONTINUOUS
 62
               7
100
AcDbLine
 10
151.88999999999999
 20
31.399999999999999
 30
0.0
 11
171.0
 21
31.399999999999999
 31
0.0
  0
LINE
  5
4AA
100
AcDbEntity
  8
0
  6
CONTINUOUS
 62
               7
100
AcDbLine
 10
150.0
 20
29.5
 30
0.0
 11
151.88999999999999
 21
31.399999999999999
 31
0.0
  0
LINE
  5
4AB
100
AcDbEntity
  8
0
  6
CONTINUOUS
 62
               7
100
AcDbLine
 10
150.0
 20
29.5
 30
0.0
 11
150.0
 21
22.489999999999998
 31
0.0
  0
LINE
  5
4AC
100
AcDbEntity
  8
0
  6
CONTINUOUS
 62
               7
100
AcDbLine
 10
160.5
 20
27.82
 30
0.0
 11
162.03999999999999
 21
26.93
 31
0.0
  0
LINE
  5
4AD
100
AcDbEntity
  8
0
  6
CONTINUOUS
 62
               7
100
AcDbLine
 10
158.96000000000001
 20
25.059999999999999
 30
0.0
 11
160.5
 21
24.170000000000002
 31
0.0
  0
LINE
  5
4AE
100
AcDbEntity
  8
0
  6
CONTINUOUS
 62
               7
100
AcDbLine
 10
160.5
 20
24.170000000000002
 30
0.0
 11
162.03999999999999
 21
25.059999999999999
 31
0.0
  0
LINE
  5
4AF
100
AcDbEntity
  8
0
  6
CONTINUOUS
 62
               7
100
AcDbLine
 10
158.96000000000001
 20
26.93
 30
0.0
 11
160.5
 21
27.82
 31
0.0
  0
LINE
  5
4B0
100
AcDbEntity
  8
0
  6
CONTINUOUS
 62
               7
100
AcDbLine
 10
158.96000000000001
 20
26.93
 30
0.0
 11
158.96000000000001
 21
25.059999999999999
 31
0.0
  0
LINE
  5
4B1
100
AcDbEntity
  8
0
  6
CONTINUOUS
 62
               7
100
AcDbLine
 10
162.03999999999999
 20
26.93
 30
0.0
 11
162.03999999999999
 21
25.059999999999999
 31
0.0
  0
LINE
  5
4B2
100
AcDbEntity
  8
0
  6
CONTINUOUS
 62
               7
100
AcDbLine
 10
165.0
 20
22.199999999999999
 30
0.0
 11
165.0
 21
21.100000000000001
 31
0.0
  0
LINE
  5
4B3
100
AcDbEntity
  8
0
  6
CONTINUOUS
 62
               7
100
AcDbLine
 10
156.0
 20
22.199999999999999
 30
0.0
 11
156.0
 21
21.100000000000001
 31
0.0
  0
LINE
  5
4B4
100
AcDbEntity
  8
0
  6
CONTINUOUS
 62
               7
100
AcDbLine
 10
156.0
 20
30.899999999999999
 30
0.0
 11
156.0
 21
29.800000000000001
 31
0.0
  0
LINE
  5
4B5
100
AcDbEntity
  8
0
  6
CONTINUOUS
 62
               7
100
AcDbLine
 10
165.0
 20
30.899999999999999
 30
0.0
 11
165.0
 21
29.800000000000001
 31
0.0
  0
LINE
  5
4B6
100
AcDbEntity
  8
0
  6
CONTINUOUS
 62
               7
100
AcDbLine
 10
163.0
 20
22.199999999999999
 30
0.0
 11
163.0
 21
21.100000000000001
 31
0.0
  0
LINE
  5
4B7
100
AcDbEntity
  8
0
  6
CONTINUOUS
 62
               7
100
AcDbLine
 10
158.0
 20
30.899999999999999
 30
0.0
 11
158.0
 21
29.800000000000001
 31
0.0
  0
LINE
  5
4B8
100
AcDbEntity
  8
0
  6
CONTINUOUS
 62
               7
100
AcDbLine
 10
158.0
 20
22.199999999999999
 30
0.0
 11
158.0
 21
21.100000000000001
 31
0.0
  0
LINE
  5
4B9
100
AcDbEntity
  8
0
  6
CONTINUOUS
 62
               7
100
AcDbLine
 10
163.0
 20
30.899999999999999
 30
0.0
 11
163.0
 21
29.800000000000001
 31
0.0
  0
LINE
  5
4BA
100
AcDbEntity
  8
0
  6
CONTINUOUS
 62
               7
100
AcDbLine
 10
156.0
 20
29.800000000000001
 30
0.0
 11
165.0
 21
29.800000000000001
 31
0.0
  0
LINE
  5
4BB
100
AcDbEntity
  8
0
  6
CONTINUOUS
 62
               7
100
AcDbLine
 10
156.0
 20
22.199999999999999
 30
0.0
 11
165.0
 21
22.199999999999999
 31
0.0
  0
LINE
  5
4BC
100
AcDbEntity
  8
0
  6
CONTINUOUS
 62
               7
100
AcDbLine
 10
150.5
 20
22.699999999999999
 30
0.0
 11
152.09999999999999
 21
21.100000000000001
 31
0.0
  0
LINE
  5
4BD
100
AcDbEntity
  8
0
  6
CONTINUOUS
 62
               7
100
AcDbLine
 10
150.5
 20
29.300000000000001
 30
0.0
 11
152.09999999999999
 21
30.899999999999999
 31
0.0
  0
LINE
  5
4BE
100
AcDbEntity
  8
0
  6
CONTINUOUS
 62
               7
100
AcDbLine
 10
152.09999999999999
 20
30.899999999999999
 30
0.0
 11
152.09999999999999
 21
21.100000000000001
 31
0.0
  0
LINE
  5
4BF
100
AcDbEntity
  8
0
  6
CONTINUOUS
 62
               7
100
AcDbLine
 10
152.09999999999999
 20
30.899999999999999
 30
0.0
 11
168.90000000000001
 21
30.899999999999999
 31
0.0
  0
LINE
  5
4C0
100
AcDbEntity
  8
0
  6
CONTINUOUS
 62
               7
100
AcDbLine
 10
150.5
 20
29.300000000000001
 30
0.0
 11
150.5
 21
22.699999999999999
 31
0.0
  0
LINE
  5
4C1
100
AcDbEntity
  8
0
  6
CONTINUOUS
 62
               7
100
AcDbLine
 10
152.09999999999999
 20
21.100000000000001
 30
0.0
 11
168.90000000000001
 21
21.100000000000001
 31
0.0
  0
LINE
  5
4C2
100
AcDbEntity
  8
0
  6
CONTINUOUS
 62
               7
100
AcDbLine
 10
137.5
 20
1.5
 30
0.0
 11
165.5
 21
1.5
 31
0.0
  0
LINE
  5
4C3
100
AcDbEntity
  8
0
  6
CONTINUOUS
 62
               7
100
AcDbLine
 10
137.5
 20
1.0
 30
0.0
 11
165.5
 21
1.0
 31
0.0
  0
LINE
  5
4C4
100
AcDbEntity
  8
0
  6
CENTER
 62
               2
100
AcDbLine
 10
150.5
 20
20.609999999999999
 30
0.0
 11
150.5
 21
4.7199999999999998
 31
0.0
  0
LINE
  5
4C5
100
AcDbEntity
  8
0
  6
CENTER
 62
               2
100
AcDbLine
 10
142.96000000000001
 20
12.5
 30
0.0
 11
158.19
 21
12.5
 31
0.0
  0
LINE
  5
4C6
100
AcDbEntity
  8
0
  6
CENTER
 62
               2
100
AcDbLine
 10
147.5
 20
45.969999999999999
 30
0.0
 11
147.5
 21
29.800000000000001
 31
0.0
  0
LINE
  5
4C7
100
AcDbEntity
  8
0
  6
CENTER
 62
               2
100
AcDbLine
 10
139.88
 20
38.5
 30
0.0
 11
156.50999999999999
 21
38.5
 31
0.0
  0
LINE
  5
4C8
100
AcDbEntity
  8
0
  6
CONTINUOUS
 62
               7
100
AcDbLine
 10
137.5
 20
46.0
 30
0.0
 11
165.5
 21
46.0
 31
0.0
  0
LINE
  5
4C9
100
AcDbEntity
  8
0
  6
CONTINUOUS
 62
               7
100
AcDbLine
 10
137.5
 20
47.0
 30
0.0
 11
165.5
 21
47.0
 31
0.0
  0
LINE
  5
4CA
100
AcDbEntity
  8
0
  6
CONTINUOUS
 62
               7
100
AcDbLine
 10
135.5
 20
47.5
 30
0.0
 11
135.5
 21
47.0
 31
0.0
  0
LINE
  5
4CB
100
AcDbEntity
  8
0
  6
CONTINUOUS
 62
               7
100
AcDbLine
 10
111.5
 20
47.5
 30
0.0
 11
111.5
 21
47.0
 31
0.0
  0
LINE
  5
4CC
100
AcDbEntity
  8
0
  6
CONTINUOUS
 62
               7
100
AcDbLine
 10
111.5
 20
47.5
 30
0.0
 11
135.5
 21
47.5
 31
0.0
  0
LINE
  5
4CD
100
AcDbEntity
  8
0
  6
CONTINUOUS
 62
               7
100
AcDbLine
 10
109.5
 20
1.5
 30
0.0
 11
137.5
 21
1.5
 31
0.0
  0
LINE
  5
4CE
100
AcDbEntity
  8
0
  6
CONTINUOUS
 62
               7
100
AcDbLine
 10
109.5
 20
1.0
 30
0.0
 11
137.5
 21
1.0
 31
0.0
  0
LINE
  5
4CF
100
AcDbEntity
  8
0
  6
CENTER
 62
               2
100
AcDbLine
 10
122.5
 20
20.609999999999999
 30
0.0
 11
122.5
 21
4.7199999999999998
 31
0.0
  0
LINE
  5
4D0
100
AcDbEntity
  8
0
  6
CENTER
 62
               2
100
AcDbLine
 10
114.95999999999999
 20
12.5
 30
0.0
 11
130.19
 21
12.5
 31
0.0
  0
LINE
  5
4D1
100
AcDbEntity
  8
0
  6
CENTER
 62
               2
100
AcDbLine
 10
119.5
 20
45.969999999999999
 30
0.0
 11
119.5
 21
29.800000000000001
 31
0.0
  0
LINE
  5
4D2
100
AcDbEntity
  8
0
  6
CENTER
 62
               2
100
AcDbLine
 10
111.88
 20
38.5
 30
0.0
 11
128.50999999999999
 21
38.5
 31
0.0
  0
LINE
  5
4D3
100
AcDbEntity
  8
0
  6
CONTINUOUS
 62
               7
100
AcDbLine
 10
109.5
 20
46.0
 30
0.0
 11
137.5
 21
46.0
 31
0.0
  0
LINE
  5
4D4
100
AcDbEntity
  8
0
  6
CONTINUOUS
 62
               7
100
AcDbLine
 10
109.5
 20
47.0
 30
0.0
 11
137.5
 21
47.0
 31
0.0
  0
LINE
  5
4D5
100
AcDbEntity
  8
0
  6
CONTINUOUS
 62
               7
100
AcDbLine
 10
107.5
 20
47.5
 30
0.0
 11
107.5
 21
47.0
 31
0.0
  0
LINE
  5
4D6
100
AcDbEntity
  8
0
  6
CONTINUOUS
 62
               7
100
AcDbLine
 10
83.5
 20
47.5
 30
0.0
 11
83.5
 21
47.0
 31
0.0
  0
LINE
  5
4D7
100
AcDbEntity
  8
0
  6
CONTINUOUS
 62
               7
100
AcDbLine
 10
83.5
 20
47.5
 30
0.0
 11
107.5
 21
47.5
 31
0.0
  0
LINE
  5
4D8
100
AcDbEntity
  8
0
  6
CONTINUOUS
 62
               7
100
AcDbLine
 10
81.5
 20
1.5
 30
0.0
 11
109.5
 21
1.5
 31
0.0
  0
LINE
  5
4D9
100
AcDbEntity
  8
0
  6
CONTINUOUS
 62
               7
100
AcDbLine
 10
81.5
 20
1.0
 30
0.0
 11
109.5
 21
1.0
 31
0.0
  0
LINE
  5
4DA
100
AcDbEntity
  8
0
  6
CENTER
 62
               2
100
AcDbLine
 10
94.5
 20
20.609999999999999
 30
0.0
 11
94.5
 21
4.7199999999999998
 31
0.0
  0
LINE
  5
4DB
100
AcDbEntity
  8
0
  6
CENTER
 62
               2
100
AcDbLine
 10
86.959999999999994
 20
12.5
 30
0.0
 11
102.19
 21
12.5
 31
0.0
  0
LINE
  5
4DC
100
AcDbEntity
  8
0
  6
CENTER
 62
               2
100
AcDbLine
 10
91.5
 20
45.969999999999999
 30
0.0
 11
91.5
 21
29.800000000000001
 31
0.0
  0
LINE
  5
4DD
100
AcDbEntity
  8
0
  6
CENTER
 62
               2
100
AcDbLine
 10
83.879999999999995
 20
38.5
 30
0.0
 11
100.51000000000001
 21
38.5
 31
0.0
  0
LINE
  5
4DE
100
AcDbEntity
  8
0
  6
CONTINUOUS
 62
               7
100
AcDbLine
 10
81.5
 20
46.0
 30
0.0
 11
109.5
 21
46.0
 31
0.0
  0
LINE
  5
4DF
100
AcDbEntity
  8
0
  6
CONTINUOUS
 62
               7
100
AcDbLine
 10
81.5
 20
47.0
 30
0.0
 11
109.5
 21
47.0
 31
0.0
  0
LINE
  5
4E0
100
AcDbEntity
  8
0
  6
CONTINUOUS
 62
               7
100
AcDbLine
 10
135.0
 20
48.5
 30
0.0
 11
135.0
 21
47.5
 31
0.0
  0
LINE
  5
4E1
100
AcDbEntity
  8
0
  6
CONTINUOUS
 62
               7
100
AcDbLine
 10
112.0
 20
48.5
 30
0.0
 11
112.0
 21
47.5
 31
0.0
  0
LINE
  5
4E2
100
AcDbEntity
  8
0
  6
CONTINUOUS
 62
               7
100
AcDbLine
 10
84.0
 20
48.5
 30
0.0
 11
84.0
 21
47.5
 31
0.0
  0
LINE
  5
4E3
100
AcDbEntity
  8
0
  6
CONTINUOUS
 62
               7
100
AcDbLine
 10
107.0
 20
48.5
 30
0.0
 11
107.0
 21
47.5
 31
0.0
  0
LINE
  5
4E4
100
AcDbEntity
  8
0
  6
CONTINUOUS
 62
               7
100
AcDbLine
 10
79.0
 20
48.5
 30
0.0
 11
79.0
 21
47.5
 31
0.0
  0
LINE
  5
4E5
100
AcDbEntity
  8
0
  6
CONTINUOUS
 62
               7
100
AcDbLine
 10
56.0
 20
48.5
 30
0.0
 11
56.0
 21
47.5
 31
0.0
  0
LINE
  5
4E6
100
AcDbEntity
  8
0
  6
CONTINUOUS
 62
               7
100
AcDbLine
 10
79.0
 20
85.5
 30
0.0
 11
79.0
 21
48.5
 31
0.0
  0
LINE
  5
4E7
100
AcDbEntity
  8
0
  6
CONTINUOUS
 62
               7
100
AcDbLine
 10
56.0
 20
85.5
 30
0.0
 11
56.0
 21
48.5
 31
0.0
  0
LINE
  5
4E8
100
AcDbEntity
  8
0
  6
CENTER
 62
               2
100
AcDbLine
 10
60.5
 20
82.5
 30
0.0
 11
60.5
 21
72.5
 31
0.0
  0
LINE
  5
4E9
100
AcDbEntity
  8
0
  6
CENTER
 62
               2
100
AcDbLine
 10
74.5
 20
59.5
 30
0.0
 11
74.5
 21
49.5
 31
0.0
  0
LINE
  5
4EA
100
AcDbEntity
  8
0
  6
CENTER
 62
               2
100
AcDbLine
 10
69.5
 20
54.5
 30
0.0
 11
79.5
 21
54.5
 31
0.0
  0
LINE
  5
4EB
100
AcDbEntity
  8
0
  6
CENTER
 62
               2
100
AcDbLine
 10
55.5
 20
77.5
 30
0.0
 11
65.5
 21
77.5
 31
0.0
  0
LINE
  5
4EC
100
AcDbEntity
  8
0
  6
CONTINUOUS
 62
               7
100
AcDbLine
 10
74.329999999999998
 20
77.159999999999997
 30
0.0
 11
76.530000000000001
 21
74.959999999999994
 31
0.0
  0
LINE
  5
4ED
100
AcDbEntity
  8
0
  6
CONTINUOUS
 62
               7
100
AcDbLine
 10
74.409999999999997
 20
74.909999999999997
 30
0.0
 11
76.459999999999994
 21
76.959999999999994
 31
0.0
  0
LINE
  5
4EE
100
AcDbEntity
  8
0
  6
CONTINUOUS
 62
               7
100
AcDbLine
 10
58.329999999999998
 20
57.159999999999997
 30
0.0
 11
60.530000000000001
 21
54.960000000000001
 31
0.0
  0
LINE
  5
4EF
100
AcDbEntity
  8
0
  6
CONTINUOUS
 62
               7
100
AcDbLine
 10
58.409999999999997
 20
54.909999999999997
 30
0.0
 11
60.460000000000001
 21
56.960000000000001
 31
0.0
  0
LINE
  5
4F0
100
AcDbEntity
  8
0
  6
CONTINUOUS
 62
               7
100
AcDbLine
 10
112.0
 20
85.5
 30
0.0
 11
113.5
 21
87.0
 31
0.0
  0
LINE
  5
4F1
100
AcDbEntity
  8
0
  6
CONTINUOUS
 62
               7
100
AcDbLine
 10
133.5
 20
87.0
 30
0.0
 11
135.0
 21
85.5
 31
0.0
  0
LINE
  5
4F2
100
AcDbEntity
  8
0
  6
CONTINUOUS
 62
               7
100
AcDbLine
 10
112.0
 20
85.5
 30
0.0
 11
120.5
 21
85.5
 31
0.0
  0
LINE
  5
4F3
100
AcDbEntity
  8
0
  6
CONTINUOUS
 62
               7
100
AcDbLine
 10
113.5
 20
87.0
 30
0.0
 11
121.34999999999999
 21
87.0
 31
0.0
  0
LINE
  5
4F4
100
AcDbEntity
  8
0
  6
CONTINUOUS
 62
               7
100
AcDbLine
 10
56.0
 20
53.0
 30
0.0
 11
59.5
 21
53.0
 31
0.0
  0
LINE
  5
4F5
100
AcDbEntity
  8
0
  6
CONTINUOUS
 62
               7
100
AcDbLine
 10
56.0
 20
59.0
 30
0.0
 11
59.5
 21
59.0
 31
0.0
  0
LINE
  5
4F6
100
AcDbEntity
  8
0
  6
CONTINUOUS
 62
               7
100
AcDbLine
 10
75.5
 20
73.0
 30
0.0
 11
79.0
 21
73.0
 31
0.0
  0
LINE
  5
4F7
100
AcDbEntity
  8
0
  6
CONTINUOUS
 62
               7
100
AcDbLine
 10
75.5
 20
79.0
 30
0.0
 11
79.0
 21
79.0
 31
0.0
  0
LINE
  5
4F8
100
AcDbEntity
  8
0
  6
CONTINUOUS
 62
               7
100
AcDbLine
 10
56.0
 20
48.5
 30
0.0
 11
79.0
 21
48.5
 31
0.0
  0
LINE
  5
4F9
100
AcDbEntity
  8
0
  6
CONTINUOUS
 62
               7
100
AcDbLine
 10
56.0
 20
83.5
 30
0.0
 11
79.0
 21
83.5
 31
0.0
  0
LINE
  5
4FA
100
AcDbEntity
  8
0
  6
CONTINUOUS
 62
               7
100
AcDbLine
 10
51.0
 20
48.5
 30
0.0
 11
51.0
 21
47.5
 31
0.0
  0
LINE
  5
4FB
100
AcDbEntity
  8
0
  6
CONTINUOUS
 62
               7
100
AcDbLine
 10
28.0
 20
48.5
 30
0.0
 11
28.0
 21
47.5
 31
0.0
  0
LINE
  5
4FC
100
AcDbEntity
  8
0
  6
CONTINUOUS
 62
               7
100
AcDbLine
 10
51.0
 20
85.5
 30
0.0
 11
51.0
 21
48.5
 31
0.0
  0
LINE
  5
4FD
100
AcDbEntity
  8
0
  6
CONTINUOUS
 62
               7
100
AcDbLine
 10
28.0
 20
85.5
 30
0.0
 11
28.0
 21
48.5
 31
0.0
  0
LINE
  5
4FE
100
AcDbEntity
  8
0
  6
CENTER
 62
               2
100
AcDbLine
 10
32.5
 20
82.5
 30
0.0
 11
32.5
 21
72.5
 31
0.0
  0
LINE
  5
4FF
100
AcDbEntity
  8
0
  6
CENTER
 62
               2
100
AcDbLine
 10
46.5
 20
59.5
 30
0.0
 11
46.5
 21
49.5
 31
0.0
  0
LINE
  5
500
100
AcDbEntity
  8
0
  6
CENTER
 62
               2
100
AcDbLine
 10
41.5
 20
54.5
 30
0.0
 11
51.5
 21
54.5
 31
0.0
  0
LINE
  5
501
100
AcDbEntity
  8
0
  6
CENTER
 62
               2
100
AcDbLine
 10
27.5
 20
77.5
 30
0.0
 11
37.5
 21
77.5
 31
0.0
  0
LINE
  5
502
100
AcDbEntity
  8
0
  6
CONTINUOUS
 62
               7
100
AcDbLine
 10
46.329999999999998
 20
77.159999999999997
 30
0.0
 11
48.530000000000001
 21
74.959999999999994
 31
0.0
  0
LINE
  5
503
100
AcDbEntity
  8
0
  6
CONTINUOUS
 62
               7
100
AcDbLine
 10
46.409999999999997
 20
74.909999999999997
 30
0.0
 11
48.460000000000001
 21
76.959999999999994
 31
0.0
  0
LINE
  5
504
100
AcDbEntity
  8
0
  6
CONTINUOUS
 62
               7
100
AcDbLine
 10
30.329999999999998
 20
57.159999999999997
 30
0.0
 11
32.530000000000001
 21
54.960000000000001
 31
0.0
  0
LINE
  5
505
100
AcDbEntity
  8
0
  6
CONTINUOUS
 62
               7
100
AcDbLine
 10
30.41
 20
54.909999999999997
 30
0.0
 11
32.460000000000001
 21
56.960000000000001
 31
0.0
  0
LINE
  5
506
100
AcDbEntity
  8
0
  6
CONTINUOUS
 62
               7
100
AcDbLine
 10
28.0
 20
85.5
 30
0.0
 11
29.5
 21
87.0
 31
0.0
  0
LINE
  5
507
100
AcDbEntity
  8
0
  6
CONTINUOUS
 62
               7
100
AcDbLine
 10
49.5
 20
87.0
 30
0.0
 11
51.0
 21
85.5
 31
0.0
  0
LINE
  5
508
100
AcDbEntity
  8
0
  6
CONTINUOUS
 62
               7
100
AcDbLine
 10
28.0
 20
85.5
 30
0.0
 11
51.0
 21
85.5
 31
0.0
  0
LINE
  5
509
100
AcDbEntity
  8
0
  6
CONTINUOUS
 62
               7
100
AcDbLine
 10
29.5
 20
87.0
 30
0.0
 11
49.5
 21
87.0
 31
0.0
  0
LINE
  5
50A
100
AcDbEntity
  8
0
  6
CONTINUOUS
 62
               7
100
AcDbLine
 10
28.0
 20
53.0
 30
0.0
 11
31.5
 21
53.0
 31
0.0
  0
LINE
  5
50B
100
AcDbEntity
  8
0
  6
CONTINUOUS
 62
               7
100
AcDbLine
 10
28.0
 20
59.0
 30
0.0
 11
31.5
 21
59.0
 31
0.0
  0
LINE
  5
50C
100
AcDbEntity
  8
0
  6
CONTINUOUS
 62
               7
100
AcDbLine
 10
47.5
 20
73.0
 30
0.0
 11
51.0
 21
73.0
 31
0.0
  0
LINE
  5
50D
100
AcDbEntity
  8
0
  6
CONTINUOUS
 62
               7
100
AcDbLine
 10
47.5
 20
79.0
 30
0.0
 11
51.0
 21
79.0
 31
0.0
  0
LINE
  5
50E
100
AcDbEntity
  8
0
  6
CONTINUOUS
 62
               7
100
AcDbLine
 10
28.0
 20
48.5
 30
0.0
 11
51.0
 21
48.5
 31
0.0
  0
LINE
  5
50F
100
AcDbEntity
  8
0
  6
CONTINUOUS
 62
               7
100
AcDbLine
 10
28.0
 20
83.5
 30
0.0
 11
51.0
 21
83.5
 31
0.0
  0
LINE
  5
510
100
AcDbEntity
  8
0
  6
CONTINUOUS
 62
               4
100
AcDbLine
 10
157.69999999999999
 20
53.200000000000003
 30
0.0
 11
163.30000000000001
 21
53.200000000000003
 31
0.0
  0
LINE
  5
511
100
AcDbEntity
  8
0
  6
CONTINUOUS
 62
               4
100
AcDbLine
 10
139.69999999999999
 20
52.5
 30
0.0
 11
163.30000000000001
 21
52.5
 31
0.0
  0
LINE
  5
512
100
AcDbEntity
  8
0
  6
CONTINUOUS
 62
               4
100
AcDbLine
 10
157.69999999999999
 20
54.740000000000002
 30
0.0
 11
157.69999999999999
 21
52.5
 31
0.0
  0
LINE
  5
513
100
AcDbEntity
  8
0
  6
CONTINUOUS
 62
               4
100
AcDbLine
 10
163.30000000000001
 20
54.740000000000002
 30
0.0
 11
163.30000000000001
 21
52.5
 31
0.0
  0
LINE
  5
514
100
AcDbEntity
  8
0
  6
CONTINUOUS
 62
               4
100
AcDbLine
 10
139.55000000000001
 20
53.200000000000003
 30
0.0
 11
145.30000000000001
 21
53.200000000000003
 31
0.0
  0
LINE
  5
515
100
AcDbEntity
  8
0
  6
CONTINUOUS
 62
               4
100
AcDbLine
 10
139.69999999999999
 20
54.740000000000002
 30
0.0
 11
139.69999999999999
 21
52.5
 31
0.0
  0
LINE
  5
516
100
AcDbEntity
  8
0
  6
CONTINUOUS
 62
               4
100
AcDbLine
 10
145.30000000000001
 20
54.740000000000002
 30
0.0
 11
145.30000000000001
 21
52.5
 31
0.0
  0
LINE
  5
517
100
AcDbEntity
  8
0
  6
CONTINUOUS
 62
               4
100
AcDbLine
 10
140.0
 20
52.5
 30
0.0
 11
140.0
 21
48.5
 31
0.0
  0
LINE
  5
518
100
AcDbEntity
  8
0
  6
CONTINUOUS
 62
               7
100
AcDbLine
 10
140.0
 20
48.5
 30
0.0
 11
163.0
 21
48.5
 31
0.0
  0
LINE
  5
519
100
AcDbEntity
  8
0
  6
CONTINUOUS
 62
               4
100
AcDbLine
 10
163.0
 20
52.5
 30
0.0
 11
163.0
 21
48.5
 31
0.0
  0
LINE
  5
51A
100
AcDbEntity
  8
0
  6
CONTINUOUS
 62
               7
100
AcDbLine
 10
171.0
 20
31.399999999999999
 30
0.0
 11
171.0
 21
20.600000000000001
 31
0.0
  0
LINE
  5
51B
100
AcDbEntity
  8
0
  6
CONTINUOUS
 62
               7
100
AcDbLine
 10
168.90000000000001
 20
30.899999999999999
 30
0.0
 11
170.5
 21
29.300000000000001
 31
0.0
  0
LINE
  5
51C
100
AcDbEntity
  8
0
  6
CONTINUOUS
 62
               7
100
AcDbLine
 10
168.90000000000001
 20
21.100000000000001
 30
0.0
 11
170.5
 21
22.699999999999999
 31
0.0
  0
LINE
  5
51D
100
AcDbEntity
  8
0
  6
CONTINUOUS
 62
               7
100
AcDbLine
 10
168.90000000000001
 20
30.899999999999999
 30
0.0
 11
168.90000000000001
 21
21.100000000000001
 31
0.0
  0
LINE
  5
51E
100
AcDbEntity
  8
0
  6
CONTINUOUS
 62
               7
100
AcDbLine
 10
170.5
 20
29.300000000000001
 30
0.0
 11
170.5
 21
22.699999999999999
 31
0.0
  0
LINE
  5
51F
100
AcDbEntity
  8
0
  6
CONTINUOUS
 62
               7
100
AcDbLine
 10
165.5
 20
20.600000000000001
 30
0.0
 11
165.5
 21
1.0
 31
0.0
  0
LINE
  5
520
100
AcDbEntity
  8
0
  6
CONTINUOUS
 62
               7
100
AcDbLine
 10
194.0
 20
5.0
 30
0.0
 11
186.5
 21
5.0
 31
0.0
  0
LINE
  5
521
100
AcDbEntity
  8
0
  6
CONTINUOUS
 62
               7
100
AcDbLine
 10
196.0
 20
3.0
 30
0.0
 11
196.0
 21
0.0
 31
0.0
  0
LINE
  5
522
100
AcDbEntity
  8
0
  6
CONTINUOUS
 62
               7
100
AcDbLine
 10
196.0
 20
0.0
 30
0.0
 11
167.5
 21
0.0
 31
0.0
  0
LINE
  5
523
100
AcDbEntity
  8
0
  6
CONTINUOUS
 62
               7
100
AcDbLine
 10
167.5
 20
1.0
 30
0.0
 11
167.5
 21
0.0
 31
0.0
  0
LINE
  5
524
100
AcDbEntity
  8
0
  6
CONTINUOUS
 62
               7
100
AcDbLine
 10
183.5
 20
45.0
 30
0.0
 11
183.5
 21
8.0
 31
0.0
  0
LINE
  5
525
100
AcDbEntity
  8
0
  6
CONTINUOUS
 62
               7
100
AcDbLine
 10
167.5
 20
1.0
 30
0.0
 11
165.5
 21
1.0
 31
0.0
  0
LINE
  5
526
100
AcDbEntity
  8
0
  6
CONTINUOUS
 62
               7
100
AcDbLine
 10
183.22999999999999
 20
46.0
 30
0.0
 11
165.5
 21
46.0
 31
0.0
  0
LINE
  5
527
100
AcDbEntity
  8
0
  6
CONTINUOUS
 62
               7
100
AcDbLine
 10
181.5
 20
47.0
 30
0.0
 11
165.5
 21
47.0
 31
0.0
  0
LINE
  5
528
100
AcDbEntity
  8
0
  6
CONTINUOUS
 62
               7
100
AcDbLine
 10
165.5
 20
47.0
 30
0.0
 11
165.5
 21
31.399999999999999
 31
0.0
  0
LINE
  5
529
100
AcDbEntity
  8
0
  6
CONTINUOUS
 62
               7
100
AcDbLine
 10
10.0
 20
31.399999999999999
 30
0.0
 11
25.5
 21
31.399999999999999
 31
0.0
  0
LINE
  5
52A
100
AcDbEntity
  8
0
  6
CONTINUOUS
 62
               7
100
AcDbLine
 10
10.0
 20
20.600000000000001
 30
0.0
 11
25.5
 21
20.600000000000001
 31
0.0
  0
LINE
  5
52B
100
AcDbEntity
  8
0
  6
CONTINUOUS
 62
               7
100
AcDbLine
 10
10.0
 20
31.399999999999999
 30
0.0
 11
10.0
 21
20.600000000000001
 31
0.0
  0
LINE
  5
52C
100
AcDbEntity
  8
0
  6
CONTINUOUS
 62
               7
100
AcDbLine
 10
20.5
 20
27.82
 30
0.0
 11
22.039999999999999
 21
26.93
 31
0.0
  0
LINE
  5
52D
100
AcDbEntity
  8
0
  6
CONTINUOUS
 62
               7
100
AcDbLine
 10
18.960000000000001
 20
25.059999999999999
 30
0.0
 11
20.5
 21
24.170000000000002
 31
0.0
  0
LINE
  5
52E
100
AcDbEntity
  8
0
  6
CONTINUOUS
 62
               7
100
AcDbLine
 10
20.5
 20
24.170000000000002
 30
0.0
 11
22.039999999999999
 21
25.059999999999999
 31
0.0
  0
LINE
  5
52F
100
AcDbEntity
  8
0
  6
CONTINUOUS
 62
               7
100
AcDbLine
 10
18.960000000000001
 20
26.93
 30
0.0
 11
20.5
 21
27.82
 31
0.0
  0
LINE
  5
530
100
AcDbEntity
  8
0
  6
CONTINUOUS
 62
               7
100
AcDbLine
 10
18.960000000000001
 20
26.93
 30
0.0
 11
18.960000000000001
 21
25.059999999999999
 31
0.0
  0
LINE
  5
531
100
AcDbEntity
  8
0
  6
CONTINUOUS
 62
               7
100
AcDbLine
 10
22.039999999999999
 20
26.93
 30
0.0
 11
22.039999999999999
 21
25.059999999999999
 31
0.0
  0
LINE
  5
532
100
AcDbEntity
  8
0
  6
CONTINUOUS
 62
               7
100
AcDbLine
 10
25.0
 20
22.199999999999999
 30
0.0
 11
25.0
 21
21.100000000000001
 31
0.0
  0
LINE
  5
533
100
AcDbEntity
  8
0
  6
CONTINUOUS
 62
               7
100
AcDbLine
 10
16.0
 20
22.199999999999999
 30
0.0
 11
16.0
 21
21.100000000000001
 31
0.0
  0
LINE
  5
534
100
AcDbEntity
  8
0
  6
CONTINUOUS
 62
               7
100
AcDbLine
 10
16.0
 20
30.899999999999999
 30
0.0
 11
16.0
 21
29.800000000000001
 31
0.0
  0
LINE
  5
535
100
AcDbEntity
  8
0
  6
CONTINUOUS
 62
               7
100
AcDbLine
 10
25.0
 20
30.899999999999999
 30
0.0
 11
25.0
 21
29.800000000000001
 31
0.0
  0
LINE
  5
536
100
AcDbEntity
  8
0
  6
CONTINUOUS
 62
               7
100
AcDbLine
 10
23.0
 20
22.199999999999999
 30
0.0
 11
23.0
 21
21.100000000000001
 31
0.0
  0
LINE
  5
537
100
AcDbEntity
  8
0
  6
CONTINUOUS
 62
               7
100
AcDbLine
 10
18.0
 20
30.899999999999999
 30
0.0
 11
18.0
 21
29.800000000000001
 31
0.0
  0
LINE
  5
538
100
AcDbEntity
  8
0
  6
CONTINUOUS
 62
               7
100
AcDbLine
 10
18.0
 20
22.199999999999999
 30
0.0
 11
18.0
 21
21.100000000000001
 31
0.0
  0
LINE
  5
539
100
AcDbEntity
  8
0
  6
CONTINUOUS
 62
               7
100
AcDbLine
 10
23.0
 20
30.899999999999999
 30
0.0
 11
23.0
 21
29.800000000000001
 31
0.0
  0
LINE
  5
53A
100
AcDbEntity
  8
0
  6
CONTINUOUS
 62
               7
100
AcDbLine
 10
16.0
 20
29.800000000000001
 30
0.0
 11
25.0
 21
29.800000000000001
 31
0.0
  0
LINE
  5
53B
100
AcDbEntity
  8
0
  6
CONTINUOUS
 62
               7
100
AcDbLine
 10
16.0
 20
22.199999999999999
 30
0.0
 11
25.0
 21
22.199999999999999
 31
0.0
  0
LINE
  5
53C
100
AcDbEntity
  8
0
  6
CONTINUOUS
 62
               7
100
AcDbLine
 10
10.5
 20
22.699999999999999
 30
0.0
 11
12.1
 21
21.100000000000001
 31
0.0
  0
LINE
  5
53D
100
AcDbEntity
  8
0
  6
CONTINUOUS
 62
               7
100
AcDbLine
 10
10.5
 20
29.300000000000001
 30
0.0
 11
12.1
 21
30.899999999999999
 31
0.0
  0
LINE
  5
53E
100
AcDbEntity
  8
0
  6
CONTINUOUS
 62
               7
100
AcDbLine
 10
12.1
 20
30.899999999999999
 30
0.0
 11
12.1
 21
21.100000000000001
 31
0.0
  0
LINE
  5
53F
100
AcDbEntity
  8
0
  6
CONTINUOUS
 62
               7
100
AcDbLine
 10
12.1
 20
30.899999999999999
 30
0.0
 11
28.899999999999999
 21
30.899999999999999
 31
0.0
  0
LINE
  5
540
100
AcDbEntity
  8
0
  6
CONTINUOUS
 62
               7
100
AcDbLine
 10
10.5
 20
29.300000000000001
 30
0.0
 11
10.5
 21
22.699999999999999
 31
0.0
  0
LINE
  5
541
100
AcDbEntity
  8
0
  6
CONTINUOUS
 62
               7
100
AcDbLine
 10
12.1
 20
21.100000000000001
 30
0.0
 11
28.899999999999999
 21
21.100000000000001
 31
0.0
  0
LINE
  5
542
100
AcDbEntity
  8
0
  6
CONTINUOUS
 62
               7
100
AcDbLine
 10
-3.0
 20
5.0
 30
0.0
 11
4.5
 21
5.0
 31
0.0
  0
LINE
  5
543
100
AcDbEntity
  8
0
  6
CONTINUOUS
 62
               7
100
AcDbLine
 10
-5.0
 20
3.0
 30
0.0
 11
-5.0
 21
0.0
 31
0.0
  0
LINE
  5
544
100
AcDbEntity
  8
0
  6
CONTINUOUS
 62
               7
100
AcDbLine
 10
-5.0
 20
0.0
 30
0.0
 11
23.5
 21
0.0
 31
0.0
  0
LINE
  5
545
100
AcDbEntity
  8
0
  6
CONTINUOUS
 62
               7
100
AcDbLine
 10
23.5
 20
1.0
 30
0.0
 11
23.5
 21
0.0
 31
0.0
  0
LINE
  5
546
100
AcDbEntity
  8
0
  6
CONTINUOUS
 62
               7
100
AcDbLine
 10
7.5
 20
45.0
 30
0.0
 11
7.5
 21
8.0
 31
0.0
  0
LINE
  5
547
100
AcDbEntity
  8
0
  6
CONTINUOUS
 62
               7
100
AcDbLine
 10
23.5
 20
1.0
 30
0.0
 11
25.5
 21
1.0
 31
0.0
  0
LINE
  5
548
100
AcDbEntity
  8
0
  6
CONTINUOUS
 62
               7
100
AcDbLine
 10
7.5
 20
46.0
 30
0.0
 11
25.5
 21
46.0
 31
0.0
  0
LINE
  5
549
100
AcDbEntity
  8
0
  6
CONTINUOUS
 62
               7
100
AcDbLine
 10
9.5
 20
47.0
 30
0.0
 11
25.5
 21
47.0
 31
0.0
  0
ENDBLK
  5
54A
100
AcDbEntity
  8
0
100
AcDbBlockEnd
  0
BLOCK
  5
54B
100
AcDbEntity
  8
0
100
AcDbBlockBegin
  2
MS_4
 70
               0
 10
0.0
 20
0.0
 30
0.0
  3
MS_4
  1

  0
ARC
  5
54C
100
AcDbEntity
  8
0
  6
CONTINUOUS
 62
               7
100
AcDbCircle
 10
-72.10294071082933
 20
8.9017654819511236
 30
0.0
 40
0.7982399348472242
100
AcDbArc
 50
28.283564699637179
 51
89.78892223621483
  0
ARC
  5
54D
100
AcDbEntity
  8
0
  6
CONTINUOUS
 62
               7
100
AcDbCircle
 10
-72.897043232249814
 20
8.9017387204163665
 30
0.0
 40
0.7982667555134855
100
AcDbArc
 50
90.21222316887102
 51
151.71528989527636
  0
ARC
  5
54E
100
AcDbEntity
  8
0
  6
CONTINUOUS
 62
               7
100
AcDbCircle
 10
-65.397043232249814
 20
8.9017387204163665
 30
0.0
 40
0.7982667555134855
100
AcDbArc
 50
90.21222316887102
 51
151.71528989527636
  0
ARC
  5
54F
100
AcDbEntity
  8
0
  6
CONTINUOUS
 62
               7
100
AcDbCircle
 10
-64.60294071082933
 20
8.9017654819511201
 30
0.0
 40
0.7982399348472274
100
AcDbArc
 50
28.283564699637161
 51
89.78892223621483
  0
ARC
  5
550
100
AcDbEntity
  8
0
  6
CONTINUOUS
 62
               7
100
AcDbCircle
 10
-100.10294071082933
 20
8.9017654819511236
 30
0.0
 40
0.7982399348472242
100
AcDbArc
 50
28.283564699637179
 51
89.78892223621483
  0
ARC
  5
551
100
AcDbEntity
  8
0
  6
CONTINUOUS
 62
               7
100
AcDbCircle
 10
-100.89704323224981
 20
8.9017387204163665
 30
0.0
 40
0.7982667555134855
100
AcDbArc
 50
90.21222316887102
 51
151.71528989527636
  0
ARC
  5
552
100
AcDbEntity
  8
0
  6
CONTINUOUS
 62
               7
100
AcDbCircle
 10
-93.397043232249814
 20
8.9017387204163665
 30
0.0
 40
0.7982667555134855
100
AcDbArc
 50
90.21222316887102
 51
151.71528989527636
  0
ARC
  5
553
100
AcDbEntity
  8
0
  6
CONTINUOUS
 62
               7
100
AcDbCircle
 10
-92.60294071082933
 20
8.9017654819511236
 30
0.0
 40
0.7982399348472242
100
AcDbArc
 50
28.283564699637179
 51
89.78892223621483
  0
ARC
  5
554
100
AcDbEntity
  8
0
  6
CONTINUOUS
 62
               7
100
AcDbCircle
 10
-128.10294071082933
 20
8.9017654819511236
 30
0.0
 40
0.7982399348472242
100
AcDbArc
 50
28.283564699637179
 51
89.78892223621483
  0
ARC
  5
555
100
AcDbEntity
  8
0
  6
CONTINUOUS
 62
               7
100
AcDbCircle
 10
-128.89704323224981
 20
8.9017387204163665
 30
0.0
 40
0.7982667555134855
100
AcDbArc
 50
90.21222316887102
 51
151.71528989527636
  0
ARC
  5
556
100
AcDbEntity
  8
0
  6
CONTINUOUS
 62
               7
100
AcDbCircle
 10
-121.39704323224981
 20
8.9017387204163665
 30
0.0
 40
0.7982667555134855
100
AcDbArc
 50
90.21222316887102
 51
151.71528989527636
  0
ARC
  5
557
100
AcDbEntity
  8
0
  6
CONTINUOUS
 62
               7
100
AcDbCircle
 10
-120.60294071082933
 20
8.9017654819511236
 30
0.0
 40
0.7982399348472242
100
AcDbArc
 50
28.283564699637179
 51
89.78892223621483
  0
ARC
  5
558
100
AcDbEntity
  8
0
  6
CONTINUOUS
 62
               7
100
AcDbCircle
 10
-156.10294071082933
 20
8.9017654819511236
 30
0.0
 40
0.7982399348472242
100
AcDbArc
 50
28.283564699637179
 51
89.78892223621483
  0
ARC
  5
559
100
AcDbEntity
  8
0
  6
CONTINUOUS
 62
               7
100
AcDbCircle
 10
-156.89704323224981
 20
8.9017387204163665
 30
0.0
 40
0.7982667555134855
100
AcDbArc
 50
90.21222316887102
 51
151.71528989527636
  0
ARC
  5
55A
100
AcDbEntity
  8
0
  6
CONTINUOUS
 62
               7
100
AcDbCircle
 10
-149.39704323224981
 20
8.9017387204163665
 30
0.0
 40
0.7982667555134855
100
AcDbArc
 50
90.21222316887102
 51
151.71528989527636
  0
ARC
  5
55B
100
AcDbEntity
  8
0
  6
CONTINUOUS
 62
               7
100
AcDbCircle
 10
-148.60294071082933
 20
8.9017654819511236
 30
0.0
 40
0.7982399348472242
100
AcDbArc
 50
28.283564699637179
 51
89.78892223621483
  0
ARC
  5
55C
100
AcDbEntity
  8
0
  6
CONTINUOUS
 62
               7
100
AcDbCircle
 10
-44.102940710829323
 20
8.9017654819511201
 30
0.0
 40
0.7982399348472274
100
AcDbArc
 50
28.283564699637406
 51
89.788922236215853
  0
ARC
  5
55D
100
AcDbEntity
  8
0
  6
CONTINUOUS
 62
               7
100
AcDbCircle
 10
-44.897043232249821
 20
8.9017387204163629
 30
0.0
 40
0.7982667555134886
100
AcDbArc
 50
90.212223168869997
 51
151.71528989527613
  0
ARC
  5
55E
100
AcDbEntity
  8
0
  6
CONTINUOUS
 62
               7
100
AcDbCircle
 10
-37.397043232249821
 20
8.9017387204163629
 30
0.0
 40
0.7982667555134886
100
AcDbArc
 50
90.212223168869997
 51
151.71528989527613
  0
ARC
  5
55F
100
AcDbEntity
  8
0
  6
CONTINUOUS
 62
               7
100
AcDbCircle
 10
-36.602940710829323
 20
8.9017654819511201
 30
0.0
 40
0.7982399348472274
100
AcDbArc
 50
28.283564699637406
 51
89.788922236215853
  0
CIRCLE
  5
560
100
AcDbEntity
  8
0
  6
CONTINUOUS
 62
               2
100
AcDbCircle
 10
-60.999969482421875
 20
-55.5
 30
0.0
 40
4.899998664855957
  0
CIRCLE
  5
561
100
AcDbEntity
  8
0
  6
CONTINUOUS
 62
               7
100
AcDbCircle
 10
-60.999969482421875
 20
-55.5
 30
0.0
 40
4.2999992370605469
  0
CIRCLE
  5
562
100
AcDbEntity
  8
0
  6
CONTINUOUS
 62
               2
100
AcDbCircle
 10
-60.999969482421875
 20
-30.499984741210937
 30
0.0
 40
4.899998664855957
  0
CIRCLE
  5
563
100
AcDbEntity
  8
0
  6
CONTINUOUS
 62
               7
100
AcDbCircle
 10
-60.999969482421875
 20
-30.499984741210937
 30
0.0
 40
4.2999992370605469
  0
CIRCLE
  5
564
100
AcDbEntity
  8
0
  6
CONTINUOUS
 62
               2
100
AcDbCircle
 10
-60.999969482421875
 20
-8.4999923706054687
 30
0.0
 40
4.899998664855957
  0
CIRCLE
  5
565
100
AcDbEntity
  8
0
  6
CONTINUOUS
 62
               7
100
AcDbCircle
 10
-60.999969482421875
 20
-8.4999923706054687
 30
0.0
 40
4.2999992370605469
  0
CIRCLE
  5
566
100
AcDbEntity
  8
0
  6
CONTINUOUS
 62
               2
100
AcDbCircle
 10
-74.999969482421875
 20
-19.500015258789063
 30
0.0
 40
4.899998664855957
  0
CIRCLE
  5
567
100
AcDbEntity
  8
0
  6
CONTINUOUS
 62
               7
100
AcDbCircle
 10
-74.999969482421875
 20
-19.500015258789063
 30
0.0
 40
4.2999992370605469
  0
CIRCLE
  5
568
100
AcDbEntity
  8
0
  6
CONTINUOUS
 62
               2
100
AcDbCircle
 10
-74.999969482421875
 20
-41.500015258789063
 30
0.0
 40
4.899998664855957
  0
CIRCLE
  5
569
100
AcDbEntity
  8
0
  6
CONTINUOUS
 62
               7
100
AcDbCircle
 10
-74.999969482421875
 20
-41.500015258789063
 30
0.0
 40
4.2999992370605469
  0
CIRCLE
  5
56A
100
AcDbEntity
  8
0
  6
CONTINUOUS
 62
               2
100
AcDbCircle
 10
-88.999969482421875
 20
-55.5
 30
0.0
 40
4.899998664855957
  0
CIRCLE
  5
56B
100
AcDbEntity
  8
0
  6
CONTINUOUS
 62
               7
100
AcDbCircle
 10
-88.999969482421875
 20
-55.5
 30
0.0
 40
4.2999992370605469
  0
CIRCLE
  5
56C
100
AcDbEntity
  8
0
  6
CONTINUOUS
 62
               2
100
AcDbCircle
 10
-88.999969482421875
 20
-30.499984741210937
 30
0.0
 40
4.899998664855957
  0
CIRCLE
  5
56D
100
AcDbEntity
  8
0
  6
CONTINUOUS
 62
               7
100
AcDbCircle
 10
-88.999969482421875
 20
-30.499984741210937
 30
0.0
 40
4.2999992370605469
  0
CIRCLE
  5
56E
100
AcDbEntity
  8
0
  6
CONTINUOUS
 62
               2
100
AcDbCircle
 10
-88.999969482421875
 20
-8.4999923706054687
 30
0.0
 40
4.899998664855957
  0
CIRCLE
  5
56F
100
AcDbEntity
  8
0
  6
CONTINUOUS
 62
               7
100
AcDbCircle
 10
-88.999969482421875
 20
-8.4999923706054687
 30
0.0
 40
4.2999992370605469
  0
CIRCLE
  5
570
100
AcDbEntity
  8
0
  6
CONTINUOUS
 62
               2
100
AcDbCircle
 10
-102.99996948242187
 20
-19.500015258789063
 30
0.0
 40
4.899998664855957
  0
CIRCLE
  5
571
100
AcDbEntity
  8
0
  6
CONTINUOUS
 62
               7
100
AcDbCircle
 10
-102.99996948242187
 20
-19.500015258789063
 30
0.0
 40
4.2999992370605469
  0
CIRCLE
  5
572
100
AcDbEntity
  8
0
  6
CONTINUOUS
 62
               2
100
AcDbCircle
 10
-102.99996948242187
 20
-41.500015258789063
 30
0.0
 40
4.899998664855957
  0
CIRCLE
  5
573
100
AcDbEntity
  8
0
  6
CONTINUOUS
 62
               7
100
AcDbCircle
 10
-102.99996948242187
 20
-41.500015258789063
 30
0.0
 40
4.2999992370605469
  0
CIRCLE
  5
574
100
AcDbEntity
  8
0
  6
CONTINUOUS
 62
               2
100
AcDbCircle
 10
-116.99996948242187
 20
-55.5
 30
0.0
 40
4.899998664855957
  0
CIRCLE
  5
575
100
AcDbEntity
  8
0
  6
CONTINUOUS
 62
               7
100
AcDbCircle
 10
-116.99996948242187
 20
-55.5
 30
0.0
 40
4.2999992370605469
  0
CIRCLE
  5
576
100
AcDbEntity
  8
0
  6
CONTINUOUS
 62
               2
100
AcDbCircle
 10
-116.99996948242187
 20
-30.499984741210937
 30
0.0
 40
4.899998664855957
  0
CIRCLE
  5
577
100
AcDbEntity
  8
0
  6
CONTINUOUS
 62
               7
100
AcDbCircle
 10
-116.99996948242187
 20
-30.499984741210937
 30
0.0
 40
4.2999992370605469
  0
CIRCLE
  5
578
100
AcDbEntity
  8
0
  6
CONTINUOUS
 62
               2
100
AcDbCircle
 10
-116.99996948242187
 20
-8.4999923706054687
 30
0.0
 40
4.899998664855957
  0
CIRCLE
  5
579
100
AcDbEntity
  8
0
  6
CONTINUOUS
 62
               7
100
AcDbCircle
 10
-116.99996948242187
 20
-8.4999923706054687
 30
0.0
 40
4.2999992370605469
  0
CIRCLE
  5
57A
100
AcDbEntity
  8
0
  6
CONTINUOUS
 62
               2
100
AcDbCircle
 10
-130.99996948242187
 20
-19.500015258789063
 30
0.0
 40
4.899998664855957
  0
CIRCLE
  5
57B
100
AcDbEntity
  8
0
  6
CONTINUOUS
 62
               7
100
AcDbCircle
 10
-130.99996948242187
 20
-19.500015258789063
 30
0.0
 40
4.2999992370605469
  0
CIRCLE
  5
57C
100
AcDbEntity
  8
0
  6
CONTINUOUS
 62
               2
100
AcDbCircle
 10
-130.99996948242187
 20
-41.500015258789063
 30
0.0
 40
4.899998664855957
  0
CIRCLE
  5
57D
100
AcDbEntity
  8
0
  6
CONTINUOUS
 62
               7
100
AcDbCircle
 10
-130.99996948242187
 20
-41.500015258789063
 30
0.0
 40
4.2999992370605469
  0
CIRCLE
  5
57E
100
AcDbEntity
  8
0
  6
CONTINUOUS
 62
               2
100
AcDbCircle
 10
-144.99996948242187
 20
-55.5
 30
0.0
 40
4.899998664855957
  0
CIRCLE
  5
57F
100
AcDbEntity
  8
0
  6
CONTINUOUS
 62
               7
100
AcDbCircle
 10
-144.99996948242187
 20
-55.5
 30
0.0
 40
4.2999992370605469
  0
CIRCLE
  5
580
100
AcDbEntity
  8
0
  6
CONTINUOUS
 62
               2
100
AcDbCircle
 10
-144.99996948242187
 20
-30.499984741210937
 30
0.0
 40
4.899998664855957
  0
CIRCLE
  5
581
100
AcDbEntity
  8
0
  6
CONTINUOUS
 62
               7
100
AcDbCircle
 10
-144.99996948242187
 20
-30.499984741210937
 30
0.0
 40
4.2999992370605469
  0
CIRCLE
  5
582
100
AcDbEntity
  8
0
  6
CONTINUOUS
 62
               2
100
AcDbCircle
 10
-144.99996948242187
 20
-8.4999923706054687
 30
0.0
 40
4.899998664855957
  0
CIRCLE
  5
583
100
AcDbEntity
  8
0
  6
CONTINUOUS
 62
               7
100
AcDbCircle
 10
-144.99996948242187
 20
-8.4999923706054687
 30
0.0
 40
4.2999992370605469
  0
CIRCLE
  5
584
100
AcDbEntity
  8
0
  6
CONTINUOUS
 62
               2
100
AcDbCircle
 10
-158.99996948242187
 20
-19.500015258789063
 30
0.0
 40
4.899998664855957
  0
CIRCLE
  5
585
100
AcDbEntity
  8
0
  6
CONTINUOUS
 62
               7
100
AcDbCircle
 10
-158.99996948242187
 20
-19.500015258789063
 30
0.0
 40
4.2999992370605469
  0
CIRCLE
  5
586
100
AcDbEntity
  8
0
  6
CONTINUOUS
 62
               2
100
AcDbCircle
 10
-158.99996948242187
 20
-41.500015258789063
 30
0.0
 40
4.899998664855957
  0
CIRCLE
  5
587
100
AcDbEntity
  8
0
  6
CONTINUOUS
 62
               7
100
AcDbCircle
 10
-158.99996948242187
 20
-41.500015258789063
 30
0.0
 40
4.2999992370605469
  0
CIRCLE
  5
588
100
AcDbEntity
  8
0
  6
CONTINUOUS
 62
               2
100
AcDbCircle
 10
-32.999969482421875
 20
-55.5
 30
0.0
 40
4.899998664855957
  0
CIRCLE
  5
589
100
AcDbEntity
  8
0
  6
CONTINUOUS
 62
               7
100
AcDbCircle
 10
-32.999969482421875
 20
-55.5
 30
0.0
 40
4.2999992370605469
  0
CIRCLE
  5
58A
100
AcDbEntity
  8
0
  6
CONTINUOUS
 62
               2
100
AcDbCircle
 10
-32.999969482421875
 20
-30.499984741210937
 30
0.0
 40
4.899998664855957
  0
CIRCLE
  5
58B
100
AcDbEntity
  8
0
  6
CONTINUOUS
 62
               7
100
AcDbCircle
 10
-32.999969482421875
 20
-30.499984741210937
 30
0.0
 40
4.2999992370605469
  0
CIRCLE
  5
58C
100
AcDbEntity
  8
0
  6
CONTINUOUS
 62
               2
100
AcDbCircle
 10
-32.999969482421875
 20
-8.4999923706054687
 30
0.0
 40
4.899998664855957
  0
CIRCLE
  5
58D
100
AcDbEntity
  8
0
  6
CONTINUOUS
 62
               7
100
AcDbCircle
 10
-32.999969482421875
 20
-8.4999923706054687
 30
0.0
 40
4.2999992370605469
  0
CIRCLE
  5
58E
100
AcDbEntity
  8
0
  6
CONTINUOUS
 62
               2
100
AcDbCircle
 10
-46.999969482421875
 20
-19.500015258789063
 30
0.0
 40
4.899998664855957
  0
CIRCLE
  5
58F
100
AcDbEntity
  8
0
  6
CONTINUOUS
 62
               7
100
AcDbCircle
 10
-46.999969482421875
 20
-19.500015258789063
 30
0.0
 40
4.2999992370605469
  0
CIRCLE
  5
590
100
AcDbEntity
  8
0
  6
CONTINUOUS
 62
               2
100
AcDbCircle
 10
-46.999969482421875
 20
-41.500015258789063
 30
0.0
 40
4.899998664855957
  0
CIRCLE
  5
591
100
AcDbEntity
  8
0
  6
CONTINUOUS
 62
               7
100
AcDbCircle
 10
-46.999969482421875
 20
-41.500015258789063
 30
0.0
 40
4.2999992370605469
  0
ARC
  5
592
100
AcDbEntity
  8
0
  6
CONTINUOUS
 62
               7
100
AcDbCircle
 10
-185.49998855599915
 20
-9.4999885559991526
 30
0.0
 40
1.999988556031894
100
AcDbArc
 50
359.99967215164855
 51
90.000327848350423
  0
ARC
  5
593
100
AcDbEntity
  8
0
  6
CONTINUOUS
 62
               7
100
AcDbCircle
 10
-193.99997329682446
 20
-5.4999732968244643
 30
0.0
 40
2.0000267033537984
100
AcDbArc
 50
180.00076497941473
 51
269.99923502058419
  0
ARC
  5
594
100
AcDbEntity
  8
0
  6
CONTINUOUS
 62
               7
100
AcDbCircle
 10
-193.99996185289638
 20
5.4999618528963765
 30
0.0
 40
2.0000381474674169
100
AcDbArc
 50
90.001092813174978
 51
179.99890718682443
  0
ARC
  5
595
100
AcDbEntity
  8
0
  6
CONTINUOUS
 62
               7
100
AcDbCircle
 10
-185.49997711183096
 20
-54.500022888169042
 30
0.0
 40
1.9999771119619267
100
AcDbArc
 50
269.99934429475206
 51
0.0006557052473604
  0
ARC
  5
596
100
AcDbEntity
  8
0
  6
CONTINUOUS
 62
               7
100
AcDbCircle
 10
-193.99996948218904
 20
-69.499969482189044
 30
0.0
 40
2.0000305180437863
100
AcDbArc
 50
180.00087425754319
 51
269.99912574245582
  0
ARC
  5
597
100
AcDbEntity
  8
0
  6
CONTINUOUS
 62
               7
100
AcDbCircle
 10
-191.0
 20
-64.0
 30
0.0
 40
2.5000000007450582
100
AcDbArc
 50
269.99999999999937
 51
89.999999999999801
  0
ARC
  5
598
100
AcDbEntity
  8
0
  6
CONTINUOUS
 62
               7
100
AcDbCircle
 10
-193.99996948218904
 20
-58.500030517810956
 30
0.0
 40
2.0000305180437863
100
AcDbArc
 50
90.000874257543387
 51
179.99912574245602
  0
ARC
  5
599
100
AcDbEntity
  8
0
  6
CONTINUOUS
 62
               7
100
AcDbCircle
 10
-191.0
 20
0.0
 30
0.0
 40
2.5000000007450582
100
AcDbArc
 50
269.99999999999937
 51
89.999999999999801
  0
ARC
  5
59A
100
AcDbEntity
  8
0
  6
CONTINUOUS
 62
               7
100
AcDbCircle
 10
-5.5000030517554848
 20
-8.8999969482445156
 30
0.0
 40
1.9999969482468438
100
AcDbArc
 50
89.999912573511722
 51
180.00008742648768
  0
ARC
  5
59B
100
AcDbEntity
  8
0
  6
CONTINUOUS
 62
               7
100
AcDbCircle
 10
2.9999816894158728
 20
-4.8999816894158732
 30
0.0
 40
2.0000183106679463
100
AcDbArc
 50
270.00052455479238
 51
359.9994754452062
  0
ARC
  5
59C
100
AcDbEntity
  8
0
  6
CONTINUOUS
 62
               7
100
AcDbCircle
 10
2.9999771118018543
 20
5.4999771118018543
 30
0.0
 40
2.0000228883291116
100
AcDbArc
 50
0.0006556910733807
 51
89.999344308926425
  0
ARC
  5
59D
100
AcDbEntity
  8
0
  6
CONTINUOUS
 62
               7
100
AcDbCircle
 10
-5.5000106811238219
 20
-55.10001068112382
 30
0.0
 40
1.9999893189047004
100
AcDbArc
 50
179.99969400670781
 51
270.00030599329125
  0
ARC
  5
59E
100
AcDbEntity
  8
0
  6
CONTINUOUS
 62
               7
100
AcDbCircle
 10
2.9999847411527298
 20
-69.49998474115273
 30
0.0
 40
2.0000152589054778
100
AcDbArc
 50
270.00043713043874
 51
359.99956286955984
  0
ARC
  5
59F
100
AcDbEntity
  8
0
  6
CONTINUOUS
 62
               7
100
AcDbCircle
 10
0.0
 20
-64.0
 30
0.0
 40
2.5
100
AcDbArc
 50
89.999999999999801
 51
269.99999999999937
  0
ARC
  5
5A0
100
AcDbEntity
  8
0
  6
CONTINUOUS
 62
               7
100
AcDbCircle
 10
2.9999893187492859
 20
-59.100010681250716
 30
0.0
 40
2.0000106812792362
100
AcDbArc
 50
0.0003059936587199
 51
89.999694006341088
  0
ARC
  5
5A1
100
AcDbEntity
  8
0
  6
CONTINUOUS
 62
               7
100
AcDbCircle
 10
0.0
 20
0.0
 30
0.0
 40
2.5
100
AcDbArc
 50
89.999999999999801
 51
269.99999999999937
  0
LINE
  5
5A2
100
AcDbEntity
  8
0
  6
CONTINUOUS
 62
               7
100
AcDbLine
 10
-72.099999999999994
 20
9.6999999999999993
 30
0.0
 11
-72.900000000000006
 21
9.6999999999999993
 31
0.0
  0
LINE
  5
5A3
100
AcDbEntity
  8
0
  6
CONTINUOUS
 62
               7
100
AcDbLine
 10
-71.400000000000006
 20
8.9000000000000004
 30
0.0
 11
-73.599999999999994
 21
8.9000000000000004
 31
0.0
  0
LINE
  5
5A4
100
AcDbEntity
  8
0
  6
CONTINUOUS
 62
               7
100
AcDbLine
 10
-71.400000000000006
 20
9.2599999999999998
 30
0.0
 11
-71.400000000000006
 21
8.6999999999999993
 31
0.0
  0
LINE
  5
5A5
100
AcDbEntity
  8
0
  6
CONTINUOUS
 62
               7
100
AcDbLine
 10
-73.599999999999994
 20
9.2599999999999998
 30
0.0
 11
-73.599999999999994
 21
8.6999999999999993
 31
0.0
  0
LINE
  5
5A6
100
AcDbEntity
  8
0
  6
CONTINUOUS
 62
               7
100
AcDbLine
 10
-66.0
 20
8.6999999999999993
 30
0.0
 11
-66.0
 21
7.5
 31
0.0
  0
LINE
  5
5A7
100
AcDbEntity
  8
0
  6
CONTINUOUS
 62
               7
100
AcDbLine
 10
-80.0
 20
8.6999999999999993
 30
0.0
 11
-80.0
 21
7.5
 31
0.0
  0
LINE
  5
5A8
100
AcDbEntity
  8
0
  6
CONTINUOUS
 62
               7
100
AcDbLine
 10
-62.0
 20
8.6999999999999993
 30
0.0
 11
-80.0
 21
8.6999999999999993
 31
0.0
  0
LINE
  5
5A9
100
AcDbEntity
  8
0
  6
CONTINUOUS
 62
               7
100
AcDbLine
 10
-64.599999999999994
 20
9.6999999999999993
 30
0.0
 11
-65.400000000000006
 21
9.6999999999999993
 31
0.0
  0
LINE
  5
5AA
100
AcDbEntity
  8
0
  6
CONTINUOUS
 62
               7
100
AcDbLine
 10
-63.899999999999999
 20
8.9000000000000004
 30
0.0
 11
-66.099999999999994
 21
8.9000000000000004
 31
0.0
  0
LINE
  5
5AB
100
AcDbEntity
  8
0
  6
CONTINUOUS
 62
               7
100
AcDbLine
 10
-63.899999999999999
 20
9.2599999999999998
 30
0.0
 11
-63.899999999999999
 21
8.6999999999999993
 31
0.0
  0
LINE
  5
5AC
100
AcDbEntity
  8
0
  6
CONTINUOUS
 62
               7
100
AcDbLine
 10
-66.099999999999994
 20
9.2599999999999998
 30
0.0
 11
-66.099999999999994
 21
8.6999999999999993
 31
0.0
  0
LINE
  5
5AD
100
AcDbEntity
  8
0
  6
CONTINUOUS
 62
               7
100
AcDbLine
 10
-100.09999999999999
 20
9.6999999999999993
 30
0.0
 11
-100.90000000000001
 21
9.6999999999999993
 31
0.0
  0
LINE
  5
5AE
100
AcDbEntity
  8
0
  6
CONTINUOUS
 62
               7
100
AcDbLine
 10
-99.400000000000006
 20
8.9000000000000004
 30
0.0
 11
-101.59999999999999
 21
8.9000000000000004
 31
0.0
  0
LINE
  5
5AF
100
AcDbEntity
  8
0
  6
CONTINUOUS
 62
               7
100
AcDbLine
 10
-99.400000000000006
 20
9.2599999999999998
 30
0.0
 11
-99.400000000000006
 21
8.6999999999999993
 31
0.0
  0
LINE
  5
5B0
100
AcDbEntity
  8
0
  6
CONTINUOUS
 62
               7
100
AcDbLine
 10
-101.59999999999999
 20
9.2599999999999998
 30
0.0
 11
-101.59999999999999
 21
8.6999999999999993
 31
0.0
  0
LINE
  5
5B1
100
AcDbEntity
  8
0
  6
CONTINUOUS
 62
               7
100
AcDbLine
 10
-94.0
 20
8.6999999999999993
 30
0.0
 11
-94.0
 21
7.5
 31
0.0
  0
LINE
  5
5B2
100
AcDbEntity
  8
0
  6
CONTINUOUS
 62
               7
100
AcDbLine
 10
-108.0
 20
8.6999999999999993
 30
0.0
 11
-108.0
 21
7.5
 31
0.0
  0
LINE
  5
5B3
100
AcDbEntity
  8
0
  6
CONTINUOUS
 62
               7
100
AcDbLine
 10
-90.0
 20
8.6999999999999993
 30
0.0
 11
-108.0
 21
8.6999999999999993
 31
0.0
  0
LINE
  5
5B4
100
AcDbEntity
  8
0
  6
CONTINUOUS
 62
               7
100
AcDbLine
 10
-92.599999999999994
 20
9.6999999999999993
 30
0.0
 11
-93.400000000000006
 21
9.6999999999999993
 31
0.0
  0
LINE
  5
5B5
100
AcDbEntity
  8
0
  6
CONTINUOUS
 62
               7
100
AcDbLine
 10
-91.900000000000006
 20
8.9000000000000004
 30
0.0
 11
-94.099999999999994
 21
8.9000000000000004
 31
0.0
  0
LINE
  5
5B6
100
AcDbEntity
  8
0
  6
CONTINUOUS
 62
               7
100
AcDbLine
 10
-91.900000000000006
 20
9.2599999999999998
 30
0.0
 11
-91.900000000000006
 21
8.6999999999999993
 31
0.0
  0
LINE
  5
5B7
100
AcDbEntity
  8
0
  6
CONTINUOUS
 62
               7
100
AcDbLine
 10
-94.099999999999994
 20
9.2599999999999998
 30
0.0
 11
-94.099999999999994
 21
8.6999999999999993
 31
0.0
  0
LINE
  5
5B8
100
AcDbEntity
  8
0
  6
CONTINUOUS
 62
               7
100
AcDbLine
 10
-128.09999999999999
 20
9.6999999999999993
 30
0.0
 11
-128.90000000000001
 21
9.6999999999999993
 31
0.0
  0
LINE
  5
5B9
100
AcDbEntity
  8
0
  6
CONTINUOUS
 62
               7
100
AcDbLine
 10
-127.40000000000001
 20
8.9000000000000004
 30
0.0
 11
-129.59999999999999
 21
8.9000000000000004
 31
0.0
  0
LINE
  5
5BA
100
AcDbEntity
  8
0
  6
CONTINUOUS
 62
               7
100
AcDbLine
 10
-127.40000000000001
 20
9.2599999999999998
 30
0.0
 11
-127.40000000000001
 21
8.6999999999999993
 31
0.0
  0
LINE
  5
5BB
100
AcDbEntity
  8
0
  6
CONTINUOUS
 62
               7
100
AcDbLine
 10
-129.59999999999999
 20
9.2599999999999998
 30
0.0
 11
-129.59999999999999
 21
8.6999999999999993
 31
0.0
  0
LINE
  5
5BC
100
AcDbEntity
  8
0
  6
CONTINUOUS
 62
               7
100
AcDbLine
 10
-122.0
 20
8.6999999999999993
 30
0.0
 11
-122.0
 21
7.5
 31
0.0
  0
LINE
  5
5BD
100
AcDbEntity
  8
0
  6
CONTINUOUS
 62
               7
100
AcDbLine
 10
-136.0
 20
8.6999999999999993
 30
0.0
 11
-136.0
 21
7.5
 31
0.0
  0
LINE
  5
5BE
100
AcDbEntity
  8
0
  6
CONTINUOUS
 62
               7
100
AcDbLine
 10
-118.0
 20
8.6999999999999993
 30
0.0
 11
-136.0
 21
8.6999999999999993
 31
0.0
  0
LINE
  5
5BF
100
AcDbEntity
  8
0
  6
CONTINUOUS
 62
               7
100
AcDbLine
 10
-120.59999999999999
 20
9.6999999999999993
 30
0.0
 11
-121.40000000000001
 21
9.6999999999999993
 31
0.0
  0
LINE
  5
5C0
100
AcDbEntity
  8
0
  6
CONTINUOUS
 62
               7
100
AcDbLine
 10
-119.90000000000001
 20
8.9000000000000004
 30
0.0
 11
-122.09999999999999
 21
8.9000000000000004
 31
0.0
  0
LINE
  5
5C1
100
AcDbEntity
  8
0
  6
CONTINUOUS
 62
               7
100
AcDbLine
 10
-119.90000000000001
 20
9.2599999999999998
 30
0.0
 11
-119.90000000000001
 21
8.6999999999999993
 31
0.0
  0
LINE
  5
5C2
100
AcDbEntity
  8
0
  6
CONTINUOUS
 62
               7
100
AcDbLine
 10
-122.09999999999999
 20
9.2599999999999998
 30
0.0
 11
-122.09999999999999
 21
8.6999999999999993
 31
0.0
  0
LINE
  5
5C3
100
AcDbEntity
  8
0
  6
CONTINUOUS
 62
               7
100
AcDbLine
 10
-156.09999999999999
 20
9.6999999999999993
 30
0.0
 11
-156.90000000000001
 21
9.6999999999999993
 31
0.0
  0
LINE
  5
5C4
100
AcDbEntity
  8
0
  6
CONTINUOUS
 62
               7
100
AcDbLine
 10
-155.40000000000001
 20
8.9000000000000004
 30
0.0
 11
-157.59999999999999
 21
8.9000000000000004
 31
0.0
  0
LINE
  5
5C5
100
AcDbEntity
  8
0
  6
CONTINUOUS
 62
               7
100
AcDbLine
 10
-155.40000000000001
 20
9.2599999999999998
 30
0.0
 11
-155.40000000000001
 21
8.6999999999999993
 31
0.0
  0
LINE
  5
5C6
100
AcDbEntity
  8
0
  6
CONTINUOUS
 62
               7
100
AcDbLine
 10
-157.59999999999999
 20
9.2599999999999998
 30
0.0
 11
-157.59999999999999
 21
8.6999999999999993
 31
0.0
  0
LINE
  5
5C7
100
AcDbEntity
  8
0
  6
CONTINUOUS
 62
               7
100
AcDbLine
 10
-150.0
 20
8.6999999999999993
 30
0.0
 11
-150.0
 21
7.5
 31
0.0
  0
LINE
  5
5C8
100
AcDbEntity
  8
0
  6
CONTINUOUS
 62
               7
100
AcDbLine
 10
-164.0
 20
8.6999999999999993
 30
0.0
 11
-164.0
 21
7.5
 31
0.0
  0
LINE
  5
5C9
100
AcDbEntity
  8
0
  6
CONTINUOUS
 62
               7
100
AcDbLine
 10
-146.0
 20
8.6999999999999993
 30
0.0
 11
-164.0
 21
8.6999999999999993
 31
0.0
  0
LINE
  5
5CA
100
AcDbEntity
  8
0
  6
CONTINUOUS
 62
               7
100
AcDbLine
 10
-148.59999999999999
 20
9.6999999999999993
 30
0.0
 11
-149.40000000000001
 21
9.6999999999999993
 31
0.0
  0
LINE
  5
5CB
100
AcDbEntity
  8
0
  6
CONTINUOUS
 62
               7
100
AcDbLine
 10
-147.90000000000001
 20
8.9000000000000004
 30
0.0
 11
-150.09999999999999
 21
8.9000000000000004
 31
0.0
  0
LINE
  5
5CC
100
AcDbEntity
  8
0
  6
CONTINUOUS
 62
               7
100
AcDbLine
 10
-147.90000000000001
 20
9.2599999999999998
 30
0.0
 11
-147.90000000000001
 21
8.6999999999999993
 31
0.0
  0
LINE
  5
5CD
100
AcDbEntity
  8
0
  6
CONTINUOUS
 62
               7
100
AcDbLine
 10
-150.09999999999999
 20
9.2599999999999998
 30
0.0
 11
-150.09999999999999
 21
8.6999999999999993
 31
0.0
  0
LINE
  5
5CE
100
AcDbEntity
  8
0
  6
CONTINUOUS
 62
               7
100
AcDbLine
 10
-44.100000000000001
 20
9.6999999999999993
 30
0.0
 11
-44.899999999999999
 21
9.6999999999999993
 31
0.0
  0
LINE
  5
5CF
100
AcDbEntity
  8
0
  6
CONTINUOUS
 62
               7
100
AcDbLine
 10
-43.399999999999999
 20
8.9000000000000004
 30
0.0
 11
-45.600000000000001
 21
8.9000000000000004
 31
0.0
  0
LINE
  5
5D0
100
AcDbEntity
  8
0
  6
CONTINUOUS
 62
               7
100
AcDbLine
 10
-43.399999999999999
 20
9.2599999999999998
 30
0.0
 11
-43.399999999999999
 21
8.6999999999999993
 31
0.0
  0
LINE
  5
5D1
100
AcDbEntity
  8
0
  6
CONTINUOUS
 62
               7
100
AcDbLine
 10
-45.600000000000001
 20
9.2599999999999998
 30
0.0
 11
-45.600000000000001
 21
8.6999999999999993
 31
0.0
  0
LINE
  5
5D2
100
AcDbEntity
  8
0
  6
CONTINUOUS
 62
               7
100
AcDbLine
 10
-146.0
 20
8.6999999999999993
 30
0.0
 11
-146.0
 21
7.5
 31
0.0
  0
LINE
  5
5D3
100
AcDbEntity
  8
0
  6
CONTINUOUS
 62
               7
100
AcDbLine
 10
-38.0
 20
8.6999999999999993
 30
0.0
 11
-38.0
 21
7.5
 31
0.0
  0
LINE
  5
5D4
100
AcDbEntity
  8
0
  6
CONTINUOUS
 62
               7
100
AcDbLine
 10
-52.0
 20
8.6999999999999993
 30
0.0
 11
-52.0
 21
7.5
 31
0.0
  0
LINE
  5
5D5
100
AcDbEntity
  8
0
  6
CONTINUOUS
 62
               7
100
AcDbLine
 10
-34.0
 20
8.6999999999999993
 30
0.0
 11
-52.0
 21
8.6999999999999993
 31
0.0
  0
LINE
  5
5D6
100
AcDbEntity
  8
0
  6
CONTINUOUS
 62
               7
100
AcDbLine
 10
-56.0
 20
9.5
 30
0.0
 11
-54.0
 21
7.5
 31
0.0
  0
LINE
  5
5D7
100
AcDbEntity
  8
0
  6
CONTINUOUS
 62
               7
100
AcDbLine
 10
-61.0
 20
9.5
 30
0.0
 11
-63.0
 21
7.5
 31
0.0
  0
LINE
  5
5D8
100
AcDbEntity
  8
0
  6
CONTINUOUS
 62
               7
100
AcDbLine
 10
-56.0
 20
9.5
 30
0.0
 11
-61.0
 21
9.5
 31
0.0
  0
LINE
  5
5D9
100
AcDbEntity
  8
0
  6
CONTINUOUS
 62
               7
100
AcDbLine
 10
-62.0
 20
10.5
 30
0.0
 11
-62.0
 21
8.5
 31
0.0
  0
LINE
  5
5DA
100
AcDbEntity
  8
0
  6
CONTINUOUS
 62
               7
100
AcDbLine
 10
-55.0
 20
10.5
 30
0.0
 11
-62.0
 21
10.5
 31
0.0
  0
LINE
  5
5DB
100
AcDbEntity
  8
0
  6
CONTINUOUS
 62
               7
100
AcDbLine
 10
-55.0
 20
10.5
 30
0.0
 11
-55.0
 21
8.5
 31
0.0
  0
LINE
  5
5DC
100
AcDbEntity
  8
0
  6
CONTINUOUS
 62
               7
100
AcDbLine
 10
-84.0
 20
9.5
 30
0.0
 11
-82.0
 21
7.5
 31
0.0
  0
LINE
  5
5DD
100
AcDbEntity
  8
0
  6
CONTINUOUS
 62
               7
100
AcDbLine
 10
-89.0
 20
9.5
 30
0.0
 11
-91.0
 21
7.5
 31
0.0
  0
LINE
  5
5DE
100
AcDbEntity
  8
0
  6
CONTINUOUS
 62
               7
100
AcDbLine
 10
-84.0
 20
9.5
 30
0.0
 11
-89.0
 21
9.5
 31
0.0
  0
LINE
  5
5DF
100
AcDbEntity
  8
0
  6
CONTINUOUS
 62
               7
100
AcDbLine
 10
-90.0
 20
10.5
 30
0.0
 11
-90.0
 21
8.5
 31
0.0
  0
LINE
  5
5E0
100
AcDbEntity
  8
0
  6
CONTINUOUS
 62
               7
100
AcDbLine
 10
-83.0
 20
10.5
 30
0.0
 11
-90.0
 21
10.5
 31
0.0
  0
LINE
  5
5E1
100
AcDbEntity
  8
0
  6
CONTINUOUS
 62
               7
100
AcDbLine
 10
-83.0
 20
10.5
 30
0.0
 11
-83.0
 21
8.5
 31
0.0
  0
LINE
  5
5E2
100
AcDbEntity
  8
0
  6
CONTINUOUS
 62
               7
100
AcDbLine
 10
-112.0
 20
9.5
 30
0.0
 11
-110.0
 21
7.5
 31
0.0
  0
LINE
  5
5E3
100
AcDbEntity
  8
0
  6
CONTINUOUS
 62
               7
100
AcDbLine
 10
-117.0
 20
9.5
 30
0.0
 11
-119.0
 21
7.5
 31
0.0
  0
LINE
  5
5E4
100
AcDbEntity
  8
0
  6
CONTINUOUS
 62
               7
100
AcDbLine
 10
-112.0
 20
9.5
 30
0.0
 11
-117.0
 21
9.5
 31
0.0
  0
LINE
  5
5E5
100
AcDbEntity
  8
0
  6
CONTINUOUS
 62
               7
100
AcDbLine
 10
-118.0
 20
10.5
 30
0.0
 11
-118.0
 21
8.5
 31
0.0
  0
LINE
  5
5E6
100
AcDbEntity
  8
0
  6
CONTINUOUS
 62
               7
100
AcDbLine
 10
-111.0
 20
10.5
 30
0.0
 11
-118.0
 21
10.5
 31
0.0
  0
LINE
  5
5E7
100
AcDbEntity
  8
0
  6
CONTINUOUS
 62
               7
100
AcDbLine
 10
-111.0
 20
10.5
 30
0.0
 11
-111.0
 21
8.5
 31
0.0
  0
LINE
  5
5E8
100
AcDbEntity
  8
0
  6
CONTINUOUS
 62
               7
100
AcDbLine
 10
-140.0
 20
9.5
 30
0.0
 11
-138.0
 21
7.5
 31
0.0
  0
LINE
  5
5E9
100
AcDbEntity
  8
0
  6
CONTINUOUS
 62
               7
100
AcDbLine
 10
-145.0
 20
9.5
 30
0.0
 11
-147.0
 21
7.5
 31
0.0
  0
LINE
  5
5EA
100
AcDbEntity
  8
0
  6
CONTINUOUS
 62
               7
100
AcDbLine
 10
-140.0
 20
9.5
 30
0.0
 11
-145.0
 21
9.5
 31
0.0
  0
LINE
  5
5EB
100
AcDbEntity
  8
0
  6
CONTINUOUS
 62
               7
100
AcDbLine
 10
-146.0
 20
10.5
 30
0.0
 11
-146.0
 21
8.5
 31
0.0
  0
LINE
  5
5EC
100
AcDbEntity
  8
0
  6
CONTINUOUS
 62
               7
100
AcDbLine
 10
-139.0
 20
10.5
 30
0.0
 11
-146.0
 21
10.5
 31
0.0
  0
LINE
  5
5ED
100
AcDbEntity
  8
0
  6
CONTINUOUS
 62
               7
100
AcDbLine
 10
-139.0
 20
10.5
 30
0.0
 11
-139.0
 21
8.5
 31
0.0
  0
LINE
  5
5EE
100
AcDbEntity
  8
0
  6
CONTINUOUS
 62
               7
100
AcDbLine
 10
-168.0
 20
9.5
 30
0.0
 11
-166.0
 21
7.5
 31
0.0
  0
LINE
  5
5EF
100
AcDbEntity
  8
0
  6
CONTINUOUS
 62
               7
100
AcDbLine
 10
-173.0
 20
9.5
 30
0.0
 11
-175.0
 21
7.5
 31
0.0
  0
LINE
  5
5F0
100
AcDbEntity
  8
0
  6
CONTINUOUS
 62
               7
100
AcDbLine
 10
-168.0
 20
9.5
 30
0.0
 11
-173.0
 21
9.5
 31
0.0
  0
LINE
  5
5F1
100
AcDbEntity
  8
0
  6
CONTINUOUS
 62
               7
100
AcDbLine
 10
-174.0
 20
10.5
 30
0.0
 11
-174.0
 21
8.5
 31
0.0
  0
LINE
  5
5F2
100
AcDbEntity
  8
0
  6
CONTINUOUS
 62
               7
100
AcDbLine
 10
-167.0
 20
10.5
 30
0.0
 11
-174.0
 21
10.5
 31
0.0
  0
LINE
  5
5F3
100
AcDbEntity
  8
0
  6
CONTINUOUS
 62
               7
100
AcDbLine
 10
-167.0
 20
10.5
 30
0.0
 11
-167.0
 21
8.5
 31
0.0
  0
LINE
  5
5F4
100
AcDbEntity
  8
0
  6
CONTINUOUS
 62
               7
100
AcDbLine
 10
-36.600000000000001
 20
9.6999999999999993
 30
0.0
 11
-37.399999999999999
 21
9.6999999999999993
 31
0.0
  0
LINE
  5
5F5
100
AcDbEntity
  8
0
  6
CONTINUOUS
 62
               7
100
AcDbLine
 10
-35.899999999999999
 20
8.9000000000000004
 30
0.0
 11
-38.100000000000001
 21
8.9000000000000004
 31
0.0
  0
LINE
  5
5F6
100
AcDbEntity
  8
0
  6
CONTINUOUS
 62
               7
100
AcDbLine
 10
-35.899999999999999
 20
9.2599999999999998
 30
0.0
 11
-35.899999999999999
 21
8.6999999999999993
 31
0.0
  0
LINE
  5
5F7
100
AcDbEntity
  8
0
  6
CONTINUOUS
 62
               7
100
AcDbLine
 10
-38.100000000000001
 20
9.2599999999999998
 30
0.0
 11
-38.100000000000001
 21
8.6999999999999993
 31
0.0
  0
LINE
  5
5F8
100
AcDbEntity
  8
0
  6
CENTER
 62
               2
100
AcDbLine
 10
-61.0
 20
-62.979999999999997
 30
0.0
 11
-61.0
 21
-46.799999999999997
 31
0.0
  0
LINE
  5
5F9
100
AcDbEntity
  8
0
  6
CENTER
 62
               2
100
AcDbLine
 10
-69.129999999999995
 20
-55.5
 30
0.0
 11
-53.5
 21
-55.5
 31
0.0
  0
LINE
  5
5FA
100
AcDbEntity
  8
0
  6
CENTER
 62
               2
100
AcDbLine
 10
-61.0
 20
-37.920000000000002
 30
0.0
 11
-61.0
 21
-22.66
 31
0.0
  0
LINE
  5
5FB
100
AcDbEntity
  8
0
  6
CENTER
 62
               2
100
AcDbLine
 10
-68.670000000000002
 20
-30.5
 30
0.0
 11
-53.5
 21
-30.5
 31
0.0
  0
LINE
  5
5FC
100
AcDbEntity
  8
0
  6
CENTER
 62
               2
100
AcDbLine
 10
-61.0
 20
-15.369999999999999
 30
0.0
 11
-61.0
 21
-0.79
 31
0.0
  0
LINE
  5
5FD
100
AcDbEntity
  8
0
  6
CENTER
 62
               2
100
AcDbLine
 10
-69.129999999999995
 20
-8.5
 30
0.0
 11
-53.5
 21
-8.5
 31
0.0
  0
LINE
  5
5FE
100
AcDbEntity
  8
0
  6
CENTER
 62
               2
100
AcDbLine
 10
-75.0
 20
-27.440000000000001
 30
0.0
 11
-75.0
 21
-12.18
 31
0.0
  0
LINE
  5
5FF
100
AcDbEntity
  8
0
  6
CENTER
 62
               2
100
AcDbLine
 10
-80.519999999999996
 20
-19.5
 30
0.0
 11
-68.439999999999998
 21
-19.5
 31
0.0
  0
LINE
  5
600
100
AcDbEntity
  8
0
  6
CENTER
 62
               2
100
AcDbLine
 10
-81.879999999999995
 20
-41.5
 30
0.0
 11
-68.209999999999994
 21
-41.5
 31
0.0
  0
LINE
  5
601
100
AcDbEntity
  8
0
  6
CENTER
 62
               2
100
AcDbLine
 10
-75.0
 20
-49.310000000000002
 30
0.0
 11
-75.0
 21
-33.82
 31
0.0
  0
LINE
  5
602
100
AcDbEntity
  8
0
  6
CENTER
 62
               2
100
AcDbLine
 10
-89.0
 20
-62.979999999999997
 30
0.0
 11
-89.0
 21
-46.799999999999997
 31
0.0
  0
LINE
  5
603
100
AcDbEntity
  8
0
  6
CENTER
 62
               2
100
AcDbLine
 10
-97.129999999999995
 20
-55.5
 30
0.0
 11
-81.5
 21
-55.5
 31
0.0
  0
LINE
  5
604
100
AcDbEntity
  8
0
  6
CENTER
 62
               2
100
AcDbLine
 10
-89.0
 20
-37.920000000000002
 30
0.0
 11
-89.0
 21
-22.66
 31
0.0
  0
LINE
  5
605
100
AcDbEntity
  8
0
  6
CENTER
 62
               2
100
AcDbLine
 10
-96.670000000000002
 20
-30.5
 30
0.0
 11
-81.5
 21
-30.5
 31
0.0
  0
LINE
  5
606
100
AcDbEntity
  8
0
  6
CENTER
 62
               2
100
AcDbLine
 10
-89.0
 20
-15.369999999999999
 30
0.0
 11
-89.0
 21
-0.79
 31
0.0
  0
LINE
  5
607
100
AcDbEntity
  8
0
  6
CENTER
 62
               2
100
AcDbLine
 10
-97.129999999999995
 20
-8.5
 30
0.0
 11
-81.5
 21
-8.5
 31
0.0
  0
LINE
  5
608
100
AcDbEntity
  8
0
  6
CENTER
 62
               2
100
AcDbLine
 10
-103.0
 20
-27.440000000000001
 30
0.0
 11
-103.0
 21
-12.18
 31
0.0
  0
LINE
  5
609
100
AcDbEntity
  8
0
  6
CENTER
 62
               2
100
AcDbLine
 10
-108.52
 20
-19.5
 30
0.0
 11
-96.439999999999998
 21
-19.5
 31
0.0
  0
LINE
  5
60A
100
AcDbEntity
  8
0
  6
CENTER
 62
               2
100
AcDbLine
 10
-109.88
 20
-41.5
 30
0.0
 11
-96.209999999999994
 21
-41.5
 31
0.0
  0
LINE
  5
60B
100
AcDbEntity
  8
0
  6
CENTER
 62
               2
100
AcDbLine
 10
-103.0
 20
-49.310000000000002
 30
0.0
 11
-103.0
 21
-33.82
 31
0.0
  0
LINE
  5
60C
100
AcDbEntity
  8
0
  6
CENTER
 62
               2
100
AcDbLine
 10
-117.0
 20
-62.979999999999997
 30
0.0
 11
-117.0
 21
-46.799999999999997
 31
0.0
  0
LINE
  5
60D
100
AcDbEntity
  8
0
  6
CENTER
 62
               2
100
AcDbLine
 10
-125.13
 20
-55.5
 30
0.0
 11
-109.5
 21
-55.5
 31
0.0
  0
LINE
  5
60E
100
AcDbEntity
  8
0
  6
CENTER
 62
               2
100
AcDbLine
 10
-117.0
 20
-37.920000000000002
 30
0.0
 11
-117.0
 21
-22.66
 31
0.0
  0
LINE
  5
60F
100
AcDbEntity
  8
0
  6
CENTER
 62
               2
100
AcDbLine
 10
-124.67
 20
-30.5
 30
0.0
 11
-109.5
 21
-30.5
 31
0.0
  0
LINE
  5
610
100
AcDbEntity
  8
0
  6
CENTER
 62
               2
100
AcDbLine
 10
-117.0
 20
-15.369999999999999
 30
0.0
 11
-117.0
 21
-0.79
 31
0.0
  0
LINE
  5
611
100
AcDbEntity
  8
0
  6
CENTER
 62
               2
100
AcDbLine
 10
-125.13
 20
-8.5
 30
0.0
 11
-109.5
 21
-8.5
 31
0.0
  0
LINE
  5
612
100
AcDbEntity
  8
0
  6
CENTER
 62
               2
100
AcDbLine
 10
-131.0
 20
-27.440000000000001
 30
0.0
 11
-131.0
 21
-12.18
 31
0.0
  0
LINE
  5
613
100
AcDbEntity
  8
0
  6
CENTER
 62
               2
100
AcDbLine
 10
-136.52000000000001
 20
-19.5
 30
0.0
 11
-124.44
 21
-19.5
 31
0.0
  0
LINE
  5
614
100
AcDbEntity
  8
0
  6
CENTER
 62
               2
100
AcDbLine
 10
-137.88
 20
-41.5
 30
0.0
 11
-124.20999999999999
 21
-41.5
 31
0.0
  0
LINE
  5
615
100
AcDbEntity
  8
0
  6
CENTER
 62
               2
100
AcDbLine
 10
-131.0
 20
-49.310000000000002
 30
0.0
 11
-131.0
 21
-33.82
 31
0.0
  0
LINE
  5
616
100
AcDbEntity
  8
0
  6
CENTER
 62
               2
100
AcDbLine
 10
-145.0
 20
-62.979999999999997
 30
0.0
 11
-145.0
 21
-46.799999999999997
 31
0.0
  0
LINE
  5
617
100
AcDbEntity
  8
0
  6
CENTER
 62
               2
100
AcDbLine
 10
-153.13
 20
-55.5
 30
0.0
 11
-137.5
 21
-55.5
 31
0.0
  0
LINE
  5
618
100
AcDbEntity
  8
0
  6
CENTER
 62
               2
100
AcDbLine
 10
-145.0
 20
-37.920000000000002
 30
0.0
 11
-145.0
 21
-22.66
 31
0.0
  0
LINE
  5
619
100
AcDbEntity
  8
0
  6
CENTER
 62
               2
100
AcDbLine
 10
-152.66999999999999
 20
-30.5
 30
0.0
 11
-137.5
 21
-30.5
 31
0.0
  0
LINE
  5
61A
100
AcDbEntity
  8
0
  6
CENTER
 62
               2
100
AcDbLine
 10
-145.0
 20
-15.369999999999999
 30
0.0
 11
-145.0
 21
-0.79
 31
0.0
  0
LINE
  5
61B
100
AcDbEntity
  8
0
  6
CENTER
 62
               2
100
AcDbLine
 10
-153.13
 20
-8.5
 30
0.0
 11
-137.5
 21
-8.5
 31
0.0
  0
LINE
  5
61C
100
AcDbEntity
  8
0
  6
CENTER
 62
               2
100
AcDbLine
 10
-159.0
 20
-27.440000000000001
 30
0.0
 11
-159.0
 21
-12.18
 31
0.0
  0
LINE
  5
61D
100
AcDbEntity
  8
0
  6
CENTER
 62
               2
100
AcDbLine
 10
-164.52000000000001
 20
-19.5
 30
0.0
 11
-152.44
 21
-19.5
 31
0.0
  0
LINE
  5
61E
100
AcDbEntity
  8
0
  6
CENTER
 62
               2
100
AcDbLine
 10
-165.88
 20
-41.5
 30
0.0
 11
-152.21000000000001
 21
-41.5
 31
0.0
  0
LINE
  5
61F
100
AcDbEntity
  8
0
  6
CENTER
 62
               2
100
AcDbLine
 10
-159.0
 20
-49.310000000000002
 30
0.0
 11
-159.0
 21
-33.82
 31
0.0
  0
LINE
  5
620
100
AcDbEntity
  8
0
  6
CENTER
 62
               2
100
AcDbLine
 10
-33.0
 20
-62.979999999999997
 30
0.0
 11
-33.0
 21
-46.799999999999997
 31
0.0
  0
LINE
  5
621
100
AcDbEntity
  8
0
  6
CENTER
 62
               2
100
AcDbLine
 10
-41.130000000000003
 20
-55.5
 30
0.0
 11
-25.5
 21
-55.5
 31
0.0
  0
LINE
  5
622
100
AcDbEntity
  8
0
  6
CENTER
 62
               2
100
AcDbLine
 10
-33.0
 20
-37.920000000000002
 30
0.0
 11
-33.0
 21
-22.66
 31
0.0
  0
LINE
  5
623
100
AcDbEntity
  8
0
  6
CENTER
 62
               2
100
AcDbLine
 10
-40.670000000000002
 20
-30.5
 30
0.0
 11
-25.5
 21
-30.5
 31
0.0
  0
LINE
  5
624
100
AcDbEntity
  8
0
  6
CENTER
 62
               2
100
AcDbLine
 10
-33.0
 20
-15.369999999999999
 30
0.0
 11
-33.0
 21
-0.79
 31
0.0
  0
LINE
  5
625
100
AcDbEntity
  8
0
  6
CENTER
 62
               2
100
AcDbLine
 10
-41.130000000000003
 20
-8.5
 30
0.0
 11
-25.5
 21
-8.5
 31
0.0
  0
LINE
  5
626
100
AcDbEntity
  8
0
  6
CENTER
 62
               2
100
AcDbLine
 10
-47.0
 20
-27.440000000000001
 30
0.0
 11
-47.0
 21
-12.18
 31
0.0
  0
LINE
  5
627
100
AcDbEntity
  8
0
  6
CENTER
 62
               2
100
AcDbLine
 10
-52.520000000000003
 20
-19.5
 30
0.0
 11
-40.439999999999998
 21
-19.5
 31
0.0
  0
LINE
  5
628
100
AcDbEntity
  8
0
  6
CENTER
 62
               2
100
AcDbLine
 10
-53.880000000000003
 20
-41.5
 30
0.0
 11
-40.210000000000001
 21
-41.5
 31
0.0
  0
LINE
  5
629
100
AcDbEntity
  8
0
  6
CENTER
 62
               2
100
AcDbLine
 10
-47.0
 20
-49.310000000000002
 30
0.0
 11
-47.0
 21
-33.82
 31
0.0
  0
LINE
  5
62A
100
AcDbEntity
  8
0
  6
CONTINUOUS
 62
               7
100
AcDbLine
 10
-25.5
 20
7.5
 30
0.0
 11
3.0
 21
7.5
 31
0.0
  0
LINE
  5
62B
100
AcDbEntity
  8
0
  6
CONTINUOUS
 62
               7
100
AcDbLine
 10
-53.5
 20
7.5
 30
0.0
 11
-81.5
 21
7.5
 31
0.0
  0
LINE
  5
62C
100
AcDbEntity
  8
0
  6
CONTINUOUS
 62
               7
100
AcDbLine
 10
-81.5
 20
7.5
 30
0.0
 11
-109.5
 21
7.5
 31
0.0
  0
LINE
  5
62D
100
AcDbEntity
  8
0
  6
CONTINUOUS
 62
               7
100
AcDbLine
 10
-109.5
 20
7.5
 30
0.0
 11
-137.5
 21
7.5
 31
0.0
  0
LINE
  5
62E
100
AcDbEntity
  8
0
  6
CONTINUOUS
 62
               7
100
AcDbLine
 10
-137.5
 20
7.5
 30
0.0
 11
-165.5
 21
7.5
 31
0.0
  0
LINE
  5
62F
100
AcDbEntity
  8
0
  6
CONTINUOUS
 62
               7
100
AcDbLine
 10
-81.5
 20
-71.5
 30
0.0
 11
-109.5
 21
-71.5
 31
0.0
  0
LINE
  5
630
100
AcDbEntity
  8
0
  6
CONTINUOUS
 62
               7
100
AcDbLine
 10
-102.0
 20
-73.5
 30
0.0
 11
-100.0
 21
-71.5
 31
0.0
  0
LINE
  5
631
100
AcDbEntity
  8
0
  6
CONTINUOUS
 62
               7
100
AcDbLine
 10
-107.0
 20
-73.5
 30
0.0
 11
-109.0
 21
-71.5
 31
0.0
  0
LINE
  5
632
100
AcDbEntity
  8
0
  6
CONTINUOUS
 62
               7
100
AcDbLine
 10
-102.0
 20
-73.5
 30
0.0
 11
-107.0
 21
-73.5
 31
0.0
  0
LINE
  5
633
100
AcDbEntity
  8
0
  6
CONTINUOUS
 62
               7
100
AcDbLine
 10
-108.0
 20
-74.5
 30
0.0
 11
-108.0
 21
-72.5
 31
0.0
  0
LINE
  5
634
100
AcDbEntity
  8
0
  6
CONTINUOUS
 62
               7
100
AcDbLine
 10
-101.0
 20
-74.5
 30
0.0
 11
-108.0
 21
-74.5
 31
0.0
  0
LINE
  5
635
100
AcDbEntity
  8
0
  6
CONTINUOUS
 62
               7
100
AcDbLine
 10
-101.0
 20
-74.5
 30
0.0
 11
-101.0
 21
-72.5
 31
0.0
  0
LINE
  5
636
100
AcDbEntity
  8
0
  6
CONTINUOUS
 62
               7
100
AcDbLine
 10
-109.5
 20
-70.5
 30
0.0
 11
-81.5
 21
-70.5
 31
0.0
  0
LINE
  5
637
100
AcDbEntity
  8
0
  6
CONTINUOUS
 62
               7
100
AcDbLine
 10
-53.5
 20
-71.5
 30
0.0
 11
-81.5
 21
-71.5
 31
0.0
  0
LINE
  5
638
100
AcDbEntity
  8
0
  6
CONTINUOUS
 62
               7
100
AcDbLine
 10
-74.0
 20
-73.5
 30
0.0
 11
-72.0
 21
-71.5
 31
0.0
  0
LINE
  5
639
100
AcDbEntity
  8
0
  6
CONTINUOUS
 62
               7
100
AcDbLine
 10
-79.0
 20
-73.5
 30
0.0
 11
-81.0
 21
-71.5
 31
0.0
  0
LINE
  5
63A
100
AcDbEntity
  8
0
  6
CONTINUOUS
 62
               7
100
AcDbLine
 10
-74.0
 20
-73.5
 30
0.0
 11
-79.0
 21
-73.5
 31
0.0
  0
LINE
  5
63B
100
AcDbEntity
  8
0
  6
CONTINUOUS
 62
               7
100
AcDbLine
 10
-80.0
 20
-74.5
 30
0.0
 11
-80.0
 21
-72.5
 31
0.0
  0
LINE
  5
63C
100
AcDbEntity
  8
0
  6
CONTINUOUS
 62
               7
100
AcDbLine
 10
-73.0
 20
-74.5
 30
0.0
 11
-80.0
 21
-74.5
 31
0.0
  0
LINE
  5
63D
100
AcDbEntity
  8
0
  6
CONTINUOUS
 62
               7
100
AcDbLine
 10
-73.0
 20
-74.5
 30
0.0
 11
-73.0
 21
-72.5
 31
0.0
  0
LINE
  5
63E
100
AcDbEntity
  8
0
  6
CONTINUOUS
 62
               7
100
AcDbLine
 10
-81.5
 20
-70.5
 30
0.0
 11
-53.5
 21
-70.5
 31
0.0
  0
LINE
  5
63F
100
AcDbEntity
  8
0
  6
CONTINUOUS
 62
               7
100
AcDbLine
 10
-109.5
 20
-71.5
 30
0.0
 11
-109.5
 21
7.5
 31
0.0
  0
LINE
  5
640
100
AcDbEntity
  8
0
  6
CONTINUOUS
 62
               7
100
AcDbLine
 10
-81.5
 20
-71.5
 30
0.0
 11
-81.5
 21
7.5
 31
0.0
  0
LINE
  5
641
100
AcDbEntity
  8
0
  6
CONTINUOUS
 62
               7
100
AcDbLine
 10
-109.5
 20
-71.5
 30
0.0
 11
-137.5
 21
-71.5
 31
0.0
  0
LINE
  5
642
100
AcDbEntity
  8
0
  6
CONTINUOUS
 62
               7
100
AcDbLine
 10
-130.0
 20
-73.5
 30
0.0
 11
-128.0
 21
-71.5
 31
0.0
  0
LINE
  5
643
100
AcDbEntity
  8
0
  6
CONTINUOUS
 62
               7
100
AcDbLine
 10
-135.0
 20
-73.5
 30
0.0
 11
-137.0
 21
-71.5
 31
0.0
  0
LINE
  5
644
100
AcDbEntity
  8
0
  6
CONTINUOUS
 62
               7
100
AcDbLine
 10
-130.0
 20
-73.5
 30
0.0
 11
-135.0
 21
-73.5
 31
0.0
  0
LINE
  5
645
100
AcDbEntity
  8
0
  6
CONTINUOUS
 62
               7
100
AcDbLine
 10
-136.0
 20
-74.5
 30
0.0
 11
-136.0
 21
-72.5
 31
0.0
  0
LINE
  5
646
100
AcDbEntity
  8
0
  6
CONTINUOUS
 62
               7
100
AcDbLine
 10
-129.0
 20
-74.5
 30
0.0
 11
-136.0
 21
-74.5
 31
0.0
  0
LINE
  5
647
100
AcDbEntity
  8
0
  6
CONTINUOUS
 62
               7
100
AcDbLine
 10
-129.0
 20
-74.5
 30
0.0
 11
-129.0
 21
-72.5
 31
0.0
  0
LINE
  5
648
100
AcDbEntity
  8
0
  6
CONTINUOUS
 62
               7
100
AcDbLine
 10
-137.5
 20
-70.5
 30
0.0
 11
-109.5
 21
-70.5
 31
0.0
  0
LINE
  5
649
100
AcDbEntity
  8
0
  6
CONTINUOUS
 62
               7
100
AcDbLine
 10
-53.5
 20
-71.5
 30
0.0
 11
-53.5
 21
7.5
 31
0.0
  0
LINE
  5
64A
100
AcDbEntity
  8
0
  6
CONTINUOUS
 62
               7
100
AcDbLine
 10
-25.5
 20
-71.5
 30
0.0
 11
-53.5
 21
-71.5
 31
0.0
  0
LINE
  5
64B
100
AcDbEntity
  8
0
  6
CONTINUOUS
 62
               7
100
AcDbLine
 10
-46.0
 20
-73.5
 30
0.0
 11
-44.0
 21
-71.5
 31
0.0
  0
LINE
  5
64C
100
AcDbEntity
  8
0
  6
CONTINUOUS
 62
               7
100
AcDbLine
 10
-51.0
 20
-73.5
 30
0.0
 11
-53.0
 21
-71.5
 31
0.0
  0
LINE
  5
64D
100
AcDbEntity
  8
0
  6
CONTINUOUS
 62
               7
100
AcDbLine
 10
-46.0
 20
-73.5
 30
0.0
 11
-51.0
 21
-73.5
 31
0.0
  0
LINE
  5
64E
100
AcDbEntity
  8
0
  6
CONTINUOUS
 62
               7
100
AcDbLine
 10
-52.0
 20
-74.5
 30
0.0
 11
-52.0
 21
-72.5
 31
0.0
  0
LINE
  5
64F
100
AcDbEntity
  8
0
  6
CONTINUOUS
 62
               7
100
AcDbLine
 10
-45.0
 20
-74.5
 30
0.0
 11
-52.0
 21
-74.5
 31
0.0
  0
LINE
  5
650
100
AcDbEntity
  8
0
  6
CONTINUOUS
 62
               7
100
AcDbLine
 10
-45.0
 20
-74.5
 30
0.0
 11
-45.0
 21
-72.5
 31
0.0
  0
LINE
  5
651
100
AcDbEntity
  8
0
  6
CONTINUOUS
 62
               7
100
AcDbLine
 10
-53.5
 20
-70.5
 30
0.0
 11
-25.5
 21
-70.5
 31
0.0
  0
LINE
  5
652
100
AcDbEntity
  8
0
  6
CONTINUOUS
 62
               7
100
AcDbLine
 10
-25.5
 20
-71.5
 30
0.0
 11
-25.5
 21
7.5
 31
0.0
  0
LINE
  5
653
100
AcDbEntity
  8
0
  6
CONTINUOUS
 62
               7
100
AcDbLine
 10
-137.5
 20
-71.5
 30
0.0
 11
-137.5
 21
7.5
 31
0.0
  0
LINE
  5
654
100
AcDbEntity
  8
0
  6
CONTINUOUS
 62
               7
100
AcDbLine
 10
-28.0
 20
9.5
 30
0.0
 11
-26.0
 21
7.5
 31
0.0
  0
LINE
  5
655
100
AcDbEntity
  8
0
  6
CONTINUOUS
 62
               7
100
AcDbLine
 10
-33.0
 20
9.5
 30
0.0
 11
-35.0
 21
7.5
 31
0.0
  0
LINE
  5
656
100
AcDbEntity
  8
0
  6
CONTINUOUS
 62
               7
100
AcDbLine
 10
-28.0
 20
9.5
 30
0.0
 11
-33.0
 21
9.5
 31
0.0
  0
LINE
  5
657
100
AcDbEntity
  8
0
  6
CONTINUOUS
 62
               7
100
AcDbLine
 10
-34.0
 20
10.5
 30
0.0
 11
-34.0
 21
8.5
 31
0.0
  0
LINE
  5
658
100
AcDbEntity
  8
0
  6
CONTINUOUS
 62
               7
100
AcDbLine
 10
-27.0
 20
10.5
 30
0.0
 11
-34.0
 21
10.5
 31
0.0
  0
LINE
  5
659
100
AcDbEntity
  8
0
  6
CONTINUOUS
 62
               7
100
AcDbLine
 10
-27.0
 20
10.5
 30
0.0
 11
-27.0
 21
8.5
 31
0.0
  0
LINE
  5
65A
100
AcDbEntity
  8
0
  6
CONTINUOUS
 62
               7
100
AcDbLine
 10
-165.5
 20
-70.5
 30
0.0
 11
-137.5
 21
-70.5
 31
0.0
  0
LINE
  5
65B
100
AcDbEntity
  8
0
  6
CONTINUOUS
 62
               7
100
AcDbLine
 10
-165.5
 20
-71.5
 30
0.0
 11
-165.5
 21
7.5
 31
0.0
  0
LINE
  5
65C
100
AcDbEntity
  8
0
  6
CONTINUOUS
 62
               7
100
AcDbLine
 10
-25.5
 20
7.5
 30
0.0
 11
-53.5
 21
7.5
 31
0.0
  0
LINE
  5
65D
100
AcDbEntity
  8
0
  6
CONTINUOUS
 62
               7
100
AcDbLine
 10
-137.5
 20
-71.5
 30
0.0
 11
-165.5
 21
-71.5
 31
0.0
  0
LINE
  5
65E
100
AcDbEntity
  8
0
  6
CONTINUOUS
 62
               7
100
AcDbLine
 10
-165.5
 20
-70.5
 30
0.0
 11
-183.5
 21
-70.5
 31
0.0
  0
LINE
  5
65F
100
AcDbEntity
  8
0
  6
CONTINUOUS
 62
               7
100
AcDbLine
 10
-194.0
 20
-7.5
 30
0.0
 11
-185.5
 21
-7.5
 31
0.0
  0
LINE
  5
660
100
AcDbEntity
  8
0
  6
CONTINUOUS
 62
               7
100
AcDbLine
 10
-194.0
 20
7.5
 30
0.0
 11
-183.5
 21
7.5
 31
0.0
  0
LINE
  5
661
100
AcDbEntity
  8
0
  6
CONTINUOUS
 62
               7
100
AcDbLine
 10
-194.0
 20
-56.5
 30
0.0
 11
-185.5
 21
-56.5
 31
0.0
  0
LINE
  5
662
100
AcDbEntity
  8
0
  6
CONTINUOUS
 62
               7
100
AcDbLine
 10
-194.0
 20
-71.5
 30
0.0
 11
-183.5
 21
-71.5
 31
0.0
  0
LINE
  5
663
100
AcDbEntity
  8
0
  6
CONTINUOUS
 62
               7
100
AcDbLine
 10
-196.0
 20
-61.5
 30
0.0
 11
-191.0
 21
-61.5
 31
0.0
  0
LINE
  5
664
100
AcDbEntity
  8
0
  6
CONTINUOUS
 62
               7
100
AcDbLine
 10
-196.0
 20
-66.5
 30
0.0
 11
-191.0
 21
-66.5
 31
0.0
  0
LINE
  5
665
100
AcDbEntity
  8
0
  6
CENTER
 62
               2
100
AcDbLine
 10
-191.0
 20
-69.739999999999995
 30
0.0
 11
-191.0
 21
-58.119999999999997
 31
0.0
  0
LINE
  5
666
100
AcDbEntity
  8
0
  6
CONTINUOUS
 62
               7
100
AcDbLine
 10
-196.0
 20
-69.5
 30
0.0
 11
-196.0
 21
-66.5
 31
0.0
  0
LINE
  5
667
100
AcDbEntity
  8
0
  6
CONTINUOUS
 62
               7
100
AcDbLine
 10
-196.0
 20
-61.5
 30
0.0
 11
-196.0
 21
-58.5
 31
0.0
  0
LINE
  5
668
100
AcDbEntity
  8
0
  6
CENTER
 62
               2
100
AcDbLine
 10
-195.99000000000001
 20
-64.0
 30
0.0
 11
-185.21000000000001
 21
-64.0
 31
0.0
  0
LINE
  5
669
100
AcDbEntity
  8
0
  6
CONTINUOUS
 62
               7
100
AcDbLine
 10
-196.0
 20
2.5
 30
0.0
 11
-191.0
 21
2.5
 31
0.0
  0
LINE
  5
66A
100
AcDbEntity
  8
0
  6
CONTINUOUS
 62
               7
100
AcDbLine
 10
-196.0
 20
-2.5
 30
0.0
 11
-191.0
 21
-2.5
 31
0.0
  0
LINE
  5
66B
100
AcDbEntity
  8
0
  6
CENTER
 62
               2
100
AcDbLine
 10
-191.0
 20
-5.7400000000000002
 30
0.0
 11
-191.0
 21
5.8700000000000001
 31
0.0
  0
LINE
  5
66C
100
AcDbEntity
  8
0
  6
CONTINUOUS
 62
               7
100
AcDbLine
 10
-196.0
 20
-5.5
 30
0.0
 11
-196.0
 21
-2.5
 31
0.0
  0
LINE
  5
66D
100
AcDbEntity
  8
0
  6
CONTINUOUS
 62
               7
100
AcDbLine
 10
-196.0
 20
2.5
 30
0.0
 11
-196.0
 21
5.5
 31
0.0
  0
LINE
  5
66E
100
AcDbEntity
  8
0
  6
CENTER
 62
               2
100
AcDbLine
 10
-195.99000000000001
 20
0.0
 30
0.0
 11
-185.21000000000001
 21
0.0
 31
0.0
  0
LINE
  5
66F
100
AcDbEntity
  8
0
  6
CONTINUOUS
 62
               7
100
AcDbLine
 10
-183.5
 20
-71.5
 30
0.0
 11
-165.5
 21
-71.5
 31
0.0
  0
LINE
  5
670
100
AcDbEntity
  8
0
  6
CONTINUOUS
 62
               7
100
AcDbLine
 10
-183.5
 20
7.5
 30
0.0
 11
-183.5
 21
-71.5
 31
0.0
  0
LINE
  5
671
100
AcDbEntity
  8
0
  6
CONTINUOUS
 62
               7
100
AcDbLine
 10
-165.5
 20
-71.5
 30
0.0
 11
-165.5
 21
7.5
 31
0.0
  0
LINE
  5
672
100
AcDbEntity
  8
0
  6
CONTINUOUS
 62
               7
100
AcDbLine
 10
-183.5
 20
7.5
 30
0.0
 11
-165.5
 21
7.5
 31
0.0
  0
LINE
  5
673
100
AcDbEntity
  8
0
  6
CONTINUOUS
 62
               7
100
AcDbLine
 10
-7.5
 20
7.5
 30
0.0
 11
-7.5
 21
-71.5
 31
0.0
  0
LINE
  5
674
100
AcDbEntity
  8
0
  6
CONTINUOUS
 62
               7
100
AcDbLine
 10
3.0
 20
-6.9000000000000004
 30
0.0
 11
-5.5
 21
-6.9000000000000004
 31
0.0
  0
LINE
  5
675
100
AcDbEntity
  8
0
  6
CONTINUOUS
 62
               7
100
AcDbLine
 10
3.0
 20
-57.100000000000001
 30
0.0
 11
-5.5
 21
-57.100000000000001
 31
0.0
  0
LINE
  5
676
100
AcDbEntity
  8
0
  6
CONTINUOUS
 62
               7
100
AcDbLine
 10
3.0
 20
-71.5
 30
0.0
 11
-7.5
 21
-71.5
 31
0.0
  0
LINE
  5
677
100
AcDbEntity
  8
0
  6
CONTINUOUS
 62
               7
100
AcDbLine
 10
5.0
 20
-61.5
 30
0.0
 11
0.0
 21
-61.5
 31
0.0
  0
LINE
  5
678
100
AcDbEntity
  8
0
  6
CONTINUOUS
 62
               7
100
AcDbLine
 10
5.0
 20
-66.5
 30
0.0
 11
0.0
 21
-66.5
 31
0.0
  0
LINE
  5
679
100
AcDbEntity
  8
0
  6
CENTER
 62
               2
100
AcDbLine
 10
0.0
 20
-69.739999999999995
 30
0.0
 11
0.0
 21
-58.119999999999997
 31
0.0
  0
LINE
  5
67A
100
AcDbEntity
  8
0
  6
CONTINUOUS
 62
               7
100
AcDbLine
 10
5.0
 20
-69.5
 30
0.0
 11
5.0
 21
-66.5
 31
0.0
  0
LINE
  5
67B
100
AcDbEntity
  8
0
  6
CONTINUOUS
 62
               7
100
AcDbLine
 10
5.0
 20
-61.5
 30
0.0
 11
5.0
 21
-59.100000000000001
 31
0.0
  0
LINE
  5
67C
100
AcDbEntity
  8
0
  6
CENTER
 62
               2
100
AcDbLine
 10
4.9900000000000002
 20
-64.0
 30
0.0
 11
-5.7800000000000002
 21
-64.0
 31
0.0
  0
LINE
  5
67D
100
AcDbEntity
  8
0
  6
CONTINUOUS
 62
               7
100
AcDbLine
 10
5.0
 20
2.5
 30
0.0
 11
0.0
 21
2.5
 31
0.0
  0
LINE
  5
67E
100
AcDbEntity
  8
0
  6
CONTINUOUS
 62
               7
100
AcDbLine
 10
5.0
 20
-2.5
 30
0.0
 11
0.0
 21
-2.5
 31
0.0
  0
LINE
  5
67F
100
AcDbEntity
  8
0
  6
CENTER
 62
               2
100
AcDbLine
 10
0.0
 20
-5.7400000000000002
 30
0.0
 11
0.0
 21
5.8700000000000001
 31
0.0
  0
LINE
  5
680
100
AcDbEntity
  8
0
  6
CONTINUOUS
 62
               7
100
AcDbLine
 10
5.0
 20
-4.9000000000000004
 30
0.0
 11
5.0
 21
-2.5
 31
0.0
  0
LINE
  5
681
100
AcDbEntity
  8
0
  6
CONTINUOUS
 62
               7
100
AcDbLine
 10
5.0
 20
2.5
 30
0.0
 11
5.0
 21
5.5
 31
0.0
  0
LINE
  5
682
100
AcDbEntity
  8
0
  6
CENTER
 62
               2
100
AcDbLine
 10
4.9900000000000002
 20
0.0
 30
0.0
 11
-5.7800000000000002
 21
0.0
 31
0.0
  0
LINE
  5
683
100
AcDbEntity
  8
0
  6
CONTINUOUS
 62
               7
100
AcDbLine
 10
-7.5
 20
-71.5
 30
0.0
 11
-25.5
 21
-71.5
 31
0.0
  0
LINE
  5
684
100
AcDbEntity
  8
0
  6
CONTINUOUS
 62
               7
100
AcDbLine
 10
-18.0
 20
-73.5
 30
0.0
 11
-16.0
 21
-71.5
 31
0.0
  0
LINE
  5
685
100
AcDbEntity
  8
0
  6
CONTINUOUS
 62
               7
100
AcDbLine
 10
-23.0
 20
-73.5
 30
0.0
 11
-25.0
 21
-71.5
 31
0.0
  0
LINE
  5
686
100
AcDbEntity
  8
0
  6
CONTINUOUS
 62
               7
100
AcDbLine
 10
-18.0
 20
-73.5
 30
0.0
 11
-23.0
 21
-73.5
 31
0.0
  0
LINE
  5
687
100
AcDbEntity
  8
0
  6
CONTINUOUS
 62
               7
100
AcDbLine
 10
-24.0
 20
-74.5
 30
0.0
 11
-24.0
 21
-72.5
 31
0.0
  0
LINE
  5
688
100
AcDbEntity
  8
0
  6
CONTINUOUS
 62
               7
100
AcDbLine
 10
-17.0
 20
-74.5
 30
0.0
 11
-24.0
 21
-74.5
 31
0.0
  0
LINE
  5
689
100
AcDbEntity
  8
0
  6
CONTINUOUS
 62
               7
100
AcDbLine
 10
-17.0
 20
-74.5
 30
0.0
 11
-17.0
 21
-72.5
 31
0.0
  0
LINE
  5
68A
100
AcDbEntity
  8
0
  6
CONTINUOUS
 62
               7
100
AcDbLine
 10
-163.0
 20
-73.5
 30
0.0
 11
-165.0
 21
-71.5
 31
0.0
  0
LINE
  5
68B
100
AcDbEntity
  8
0
  6
CONTINUOUS
 62
               7
100
AcDbLine
 10
-158.0
 20
-73.5
 30
0.0
 11
-156.0
 21
-71.5
 31
0.0
  0
LINE
  5
68C
100
AcDbEntity
  8
0
  6
CONTINUOUS
 62
               7
100
AcDbLine
 10
-163.0
 20
-73.5
 30
0.0
 11
-158.0
 21
-73.5
 31
0.0
  0
LINE
  5
68D
100
AcDbEntity
  8
0
  6
CONTINUOUS
 62
               7
100
AcDbLine
 10
-157.0
 20
-74.5
 30
0.0
 11
-157.0
 21
-72.5
 31
0.0
  0
LINE
  5
68E
100
AcDbEntity
  8
0
  6
CONTINUOUS
 62
               7
100
AcDbLine
 10
-164.0
 20
-74.5
 30
0.0
 11
-157.0
 21
-74.5
 31
0.0
  0
LINE
  5
68F
100
AcDbEntity
  8
0
  6
CONTINUOUS
 62
               7
100
AcDbLine
 10
-164.0
 20
-74.5
 30
0.0
 11
-164.0
 21
-72.5
 31
0.0
  0
ENDBLK
  5
690
100
AcDbEntity
  8
0
100
AcDbBlockEnd
  0
BLOCK
  5
694
100
AcDbEntity
  8
0
  6
ByBlock
 62
               0
100
AcDbBlockBegin
  2
_OPEN30
 70
               2
 10
0.0
 20
0.0
 30
0.0
  3
_OPEN30
  1

  0
LINE
  5
695
100
AcDbEntity
  8
0
  6
ByBlock
 62
               0
100
AcDbLine
 10
-1.0
 20
0.267949
 30
0.0
 11
0.0
 21
0.0
 31
0.0
  0
LINE
  5
696
100
AcDbEntity
  8
0
  6
ByBlock
 62
               0
100
AcDbLine
 10
0.0
 20
0.0
 30
0.0
 11
-1.0
 21
-0.267949
 31
0.0
  0
LINE
  5
697
100
AcDbEntity
  8
0
  6
ByBlock
 62
               0
100
AcDbLine
 10
0.0
 20
0.0
 30
0.0
 11
-1.0
 21
0.0
 31
0.0
  0
ENDBLK
  5
698
100
AcDbEntity
  8
0
  6
ByBlock
 62
               0
100
AcDbBlockEnd
  0
BLOCK
  5
6A3
100
AcDbEntity
  8
0
  6
ByBlock
 62
               0
100
AcDbBlockBegin
  2
*D5
 70
               1
 10
0.0
 20
0.0
 30
0.0
  3
*D5
  1

  0
LINE
  5
6A4
100
AcDbEntity
  8
0
  6
ByBlock
 62
               0
100
AcDbLine
 10
-113.42166137695312
 20
189.35403442382812
 30
0.0
 11
-118.42166137695312
 21
189.35403442382812
 31
0.0
  0
LINE
  5
6A5
100
AcDbEntity
  8
0
  6
ByBlock
 62
               0
100
AcDbLine
 10
-118.42166137695312
 20
189.35403442382812
 30
0.0
 11
-128.05348825454712
 21
189.35403442382812
 31
0.0
  0
LINE
  5
6A6
100
AcDbEntity
  8
0
  6
ByBlock
 62
               0
100
AcDbLine
 10
-118.42166137695312
 20
189.35403442382812
 30
0.0
 11
-121.97766137123108
 21
189.35403442382812
 31
0.0
  0
INSERT
  5
6AB
100
AcDbEntity
  8
0
  6
ByBlock
 62
               0
100
AcDbBlockReference
  2
_OPEN30
 10
-118.42166137695312
 20
189.35403442382812
 30
0.0
 41
2.77
 42
2.77
 43
2.77
  0
MTEXT
  5
6AC
100
AcDbEntity
  8
0
  6
ByBlock
 62
               2
100
AcDbMText
 10
-124.90348815917969
 20
193.50403451919556
 30
0.0
 40
6.3000001907348633
 41
0.0
 71
               5
 72
               1
  1
\A1;5
  7
MX_NOTE_STANDARD
 11
1.0
 21
-0.0000000000000001
 31
0.0
  0
POINT
  5
6AD
100
AcDbEntity
  8
DEFPOINTS
  6
ByBlock
 62
               0
100
AcDbPoint
 10
-113.42166137695312
 20
121.85403442382812
 30
0.0
  0
POINT
  5
6AE
100
AcDbEntity
  8
DEFPOINTS
  6
ByBlock
 62
               0
100
AcDbPoint
 10
-118.42166137695312
 20
127.35404968261719
 30
0.0
  0
POINT
  5
6AF
100
AcDbEntity
  8
DEFPOINTS
  6
ByBlock
 62
               0
100
AcDbPoint
 10
-118.42166137695312
 20
189.35403442382812
 30
0.0
  0
ENDBLK
  5
6B0
100
AcDbEntity
  8
0
  6
ByBlock
 62
               0
100
AcDbBlockEnd
  0
BLOCK
  5
6A8
100
AcDbEntity
  8
0
  6
ByBlock
 62
               0
100
AcDbBlockBegin
  2
_NONE
 70
               2
 10
0.0
 20
0.0
 30
0.0
  3
_NONE
  1

  0
CIRCLE
  5
6A9
100
AcDbEntity
  8
0
  6
ByBlock
 62
               0
100
AcDbCircle
 10
0.0
 20
0.0
 30
0.0
 40
0.25
  0
ENDBLK
  5
6AA
100
AcDbEntity
  8
0
  6
ByBlock
 62
               0
100
AcDbBlockEnd
  0
BLOCK
  5
6B3
100
AcDbEntity
  8
0
  6
ByBlock
 62
               0
100
AcDbBlockBegin
  2
*D7
 70
               1
 10
0.0
 20
0.0
 30
0.0
  3
*D7
  1

  0
LINE
  5
6B4
100
AcDbEntity
  8
0
  6
ByBlock
 62
               0
100
AcDbLine
 10
77.578277587890625
 20
189.35403442382812
 30
0.0
 11
82.578277587890625
 21
189.35403442382812
 31
0.0
  0
LINE
  5
6B5
100
AcDbEntity
  8
0
  6
ByBlock
 62
               0
100
AcDbLine
 10
82.578277587890625
 20
189.35403442382812
 30
0.0
 11
94.504263401031494
 21
189.35403442382812
 31
0.0
  0
LINE
  5
6B6
100
AcDbEntity
  8
0
  6
ByBlock
 62
               0
100
AcDbLine
 10
82.578277587890625
 20
128.85404968261719
 30
0.0
 11
82.578277587890625
 21
190.85403442382812
 31
0.0
  0
LINE
  5
6B7
100
AcDbEntity
  8
0
  6
ByBlock
 62
               0
100
AcDbLine
 10
82.578277587890625
 20
189.35403442382812
 30
0.0
 11
86.134277582168579
 21
189.35403442382812
 31
0.0
  0
INSERT
  5
6B8
100
AcDbEntity
  8
0
  6
ByBlock
 62
               0
100
AcDbBlockReference
  2
_OPEN30
 10
82.578277587890625
 20
189.35403442382812
 30
0.0
 41
2.77
 42
2.77
 43
2.77
 50
179.9999999999996
  0
MTEXT
  5
6B9
100
AcDbEntity
  8
0
  6
ByBlock
 62
               2
100
AcDbMText
 10
91.354263305664063
 20
193.50403451919556
 30
0.0
 40
6.3000001907348633
 41
0.0
 71
               5
 72
               1
  1
\A1;5
  7
MX_NOTE_STANDARD
  0
POINT
  5
6BA
100
AcDbEntity
  8
DEFPOINTS
  6
ByBlock
 62
               0
100
AcDbPoint
 10
77.578277587890625
 20
127.72572326660156
 30
0.0
  0
POINT
  5
6BB
100
AcDbEntity
  8
DEFPOINTS
  6
ByBlock
 62
               0
100
AcDbPoint
 10
82.578277587890625
 20
127.35404968261719
 30
0.0
  0
POINT
  5
6BC
100
AcDbEntity
  8
DEFPOINTS
  6
ByBlock
 62
               0
100
AcDbPoint
 10
82.578277587890625
 20
189.35403442382812
 30
0.0
  0
ENDBLK
  5
6BD
100
AcDbEntity
  8
0
  6
ByBlock
 62
               0
100
AcDbBlockEnd
  0
BLOCK
  5
6C0
100
AcDbEntity
  8
0
  6
ByBlock
 62
               0
100
AcDbBlockBegin
  2
*D8
 70
               1
 10
0.0
 20
0.0
 30
0.0
  3
*D8
  1

  0
LINE
  5
6C1
100
AcDbEntity
  8
0
  6
ByBlock
 62
               0
100
AcDbLine
 10
-113.42166137695312
 20
189.35403442382812
 30
0.0
 11
77.578277587890625
 21
189.35403442382812
 31
0.0
  0
LINE
  5
6C2
100
AcDbEntity
  8
0
  6
ByBlock
 62
               0
100
AcDbLine
 10
-113.42166137695312
 20
127.72572326660156
 30
0.0
 11
-113.42166137695312
 21
190.85403442382812
 31
0.0
  0
LINE
  5
6C3
100
AcDbEntity
  8
0
  6
ByBlock
 62
               0
100
AcDbLine
 10
77.578277587890625
 20
127.72572326660156
 30
0.0
 11
77.578277587890625
 21
190.85403442382812
 31
0.0
  0
INSERT
  5
6C4
100
AcDbEntity
  8
0
  6
ByBlock
 62
               0
100
AcDbBlockReference
  2
_OPEN30
 10
-113.42166137695312
 20
189.35403442382812
 30
0.0
 41
2.77
 42
2.77
 43
2.77
 50
179.9999999999996
  0
INSERT
  5
6C5
100
AcDbEntity
  8
0
  6
ByBlock
 62
               0
100
AcDbBlockReference
  2
_OPEN30
 10
77.578277587890625
 20
189.35403442382812
 30
0.0
 41
2.77
 42
2.77
 43
2.77
  0
MTEXT
  5
6C6
100
AcDbEntity
  8
0
  6
ByBlock
 62
               2
100
AcDbMText
 10
-17.92169189453125
 20
193.50403451919556
 30
0.0
 40
6.3000001907348633
 41
0.0
 71
               5
 72
               1
  1
\A1;P
  7
MX_NOTE_STANDARD
  0
POINT
  5
6C7
100
AcDbEntity
  8
DEFPOINTS
  6
ByBlock
 62
               0
100
AcDbPoint
 10
-113.42166137695312
 20
127.72572326660156
 30
0.0
  0
POINT
  5
6C8
100
AcDbEntity
  8
DEFPOINTS
  6
ByBlock
 62
               0
100
AcDbPoint
 10
77.578277587890625
 20
127.72572326660156
 30
0.0
  0
POINT
  5
6C9
100
AcDbEntity
  8
DEFPOINTS
  6
ByBlock
 62
               0
100
AcDbPoint
 10
77.578277587890625
 20
189.35403442382812
 30
0.0
  0
ENDBLK
  5
6CA
100
AcDbEntity
  8
0
  6
ByBlock
 62
               0
100
AcDbBlockEnd
  0
BLOCK
  5
6CD
100
AcDbEntity
  8
0
  6
ByBlock
 62
               0
100
AcDbBlockBegin
  2
*D9
 70
               1
 10
0.0
 20
0.0
 30
0.0
  3
*D9
  1

  0
LINE
  5
6CE
100
AcDbEntity
  8
0
  6
ByBlock
 62
               0
100
AcDbLine
 10
-118.42166137695312
 20
209.35403442382812
 30
0.0
 11
82.578277587890625
 21
209.35403442382812
 31
0.0
  0
LINE
  5
6CF
100
AcDbEntity
  8
0
  6
ByBlock
 62
               0
100
AcDbLine
 10
-118.42166137695312
 20
128.85404968261719
 30
0.0
 11
-118.42166137695312
 21
210.85402894020081
 31
0.0
  0
LINE
  5
6D0
100
AcDbEntity
  8
0
  6
ByBlock
 62
               0
100
AcDbLine
 10
82.578277587890625
 20
128.85404968261719
 30
0.0
 11
82.578277587890625
 21
210.85402929782867
 31
0.0
  0
INSERT
  5
6D1
100
AcDbEntity
  8
0
  6
ByBlock
 62
               0
100
AcDbBlockReference
  2
_OPEN30
 10
-118.42166137695312
 20
209.35403442382812
 30
0.0
 41
2.77
 42
2.77
 43
2.77
 50
179.9999999999996
  0
INSERT
  5
6D2
100
AcDbEntity
  8
0
  6
ByBlock
 62
               0
100
AcDbBlockReference
  2
_OPEN30
 10
82.578277587890625
 20
209.35403442382812
 30
0.0
 41
2.77
 42
2.77
 43
2.77
  0
MTEXT
  5
6D3
100
AcDbEntity
  8
0
  6
ByBlock
 62
               2
100
AcDbMText
 10
-17.92169189453125
 20
213.50403451919556
 30
0.0
 40
6.3000001907348633
 41
0.0
 71
               5
 72
               1
  1
\A1;L
  7
MX_NOTE_STANDARD
  0
POINT
  5
6D4
100
AcDbEntity
  8
DEFPOINTS
  6
ByBlock
 62
               0
100
AcDbPoint
 10
-118.42166137695312
 20
127.35404968261719
 30
0.0
  0
POINT
  5
6D5
100
AcDbEntity
  8
DEFPOINTS
  6
ByBlock
 62
               0
100
AcDbPoint
 10
82.578277587890625
 20
127.35404968261719
 30
0.0
  0
POINT
  5
6D6
100
AcDbEntity
  8
DEFPOINTS
  6
ByBlock
 62
               0
100
AcDbPoint
 10
82.578277587890625
 20
209.35403442382812
 30
0.0
  0
ENDBLK
  5
6D7
100
AcDbEntity
  8
0
  6
ByBlock
 62
               0
100
AcDbBlockEnd
  0
ENDSEC
  0
SECTION
  2
ENTITIES
  0
LINE
  5
691
100
AcDbEntity
  8
0
  6
CONTINUOUS
 62
               7
100
AcDbLine
 10
-159.44999999999999
 20
-111.75
 30
0.0
 11
-159.44999999999999
 21
-261.75
 31
0.0
  0
LEADER
  5
692
100
AcDbEntity
  8
0
 62
               2
100
AcDbLeader
  3
MXDIMSTYLE
 73
               3
 74
               0
 75
               0
 40
0.0
 76
               3
 10
38.078292846679688
 20
-128.64596557617187
 30
0.0
 10
48.078298091886609
 20
-111.32544340476306
 30
0.0
 10
66.773922681806653
 20
-111.32544340476306
 30
0.0
 77
               2
1001
ACAD
1000
DSTYLE
1002
{
1070
               6
1000
_OPEN30
1070
               7
1000
_OPEN30
1070
              41
1040
2.77
1070
             173
1070
               1
1002
}
  0
MTEXT
  5
699
100
AcDbEntity
  8
0
 62
               2
100
AcDbMText
 10
48.773922681806653
 20
-105.45044388160022
 30
0.0
 40
6.0
 41
0.0
 71
               4
 72
               1
  1
\A1;-BP
  7
MX_NOTE_STANDARD
  0
LEADER
  5
69A
100
AcDbEntity
  8
0
 62
               2
100
AcDbLeader
  3
MXDIMSTYLE
 73
               3
 74
               0
 75
               0
 40
0.0
 76
               3
 10
20.078292846679688
 20
-94.145950317382813
 30
0.0
 10
30.078290462493896
 20
-76.825441360473633
 30
0.0
 10
99.335381984710693
 20
-76.825441360473633
 30
0.0
 77
               2
1001
ACAD
1000
DSTYLE
1002
{
1070
               6
1000
_OPEN30
1070
               7
1000
_OPEN30
1070
              41
1040
2.77
1070
             173
1070
               1
1002
}
  0
MTEXT
  5
69B
100
AcDbEntity
  8
0
 62
               2
100
AcDbMText
 10
33.335381984710693
 20
-70.950441837310791
 30
0.0
 40
6.0
 41
0.0
 71
               4
 72
               1
  1
\A1;CS-A243-4E2
  7
MX_NOTE_STANDARD
  0
LEADER
  5
69C
100
AcDbEntity
  8
0
 62
               2
100
AcDbLeader
  3
MXDIMSTYLE
 73
               3
 74
               0
 75
               0
 40
0.0
 76
               3
 10
-7.9217071533203125
 20
-94.145950317382813
 30
0.0
 10
9.5782970190048218
 20
-63.835063815116882
 30
0.0
 10
76.583848476409912
 20
-63.835063815116882
 30
0.0
 77
               2
1001
ACAD
1000
DSTYLE
1002
{
1070
               6
1000
_OPEN30
1070
               7
1000
_OPEN30
1070
              41
1040
2.77
1070
             173
1070
               1
1002
}
  0
MTEXT
  5
69D
100
AcDbEntity
  8
0
 62
               2
100
AcDbMText
 10
10.583848476409912
 20
-57.960064291954041
 30
0.0
 40
6.0
 41
0.0
 71
               4
 72
               1
  1
\W1.015;\A1;CS-A240-4E2
  7
MX_NOTE_STANDARD
  0
LEADER
  5
69E
100
AcDbEntity
  8
0
 62
               2
100
AcDbLeader
  3
MXDIMSTYLE
 73
               3
 74
               0
 75
               0
 40
0.0
 76
               3
 10
-55.921722412109375
 20
-94.145965576171875
 30
0.0
 10
-73.421708524229871
 20
-63.835086029918784
 30
0.0
 10
-139.97455388307844
 20
-63.835086029918784
 30
0.0
 77
               2
1001
ACAD
1000
DSTYLE
1002
{
1070
               6
1000
_OPEN30
1070
               7
1000
_OPEN30
1070
              41
1040
2.77
1070
             173
1070
               1
1002
}
  0
MTEXT
  5
69F
100
AcDbEntity
  8
0
 62
               2
100
AcDbMText
 10
-139.97455388307844
 20
-57.960086506755943
 30
0.0
 40
6.0
 41
0.0
 71
               4
 72
               1
  1
\W1.048;\A1;CS-A240-4E1
  7
MX_NOTE_STANDARD
  0
LEADER
  5
6A0
100
AcDbEntity
  8
0
 62
               2
100
AcDbLeader
  3
MXDIMSTYLE
 73
               3
 74
               0
 75
               0
 40
0.0
 76
               3
 10
-83.921707153320313
 20
-94.145950317382813
 30
0.0
 10
-93.921705961227417
 20
-76.825441360473633
 30
0.0
 10
-161.86082649230957
 20
-76.825441360473633
 30
0.0
 77
               2
1001
ACAD
1000
DSTYLE
1002
{
1070
               6
1000
_OPEN30
1070
               7
1000
_OPEN30
1070
              41
1040
2.77
1070
             173
1070
               1
1002
}
  0
MTEXT
  5
6A1
100
AcDbEntity
  8
0
 62
               2
100
AcDbMText
 10
-161.86082649230957
 20
-70.950441837310791
 30
0.0
 40
6.0
 41
0.0
 71
               4
 72
               1
  1
\W1.048;\A1;CS-A240-4E1
  7
MX_NOTE_STANDARD
  0
DIMENSION
  5
6B1
100
AcDbEntity
  8
0
  6
CONTINUOUS
 62
               2
100
AcDbDimension
  2
*D5
 10
-118.42166137695312
 20
189.35403442382812
 30
0.0
 11
-124.90348815917969
 21
189.35403442382812
 31
0.0
 70
             128
  1
<>
  3
MXDIMSTYLE
100
AcDbAlignedDimension
 13
-113.42166137695312
 23
121.85403442382812
 33
0.0
 14
-118.42166137695312
 24
127.35404968261719
 34
0.0
100
AcDbRotatedDimension
1001
ACAD
1000
DSTYLE
1002
{
1070
               6
1000
_NONE
1070
               7
1000
_OPEN30
1070
              75
1070
               1
1070
              76
1070
               1
1070
              78
1070
               0
1070
             140
1040
6.3000001907348633
1070
             173
1070
               1
1070
             271
1070
               0
1002
}
  0
DIMENSION
  5
6BE
100
AcDbEntity
  8
0
  6
CONTINUOUS
 62
               2
100
AcDbDimension
  2
*D7
 10
82.578277587890625
 20
189.35403442382812
 30
0.0
 11
91.354263305664063
 21
189.35403442382812
 31
0.0
 70
             128
  1
<>
  3
MXDIMSTYLE
100
AcDbAlignedDimension
 13
77.578277587890625
 23
127.72572326660156
 33
0.0
 14
82.578277587890625
 24
127.35404968261719
 34
0.0
100
AcDbRotatedDimension
1001
ACAD
1000
DSTYLE
1002
{
1070
               6
1000
_NONE
1070
               7
1000
_OPEN30
1070
              75
1070
               1
1070
              78
1070
               0
1070
             140
1040
6.3000001907348633
1070
             173
1070
               1
1070
             271
1070
               0
1002
}
  0
DIMENSION
  5
6CB
100
AcDbEntity
  8
0
  6
CONTINUOUS
 62
               2
100
AcDbDimension
  2
*D8
 10
77.578277587890625
 20
189.35403442382812
 30
0.0
 11
-17.92169189453125
 21
189.35403442382812
 31
0.0
 70
             128
  1
P
  3
MXDIMSTYLE
100
AcDbAlignedDimension
 13
-113.42166137695312
 23
127.72572326660156
 33
0.0
 14
77.578277587890625
 24
127.72572326660156
 34
0.0
100
AcDbRotatedDimension
1001
ACAD
1000
DSTYLE
1002
{
1070
               6
1000
_OPEN30
1070
               7
1000
_OPEN30
1070
              41
1040
2.77
1070
              42
1040
0.0
1070
              78
1070
               0
1070
             140
1040
6.3000001907348633
1070
             173
1070
               1
1070
             271
1070
               0
1002
}
  0
DIMENSION
  5
6D8
100
AcDbEntity
  8
0
  6
CONTINUOUS
 62
               2
100
AcDbDimension
  2
*D9
 10
82.578277587890625
 20
209.35403442382812
 30
0.0
 11
-17.92169189453125
 21
209.35403442382812
 31
0.0
 70
             128
  1
L
  3
MXDIMSTYLE
100
AcDbAlignedDimension
 13
-118.42166137695312
 23
127.35404968261719
 33
0.0
 14
82.578277587890625
 24
127.35404968261719
 34
0.0
100
AcDbRotatedDimension
1001
ACAD
1000
DSTYLE
1002
{
1070
               6
1000
_OPEN30
1070
               7
1000
_OPEN30
1070
              41
1040
2.77
1070
              78
1070
               0
1070
             140
1040
6.3000001907348633
1070
             173
1070
               1
1070
             271
1070
               0
1002
}
  0
INSERT
  5
6D9
100
AcDbEntity
  8
0
100
AcDbBlockReference
  2
MS_4
 10
341.792236328125
 20
-108.14598083496094
 30
0.0
  0
INSERT
  5
6DA
100
AcDbEntity
  8
0
100
AcDbBlockReference
  2
MS_3
 10
-113.42166137695312
 20
-181.14596557617187
 30
0.0
  0
INSERT
  5
6DB
100
AcDbEntity
  8
0
100
AcDbBlockReference
  2
MS_2
 10
244.18540954589844
 20
121.85403442382812
 30
0.0
  0
INSERT
  5
6DC
100
AcDbEntity
  8
0
100
AcDbBlockReference
  2
MS_1
 10
-113.42164611816406
 20
121.85401916503906
 30
0.0
  0
MTEXT
  5
6DD
100
AcDbEntity
  8
0
  6
CONTINUOUS
 62
               7
100
AcDbMText
 10
-382.16176532185199
 20
231.25
 30
0.0
 40
9.0
 41
0.0
 71
               4
 72
               1
  1
\W1.059;\A1;MODEL:CS-240M5A
  7
MX_NOTE_STANDARD
  0
MTEXT
  5
6DE
100
AcDbEntity
  8
0
  6
CONTINUOUS
 62
               7
100
AcDbMText
 10
222.59224453198323
 20
-207.39169311523437
 30
0.0
 40
6.3000001907348633
 41
0.0
 71
               4
 72
               1
  1
\W1.116;\A1;(240M5B)
  7
MX_NOTE_STANDARD
  0
MTEXT
  5
6DF
100
AcDbEntity
  8
0
  6
CONTINUOUS
 62
               7
100
AcDbMText
 10
-328.2216872954632
 20
215.25
 30
0.0
 40
9.0
 41
0.0
 71
               4
 72
               1
  1
\W1.019;\A1;CS-240M5B
  7
MX_NOTE_STANDARD
  0
MTEXT
  5
6E0
100
AcDbEntity
  8
0
  6
CONTINUOUS
 62
               7
100
AcDbMText
 10
-314.78333463867506
 20
-104.25
 30
0.0
 40
6.3000001907348633
 41
0.0
 71
               4
 72
               1
  1
\W1.111;\A1;DIMENSION LIST
  7
MX_NOTE_STANDARD
  0
MTEXT
  5
6E1
100
AcDbEntity
  8
0
  6
CONTINUOUS
 62
               7
100
AcDbMText
 10
-235.21875025914051
 20
-254.25
 30
0.0
 40
6.3000001907348633
 41
0.0
 71
               4
 72
               1
  1
\W1.125;\A1;331
  7
MX_NOTE_STANDARD
  0
MTEXT
  5
6E2
100
AcDbEntity
  8
0
  6
CONTINUOUS
 62
               7
100
AcDbMText
 10
-235.28823553876481
 20
-239.25
 30
0.0
 40
6.3000001907348633
 41
0.0
 71
               4
 72
               1
  1
\W1.059;\A1;303
  7
MX_NOTE_STANDARD
  0
MTEXT
  5
6E3
100
AcDbEntity
  8
0
  6
CONTINUOUS
 62
               7
100
AcDbMText
 10
-235.35000025431313
 20
-224.25
 30
0.0
 40
6.3000001907348633
 41
0.0
 71
               4
 72
               1
  1
\A1;275
  7
MX_NOTE_STANDARD
  0
MTEXT
  5
6E4
100
AcDbEntity
  8
0
  6
CONTINUOUS
 62
               7
100
AcDbMText
 10
-235.35000025431313
 20
-209.25
 30
0.0
 40
6.3000001907348633
 41
0.0
 71
               4
 72
               1
  1
\A1;247
  7
MX_NOTE_STANDARD
  0
MTEXT
  5
6E5
100
AcDbEntity
  8
0
  6
CONTINUOUS
 62
               7
100
AcDbMText
 10
-235.21875025914051
 20
-194.25
 30
0.0
 40
6.3000001907348633
 41
0.0
 71
               4
 72
               1
  1
\W1.125;\A1;219
  7
MX_NOTE_STANDARD
  0
MTEXT
  5
6E6
100
AcDbEntity
  8
0
  6
CONTINUOUS
 62
               7
100
AcDbMText
 10
-235.05000026822088
 20
-179.25
 30
0.0
 40
6.3000001907348633
 41
0.0
 71
               4
 72
               1
  1
\W1.286;\A1;191
  7
MX_NOTE_STANDARD
  0
MTEXT
  5
6E7
100
AcDbEntity
  8
0
  6
CONTINUOUS
 62
               7
100
AcDbMText
 10
-235.21875025914051
 20
-164.25
 30
0.0
 40
6.3000001907348633
 41
0.0
 71
               4
 72
               1
  1
\W1.125;\A1;163
  7
MX_NOTE_STANDARD
  0
MTEXT
  5
6E8
100
AcDbEntity
  8
0
  6
CONTINUOUS
 62
               7
100
AcDbMText
 10
-235.21875025914051
 20
-149.25
 30
0.0
 40
6.3000001907348633
 41
0.0
 71
               4
 72
               1
  1
\W1.125;\A1;135
  7
MX_NOTE_STANDARD
  0
MTEXT
  5
6E9
100
AcDbEntity
  8
0
  6
CONTINUOUS
 62
               7
100
AcDbMText
 10
-235.1400002479553
 20
-134.25
 30
0.0
 40
6.3000001907348633
 41
0.0
 71
               4
 72
               1
  1
\W1.200;\A1;107
  7
MX_NOTE_STANDARD
  0
MTEXT
  5
6EA
100
AcDbEntity
  8
0
  6
CONTINUOUS
 62
               7
100
AcDbMText
 10
-190.21875025914051
 20
-254.25
 30
0.0
 40
6.3000001907348633
 41
0.0
 71
               4
 72
               1
  1
\W1.125;\A1;341
  7
MX_NOTE_STANDARD
  0
MTEXT
  5
6EB
100
AcDbEntity
  8
0
  6
CONTINUOUS
 62
               7
100
AcDbMText
 10
-190.21875025914051
 20
-239.25
 30
0.0
 40
6.3000001907348633
 41
0.0
 71
               4
 72
               1
  1
\W1.125;\A1;313
  7
MX_NOTE_STANDARD
  0
MTEXT
  5
6EC
100
AcDbEntity
  8
0
  6
CONTINUOUS
 62
               7
100
AcDbMText
 10
-190.35000025431313
 20
-224.25
 30
0.0
 40
6.3000001907348633
 41
0.0
 71
               4
 72
               1
  1
\A1;285
  7
MX_NOTE_STANDARD
  0
MTEXT
  5
6ED
100
AcDbEntity
  8
0
  6
CONTINUOUS
 62
               7
100
AcDbMText
 10
-190.35000025431313
 20
-209.25
 30
0.0
 40
6.3000001907348633
 41
0.0
 71
               4
 72
               1
  1
\A1;257
  7
MX_NOTE_STANDARD
  0
MTEXT
  5
6EE
100
AcDbEntity
  8
0
  6
CONTINUOUS
 62
               7
100
AcDbMText
 10
-190.35000025431313
 20
-194.25
 30
0.0
 40
6.3000001907348633
 41
0.0
 71
               4
 72
               1
  1
\A1;229
  7
MX_NOTE_STANDARD
  0
MTEXT
  5
6EF
100
AcDbEntity
  8
0
  6
CONTINUOUS
 62
               7
100
AcDbMText
 10
-190.1400002479553
 20
-179.25
 30
0.0
 40
6.3000001907348633
 41
0.0
 71
               4
 72
               1
  1
\W1.200;\A1;201
  7
MX_NOTE_STANDARD
  0
MTEXT
  5
6F0
100
AcDbEntity
  8
0
  6
CONTINUOUS
 62
               7
100
AcDbMText
 10
-190.21875025914051
 20
-164.25
 30
0.0
 40
6.3000001907348633
 41
0.0
 71
               4
 72
               1
  1
\W1.125;\A1;173
  7
MX_NOTE_STANDARD
  0
MTEXT
  5
6F1
100
AcDbEntity
  8
0
  6
CONTINUOUS
 62
               7
100
AcDbMText
 10
-190.21875025914051
 20
-149.25
 30
0.0
 40
6.3000001907348633
 41
0.0
 71
               4
 72
               1
  1
\W1.125;\A1;145
  7
MX_NOTE_STANDARD
  0
MTEXT
  5
6F2
100
AcDbEntity
  8
0
  6
CONTINUOUS
 62
               7
100
AcDbMText
 10
-190.05000026822088
 20
-134.25
 30
0.0
 40
6.3000001907348633
 41
0.0
 71
               4
 72
               1
  1
\W1.286;\A1;117
  7
MX_NOTE_STANDARD
  0
MTEXT
  5
6F3
100
AcDbEntity
  8
0
  6
CONTINUOUS
 62
               7
100
AcDbMText
 10
-229.05000006357827
 20
-119.25
 30
0.0
 40
6.3000001907348633
 41
0.0
 71
               4
 72
               1
  1
\A1;P
  7
MX_NOTE_STANDARD
  0
MTEXT
  5
6F4
100
AcDbEntity
  8
0
  6
CONTINUOUS
 62
               7
100
AcDbMText
 10
-184.05000006357827
 20
-119.25
 30
0.0
 40
6.3000001907348633
 41
0.0
 71
               4
 72
               1
  1
\A1;L
  7
MX_NOTE_STANDARD
  0
MTEXT
  5
6F5
100
AcDbEntity
  8
0
  6
CONTINUOUS
 62
               7
100
AcDbMText
 10
-381.72881743317708
 20
-254.25
 30
0.0
 40
6.3000001907348633
 41
0.0
 71
               4
 72
               1
  1
\W1.068;\A1;CS-240M10A/CS-240M10B
  7
MX_NOTE_STANDARD
  0
MTEXT
  5
6F6
100
AcDbEntity
  8
0
  6
CONTINUOUS
 62
               7
100
AcDbMText
 10
-369.18125349396314
 20
-239.25
 30
0.0
 40
6.3000001907348633
 41
0.0
 71
               4
 72
               1
  1
\W1.018;\A1;CS-240M9A/CS-240M9B
  7
MX_NOTE_STANDARD
  0
MTEXT
  5
6F7
100
AcDbEntity
  8
0
  6
CONTINUOUS
 62
               7
100
AcDbMText
 10
-369.18125349396314
 20
-224.25
 30
0.0
 40
6.3000001907348633
 41
0.0
 71
               4
 72
               1
  1
\W1.018;\A1;CS-240M8A/CS-240M8B
  7
MX_NOTE_STANDARD
  0
MTEXT
  5
6F8
100
AcDbEntity
  8
0
  6
CONTINUOUS
 62
               7
100
AcDbMText
 10
-369.18125349396314
 20
-209.25
 30
0.0
 40
6.3000001907348633
 41
0.0
 71
               4
 72
               1
  1
\W1.018;\A1;CS-240M7A/CS-240M7B
  7
MX_NOTE_STANDARD
  0
MTEXT
  5
6F9
100
AcDbEntity
  8
0
  6
CONTINUOUS
 62
               7
100
AcDbMText
 10
-369.18125349396314
 20
-194.25
 30
0.0
 40
6.3000001907348633
 41
0.0
 71
               4
 72
               1
  1
\W1.018;\A1;CS-240M6A/CS-240M6B
  7
MX_NOTE_STANDARD
  0
MTEXT
  5
6FA
100
AcDbEntity
  8
0
  6
CONTINUOUS
 62
               7
100
AcDbMText
 10
-369.18125349396314
 20
-179.25
 30
0.0
 40
6.3000001907348633
 41
0.0
 71
               4
 72
               1
  1
\W1.018;\A1;CS-240M5A/CS-240M5B
  7
MX_NOTE_STANDARD
  0
MTEXT
  5
6FB
100
AcDbEntity
  8
0
  6
CONTINUOUS
 62
               7
100
AcDbMText
 10
-369.18125349396314
 20
-164.25
 30
0.0
 40
6.3000001907348633
 41
0.0
 71
               4
 72
               1
  1
\W1.018;\A1;CS-240M4A/CS-240M4B
  7
MX_NOTE_STANDARD
  0
MTEXT
  5
6FC
100
AcDbEntity
  8
0
  6
CONTINUOUS
 62
               7
100
AcDbMText
 10
-369.18125349396314
 20
-149.25
 30
0.0
 40
6.3000001907348633
 41
0.0
 71
               4
 72
               1
  1
\W1.018;\A1;CS-240M3A/CS-240M3B
  7
MX_NOTE_STANDARD
  0
MTEXT
  5
6FD
100
AcDbEntity
  8
0
  6
CONTINUOUS
 62
               7
100
AcDbMText
 10
-369.18125349396314
 20
-134.25
 30
0.0
 40
6.3000001907348633
 41
0.0
 71
               4
 72
               1
  1
\W1.018;\A1;CS-240M2A/CS-240M2B
  7
MX_NOTE_STANDARD
  0
MTEXT
  5
6FE
100
AcDbEntity
  8
0
  6
CONTINUOUS
 62
               7
100
AcDbMText
 10
-328.40000034968062
 20
-119.25
 30
0.0
 40
6.3000001907348633
 41
0.0
 71
               4
 72
               1
  1
\A1;TYPE
  7
MX_NOTE_STANDARD
  0
MTEXT
  5
6FF
100
AcDbEntity
  8
0
  6
CONTINUOUS
 62
               7
100
AcDbMText
 10
285.76701057054424
 20
263.75
 30
0.0
 40
9.0
 41
0.0
 71
               4
 72
               1
  1
\W1.311;\A1;Ver. 1.0
  7
MX_NOTE_STANDARD
  0
MTEXT
  5
700
100
AcDbEntity
  8
0
  6
CONTINUOUS
 62
               7
100
AcDbMText
 10
245.88456275493564
 20
-264.25
 30
0.0
 40
12.5
 41
0.0
 71
               4
 72
               1
  1
\W1.121;\A1;KOGANEI CORP.
  7
MX_NOTE_STANDARD
  0
MTEXT
  5
701
100
AcDbEntity
  8
0
  6
CONTINUOUS
 62
               7
100
AcDbMText
 10
-376.13844180829597
 20
263.75
 30
0.0
 40
9.0
 41
0.0
 71
               4
 72
               1
  1
\W1.074;\A1;CS-240 SERIES
  7
MX_NOTE_STANDARD
  0
LINE
  5
702
100
AcDbEntity
  8
0
  6
CONTINUOUS
 62
               7
100
AcDbLine
 10
-159.44999999999999
 20
-111.75
 30
0.0
 11
-159.44999999999999
 21
-261.75
 31
0.0
  0
LINE
  5
703
100
AcDbEntity
  8
0
  6
CONTINUOUS
 62
               7
100
AcDbLine
 10
-204.44999999999999
 20
-111.75
 30
0.0
 11
-204.44999999999999
 21
-261.75
 31
0.0
  0
LINE
  5
704
100
AcDbEntity
  8
0
  6
CONTINUOUS
 62
               7
100
AcDbLine
 10
-249.44999999999999
 20
-111.75
 30
0.0
 11
-249.44999999999999
 21
-261.75
 31
0.0
  0
LINE
  5
705
100
AcDbEntity
  8
0
  6
CONTINUOUS
 62
               7
100
AcDbLine
 10
-384.25
 20
-111.75
 30
0.0
 11
-384.25
 21
-261.75
 31
0.0
  0
LINE
  5
706
100
AcDbEntity
  8
0
  6
CONTINUOUS
 62
               7
100
AcDbLine
 10
-384.25
 20
-111.75
 30
0.0
 11
-159.44999999999999
 21
-111.75
 31
0.0
  0
LINE
  5
707
100
AcDbEntity
  8
0
  6
CONTINUOUS
 62
               7
100
AcDbLine
 10
-384.25
 20
-126.75
 30
0.0
 11
-159.44999999999999
 21
-126.75
 31
0.0
  0
LINE
  5
708
100
AcDbEntity
  8
0
  6
CONTINUOUS
 62
               7
100
AcDbLine
 10
-384.25
 20
-141.75
 30
0.0
 11
-159.44999999999999
 21
-141.75
 31
0.0
  0
LINE
  5
709
100
AcDbEntity
  8
0
  6
CONTINUOUS
 62
               7
100
AcDbLine
 10
-384.25
 20
-156.75
 30
0.0
 11
-159.44999999999999
 21
-156.75
 31
0.0
  0
LINE
  5
70A
100
AcDbEntity
  8
0
  6
CONTINUOUS
 62
               7
100
AcDbLine
 10
-384.25
 20
-171.75
 30
0.0
 11
-159.44999999999999
 21
-171.75
 31
0.0
  0
LINE
  5
70B
100
AcDbEntity
  8
0
  6
CONTINUOUS
 62
               7
100
AcDbLine
 10
-384.25
 20
-186.75
 30
0.0
 11
-159.44999999999999
 21
-186.75
 31
0.0
  0
LINE
  5
70C
100
AcDbEntity
  8
0
  6
CONTINUOUS
 62
               7
100
AcDbLine
 10
-384.25
 20
-201.75
 30
0.0
 11
-159.44999999999999
 21
-201.75
 31
0.0
  0
LINE
  5
70D
100
AcDbEntity
  8
0
  6
CONTINUOUS
 62
               7
100
AcDbLine
 10
-384.25
 20
-216.75
 30
0.0
 11
-159.44999999999999
 21
-216.75
 31
0.0
  0
LINE
  5
70E
100
AcDbEntity
  8
0
  6
CONTINUOUS
 62
               7
100
AcDbLine
 10
-384.25
 20
-231.75
 30
0.0
 11
-159.44999999999999
 21
-231.75
 31
0.0
  0
LINE
  5
70F
100
AcDbEntity
  8
0
  6
CONTINUOUS
 62
               7
100
AcDbLine
 10
-384.25
 20
-246.75
 30
0.0
 11
-159.44999999999999
 21
-246.75
 31
0.0
  0
LINE
  5
710
100
AcDbEntity
  8
0
  6
CONTINUOUS
 62
               7
100
AcDbLine
 10
-384.25
 20
-261.75
 30
0.0
 11
-159.44999999999999
 21
-261.75
 31
0.0
  0
LINE
  5
711
100
AcDbEntity
  8
0
  6
CONTINUOUS
 62
               7
100
AcDbLine
 10
-239.25
 20
276.25
 30
0.0
 11
-239.25
 21
251.25
 31
0.0
  0
LINE
  5
712
100
AcDbEntity
  8
0
  6
CONTINUOUS
 62
               7
100
AcDbLine
 10
239.80000000000001
 20
251.25
 30
0.0
 11
239.80000000000001
 21
276.25
 31
0.0
  0
LINE
  5
713
100
AcDbEntity
  8
0
  6
CONTINUOUS
 62
               7
100
AcDbLine
 10
239.80000000000001
 20
-251.75
 30
0.0
 11
239.80000000000001
 21
-276.75
 31
0.0
  0
LINE
  5
714
100
AcDbEntity
  8
0
  6
CONTINUOUS
 62
               7
100
AcDbLine
 10
-399.25
 20
251.25
 30
0.0
 11
-239.25
 21
251.25
 31
0.0
  0
LINE
  5
715
100
AcDbEntity
  8
0
  6
CONTINUOUS
 62
               7
100
AcDbLine
 10
239.80000000000001
 20
251.25
 30
0.0
 11
399.80000000000001
 21
251.25
 31
0.0
  0
LINE
  5
716
100
AcDbEntity
  8
0
  6
CONTINUOUS
 62
               7
100
AcDbLine
 10
239.80000000000001
 20
-251.75
 30
0.0
 11
399.80000000000001
 21
-251.75
 31
0.0
  0
LINE
  5
717
100
AcDbEntity
  8
0
  6
CONTINUOUS
 62
               7
100
AcDbLine
 10
-399.25
 20
-276.75
 30
0.0
 11
399.80000000000001
 21
-276.75
 31
0.0
  0
LINE
  5
718
100
AcDbEntity
  8
0
  6
CONTINUOUS
 62
               7
100
AcDbLine
 10
-399.25
 20
276.25
 30
0.0
 11
399.80000000000001
 21
276.25
 31
0.0
  0
LINE
  5
719
100
AcDbEntity
  8
0
  6
CONTINUOUS
 62
               7
100
AcDbLine
 10
-399.25
 20
276.25
 30
0.0
 11
-399.25
 21
-276.75
 31
0.0
  0
LINE
  5
71A
100
AcDbEntity
  8
0
  6
CONTINUOUS
 62
               7
100
AcDbLine
 10
399.80000000000001
 20
276.25
 30
0.0
 11
399.80000000000001
 21
-276.75
 31
0.0
  0
ENDSEC
  0
SECTION
  2
OBJECTS
  0
DICTIONARY
  5
19
100
AcDbDictionary
  3
ACAD_GROUP
350
1A
  3
ACAD_MLINESTYLE
350
1B
  0
DICTIONARY
  5
1A
102
{ACAD_REACTORS
330
19
102
}
100
AcDbDictionary
  0
DICTIONARY
  5
1B
102
{ACAD_REACTORS
330
19
102
}
100
AcDbDictionary
  3
STANDARD
350
1C
  0
MLINESTYLE
  5
1C
102
{ACAD_REACTORS
330
1B
102
}
100
AcDbMlineStyle
  2
Standard
 70
               0
  3

 62
               0
 51
90.0
 52
90.0
 71
               2
 49
0.5
 62
             256
  6
ByLayer
 49
-0.5
 62
             256
  6
ByLayer
  0
ENDSEC
  0
EOF
