  0
SECTION
  2
HEADER
  0
ENDSEC
  0
SECTION
  2
TABLES
  0
TABLE
  2
LTYPE
 70
     4
  0
LTYPE
  2
CONTINUOUS
 70
    64
  3
Solid line
 72
    65
 73
     0
 40
0.000000
  0
LTYPE
  2
DASHED
 70
    64
  3
__ __ __ __ __ __ __ __ __ __ __ __ __ __ __
 72
    65
 73
     2
 40
3.500000
 49
2.000000
 49
-1.500000
  0
LTYPE
  2
CENTER
 70
    64
  3
____ _ ____ _ ____ _ ____ _ ____ _ ____ _ ____
 72
    65
 73
     4
 40
17.500000
 49
13.000000
 49
-1.500000
 49
1.500000
 49
-1.500000
  0
LTYPE
  2
PHANTOM
 70
    64
  3
_____ _ _ _____ _ _ _____ _ _ _____ _ _ ____  
 72
    65
 73
     6
 40
15.500000
 49
8.000000
 49
-1.500000
 49
1.500000
 49
-1.500000
 49
1.500000
 49
-1.500000
  0
ENDTAB
  0
TABLE
  2
LAYER
 70
     1
  0
LAYER
  2
0
 70
     0
 62
     7
  6
CONTINUOUS
  0
ENDTAB
  0
TABLE
  2
STYLE
 70
     1
  0
STYLE
  2
STANDARD
 70
     0
 40
0.000000
 41
1.000000
 50
0.000000
 71
     0
 42
0.200000
  3
txt
  4
BIGFONT
  0
ENDTAB
  0
TABLE
  2
VIEW
 70
     0
  0
ENDTAB
  0
ENDSEC
  0
SECTION
  2
BLOCKS
  0
BLOCK
  8
0
 70
65
  2
*DIM0
 10
0.0
 20
0.0
 30
0.0
  0
ARC
  8
0
  6
BYBLOCK
 62
0
 10
141.250000
 20
-128.000000
 40
20.500000
 50
75.820335
 51
104.179665
  0
LINE
  8
0
  6
BYBLOCK
 62
0
 10
141.904007
 20
-115.516998
 11
142.401001
 21
-106.029999
  0
LINE
  8
0
  6
BYBLOCK
 62
0
 10
140.595993
 20
-115.516998
 11
140.098999
 21
-106.029999
  0
LINE
  8
0
  6
BYBLOCK
 62
0
 10
142.322891
 20
-107.528091
 11
144.942184
 21
-108.990738
  0
LINE
  8
0
  6
BYBLOCK
 62
0
 10
142.322891
 20
-107.528091
 11
145.322586
 21
-107.485138
  0
LINE
  8
0
  6
BYBLOCK
 62
0
 10
140.177109
 20
-107.528091
 11
137.177414
 21
-107.485138
  0
LINE
  8
0
  6
BYBLOCK
 62
0
 10
140.177109
 20
-107.528091
 11
137.557816
 21
-108.990738
  0
TEXT
  8
0
 62
2
 10
133.250000
 20
-106.300003
 40
3.200000
  1
ü}3üï
 50
0.000000
 41
1.500330
 51
0.000000
  7
STANDARD
  0
ENDBLK
  8
3
  0
BLOCK
  8
0
 70
65
  2
*DIM1
 10
0.0
 20
0.0
 30
0.0
  0
LINE
  8
0
  6
BYBLOCK
 62
2
 10
188.250000
 20
-117.500000
 11
161.750000
 21
-117.500000
  0
LINE
  8
0
  6
BYBLOCK
 62
2
 10
188.250000
 20
-138.500000
 11
161.750000
 21
-138.500000
  0
LINE
  8
0
  6
BYBLOCK
 62
2
 10
163.250000
 20
-117.500000
 11
163.250000
 21
-138.500000
  0
LINE
  8
0
  6
BYBLOCK
 62
2
 10
163.250000
 20
-117.500000
 11
162.473541
 21
-120.397774
  0
LINE
  8
0
  6
BYBLOCK
 62
2
 10
163.250000
 20
-117.500000
 11
164.026459
 21
-120.397774
  0
LINE
  8
0
  6
BYBLOCK
 62
2
 10
163.250000
 20
-138.500000
 11
164.026459
 21
-135.602219
  0
LINE
  8
0
  6
BYBLOCK
 62
2
 10
163.250000
 20
-138.500000
 11
162.473541
 21
-135.602219
  0
TEXT
  8
0
 62
2
 10
162.050003
 20
-139.199997
 40
3.200000
  1
âË21
 50
90.000000
 41
0.937977
 51
0.000000
  7
STANDARD
  0
TEXT
  8
0
 62
2
 10
160.450424
 20
-130.195343
 40
1.600000
  1
 0
 50
90.000000
 41
0.937977
 51
0.000000
  7
STANDARD
  0
TEXT
  8
0
 62
2
 10
162.050415
 20
-130.195419
 40
1.600000
  1
-0.013
 50
90.000000
 41
0.937977
 51
0.000000
  7
STANDARD
  0
ENDBLK
  8
0
  0
BLOCK
  8
0
 70
65
  2
*DIM2
 10
0.0
 20
0.0
 30
0.0
  0
LINE
  8
0
  6
BYBLOCK
 62
2
 10
209.750000
 20
-96.000000
 11
220.750000
 21
-96.000000
  0
LINE
  8
0
  6
BYBLOCK
 62
2
 10
209.750000
 20
-99.000000
 11
220.750000
 21
-99.000000
  0
LINE
  8
0
  6
BYBLOCK
 62
2
 10
219.250000
 20
-90.000000
 11
219.250000
 21
-105.000000
  0
LINE
  8
0
  6
BYBLOCK
 62
2
 10
219.250000
 20
-96.000000
 11
219.250000
 21
-80.494003
  0
LINE
  8
0
  6
BYBLOCK
 62
2
 10
219.250000
 20
-96.000000
 11
220.026459
 21
-93.102226
  0
LINE
  8
0
  6
BYBLOCK
 62
2
 10
219.250000
 20
-96.000000
 11
218.473541
 21
-93.102226
  0
LINE
  8
0
  6
BYBLOCK
 62
2
 10
219.250000
 20
-99.000000
 11
218.473541
 21
-101.897774
  0
LINE
  8
0
  6
BYBLOCK
 62
2
 10
219.250000
 20
-99.000000
 11
220.026459
 21
-101.897774
  0
TEXT
  8
0
 62
2
 10
218.050003
 20
-92.436905
 40
3.200000
  1
3
 50
90.000000
 41
0.873629
 51
0.000000
  7
STANDARD
  0
TEXT
  8
0
 62
2
 10
216.450134
 20
-89.641220
 40
1.600000
  1
+0.014
 50
90.000000
 41
0.873629
 51
0.000000
  7
STANDARD
  0
TEXT
  8
0
 62
2
 10
218.050125
 20
-89.641296
 40
1.600000
  1
 0
 50
90.000000
 41
0.873629
 51
0.000000
  7
STANDARD
  0
ENDBLK
  8
0
  0
BLOCK
  8
0
 70
65
  2
*DIM3
 10
0.0
 20
0.0
 30
0.0
  0
LINE
  8
0
  6
BYBLOCK
 62
2
 10
247.376007
 20
-97.518700
 11
250.376007
 21
-97.518700
  0
LINE
  8
0
  6
BYBLOCK
 62
2
 10
247.376007
 20
-89.518700
 11
247.376007
 21
-99.018700
  0
LINE
  8
0
  6
BYBLOCK
 62
2
 10
247.376007
 20
-97.518700
 11
250.376007
 21
-97.518700
  0
LINE
  8
0
  6
BYBLOCK
 62
2
 10
247.376007
 20
-97.518700
 11
232.283997
 21
-97.518700
  0
TEXT
  8
0
 62
2
 10
231.427002
 20
-96.318703
 40
3.200000
  1
3
 50
0.000000
 41
0.906835
 51
0.000000
  7
STANDARD
  0
TEXT
  8
0
 62
2
 10
234.328873
 20
-94.718704
 40
1.600000
  1
+0.016
 50
0.000000
 41
0.906835
 51
0.000000
  7
STANDARD
  0
TEXT
  8
0
 62
2
 10
234.328873
 20
-96.318703
 40
1.600000
  1
+0.006
 50
0.000000
 41
0.906835
 51
0.000000
  7
STANDARD
  0
ENDBLK
  8
0
  0
ENDSEC
  0
SECTION
  2
ENTITIES
  0
POINT
  8
0
  62
7
  10
-61.250000
  20
134.000000
  30
0.0
  0
POINT
  8
0
  62
7
  10
-36.250000
  20
134.000000
  30
0.0
  0
POINT
  8
0
  62
7
  10
-11.250000
  20
134.000000
  30
0.0
  0
POINT
  8
0
  62
7
  10
13.750000
  20
-31.000000
  30
0.0
  0
POINT
  8
0
  62
7
  10
38.750000
  20
-31.000000
  30
0.0
  0
POINT
  8
0
  62
7
  10
63.750000
  20
-31.000000
  30
0.0
  0
POINT
  8
0
  62
7
  10
88.750000
  20
-31.000000
  30
0.0
  0
POINT
  8
0
  62
7
  10
113.750000
  20
-31.000000
  30
0.0
  0
LINE
  8
0
  6
CONTINUOUS
 62
7
 10
-281.250000
 20
195.500000
 11
282.100006
 21
195.500000
  0
LINE
  8
0
  6
CONTINUOUS
 62
7
 10
-281.250000
 20
195.500000
 11
-281.250000
 21
-195.000000
  0
LINE
  8
0
  6
CONTINUOUS
 62
7
 10
282.100006
 20
195.500000
 11
282.100006
 21
-195.000000
  0
LINE
  8
0
  6
CONTINUOUS
 62
7
 10
-281.250000
 20
-195.000000
 11
282.100006
 21
-195.000000
  0
LINE
  8
0
  6
CONTINUOUS
 62
7
 10
162.100006
 20
-175.000000
 11
162.100006
 21
-195.000000
  0
LINE
  8
0
  6
CONTINUOUS
 62
7
 10
162.100006
 20
-175.000000
 11
282.100006
 21
-175.000000
  0
LINE
  8
0
  6
CONTINUOUS
 62
7
 10
162.100006
 20
175.500000
 11
282.100006
 21
175.500000
  0
LINE
  8
0
  6
CONTINUOUS
 62
7
 10
-281.250000
 20
175.500000
 11
-161.250000
 21
175.500000
  0
LINE
  8
0
  6
CONTINUOUS
 62
7
 10
162.100006
 20
195.500000
 11
162.100006
 21
175.500000
  0
LINE
  8
0
  6
CONTINUOUS
 62
7
 10
-161.250000
 20
195.500000
 11
-161.250000
 21
175.500000
  0
LINE
  8
0
  6
CONTINUOUS
 62
7
 10
-186.250000
 20
53.000000
 11
-61.250000
 21
53.000000
  0
LINE
  8
0
  6
CONTINUOUS
 62
7
 10
-186.250000
 20
93.000000
 11
-61.250000
 21
93.000000
  0
LINE
  8
0
  6
CONTINUOUS
 62
7
 10
-186.250000
 20
53.000000
 11
-186.250000
 21
93.000000
  0
LINE
  8
0
  6
CONTINUOUS
 62
7
 10
-61.250000
 20
93.000000
 11
-61.250000
 21
53.000000
  0
LINE
  8
0
  6
CONTINUOUS
 62
2
 10
-186.250000
 20
62.799999
 11
-61.250000
 21
62.799999
  0
LINE
  8
0
  6
CENTER
 62
2
 10
-226.250000
 20
73.000000
 11
-59.250000
 21
73.000000
  0
LINE
  8
0
  6
CONTINUOUS
 62
2
 10
-186.250000
 20
83.199997
 11
-61.250000
 21
83.199997
  0
LINE
  8
0
  6
CONTINUOUS
 62
7
 10
-224.250000
 20
78.000000
 11
-186.250000
 21
78.000000
  0
LINE
  8
0
  6
CONTINUOUS
 62
7
 10
-224.250000
 20
68.000000
 11
-186.250000
 21
68.000000
  0
LINE
  8
0
  6
CONTINUOUS
 62
7
 10
-224.250000
 20
78.000000
 11
-224.250000
 21
68.000000
  0
LINE
  8
0
  6
CENTER
 62
2
 10
-94.750000
 20
91.000000
 11
-94.750000
 21
101.000000
  0
LINE
  8
0
  6
CONTINUOUS
 62
7
 10
-88.250000
 20
93.000000
 11
-88.250000
 21
99.000000
  0
LINE
  8
0
  6
CONTINUOUS
 62
7
 10
-101.250000
 20
93.000000
 11
-101.250000
 21
99.000000
  0
LINE
  8
0
  6
CONTINUOUS
 62
7
 10
-101.250000
 20
99.000000
 11
-88.250000
 21
99.000000
  0
LINE
  8
0
  6
CONTINUOUS
 62
7
 10
-186.250000
 20
12.000000
 11
-186.250000
 21
38.000000
  0
LINE
  8
0
  6
CONTINUOUS
 62
7
 10
-61.250000
 20
12.000000
 11
-61.250000
 21
38.000000
  0
LINE
  8
0
  6
CONTINUOUS
 62
7
 10
-186.250000
 20
38.000000
 11
-61.250000
 21
38.000000
  0
LINE
  8
0
  6
CONTINUOUS
 62
7
 10
-186.250000
 20
12.000000
 11
-61.250000
 21
12.000000
  0
LINE
  8
0
  6
CENTER
 62
2
 10
-226.250000
 20
25.000000
 11
-59.250000
 21
25.000000
  0
LINE
  8
0
  6
CONTINUOUS
 62
7
 10
-224.250000
 20
30.000000
 11
-186.250000
 21
30.000000
  0
LINE
  8
0
  6
CONTINUOUS
 62
7
 10
-224.250000
 20
20.000000
 11
-186.250000
 21
20.000000
  0
LINE
  8
0
  6
CONTINUOUS
 62
7
 10
-224.250000
 20
30.000000
 11
-224.250000
 21
20.000000
  0
LINE
  8
0
  6
CONTINUOUS
 62
7
 10
-61.250000
 20
134.000000
 11
-61.250000
 21
108.000000
  0
LINE
  8
0
  6
CONTINUOUS
 62
7
 10
-101.250000
 20
131.500000
 11
-101.250000
 21
110.500000
  0
LINE
  8
0
  6
CONTINUOUS
 62
7
 10
-88.250000
 20
131.500000
 11
-88.250000
 21
110.500000
  0
LINE
  8
0
  6
CONTINUOUS
 62
7
 10
-101.250000
 20
131.500000
 11
-88.250000
 21
131.500000
  0
LINE
  8
0
  6
CONTINUOUS
 62
7
 10
-101.250000
 20
110.500000
 11
-88.250000
 21
110.500000
  0
LINE
  8
0
  6
CONTINUOUS
 62
2
 10
-16.250099
 20
83.199997
 11
-15.250100
 21
83.199997
  0
LINE
  8
0
  6
CONTINUOUS
 62
2
 10
-16.250000
 20
83.199997
 11
-16.250000
 21
82.349998
  0
LINE
  8
0
  6
CONTINUOUS
 62
2
 10
-16.250000
 20
86.650002
 11
-16.250000
 21
85.800003
  0
LINE
  8
0
  6
CONTINUOUS
 62
2
 10
-16.250099
 20
85.800003
 11
-15.250100
 21
85.800003
  0
LINE
  8
0
  6
CONTINUOUS
 62
7
 10
-41.250099
 20
93.000000
 11
-41.250099
 21
53.000000
  0
LINE
  8
0
  6
CENTER
 62
2
 10
-43.250099
 20
73.000000
 11
-13.250000
 21
73.000000
  0
LINE
  8
0
  6
CONTINUOUS
 62
7
 10
-41.250099
 20
53.000000
 11
-15.250000
 21
53.000000
  0
LINE
  8
0
  6
CONTINUOUS
 62
7
 10
-15.250000
 20
53.000000
 11
-15.250000
 21
93.000000
  0
LINE
  8
0
  6
CONTINUOUS
 62
7
 10
-41.250099
 20
93.000000
 11
-15.250000
 21
93.000000
  0
LINE
  8
0
  6
CENTER
 62
2
 10
-28.250000
 20
101.000000
 11
-28.250000
 21
51.000000
  0
LINE
  8
0
  6
CONTINUOUS
 62
2
 10
-20.049999
 20
86.650002
 11
-16.249901
 21
86.650002
  0
LINE
  8
0
  6
CONTINUOUS
 62
2
 10
-21.549999
 20
85.150002
 11
-21.549999
 21
83.849998
  0
LINE
  8
0
  6
CONTINUOUS
 62
2
 10
-20.049999
 20
82.349998
 11
-16.249901
 21
82.349998
  0
LINE
  8
0
  6
CONTINUOUS
 62
7
 10
-17.750000
 20
99.000000
 11
-17.750000
 21
93.000000
  0
LINE
  8
0
  6
CONTINUOUS
 62
7
 10
-38.750000
 20
99.000000
 11
-38.750000
 21
93.000000
  0
LINE
  8
0
  6
CONTINUOUS
 62
7
 10
-38.750000
 20
99.000000
 11
-17.750000
 21
99.000000
  0
LINE
  8
0
  6
CENTER
 62
2
 10
-24.519800
 20
61.500000
 11
-13.250000
 21
61.500000
  0
LINE
  8
0
  6
CENTER
 62
2
 10
-24.519800
 20
84.500000
 11
-13.250000
 21
84.500000
  0
LINE
  8
0
  6
CENTER
 62
2
 10
-31.980200
 20
61.500000
 11
-43.250099
 21
61.500000
  0
LINE
  8
0
  6
CENTER
 62
2
 10
-31.980200
 20
84.500000
 11
-43.250099
 21
84.500000
  0
LINE
  8
0
  6
CONTINUOUS
 62
2
 10
-186.250000
 20
85.800003
 11
-178.175995
 21
85.800003
  0
LINE
  8
0
  6
CENTER
 62
2
 10
-174.250000
 20
40.000000
 11
-174.250000
 21
10.000000
  0
LINE
  8
0
  6
CENTER
 62
2
 10
-150.250000
 20
40.000000
 11
-150.250000
 21
10.000000
  0
LINE
  8
0
  6
CONTINUOUS
 62
2
 10
-170.324005
 20
85.800003
 11
-154.175995
 21
85.800003
  0
LINE
  8
0
  6
CONTINUOUS
 62
2
 10
-146.324005
 20
85.800003
 11
-61.250000
 21
85.800003
  0
LINE
  8
0
  6
CONTINUOUS
 62
2
 10
-170.324005
 20
60.200001
 11
-154.175995
 21
60.200001
  0
LINE
  8
0
  6
CONTINUOUS
 62
2
 10
-186.250000
 20
60.200001
 11
-178.175995
 21
60.200001
  0
LINE
  8
0
  6
CONTINUOUS
 62
2
 10
-146.324005
 20
60.200001
 11
-61.250000
 21
60.200001
  0
LINE
  8
0
  6
DASHED
 62
2
 10
-154.750000
 20
38.000000
 11
-154.750000
 21
31.500000
  0
LINE
  8
0
  6
DASHED
 62
2
 10
-152.949997
 20
31.500000
 11
-152.949997
 21
18.500000
  0
LINE
  8
0
  6
DASHED
 62
2
 10
-153.250000
 20
31.500000
 11
-153.250000
 21
18.500000
  0
LINE
  8
0
  6
DASHED
 62
2
 10
-154.750000
 20
31.500000
 11
-145.750000
 21
31.500000
  0
LINE
  8
0
  6
DASHED
 62
2
 10
-145.750000
 20
38.000000
 11
-145.750000
 21
31.500000
  0
LINE
  8
0
  6
DASHED
 62
2
 10
-154.750000
 20
12.000000
 11
-154.750000
 21
18.500000
  0
LINE
  8
0
  6
DASHED
 62
2
 10
-154.750000
 20
18.500000
 11
-145.750000
 21
18.500000
  0
LINE
  8
0
  6
DASHED
 62
2
 10
-145.750000
 20
12.000000
 11
-145.750000
 21
18.500000
  0
LINE
  8
0
  6
DASHED
 62
2
 10
-147.250000
 20
31.500000
 11
-147.250000
 21
18.500000
  0
LINE
  8
0
  6
DASHED
 62
2
 10
-147.550003
 20
31.500000
 11
-147.550003
 21
18.500000
  0
LINE
  8
0
  6
DASHED
 62
2
 10
-178.750000
 20
12.000000
 11
-178.750000
 21
18.500000
  0
LINE
  8
0
  6
DASHED
 62
2
 10
-178.750000
 20
18.500000
 11
-169.750000
 21
18.500000
  0
LINE
  8
0
  6
DASHED
 62
2
 10
-169.750000
 20
12.000000
 11
-169.750000
 21
18.500000
  0
LINE
  8
0
  6
DASHED
 62
2
 10
-171.550003
 20
31.500000
 11
-171.550003
 21
18.500000
  0
LINE
  8
0
  6
DASHED
 62
2
 10
-171.250000
 20
31.500000
 11
-171.250000
 21
18.500000
  0
LINE
  8
0
  6
DASHED
 62
2
 10
-176.949997
 20
31.500000
 11
-176.949997
 21
18.500000
  0
LINE
  8
0
  6
DASHED
 62
2
 10
-177.250000
 20
31.500000
 11
-177.250000
 21
18.500000
  0
LINE
  8
0
  6
DASHED
 62
2
 10
-178.750000
 20
31.500000
 11
-169.750000
 21
31.500000
  0
LINE
  8
0
  6
DASHED
 62
2
 10
-178.750000
 20
38.000000
 11
-178.750000
 21
31.500000
  0
LINE
  8
0
  6
DASHED
 62
7
 10
-169.750000
 20
38.000000
 11
-169.750000
 21
31.500000
  0
LINE
  8
0
  6
CONTINUOUS
 62
2
 10
-249.050003
 20
82.349998
 11
-245.250000
 21
82.349998
  0
LINE
  8
0
  6
CONTINUOUS
 62
7
 10
-246.750000
 20
99.000000
 11
-246.750000
 21
93.000000
  0
LINE
  8
0
  6
CONTINUOUS
 62
7
 10
-267.750000
 20
99.000000
 11
-267.750000
 21
93.000000
  0
LINE
  8
0
  6
CONTINUOUS
 62
7
 10
-267.750000
 20
99.000000
 11
-246.750000
 21
99.000000
  0
LINE
  8
0
  6
CENTER
 62
2
 10
-253.520004
 20
61.500000
 11
-242.250000
 21
61.500000
  0
LINE
  8
0
  6
CENTER
 62
2
 10
-253.520004
 20
84.500000
 11
-242.250000
 21
84.500000
  0
LINE
  8
0
  6
CENTER
 62
2
 10
-260.980011
 20
61.500000
 11
-272.250000
 21
61.500000
  0
LINE
  8
0
  6
CENTER
 62
2
 10
-260.980011
 20
84.500000
 11
-272.250000
 21
84.500000
  0
LINE
  8
0
  6
CONTINUOUS
 62
2
 10
-245.250000
 20
83.199997
 11
-244.250000
 21
83.199997
  0
LINE
  8
0
  6
CONTINUOUS
 62
2
 10
-245.250000
 20
83.199997
 11
-245.250000
 21
82.349998
  0
LINE
  8
0
  6
CONTINUOUS
 62
2
 10
-245.250000
 20
86.650002
 11
-245.250000
 21
85.800003
  0
LINE
  8
0
  6
CONTINUOUS
 62
2
 10
-245.250000
 20
85.800003
 11
-244.250000
 21
85.800003
  0
LINE
  8
0
  6
CONTINUOUS
 62
7
 10
-270.250000
 20
93.000000
 11
-270.250000
 21
53.000000
  0
LINE
  8
0
  6
CENTER
 62
2
 10
-272.250000
 20
73.000000
 11
-242.250000
 21
73.000000
  0
LINE
  8
0
  6
CONTINUOUS
 62
7
 10
-270.250000
 20
53.000000
 11
-244.250000
 21
53.000000
  0
LINE
  8
0
  6
CONTINUOUS
 62
7
 10
-244.250000
 20
53.000000
 11
-244.250000
 21
93.000000
  0
LINE
  8
0
  6
CONTINUOUS
 62
7
 10
-270.250000
 20
93.000000
 11
-244.250000
 21
93.000000
  0
LINE
  8
0
  6
CENTER
 62
2
 10
-257.250000
 20
101.000000
 11
-257.250000
 21
51.000000
  0
LINE
  8
0
  6
CONTINUOUS
 62
2
 10
-249.050003
 20
86.650002
 11
-245.250000
 21
86.650002
  0
LINE
  8
0
  6
CONTINUOUS
 62
2
 10
-250.550003
 20
85.150002
 11
-250.550003
 21
83.849998
  0
LINE
  8
0
  6
CONTINUOUS
 62
7
 10
-186.250000
 20
134.000000
 11
-186.250000
 21
108.000000
  0
LINE
  8
0
  6
CONTINUOUS
 62
7
 10
-186.250000
 20
108.000000
 11
-61.250000
 21
108.000000
  0
LINE
  8
0
  6
CONTINUOUS
 62
7
 10
-186.250000
 20
134.000000
 11
-61.250000
 21
134.000000
  0
LINE
  8
0
  6
CENTER
 62
2
 10
-226.250000
 20
121.000000
 11
-59.250000
 21
121.000000
  0
LINE
  8
0
  6
CONTINUOUS
 62
7
 10
-224.250000
 20
126.000000
 11
-186.250000
 21
126.000000
  0
LINE
  8
0
  6
CONTINUOUS
 62
7
 10
-224.250000
 20
116.000000
 11
-186.250000
 21
116.000000
  0
LINE
  8
0
  6
CONTINUOUS
 62
7
 10
-224.250000
 20
126.000000
 11
-224.250000
 21
116.000000
  0
LINE
  8
0
  6
CENTER
 62
2
 10
-262.250000
 20
58.000000
 11
-252.250000
 21
58.000000
  0
LINE
  8
0
  6
CENTER
 62
2
 10
-262.250000
 20
88.000000
 11
-252.250000
 21
88.000000
  0
LINE
  8
0
  6
CONTINUOUS
 62
7
 10
-186.250000
 20
-112.000000
 11
13.750000
 21
-112.000000
  0
LINE
  8
0
  6
CONTINUOUS
 62
7
 10
-186.250000
 20
-72.000000
 11
13.750000
 21
-72.000000
  0
LINE
  8
0
  6
CONTINUOUS
 62
7
 10
-186.250000
 20
-112.000000
 11
-186.250000
 21
-72.000000
  0
LINE
  8
0
  6
CONTINUOUS
 62
7
 10
13.750000
 20
-72.000000
 11
13.750000
 21
-112.000000
  0
LINE
  8
0
  6
CONTINUOUS
 62
2
 10
-186.250000
 20
-102.199997
 11
13.750000
 21
-102.199997
  0
LINE
  8
0
  6
CENTER
 62
2
 10
-226.250000
 20
-92.000000
 11
15.750000
 21
-92.000000
  0
LINE
  8
0
  6
CONTINUOUS
 62
2
 10
-186.250000
 20
-81.800003
 11
13.750000
 21
-81.800003
  0
LINE
  8
0
  6
CONTINUOUS
 62
7
 10
-224.250000
 20
-87.000000
 11
-186.250000
 21
-87.000000
  0
LINE
  8
0
  6
CONTINUOUS
 62
7
 10
-224.250000
 20
-97.000000
 11
-186.250000
 21
-97.000000
  0
LINE
  8
0
  6
CONTINUOUS
 62
7
 10
-224.250000
 20
-87.000000
 11
-224.250000
 21
-97.000000
  0
LINE
  8
0
  6
CENTER
 62
2
 10
-19.750000
 20
-74.308098
 11
-19.750000
 21
-64.320396
  0
LINE
  8
0
  6
CONTINUOUS
 62
7
 10
-13.250000
 20
-72.000000
 11
-13.250000
 21
-66.000000
  0
LINE
  8
0
  6
CONTINUOUS
 62
7
 10
-26.250000
 20
-72.000000
 11
-26.250000
 21
-66.000000
  0
LINE
  8
0
  6
CONTINUOUS
 62
7
 10
-26.250000
 20
-66.000000
 11
-13.250000
 21
-66.000000
  0
LINE
  8
0
  6
CONTINUOUS
 62
7
 10
-186.250000
 20
-153.000000
 11
-186.250000
 21
-127.000000
  0
LINE
  8
0
  6
CONTINUOUS
 62
7
 10
13.750000
 20
-153.000000
 11
13.750000
 21
-127.000000
  0
LINE
  8
0
  6
CONTINUOUS
 62
7
 10
-186.250000
 20
-127.000000
 11
13.750000
 21
-127.000000
  0
LINE
  8
0
  6
CONTINUOUS
 62
7
 10
-186.250000
 20
-153.000000
 11
13.750000
 21
-153.000000
  0
LINE
  8
0
  6
CENTER
 62
2
 10
-226.250000
 20
-140.000000
 11
15.750000
 21
-140.000000
  0
LINE
  8
0
  6
CONTINUOUS
 62
7
 10
-224.250000
 20
-135.000000
 11
-186.250000
 21
-135.000000
  0
LINE
  8
0
  6
CONTINUOUS
 62
7
 10
-224.250000
 20
-145.000000
 11
-186.250000
 21
-145.000000
  0
LINE
  8
0
  6
CONTINUOUS
 62
7
 10
-224.250000
 20
-135.000000
 11
-224.250000
 21
-145.000000
  0
LINE
  8
0
  6
CONTINUOUS
 62
7
 10
13.750000
 20
-31.000000
 11
13.750000
 21
-57.000000
  0
LINE
  8
0
  6
CONTINUOUS
 62
7
 10
-26.250000
 20
-33.500000
 11
-26.250000
 21
-54.500000
  0
LINE
  8
0
  6
CONTINUOUS
 62
7
 10
-13.250000
 20
-33.500000
 11
-13.250000
 21
-54.500000
  0
LINE
  8
0
  6
CONTINUOUS
 62
7
 10
-26.250000
 20
-33.500000
 11
-13.250000
 21
-33.500000
  0
LINE
  8
0
  6
CONTINUOUS
 62
7
 10
-26.250000
 20
-54.500000
 11
-13.250000
 21
-54.500000
  0
LINE
  8
0
  6
CONTINUOUS
 62
2
 10
58.749901
 20
-81.800003
 11
59.749901
 21
-81.800003
  0
LINE
  8
0
  6
CONTINUOUS
 62
2
 10
58.750000
 20
-81.800003
 11
58.750000
 21
-82.650002
  0
LINE
  8
0
  6
CONTINUOUS
 62
2
 10
58.750000
 20
-78.349998
 11
58.750000
 21
-79.199997
  0
LINE
  8
0
  6
CONTINUOUS
 62
2
 10
58.749901
 20
-79.199997
 11
59.749901
 21
-79.199997
  0
LINE
  8
0
  6
CONTINUOUS
 62
7
 10
33.749901
 20
-72.000000
 11
33.749901
 21
-112.000000
  0
LINE
  8
0
  6
CENTER
 62
2
 10
31.749901
 20
-92.000000
 11
61.750000
 21
-92.000000
  0
LINE
  8
0
  6
CONTINUOUS
 62
7
 10
33.749901
 20
-112.000000
 11
59.750000
 21
-112.000000
  0
LINE
  8
0
  6
CONTINUOUS
 62
7
 10
59.750000
 20
-112.000000
 11
59.750000
 21
-72.000000
  0
LINE
  8
0
  6
CONTINUOUS
 62
7
 10
33.749901
 20
-72.000000
 11
59.750000
 21
-72.000000
  0
LINE
  8
0
  6
CENTER
 62
2
 10
46.750000
 20
-64.000000
 11
46.750000
 21
-114.000000
  0
LINE
  8
0
  6
CONTINUOUS
 62
2
 10
54.950001
 20
-78.349998
 11
58.750099
 21
-78.349998
  0
LINE
  8
0
  6
CONTINUOUS
 62
2
 10
53.450001
 20
-79.849998
 11
53.450001
 21
-81.150002
  0
LINE
  8
0
  6
CONTINUOUS
 62
2
 10
54.950001
 20
-82.650002
 11
58.750099
 21
-82.650002
  0
LINE
  8
0
  6
CONTINUOUS
 62
7
 10
57.250000
 20
-66.000000
 11
57.250000
 21
-72.000000
  0
LINE
  8
0
  6
CONTINUOUS
 62
7
 10
36.250000
 20
-66.000000
 11
36.250000
 21
-72.000000
  0
LINE
  8
0
  6
CONTINUOUS
 62
7
 10
36.250000
 20
-66.000000
 11
57.250000
 21
-66.000000
  0
LINE
  8
0
  6
CENTER
 62
2
 10
50.480202
 20
-103.500000
 11
61.750000
 21
-103.500000
  0
LINE
  8
0
  6
CENTER
 62
2
 10
50.480202
 20
-80.500000
 11
61.750000
 21
-80.500000
  0
LINE
  8
0
  6
CENTER
 62
2
 10
43.019798
 20
-103.500000
 11
31.749901
 21
-103.500000
  0
LINE
  8
0
  6
CENTER
 62
2
 10
43.019798
 20
-80.500000
 11
31.749901
 21
-80.500000
  0
LINE
  8
0
  6
CONTINUOUS
 62
2
 10
-186.250000
 20
-79.199997
 11
-178.175995
 21
-79.199997
  0
LINE
  8
0
  6
CENTER
 62
2
 10
-174.250000
 20
-125.000000
 11
-174.250000
 21
-155.000000
  0
LINE
  8
0
  6
CENTER
 62
2
 10
-61.250000
 20
-125.000000
 11
-61.250000
 21
-155.000000
  0
LINE
  8
0
  6
CONTINUOUS
 62
2
 10
-170.324005
 20
-79.199997
 11
-154.175995
 21
-79.199997
  0
LINE
  8
0
  6
CONTINUOUS
 62
2
 10
-146.324005
 20
-79.199997
 11
-65.175499
 21
-79.199997
  0
LINE
  8
0
  6
CONTINUOUS
 62
2
 10
-170.324005
 20
-104.800003
 11
-154.175995
 21
-104.800003
  0
LINE
  8
0
  6
CONTINUOUS
 62
2
 10
-186.250000
 20
-104.800003
 11
-178.175995
 21
-104.800003
  0
LINE
  8
0
  6
CONTINUOUS
 62
2
 10
-146.324005
 20
-104.800003
 11
-65.175499
 21
-104.800003
  0
LINE
  8
0
  6
DASHED
 62
2
 10
-65.750000
 20
-127.000000
 11
-65.750000
 21
-133.500000
  0
LINE
  8
0
  6
DASHED
 62
2
 10
-63.950001
 20
-133.500000
 11
-63.950001
 21
-146.500000
  0
LINE
  8
0
  6
DASHED
 62
2
 10
-64.250000
 20
-133.500000
 11
-64.250000
 21
-146.500000
  0
LINE
  8
0
  6
DASHED
 62
2
 10
-65.750000
 20
-133.500000
 11
-56.750000
 21
-133.500000
  0
LINE
  8
0
  6
DASHED
 62
2
 10
-56.750000
 20
-127.000000
 11
-56.750000
 21
-133.500000
  0
LINE
  8
0
  6
DASHED
 62
2
 10
-65.750000
 20
-153.000000
 11
-65.750000
 21
-146.500000
  0
LINE
  8
0
  6
DASHED
 62
2
 10
-65.750000
 20
-146.500000
 11
-56.750000
 21
-146.500000
  0
LINE
  8
0
  6
DASHED
 62
2
 10
-56.750000
 20
-153.000000
 11
-56.750000
 21
-146.500000
  0
LINE
  8
0
  6
DASHED
 62
2
 10
-58.250000
 20
-133.500000
 11
-58.250000
 21
-146.500000
  0
LINE
  8
0
  6
DASHED
 62
2
 10
-58.549999
 20
-133.500000
 11
-58.549999
 21
-146.500000
  0
LINE
  8
0
  6
DASHED
 62
2
 10
-178.750000
 20
-153.000000
 11
-178.750000
 21
-146.500000
  0
LINE
  8
0
  6
DASHED
 62
2
 10
-178.750000
 20
-146.500000
 11
-169.750000
 21
-146.500000
  0
LINE
  8
0
  6
DASHED
 62
2
 10
-169.750000
 20
-153.000000
 11
-169.750000
 21
-146.500000
  0
LINE
  8
0
  6
DASHED
 62
2
 10
-171.550003
 20
-133.500000
 11
-171.550003
 21
-146.500000
  0
LINE
  8
0
  6
DASHED
 62
2
 10
-171.250000
 20
-133.500000
 11
-171.250000
 21
-146.500000
  0
LINE
  8
0
  6
DASHED
 62
2
 10
-176.949997
 20
-133.500000
 11
-176.949997
 21
-146.500000
  0
LINE
  8
0
  6
DASHED
 62
2
 10
-177.250000
 20
-133.500000
 11
-177.250000
 21
-146.500000
  0
LINE
  8
0
  6
DASHED
 62
2
 10
-178.750000
 20
-133.500000
 11
-169.750000
 21
-133.500000
  0
LINE
  8
0
  6
DASHED
 62
2
 10
-178.750000
 20
-127.000000
 11
-178.750000
 21
-133.500000
  0
LINE
  8
0
  6
DASHED
 62
2
 10
-169.750000
 20
-127.000000
 11
-169.750000
 21
-133.500000
  0
LINE
  8
0
  6
CONTINUOUS
 62
2
 10
-249.050003
 20
-82.650002
 11
-245.250000
 21
-82.650002
  0
LINE
  8
0
  6
CONTINUOUS
 62
7
 10
-246.750000
 20
-66.000000
 11
-246.750000
 21
-72.000000
  0
LINE
  8
0
  6
CONTINUOUS
 62
7
 10
-267.750000
 20
-66.000000
 11
-267.750000
 21
-72.000000
  0
LINE
  8
0
  6
CONTINUOUS
 62
7
 10
-267.750000
 20
-66.000000
 11
-246.750000
 21
-66.000000
  0
LINE
  8
0
  6
CENTER
 62
2
 10
-253.520004
 20
-103.500000
 11
-242.250000
 21
-103.500000
  0
LINE
  8
0
  6
CENTER
 62
2
 10
-253.520004
 20
-80.500000
 11
-242.250000
 21
-80.500000
  0
LINE
  8
0
  6
CENTER
 62
2
 10
-260.980011
 20
-103.500000
 11
-272.250000
 21
-103.500000
  0
LINE
  8
0
  6
CENTER
 62
2
 10
-260.980011
 20
-80.500000
 11
-272.250000
 21
-80.500000
  0
LINE
  8
0
  6
CONTINUOUS
 62
2
 10
-245.250000
 20
-81.800003
 11
-244.250000
 21
-81.800003
  0
LINE
  8
0
  6
CONTINUOUS
 62
2
 10
-245.250000
 20
-81.800003
 11
-245.250000
 21
-82.650002
  0
LINE
  8
0
  6
CONTINUOUS
 62
2
 10
-245.250000
 20
-78.349998
 11
-245.250000
 21
-79.199997
  0
LINE
  8
0
  6
CONTINUOUS
 62
2
 10
-245.250000
 20
-79.199997
 11
-244.250000
 21
-79.199997
  0
LINE
  8
0
  6
CONTINUOUS
 62
7
 10
-270.250000
 20
-72.000000
 11
-270.250000
 21
-112.000000
  0
LINE
  8
0
  6
CENTER
 62
2
 10
-272.250000
 20
-92.000000
 11
-242.250000
 21
-92.000000
  0
LINE
  8
0
  6
CONTINUOUS
 62
7
 10
-270.250000
 20
-112.000000
 11
-244.250000
 21
-112.000000
  0
LINE
  8
0
  6
CONTINUOUS
 62
7
 10
-244.250000
 20
-112.000000
 11
-244.250000
 21
-72.000000
  0
LINE
  8
0
  6
CONTINUOUS
 62
7
 10
-270.250000
 20
-72.000000
 11
-244.250000
 21
-72.000000
  0
LINE
  8
0
  6
CENTER
 62
2
 10
-257.250000
 20
-64.000000
 11
-257.250000
 21
-114.000000
  0
LINE
  8
0
  6
CONTINUOUS
 62
2
 10
-249.050003
 20
-78.349998
 11
-245.250000
 21
-78.349998
  0
LINE
  8
0
  6
CONTINUOUS
 62
2
 10
-250.550003
 20
-79.849998
 11
-250.550003
 21
-81.150002
  0
LINE
  8
0
  6
CONTINUOUS
 62
7
 10
-186.250000
 20
-31.000000
 11
-186.250000
 21
-57.000000
  0
LINE
  8
0
  6
CONTINUOUS
 62
7
 10
-186.250000
 20
-57.000000
 11
13.750000
 21
-57.000000
  0
LINE
  8
0
  6
CONTINUOUS
 62
7
 10
-186.250000
 20
-31.000000
 11
13.750000
 21
-31.000000
  0
LINE
  8
0
  6
CENTER
 62
2
 10
-226.250000
 20
-44.000000
 11
15.750000
 21
-44.000000
  0
LINE
  8
0
  6
CONTINUOUS
 62
7
 10
-224.250000
 20
-39.000000
 11
-186.250000
 21
-39.000000
  0
LINE
  8
0
  6
CONTINUOUS
 62
7
 10
-224.250000
 20
-49.000000
 11
-186.250000
 21
-49.000000
  0
LINE
  8
0
  6
CONTINUOUS
 62
7
 10
-224.250000
 20
-39.000000
 11
-224.250000
 21
-49.000000
  0
LINE
  8
0
  6
CENTER
 62
2
 10
-262.250000
 20
-107.000000
 11
-252.250000
 21
-107.000000
  0
LINE
  8
0
  6
CENTER
 62
2
 10
-262.250000
 20
-77.000000
 11
-252.250000
 21
-77.000000
  0
LINE
  8
0
  6
CONTINUOUS
 62
2
 10
-57.324501
 20
-104.800003
 11
13.750000
 21
-104.800003
  0
LINE
  8
0
  6
CONTINUOUS
 62
2
 10
-57.324501
 20
-79.199997
 11
13.750000
 21
-79.199997
  0
LINE
  8
0
  6
DASHED
 62
2
 10
-154.750000
 20
-153.000000
 11
-154.750000
 21
-146.500000
  0
LINE
  8
0
  6
DASHED
 62
2
 10
-147.550003
 20
-133.500000
 11
-147.550003
 21
-146.500000
  0
LINE
  8
0
  6
DASHED
 62
2
 10
-145.750000
 20
-153.000000
 11
-145.750000
 21
-146.500000
  0
LINE
  8
0
  6
DASHED
 62
2
 10
-147.250000
 20
-133.500000
 11
-147.250000
 21
-146.500000
  0
LINE
  8
0
  6
CENTER
 62
2
 10
-150.250000
 20
-125.000000
 11
-150.250000
 21
-155.000000
  0
LINE
  8
0
  6
DASHED
 62
2
 10
-154.750000
 20
-146.500000
 11
-145.750000
 21
-146.500000
  0
LINE
  8
0
  6
DASHED
 62
2
 10
-154.750000
 20
-133.500000
 11
-145.750000
 21
-133.500000
  0
LINE
  8
0
  6
DASHED
 62
2
 10
-145.750000
 20
-127.000000
 11
-145.750000
 21
-133.500000
  0
LINE
  8
0
  6
DASHED
 62
2
 10
-154.750000
 20
-127.000000
 11
-154.750000
 21
-133.500000
  0
LINE
  8
0
  6
DASHED
 62
2
 10
-153.250000
 20
-133.500000
 11
-153.250000
 21
-146.500000
  0
LINE
  8
0
  6
DASHED
 62
2
 10
-152.949997
 20
-133.500000
 11
-152.949997
 21
-146.500000
  0
LINE
  8
0
  6
CENTER
 62
2
 10
-142.250000
 20
128.500000
 11
-142.250000
 21
119.500000
  0
LINE
  8
0
  6
CENTER
 62
2
 10
-146.750000
 20
124.000000
 11
-137.750000
 21
124.000000
  0
LINE
  8
0
  6
CENTER
 62
2
 10
-94.750000
 20
124.250000
 11
-94.750000
 21
117.750000
  0
LINE
  8
0
  6
CENTER
 62
2
 10
-74.250000
 20
122.500000
 11
-74.250000
 21
113.500000
  0
LINE
  8
0
  6
CENTER
 62
2
 10
-78.750000
 20
118.000000
 11
-69.750000
 21
118.000000
  0
LINE
  8
0
  6
CENTER
 62
2
 10
-174.250000
 20
94.500000
 11
-174.250000
 21
81.500000
  0
LINE
  8
0
  6
CENTER
 62
2
 10
-180.750000
 20
88.000000
 11
-167.750000
 21
88.000000
  0
LINE
  8
0
  6
CENTER
 62
2
 10
-150.250000
 20
94.500000
 11
-150.250000
 21
81.500000
  0
LINE
  8
0
  6
CENTER
 62
2
 10
-156.750000
 20
88.000000
 11
-143.750000
 21
88.000000
  0
LINE
  8
0
  6
CENTER
 62
2
 10
-150.250000
 20
64.500000
 11
-150.250000
 21
51.500000
  0
LINE
  8
0
  6
CENTER
 62
2
 10
-156.750000
 20
58.000000
 11
-143.750000
 21
58.000000
  0
LINE
  8
0
  6
CENTER
 62
2
 10
-174.250000
 20
64.500000
 11
-174.250000
 21
51.500000
  0
LINE
  8
0
  6
CENTER
 62
2
 10
-180.750000
 20
58.000000
 11
-167.750000
 21
58.000000
  0
LINE
  8
0
  6
CENTER
 62
2
 10
-142.250000
 20
21.500000
 11
-142.250000
 21
12.500000
  0
LINE
  8
0
  6
CENTER
 62
2
 10
-146.750000
 20
17.000000
 11
-137.750000
 21
17.000000
  0
LINE
  8
0
  6
CENTER
 62
2
 10
-142.250000
 20
37.500000
 11
-142.250000
 21
28.500000
  0
LINE
  8
0
  6
CENTER
 62
2
 10
-146.750000
 20
33.000000
 11
-137.750000
 21
33.000000
  0
LINE
  8
0
  6
CENTER
 62
2
 10
-166.250000
 20
37.500000
 11
-166.250000
 21
28.500000
  0
LINE
  8
0
  6
CENTER
 62
2
 10
-170.750000
 20
33.000000
 11
-161.750000
 21
33.000000
  0
LINE
  8
0
  6
CENTER
 62
2
 10
-166.250000
 20
21.500000
 11
-166.250000
 21
12.500000
  0
LINE
  8
0
  6
CENTER
 62
2
 10
-170.750000
 20
17.000000
 11
-161.750000
 21
17.000000
  0
LINE
  8
0
  6
CENTER
 62
2
 10
-142.250000
 20
-36.500000
 11
-142.250000
 21
-45.500000
  0
LINE
  8
0
  6
CENTER
 62
2
 10
-146.750000
 20
-41.000000
 11
-137.750000
 21
-41.000000
  0
LINE
  8
0
  6
CENTER
 62
2
 10
0.750000
 20
-42.500000
 11
0.750000
 21
-51.500000
  0
LINE
  8
0
  6
CENTER
 62
2
 10
-3.750000
 20
-47.000000
 11
5.250000
 21
-47.000000
  0
LINE
  8
0
  6
CENTER
 62
2
 10
-19.750000
 20
-40.750000
 11
-19.750000
 21
-47.250000
  0
LINE
  8
0
  6
CENTER
 62
2
 10
-61.250000
 20
-100.500000
 11
-61.250000
 21
-113.500000
  0
LINE
  8
0
  6
CENTER
 62
2
 10
-67.750000
 20
-107.000000
 11
-54.750000
 21
-107.000000
  0
LINE
  8
0
  6
CENTER
 62
2
 10
-61.250000
 20
-70.500000
 11
-61.250000
 21
-83.500000
  0
LINE
  8
0
  6
CENTER
 62
2
 10
-67.750000
 20
-77.000000
 11
-54.750000
 21
-77.000000
  0
LINE
  8
0
  6
CENTER
 62
2
 10
-150.250000
 20
-70.500000
 11
-150.250000
 21
-83.500000
  0
LINE
  8
0
  6
CENTER
 62
2
 10
-156.750000
 20
-77.000000
 11
-143.750000
 21
-77.000000
  0
LINE
  8
0
  6
CENTER
 62
2
 10
-174.250000
 20
-70.500000
 11
-174.250000
 21
-83.500000
  0
LINE
  8
0
  6
CENTER
 62
2
 10
-180.750000
 20
-77.000000
 11
-167.750000
 21
-77.000000
  0
LINE
  8
0
  6
CENTER
 62
2
 10
-174.250000
 20
-100.500000
 11
-174.250000
 21
-113.500000
  0
LINE
  8
0
  6
CENTER
 62
2
 10
-180.750000
 20
-107.000000
 11
-167.750000
 21
-107.000000
  0
LINE
  8
0
  6
CENTER
 62
2
 10
-150.250000
 20
-100.500000
 11
-150.250000
 21
-113.500000
  0
LINE
  8
0
  6
CENTER
 62
2
 10
-156.750000
 20
-107.000000
 11
-143.750000
 21
-107.000000
  0
LINE
  8
0
  6
CENTER
 62
2
 10
-166.250000
 20
-127.500000
 11
-166.250000
 21
-136.500000
  0
LINE
  8
0
  6
CENTER
 62
2
 10
-170.750000
 20
-132.000000
 11
-161.750000
 21
-132.000000
  0
LINE
  8
0
  6
CENTER
 62
2
 10
-166.250000
 20
-143.500000
 11
-166.250000
 21
-152.500000
  0
LINE
  8
0
  6
CENTER
 62
2
 10
-170.750000
 20
-148.000000
 11
-161.750000
 21
-148.000000
  0
LINE
  8
0
  6
CENTER
 62
2
 10
-142.250000
 20
-127.500000
 11
-142.250000
 21
-136.500000
  0
LINE
  8
0
  6
CENTER
 62
2
 10
-146.750000
 20
-132.000000
 11
-137.750000
 21
-132.000000
  0
LINE
  8
0
  6
CENTER
 62
2
 10
-142.250000
 20
-143.500000
 11
-142.250000
 21
-152.500000
  0
LINE
  8
0
  6
CENTER
 62
2
 10
-146.750000
 20
-148.000000
 11
-137.750000
 21
-148.000000
  0
LINE
  8
0
  6
CENTER
 62
2
 10
-53.250000
 20
-143.500000
 11
-53.250000
 21
-152.500000
  0
LINE
  8
0
  6
CENTER
 62
2
 10
-57.750000
 20
-148.000000
 11
-48.750000
 21
-148.000000
  0
LINE
  8
0
  6
CENTER
 62
2
 10
-53.250000
 20
-127.500000
 11
-53.250000
 21
-136.500000
  0
LINE
  8
0
  6
CENTER
 62
2
 10
-57.750000
 20
-132.000000
 11
-48.750000
 21
-132.000000
  0
LINE
  8
0
  6
CONTINUOUS
 62
4
 10
155.250000
 20
-37.494400
 11
155.250000
 21
-52.505600
  0
LINE
  8
0
  6
CONTINUOUS
 62
7
 10
186.250000
 20
-32.000000
 11
186.250000
 21
-58.000000
  0
LINE
  8
0
  6
CONTINUOUS
 62
7
 10
186.250000
 20
-58.000000
 11
196.250000
 21
-58.000000
  0
LINE
  8
0
  6
CONTINUOUS
 62
7
 10
186.250000
 20
-32.000000
 11
196.250000
 21
-32.000000
  0
LINE
  8
0
  6
CENTER
 62
1
 10
146.250000
 20
-45.000000
 11
196.250000
 21
-45.000000
  0
LINE
  8
0
  6
CONTINUOUS
 62
4
 10
148.250000
 20
-41.000000
 11
148.250000
 21
-49.000000
  0
LINE
  8
0
  6
CONTINUOUS
 62
4
 10
160.250000
 20
-37.494400
 11
160.250000
 21
-52.505600
  0
LINE
  8
0
  6
CONTINUOUS
 62
4
 10
155.250000
 20
-37.494400
 11
160.250000
 21
-37.494400
  0
LINE
  8
0
  6
CONTINUOUS
 62
4
 10
155.250000
 20
-41.247299
 11
160.250000
 21
-41.247299
  0
LINE
  8
0
  6
CONTINUOUS
 62
4
 10
155.250000
 20
-48.752701
 11
160.250000
 21
-48.752701
  0
LINE
  8
0
  6
CONTINUOUS
 62
4
 10
155.250000
 20
-52.505600
 11
160.250000
 21
-52.505600
  0
LINE
  8
0
  6
CONTINUOUS
 62
4
 10
141.250000
 20
80.000000
 11
181.250000
 21
80.000000
  0
LINE
  8
0
  6
CONTINUOUS
 62
4
 10
141.250000
 20
100.000000
 11
181.250000
 21
100.000000
  0
LINE
  8
0
  6
CONTINUOUS
 62
4
 10
141.250000
 20
125.000000
 11
141.250000
 21
110.000000
  0
LINE
  8
0
  6
CONTINUOUS
 62
4
 10
181.250000
 20
125.000000
 11
181.250000
 21
110.000000
  0
LINE
  8
0
  6
CONTINUOUS
 62
4
 10
141.250000
 20
100.000000
 11
141.250000
 21
80.000000
  0
LINE
  8
0
  6
CONTINUOUS
 62
4
 10
181.250000
 20
100.000000
 11
181.250000
 21
80.000000
  0
LINE
  8
0
  6
CONTINUOUS
 62
4
 10
191.250000
 20
100.000000
 11
211.250000
 21
100.000000
  0
LINE
  8
0
  6
CONTINUOUS
 62
4
 10
191.250000
 20
80.000000
 11
211.250000
 21
80.000000
  0
LINE
  8
0
  6
CONTINUOUS
 62
4
 10
191.250000
 20
100.000000
 11
191.250000
 21
80.000000
  0
LINE
  8
0
  6
CONTINUOUS
 62
4
 10
206.250000
 20
100.000000
 11
206.250000
 21
80.000000
  0
LINE
  8
0
  6
CONTINUOUS
 62
4
 10
211.250000
 20
100.000000
 11
211.250000
 21
80.000000
  0
LINE
  8
0
  6
CONTINUOUS
 62
4
 10
141.250000
 20
110.000000
 11
181.250000
 21
110.000000
  0
LINE
  8
0
  6
CONTINUOUS
 62
4
 10
151.250000
 20
130.000000
 11
171.250000
 21
130.000000
  0
LINE
  8
0
  6
CONTINUOUS
 62
4
 10
171.250000
 20
125.000000
 11
181.250000
 21
125.000000
  0
LINE
  8
0
  6
CONTINUOUS
 62
4
 10
141.250000
 20
125.000000
 11
151.250000
 21
125.000000
  0
LINE
  8
0
  6
CONTINUOUS
 62
4
 10
151.250000
 20
130.000000
 11
151.250000
 21
125.000000
  0
LINE
  8
0
  6
CONTINUOUS
 62
4
 10
171.250000
 20
130.000000
 11
171.250000
 21
125.000000
  0
LINE
  8
0
  6
CENTER
 62
1
 10
161.250000
 20
132.000000
 11
161.250000
 21
108.000000
  0
LINE
  8
0
  6
CENTER
 62
1
 10
176.250000
 20
127.646004
 11
176.250000
 21
108.000000
  0
LINE
  8
0
  6
CENTER
 62
1
 10
146.250000
 20
127.000000
 11
146.250000
 21
108.000000
  0
LINE
  8
0
  6
DASHED
 62
1
 10
173.899994
 20
125.000000
 11
173.899994
 21
110.000000
  0
LINE
  8
0
  6
DASHED
 62
1
 10
178.600006
 20
125.000000
 11
178.600006
 21
110.000000
  0
LINE
  8
0
  6
CONTINUOUS
 62
4
 10
167.981995
 20
-40.000000
 11
186.250000
 21
-40.000000
  0
LINE
  8
0
  6
CENTER
 62
1
 10
176.250000
 20
-30.000000
 11
161.250000
 21
-30.000000
  0
LINE
  8
0
  6
CENTER
 62
1
 10
168.750000
 20
-22.500000
 11
168.750000
 21
-37.500000
  0
LINE
  8
0
  6
CONTINUOUS
 62
4
 10
164.750000
 20
-27.000000
 11
164.750000
 21
-33.000000
  0
LINE
  8
0
  6
CONTINUOUS
 62
4
 10
172.750000
 20
-27.000000
 11
172.750000
 21
-33.000000
  0
LINE
  8
0
  6
CONTINUOUS
 62
7
 10
186.250000
 20
38.000000
 11
186.250000
 21
12.000000
  0
LINE
  8
0
  6
CONTINUOUS
 62
7
 10
186.250000
 20
12.000000
 11
196.250000
 21
12.000000
  0
LINE
  8
0
  6
CONTINUOUS
 62
7
 10
186.250000
 20
38.000000
 11
196.250000
 21
38.000000
  0
LINE
  8
0
  6
CENTER
 62
1
 10
146.250000
 20
25.000000
 11
196.250000
 21
25.000000
  0
LINE
  8
0
  6
CONTINUOUS
 62
4
 10
148.250000
 20
30.000000
 11
155.250000
 21
30.000000
  0
LINE
  8
0
  6
CONTINUOUS
 62
4
 10
148.250000
 20
30.000000
 11
148.250000
 21
20.000000
  0
LINE
  8
0
  6
CONTINUOUS
 62
4
 10
155.250000
 20
29.000000
 11
160.250000
 21
29.000000
  0
LINE
  8
0
  6
CONTINUOUS
 62
4
 10
155.250000
 20
30.000000
 11
155.250000
 21
29.000000
  0
LINE
  8
0
  6
CONTINUOUS
 62
4
 10
160.250000
 20
30.000000
 11
160.250000
 21
29.000000
  0
LINE
  8
0
  6
CONTINUOUS
 62
4
 10
160.250000
 20
30.000000
 11
186.250000
 21
30.000000
  0
LINE
  8
0
  6
DASHED
 62
1
 10
160.250000
 20
28.000000
 11
160.250000
 21
22.000000
  0
LINE
  8
0
  6
DASHED
 62
1
 10
148.250000
 20
28.000000
 11
160.250000
 21
28.000000
  0
LINE
  8
0
  6
DASHED
 62
1
 10
148.250000
 20
27.500000
 11
163.250000
 21
27.500000
  0
LINE
  8
0
  6
CONTINUOUS
 62
4
 10
148.250000
 20
20.000000
 11
155.250000
 21
20.000000
  0
LINE
  8
0
  6
CONTINUOUS
 62
4
 10
155.250000
 20
20.000000
 11
155.250000
 21
21.000000
  0
LINE
  8
0
  6
CONTINUOUS
 62
4
 10
155.250000
 20
21.000000
 11
160.250000
 21
21.000000
  0
LINE
  8
0
  6
CONTINUOUS
 62
4
 10
160.250000
 20
20.000000
 11
186.250000
 21
20.000000
  0
LINE
  8
0
  6
DASHED
 62
1
 10
148.250000
 20
22.000000
 11
160.250000
 21
22.000000
  0
LINE
  8
0
  6
DASHED
 62
1
 10
148.250000
 20
22.500000
 11
163.250000
 21
22.500000
  0
LINE
  8
0
  6
CONTINUOUS
 62
4
 10
160.250000
 20
20.000000
 11
160.250000
 21
21.000000
  0
LINE
  8
0
  6
DASHED
 62
1
 10
163.250000
 20
27.500000
 11
163.250000
 21
22.500000
  0
LINE
  8
0
  6
CENTER
 62
1
 10
165.250000
 20
40.000000
 11
150.250000
 21
40.000000
  0
LINE
  8
0
  6
CENTER
 62
1
 10
157.750000
 20
47.500000
 11
157.750000
 21
32.500000
  0
LINE
  8
0
  6
CONTINUOUS
 62
4
 10
160.750000
 20
44.000000
 11
154.750000
 21
44.000000
  0
LINE
  8
0
  6
CONTINUOUS
 62
4
 10
160.750000
 20
36.000000
 11
154.750000
 21
36.000000
  0
LINE
  8
0
  6
CONTINUOUS
 62
4
 10
163.750000
 20
-41.000000
 11
163.750000
 21
-49.000000
  0
LINE
  8
0
  6
CONTINUOUS
 62
4
 10
148.250000
 20
-41.000000
 11
155.250000
 21
-41.000000
  0
LINE
  8
0
  6
CONTINUOUS
 62
1
 10
148.250000
 20
-41.700001
 11
155.250000
 21
-41.700001
  0
LINE
  8
0
  6
CONTINUOUS
 62
4
 10
166.250000
 20
-41.000000
 11
166.250000
 21
-49.000000
  0
LINE
  8
0
  6
CONTINUOUS
 62
4
 10
171.250000
 20
-42.000000
 11
171.250000
 21
-48.000000
  0
LINE
  8
0
  6
CONTINUOUS
 62
4
 10
166.250000
 20
-40.999901
 11
167.981995
 21
-39.999901
  0
LINE
  8
0
  6
CONTINUOUS
 62
4
 10
167.981995
 20
-40.000000
 11
167.981995
 21
-42.000000
  0
LINE
  8
0
  6
CONTINUOUS
 62
1
 10
148.250000
 20
-48.299999
 11
155.250000
 21
-48.299999
  0
LINE
  8
0
  6
CONTINUOUS
 62
4
 10
148.250000
 20
-49.000000
 11
155.250000
 21
-49.000000
  0
LINE
  8
0
  6
CONTINUOUS
 62
4
 10
166.250000
 20
-48.999802
 11
167.981995
 21
-49.999901
  0
LINE
  8
0
  6
CONTINUOUS
 62
4
 10
167.981995
 20
-50.000000
 11
186.250000
 21
-50.000000
  0
LINE
  8
0
  6
CONTINUOUS
 62
4
 10
166.250000
 20
-42.000000
 11
171.250000
 21
-42.000000
  0
LINE
  8
0
  6
CONTINUOUS
 62
4
 10
166.250000
 20
-48.000000
 11
171.250000
 21
-48.000000
  0
LINE
  8
0
  6
CONTINUOUS
 62
4
 10
167.981995
 20
-48.000000
 11
167.981995
 21
-50.000000
  0
LINE
  8
0
  6
CONTINUOUS
 62
1
 10
171.250000
 20
-41.999901
 11
166.250000
 21
-47.999901
  0
LINE
  8
0
  6
CONTINUOUS
 62
1
 10
171.250000
 20
-48.000000
 11
166.250000
 21
-42.000000
  0
LINE
  8
0
  6
CONTINUOUS
 62
4
 10
160.250000
 20
-49.000000
 11
166.250000
 21
-49.000000
  0
LINE
  8
0
  6
CONTINUOUS
 62
4
 10
160.250000
 20
-41.000000
 11
166.250000
 21
-41.000000
  0
LINE
  8
0
  6
CONTINUOUS
 62
1
 10
160.250000
 20
-41.700001
 11
163.750000
 21
-41.700001
  0
LINE
  8
0
  6
CONTINUOUS
 62
1
 10
160.250000
 20
-48.299999
 11
163.750000
 21
-48.299999
  0
LINE
  8
0
  6
CENTER
 62
1
 10
189.250000
 20
90.000000
 11
213.250000
 21
90.000000
  0
LINE
  8
0
  6
CENTER
 62
1
 10
176.250000
 20
88.349998
 11
176.250000
 21
79.650002
  0
LINE
  8
0
  6
CENTER
 62
1
 10
171.899994
 20
84.000000
 11
180.600006
 21
84.000000
  0
LINE
  8
0
  6
CENTER
 62
1
 10
176.250000
 20
100.349998
 11
176.250000
 21
91.650002
  0
LINE
  8
0
  6
CENTER
 62
1
 10
171.899994
 20
96.000000
 11
180.600006
 21
96.000000
  0
LINE
  8
0
  6
CENTER
 62
1
 10
161.250000
 20
97.000000
 11
161.250000
 21
83.000000
  0
LINE
  8
0
  6
CENTER
 62
1
 10
154.250000
 20
90.000000
 11
168.250000
 21
90.000000
  0
LINE
  8
0
  6
CENTER
 62
1
 10
146.250000
 20
100.349998
 11
146.250000
 21
91.650002
  0
LINE
  8
0
  6
CENTER
 62
1
 10
141.899994
 20
96.000000
 11
150.600006
 21
96.000000
  0
LINE
  8
0
  6
CENTER
 62
1
 10
146.250000
 20
88.349998
 11
146.250000
 21
79.650002
  0
LINE
  8
0
  6
CENTER
 62
1
 10
141.899994
 20
84.000000
 11
150.600006
 21
84.000000
  0
LINE
  8
0
  6
CONTINUOUS
 62
7
 10
241.250000
 20
-148.000000
 11
251.250000
 21
-148.000000
  0
LINE
  8
0
  6
CONTINUOUS
 62
7
 10
241.250000
 20
-108.000000
 11
251.250000
 21
-108.000000
  0
LINE
  8
0
  6
CONTINUOUS
 62
7
 10
241.250000
 20
-148.000000
 11
241.250000
 21
-108.000000
  0
LINE
  8
0
  6
CONTINUOUS
 62
2
 10
241.250000
 20
-115.199997
 11
251.250000
 21
-115.199997
  0
LINE
  8
0
  6
CONTINUOUS
 62
2
 10
241.250000
 20
-140.800003
 11
251.250000
 21
-140.800003
  0
LINE
  8
0
  6
CONTINUOUS
 62
2
 10
241.250000
 20
-138.199997
 11
251.250000
 21
-138.199997
  0
LINE
  8
0
  6
CENTER
 62
1
 10
167.781998
 20
-128.000000
 11
251.250000
 21
-128.000000
  0
LINE
  8
0
  6
CONTINUOUS
 62
2
 10
241.250000
 20
-117.800003
 11
251.250000
 21
-117.800003
  0
LINE
  8
0
  6
CONTINUOUS
 62
4
 10
171.250000
 20
-123.000000
 11
188.250000
 21
-123.000000
  0
LINE
  8
0
  6
CONTINUOUS
 62
4
 10
171.250000
 20
-133.000000
 11
188.250000
 21
-133.000000
  0
LINE
  8
0
  6
CONTINUOUS
 62
4
 10
171.250000
 20
-123.000000
 11
171.250000
 21
-133.000000
  0
LINE
  8
0
  6
CONTINUOUS
 62
4
 10
188.250000
 20
-117.500000
 11
188.250000
 21
-138.500000
  0
LINE
  8
0
  6
CONTINUOUS
 62
4
 10
188.250000
 20
-117.500000
 11
221.250000
 21
-117.500000
  0
LINE
  8
0
  6
CONTINUOUS
 62
4
 10
221.250000
 20
-138.500000
 11
221.250000
 21
-117.500000
  0
LINE
  8
0
  6
CONTINUOUS
 62
4
 10
221.250000
 20
-138.500000
 11
188.250000
 21
-138.500000
  0
LINE
  8
0
  6
DASHED
 62
1
 10
198.250000
 20
-117.500000
 11
198.250000
 21
-119.000000
  0
LINE
  8
0
  6
DASHED
 62
1
 10
211.250000
 20
-117.500000
 11
211.250000
 21
-119.000000
  0
LINE
  8
0
  6
DASHED
 62
1
 10
198.250000
 20
-119.000000
 11
211.250000
 21
-119.000000
  0
LINE
  8
0
  6
CONTINUOUS
 62
4
 10
221.250000
 20
-123.000000
 11
241.250000
 21
-123.000000
  0
LINE
  8
0
  6
CONTINUOUS
 62
4
 10
221.250000
 20
-133.000000
 11
241.250000
 21
-133.000000
  0
LINE
  8
0
  6
DASHED
 62
1
 10
181.250000
 20
-125.500000
 11
181.250000
 21
-130.500000
  0
LINE
  8
0
  6
DASHED
 62
1
 10
183.250000
 20
-125.932999
 11
183.250000
 21
-130.067001
  0
LINE
  8
0
  6
DASHED
 62
1
 10
171.250000
 20
-125.500000
 11
181.250000
 21
-125.500000
  0
LINE
  8
0
  6
DASHED
 62
1
 10
171.250000
 20
-130.500000
 11
181.250000
 21
-130.500000
  0
LINE
  8
0
  6
DASHED
 62
1
 10
171.250000
 20
-130.067001
 11
183.250000
 21
-130.067001
  0
LINE
  8
0
  6
DASHED
 62
1
 10
171.250000
 20
-125.932999
 11
183.250000
 21
-125.932999
  0
LINE
  8
0
  6
DASHED
 62
1
 10
139.750000
 20
-117.608002
 11
139.750000
 21
-119.000000
  0
LINE
  8
0
  6
DASHED
 62
1
 10
139.750000
 20
-119.000000
 11
142.750000
 21
-119.000000
  0
LINE
  8
0
  6
DASHED
 62
1
 10
142.750000
 20
-117.608002
 11
142.750000
 21
-119.000000
  0
LINE
  8
0
  6
CENTER
 62
1
 10
153.750000
 20
-128.000000
 11
128.750000
 21
-128.000000
  0
LINE
  8
0
  6
CENTER
 62
1
 10
141.904007
 20
-115.516998
 11
141.250000
 21
-128.000000
  0
LINE
  8
0
  6
CENTER
 62
1
 10
141.250000
 20
-115.500000
 11
141.250000
 21
-140.500000
  0
LINE
  8
0
  6
CENTER
 62
1
 10
140.595993
 20
-115.516998
 11
141.250000
 21
-128.000000
  0
LINE
  8
0
  6
CONTINUOUS
 62
4
 10
199.750000
 20
-96.000000
 11
209.750000
 21
-96.000000
  0
LINE
  8
0
  6
CONTINUOUS
 62
4
 10
199.750000
 20
-99.000000
 11
209.750000
 21
-99.000000
  0
LINE
  8
0
  6
CENTER
 62
1
 10
196.250000
 20
-97.500000
 11
213.250000
 21
-97.500000
  0
LINE
  8
0
  6
CONTINUOUS
 62
4
 10
247.376007
 20
-86.518700
 11
247.376007
 21
-89.518700
  0
LINE
  8
0
  6
CONTINUOUS
 62
4
 10
247.376007
 20
-86.518700
 11
250.376007
 21
-86.518700
  0
LINE
  8
0
  6
CONTINUOUS
 62
4
 10
250.376007
 20
-86.518700
 11
250.376007
 21
-89.518700
  0
LINE
  8
0
  6
CONTINUOUS
 62
4
 10
247.376007
 20
-89.518700
 11
250.376007
 21
-89.518700
  0
LINE
  8
0
  6
CONTINUOUS
 62
4
 10
263.359009
 20
-78.018700
 11
273.359009
 21
-78.018700
  0
LINE
  8
0
  6
CONTINUOUS
 62
4
 10
263.359009
 20
-81.018700
 11
273.359009
 21
-81.018700
  0
LINE
  8
0
  6
CONTINUOUS
 62
4
 10
261.859009
 20
-86.518700
 11
261.859009
 21
-89.518700
  0
LINE
  8
0
  6
CONTINUOUS
 62
4
 10
261.859009
 20
-86.518700
 11
274.859009
 21
-86.518700
  0
LINE
  8
0
  6
CONTINUOUS
 62
4
 10
261.859009
 20
-89.518700
 11
274.859009
 21
-89.518700
  0
LINE
  8
0
  6
CONTINUOUS
 62
4
 10
274.859009
 20
-86.518700
 11
274.859009
 21
-89.518700
  0
LINE
  8
0
  6
CENTER
 62
1
 10
248.876007
 20
-84.518700
 11
248.876007
 21
-91.518700
  0
LINE
  8
0
  6
CENTER
 62
1
 10
276.859009
 20
-79.518700
 11
259.859009
 21
-79.518700
  0
CIRCLE
  8
0
  6
CONTINUOUS
 62
7
 10
-174.250000
 20
88.000000
 40
4.500000
  0
CIRCLE
  8
0
  6
CONTINUOUS
 62
7
 10
-150.250000
 20
88.000000
 40
4.500000
  0
CIRCLE
  8
0
  6
CONTINUOUS
 62
7
 10
-174.250000
 20
58.000000
 40
4.500000
  0
CIRCLE
  8
0
  6
CONTINUOUS
 62
7
 10
-150.250000
 20
58.000000
 40
4.500000
  0
CIRCLE
  8
0
  6
CONTINUOUS
 62
2
 10
-174.250000
 20
88.000000
 40
3.000000
  0
CIRCLE
  8
0
  6
CONTINUOUS
 62
2
 10
-150.250000
 20
88.000000
 40
3.000000
  0
CIRCLE
  8
0
  6
CONTINUOUS
 62
2
 10
-150.250000
 20
58.000000
 40
3.000000
  0
CIRCLE
  8
0
  6
CONTINUOUS
 62
2
 10
-174.250000
 20
58.000000
 40
3.000000
  0
CIRCLE
  8
0
  6
CONTINUOUS
 62
7
 10
-174.250000
 20
88.000000
 40
2.700000
  0
CIRCLE
  8
0
  6
CONTINUOUS
 62
7
 10
-150.250000
 20
88.000000
 40
2.700000
  0
CIRCLE
  8
0
  6
CONTINUOUS
 62
7
 10
-150.250000
 20
58.000000
 40
2.700000
  0
CIRCLE
  8
0
  6
CONTINUOUS
 62
7
 10
-174.250000
 20
58.000000
 40
2.700000
  0
CIRCLE
  8
0
  6
CONTINUOUS
 62
2
 10
-142.250000
 20
124.000000
 40
2.500000
  0
CIRCLE
  8
0
  6
CONTINUOUS
 62
7
 10
-142.250000
 20
124.000000
 40
2.100000
  0
CIRCLE
  8
0
  6
CONTINUOUS
 62
2
 10
-74.250000
 20
118.000000
 40
2.500000
  0
CIRCLE
  8
0
  6
CONTINUOUS
 62
7
 10
-74.250000
 20
118.000000
 40
2.100000
  0
ARC
  8
0
  6
CONTINUOUS
 62
2
 10
-20.049999
 20
83.849998
 40
1.500000
 50
180.000000
 51
270.000000
  0
ARC
  8
0
  6
CONTINUOUS
 62
2
 10
-20.049999
 20
85.150002
 40
1.500000
 50
90.000000
 51
180.000000
  0
CIRCLE
  8
0
  6
CONTINUOUS
 62
2
 10
-94.750000
 20
121.000000
 40
1.250000
  0
CIRCLE
  8
0
  6
CONTINUOUS
 62
7
 10
-94.750000
 20
121.000000
 40
1.000000
  0
ARC
  8
0
  6
CONTINUOUS
 62
2
 10
-249.050003
 20
85.150002
 40
1.500000
 50
90.000000
 51
180.000000
  0
CIRCLE
  8
0
  6
CONTINUOUS
 62
7
 10
-257.250000
 20
73.000000
 40
5.000000
  0
CIRCLE
  8
0
  6
CONTINUOUS
 62
2
 10
-257.250000
 20
88.000000
 40
2.500000
  0
CIRCLE
  8
0
  6
CONTINUOUS
 62
7
 10
-257.250000
 20
88.000000
 40
2.100000
  0
CIRCLE
  8
0
  6
CONTINUOUS
 62
7
 10
-257.250000
 20
58.000000
 40
2.100000
  0
CIRCLE
  8
0
  6
CONTINUOUS
 62
2
 10
-257.250000
 20
58.000000
 40
2.500000
  0
ARC
  8
0
  6
CONTINUOUS
 62
2
 10
-249.050003
 20
83.849998
 40
1.500000
 50
180.000000
 51
270.000000
  0
CIRCLE
  8
0
  6
CONTINUOUS
 62
2
 10
-166.250000
 20
17.000000
 40
2.500000
  0
CIRCLE
  8
0
  6
CONTINUOUS
 62
2
 10
-166.250000
 20
33.000000
 40
2.500000
  0
CIRCLE
  8
0
  6
CONTINUOUS
 62
2
 10
-142.250000
 20
33.000000
 40
2.500000
  0
CIRCLE
  8
0
  6
CONTINUOUS
 62
2
 10
-142.250000
 20
17.000000
 40
2.500000
  0
CIRCLE
  8
0
  6
CONTINUOUS
 62
7
 10
-166.250000
 20
33.000000
 40
2.100000
  0
CIRCLE
  8
0
  6
CONTINUOUS
 62
7
 10
-166.250000
 20
17.000000
 40
2.100000
  0
CIRCLE
  8
0
  6
CONTINUOUS
 62
7
 10
-142.250000
 20
17.000000
 40
2.100000
  0
CIRCLE
  8
0
  6
CONTINUOUS
 62
7
 10
-142.250000
 20
33.000000
 40
2.100000
  0
CIRCLE
  8
0
  6
CONTINUOUS
 62
7
 10
-174.250000
 20
-77.000000
 40
4.500000
  0
CIRCLE
  8
0
  6
CONTINUOUS
 62
7
 10
-61.250000
 20
-77.000000
 40
4.500000
  0
CIRCLE
  8
0
  6
CONTINUOUS
 62
7
 10
-174.250000
 20
-107.000000
 40
4.500000
  0
CIRCLE
  8
0
  6
CONTINUOUS
 62
7
 10
-61.250000
 20
-107.000000
 40
4.500000
  0
CIRCLE
  8
0
  6
CONTINUOUS
 62
2
 10
-174.250000
 20
-77.000000
 40
3.000000
  0
CIRCLE
  8
0
  6
CONTINUOUS
 62
2
 10
-61.250000
 20
-77.000000
 40
3.000000
  0
CIRCLE
  8
0
  6
CONTINUOUS
 62
2
 10
-61.250000
 20
-107.000000
 40
3.000000
  0
CIRCLE
  8
0
  6
CONTINUOUS
 62
2
 10
-174.250000
 20
-107.000000
 40
3.000000
  0
CIRCLE
  8
0
  6
CONTINUOUS
 62
7
 10
-174.250000
 20
-77.000000
 40
2.700000
  0
CIRCLE
  8
0
  6
CONTINUOUS
 62
7
 10
-61.250000
 20
-77.000000
 40
2.700000
  0
CIRCLE
  8
0
  6
CONTINUOUS
 62
7
 10
-61.250000
 20
-107.000000
 40
2.700000
  0
CIRCLE
  8
0
  6
CONTINUOUS
 62
7
 10
-174.250000
 20
-107.000000
 40
2.700000
  0
CIRCLE
  8
0
  6
CONTINUOUS
 62
2
 10
-142.250000
 20
-41.000000
 40
2.500000
  0
CIRCLE
  8
0
  6
CONTINUOUS
 62
7
 10
-142.250000
 20
-41.000000
 40
2.100000
  0
CIRCLE
  8
0
  6
CONTINUOUS
 62
2
 10
0.750000
 20
-47.000000
 40
2.500000
  0
CIRCLE
  8
0
  6
CONTINUOUS
 62
7
 10
0.750000
 20
-47.000000
 40
2.100000
  0
ARC
  8
0
  6
CONTINUOUS
 62
2
 10
54.950001
 20
-81.150002
 40
1.500000
 50
180.000000
 51
270.000000
  0
ARC
  8
0
  6
CONTINUOUS
 62
2
 10
54.950001
 20
-79.849998
 40
1.500000
 50
90.000000
 51
180.000000
  0
CIRCLE
  8
0
  6
CONTINUOUS
 62
2
 10
-19.750000
 20
-44.000000
 40
1.250000
  0
CIRCLE
  8
0
  6
CONTINUOUS
 62
7
 10
-19.750000
 20
-44.000000
 40
1.000000
  0
ARC
  8
0
  6
CONTINUOUS
 62
2
 10
-249.050003
 20
-79.849998
 40
1.500000
 50
90.000000
 51
180.000000
  0
CIRCLE
  8
0
  6
CONTINUOUS
 62
7
 10
-257.250000
 20
-92.000000
 40
5.000000
  0
CIRCLE
  8
0
  6
CONTINUOUS
 62
2
 10
-257.250000
 20
-77.000000
 40
2.500000
  0
CIRCLE
  8
0
  6
CONTINUOUS
 62
7
 10
-257.250000
 20
-77.000000
 40
2.100000
  0
CIRCLE
  8
0
  6
CONTINUOUS
 62
7
 10
-257.250000
 20
-107.000000
 40
2.100000
  0
CIRCLE
  8
0
  6
CONTINUOUS
 62
2
 10
-257.250000
 20
-107.000000
 40
2.500000
  0
ARC
  8
0
  6
CONTINUOUS
 62
2
 10
-249.050003
 20
-81.150002
 40
1.500000
 50
180.000000
 51
270.000000
  0
CIRCLE
  8
0
  6
CONTINUOUS
 62
2
 10
-166.250000
 20
-148.000000
 40
2.500000
  0
CIRCLE
  8
0
  6
CONTINUOUS
 62
2
 10
-166.250000
 20
-132.000000
 40
2.500000
  0
CIRCLE
  8
0
  6
CONTINUOUS
 62
2
 10
-53.250000
 20
-132.000000
 40
2.500000
  0
CIRCLE
  8
0
  6
CONTINUOUS
 62
2
 10
-53.250000
 20
-148.000000
 40
2.500000
  0
CIRCLE
  8
0
  6
CONTINUOUS
 62
7
 10
-150.250000
 20
-107.000000
 40
2.700000
  0
CIRCLE
  8
0
  6
CONTINUOUS
 62
2
 10
-150.250000
 20
-107.000000
 40
3.000000
  0
CIRCLE
  8
0
  6
CONTINUOUS
 62
2
 10
-150.250000
 20
-77.000000
 40
3.000000
  0
CIRCLE
  8
0
  6
CONTINUOUS
 62
7
 10
-150.250000
 20
-107.000000
 40
4.500000
  0
CIRCLE
  8
0
  6
CONTINUOUS
 62
7
 10
-150.250000
 20
-77.000000
 40
4.500000
  0
CIRCLE
  8
0
  6
CONTINUOUS
 62
7
 10
-150.250000
 20
-77.000000
 40
2.700000
  0
CIRCLE
  8
0
  6
CONTINUOUS
 62
2
 10
-142.250000
 20
-148.000000
 40
2.500000
  0
CIRCLE
  8
0
  6
CONTINUOUS
 62
2
 10
-142.250000
 20
-132.000000
 40
2.500000
  0
CIRCLE
  8
0
  6
CONTINUOUS
 62
7
 10
-53.250000
 20
-132.000000
 40
2.100000
  0
CIRCLE
  8
0
  6
CONTINUOUS
 62
7
 10
-53.250000
 20
-148.000000
 40
2.100000
  0
CIRCLE
  8
0
  6
CONTINUOUS
 62
7
 10
-142.250000
 20
-148.000000
 40
2.100000
  0
CIRCLE
  8
0
  6
CONTINUOUS
 62
7
 10
-142.250000
 20
-132.000000
 40
2.100000
  0
CIRCLE
  8
0
  6
CONTINUOUS
 62
7
 10
-166.250000
 20
-132.000000
 40
2.100000
  0
CIRCLE
  8
0
  6
CONTINUOUS
 62
7
 10
-166.250000
 20
-148.000000
 40
2.100000
  0
CIRCLE
  8
0
  6
CONTINUOUS
 62
4
 10
161.250000
 20
90.000000
 40
5.000000
  0
CIRCLE
  8
0
  6
CONTINUOUS
 62
4
 10
176.250000
 20
84.000000
 40
2.350000
  0
CIRCLE
  8
0
  6
CONTINUOUS
 62
4
 10
176.250000
 20
96.000000
 40
2.350000
  0
CIRCLE
  8
0
  6
CONTINUOUS
 62
4
 10
146.250000
 20
96.000000
 40
2.350000
  0
CIRCLE
  8
0
  6
CONTINUOUS
 62
4
 10
146.250000
 20
84.000000
 40
2.350000
  0
CIRCLE
  8
0
  6
CONTINUOUS
 62
4
 10
168.750000
 20
-30.000000
 40
5.000000
  0
CIRCLE
  8
0
  6
CONTINUOUS
 62
4
 10
157.750000
 20
40.000000
 40
5.000000
  0
CIRCLE
  8
0
  6
CONTINUOUS
 62
4
 10
141.250000
 20
-128.000000
 40
5.000000
  0
CIRCLE
  8
0
  6
CONTINUOUS
 62
4
 10
141.250000
 20
-128.000000
 40
10.500000
  0
CIRCLE
  8
0
  6
CONTINUOUS
 62
1
 10
141.250000
 20
-128.000000
 40
2.500000
  0
CIRCLE
  8
0
  6
CONTINUOUS
 62
4
 10
141.250000
 20
-128.000000
 40
2.067000
  0
ARC
  8
0
  6
CONTINUOUS
 62
4
 10
199.750000
 20
-97.500000
 40
1.500000
 50
90.000000
 51
270.000000
  0
ARC
  8
0
  6
CONTINUOUS
 62
4
 10
209.750000
 20
-97.500000
 40
1.500000
 50
270.000000
 51
90.000000
  0
ARC
  8
0
  6
CONTINUOUS
 62
4
 10
263.359009
 20
-79.518700
 40
1.500000
 50
90.000000
 51
270.000000
  0
ARC
  8
0
  6
CONTINUOUS
 62
4
 10
273.359009
 20
-79.518700
 40
1.500000
 50
270.000000
 51
90.000000
  0
TEXT
  8
0
 62
7
 10
202.930283
 20
183.925003
 40
6.300000
  1
Ver.1.0
 50
0.000000
 41
1.010330
 51
0.000000
  7
STANDARD
  0
TEXT
  8
0
 62
7
 10
172.714691
 20
-187.250000
 40
9.000000
  1
KOGANEI CORP.
 50
0.000000
 41
0.771524
 51
0.000000
  7
STANDARD
  0
TEXT
  8
0
 62
7
 10
-253.019714
 20
183.925003
 40
6.300000
  1
AX CYLINDER
 50
0.000000
 41
0.783349
 51
0.000000
  7
STANDARD
  0
TEXT
  8
0
 62
7
 10
-269.400391
 20
158.925003
 40
6.300000
  1
MODEL:AXAHS-SD20-25-R***
 50
0.000000
 41
0.760567
 51
0.000000
  7
STANDARD
  0
TEXT
  8
0
 62
7
 10
-59.650002
 20
134.000000
 40
3.200000
  1
25st
 50
90.000000
 41
0.857250
 51
0.000000
  7
STANDARD
  0
TEXT
  8
0
 62
7
 10
-34.650002
 20
134.000000
 40
3.200000
  1
50st
 50
90.000000
 41
0.907676
 51
0.000000
  7
STANDARD
  0
TEXT
  8
0
 62
7
 10
-9.650000
 20
134.000000
 40
3.200000
  1
75st
 50
90.000000
 41
0.857250
 51
0.000000
  7
STANDARD
  0
TEXT
  8
0
 62
7
 10
15.350000
 20
-31.000000
 40
3.200000
  1
100st
 50
90.000000
 41
0.985838
 51
0.000000
  7
STANDARD
  0
TEXT
  8
0
 62
7
 10
40.349998
 20
-31.000000
 40
3.200000
  1
125st
 50
90.000000
 41
0.896216
 51
0.000000
  7
STANDARD
  0
TEXT
  8
0
 62
7
 10
65.349998
 20
-31.000000
 40
3.200000
  1
150st
 50
90.000000
 41
0.938893
 51
0.000000
  7
STANDARD
  0
TEXT
  8
0
 62
7
 10
90.349998
 20
-31.000000
 40
3.200000
  1
175st
 50
90.000000
 41
0.896216
 51
0.000000
  7
STANDARD
  0
TEXT
  8
0
 62
7
 10
115.349998
 20
-31.000000
 40
3.200000
  1
200st
 50
90.000000
 41
0.896216
 51
0.000000
  7
STANDARD
  0
TEXT
  8
0
 62
7
 10
142.078751
 20
63.000000
 40
4.000000
  1
ZT(FLANGE ROD END)
 50
0.000000
 41
0.754380
 51
0.000000
  7
STANDARD
  0
TEXT
  8
0
 62
7
 10
140.078751
 20
-5.000020
 40
4.000000
  1
WS(INTERNAL THREAD)
 50
0.000000
 41
0.752116
 51
0.000000
  7
STANDARD
  0
TEXT
  8
0
 62
7
 10
140.078751
 20
-75.000000
 40
4.000000
  1
WT(EXTERNAL THREAD)
 50
0.000000
 41
0.738187
 51
0.000000
  7
STANDARD
  0
TEXT
  8
0
 62
7
 10
131.099594
 20
147.250000
 40
6.500000
  1
OPTION
 50
0.000000
 41
0.857250
 51
0.000000
  7
STANDARD
  0
TEXT
  8
0
 62
7
 10
233.749756
 20
-80.000000
 40
4.000000
  1
KEY
 50
0.000000
 41
0.928688
 51
0.000000
  7
STANDARD
  0
TEXT
  8
0
 62
7
 10
135.078568
 20
-159.000000
 40
4.000000
  1
FN(WITH BEARING NUT
 50
0.000000
 41
0.766483
 51
0.000000
  7
STANDARD
  0
TEXT
  8
0
 62
7
 10
135.078568
 20
-166.000000
 40
4.000000
  1
      FOR FLOATING UNIT)
 50
0.000000
 41
0.754797
 51
0.000000
  7
STANDARD
  0
TEXT
  8
0
 62
7
 10
127.649994
 20
-90.900002
 40
3.200000
  1
(KEYWAY
 50
0.000000
 41
0.766485
 51
0.000000
  7
STANDARD
  0
TEXT
  8
0
 62
7
 10
127.649994
 20
-94.099998
 40
3.200000
  1
  POSITION)
 50
0.000000
 41
0.766485
 51
0.000000
  7
STANDARD
  0
DIMENSION
  8
0
  2
*DIM0
 62
0
 10
140.098999
 20
-106.029999
 30
0.0
 11
133.250000
 21
-106.300003
 31
0.0
 13
142.401001
 23
-106.029999
 33
0.0
 14
141.904007
 24
-115.516998
 34
0.0
  15
140.595993
 25
-115.516998
 35
0.0
 16
142.322891
 26
-107.528091
 36
0.0
 70
2
  0
DIMENSION
  8
0
  2
*DIM1
 62
2
  10
163.250000
 20
-117.500000
 30
0.0
 11
163.250000
 21
-128.000000
 31
0.0
  13
188.250000
 23
-117.500000
 33
0.0
14
188.250000
 24
-138.500000
 34
0.0
 70
1
 50
90
  0
DIMENSION
  8
0
  2
*DIM2
 62
2
  10
219.250000
 20
-90.000000
 30
0.0
 11
219.250000
 21
-86.036903
 31
0.0
  13
209.750000
 23
-96.000000
 33
0.0
14
209.750000
 24
-99.000000
 34
0.0
 70
1
 50
90
  0
DIMENSION
  8
0
  2
*DIM3
 62
2
  10
247.376007
 20
-97.518700
 30
0.0
 11
237.826996
 21
-97.518700
 31
0.0
  13
247.376007
 23
-97.518700
 33
0.0
14
247.376007
 24
-89.518700
 34
0.0
 70
1
 50
0
  0
ENDSEC
  0
EOF
