  0
SECTION
  2
HEADER
  0
ENDSEC
  0
SECTION
  2
TABLES
  0
TABLE
  2
LTYPE
 70
     4
  0
LTYPE
  2
CONTINUOUS
 70
    64
  3
Solid line
 72
    65
 73
     0
 40
0.000000
  0
LTYPE
  2
DASHED
 70
    64
  3
__ __ __ __ __ __ __ __ __ __ __ __ __ __ __
 72
    65
 73
     2
 40
3.500000
 49
2.000000
 49
-1.500000
  0
LTYPE
  2
CENTER
 70
    64
  3
____ _ ____ _ ____ _ ____ _ ____ _ ____ _ ____
 72
    65
 73
     4
 40
17.500000
 49
13.000000
 49
-1.500000
 49
1.500000
 49
-1.500000
  0
LTYPE
  2
PHANTOM
 70
    64
  3
_____ _ _ _____ _ _ _____ _ _ _____ _ _ ____  
 72
    65
 73
     6
 40
15.500000
 49
8.000000
 49
-1.500000
 49
1.500000
 49
-1.500000
 49
1.500000
 49
-1.500000
  0
ENDTAB
  0
TABLE
  2
LAYER
 70
     1
  0
LAYER
  2
0
 70
     0
 62
     7
  6
CONTINUOUS
  0
ENDTAB
  0
TABLE
  2
STYLE
 70
     1
  0
STYLE
  2
STANDARD
 70
     0
 40
0.000000
 41
1.000000
 50
0.000000
 71
     0
 42
0.200000
  3
txt
  4
BIGFONT
  0
ENDTAB
  0
TABLE
  2
VIEW
 70
     0
  0
ENDTAB
  0
ENDSEC
  0
SECTION
  2
BLOCKS
  0
BLOCK
  8
0
 70
65
  2
*DIM0
 10
0.0
 20
0.0
 30
0.0
  0
LINE
  8
0
  6
BYBLOCK
 62
2
 10
214.431000
 20
-162.500000
 11
180.931000
 21
-162.500000
  0
LINE
  8
0
  6
BYBLOCK
 62
2
 10
214.431000
 20
-193.500000
 11
180.931000
 21
-193.500000
  0
LINE
  8
0
  6
BYBLOCK
 62
2
 10
182.431000
 20
-162.500000
 11
182.431000
 21
-193.500000
  0
LINE
  8
0
  6
BYBLOCK
 62
2
 10
182.431000
 20
-162.500000
 11
181.654541
 21
-165.397781
  0
LINE
  8
0
  6
BYBLOCK
 62
2
 10
182.431000
 20
-162.500000
 11
183.207458
 21
-165.397781
  0
LINE
  8
0
  6
BYBLOCK
 62
2
 10
182.431000
 20
-193.500000
 11
183.207458
 21
-190.602219
  0
LINE
  8
0
  6
BYBLOCK
 62
2
 10
182.431000
 20
-193.500000
 11
181.654541
 21
-190.602219
  0
TEXT
  8
0
 62
2
 10
181.231003
 20
-189.199997
 40
3.200000
  1
âË31
 50
90.000000
 41
0.937977
 51
0.000000
  7
STANDARD
  0
TEXT
  8
0
 62
2
 10
179.631424
 20
-180.195343
 40
1.600000
  1
 0
 50
90.000000
 41
0.937977
 51
0.000000
  7
STANDARD
  0
TEXT
  8
0
 62
2
 10
181.231415
 20
-180.195419
 40
1.600000
  1
-0.013
 50
90.000000
 41
0.937977
 51
0.000000
  7
STANDARD
  0
ENDBLK
  8
0
  0
BLOCK
  8
0
 70
65
  2
*DIM1
 10
0.0
 20
0.0
 30
0.0
  0
ARC
  8
0
  6
BYBLOCK
 62
2
 10
150.431000
 20
-178.000000
 40
25.500000
 50
78.012428
 51
101.987572
  0
LINE
  8
0
  6
BYBLOCK
 62
2
 10
151.375000
 20
-159.985001
 11
151.843994
 21
-151.037003
  0
LINE
  8
0
  6
BYBLOCK
 62
2
 10
149.487000
 20
-159.985001
 11
149.018005
 21
-151.037003
  0
LINE
  8
0
  6
BYBLOCK
 62
2
 10
151.765564
 20
-152.534943
 11
154.438889
 21
-153.896332
  0
LINE
  8
0
  6
BYBLOCK
 62
2
 10
151.765564
 20
-152.534943
 11
154.761414
 21
-152.377274
  0
LINE
  8
0
  6
BYBLOCK
 62
2
 10
149.096436
 20
-152.534943
 11
146.100586
 21
-152.377274
  0
LINE
  8
0
  6
BYBLOCK
 62
2
 10
149.096436
 20
-152.534943
 11
146.423111
 21
-153.896332
  0
TEXT
  8
0
 62
2
 10
142.431000
 20
-151.300003
 40
3.200000
  1
ü}3üï
 50
0.000000
 41
1.500330
 51
0.000000
  7
STANDARD
  0
ENDBLK
  8
3
  0
BLOCK
  8
0
 70
65
  2
*DIM2
 10
0.0
 20
0.0
 30
0.0
  0
LINE
  8
0
  6
BYBLOCK
 62
2
 10
246.431000
 20
-140.750000
 11
259.681000
 21
-140.750000
  0
LINE
  8
0
  6
BYBLOCK
 62
2
 10
246.431000
 20
-144.250000
 11
259.681000
 21
-144.250000
  0
LINE
  8
0
  6
BYBLOCK
 62
2
 10
258.181000
 20
-134.750000
 11
258.181000
 21
-150.250000
  0
LINE
  8
0
  6
BYBLOCK
 62
2
 10
258.181000
 20
-140.750000
 11
258.181000
 21
-120.651001
  0
LINE
  8
0
  6
BYBLOCK
 62
2
 10
258.181000
 20
-140.750000
 11
258.957458
 21
-137.852219
  0
LINE
  8
0
  6
BYBLOCK
 62
2
 10
258.181000
 20
-140.750000
 11
257.404541
 21
-137.852219
  0
LINE
  8
0
  6
BYBLOCK
 62
2
 10
258.181000
 20
-144.250000
 11
257.404541
 21
-147.147781
  0
LINE
  8
0
  6
BYBLOCK
 62
2
 10
258.181000
 20
-144.250000
 11
258.957458
 21
-147.147781
  0
TEXT
  8
0
 62
2
 10
256.980988
 20
-138.194000
 40
3.200000
  1
3.5
 50
90.000000
 41
0.900002
 51
0.000000
  7
STANDARD
  0
TEXT
  8
0
 62
2
 10
255.381393
 20
-129.553909
 40
1.600000
  1
+0.018
 50
90.000000
 41
0.900002
 51
0.000000
  7
STANDARD
  0
TEXT
  8
0
 62
2
 10
256.981384
 20
-129.553970
 40
1.600000
  1
 0
 50
90.000000
 41
0.900002
 51
0.000000
  7
STANDARD
  0
ENDBLK
  8
0
  0
BLOCK
  8
0
 70
65
  2
*DIM3
 10
0.0
 20
0.0
 30
0.0
  0
LINE
  8
0
  6
BYBLOCK
 62
2
 10
286.307007
 20
-135.768997
 11
289.807007
 21
-135.768997
  0
LINE
  8
0
  6
BYBLOCK
 62
2
 10
286.307007
 20
-127.768997
 11
286.307007
 21
-137.268997
  0
LINE
  8
0
  6
BYBLOCK
 62
2
 10
286.307007
 20
-135.768997
 11
289.807007
 21
-135.768997
  0
LINE
  8
0
  6
BYBLOCK
 62
2
 10
286.307007
 20
-135.768997
 11
265.750000
 21
-135.768997
  0
TEXT
  8
0
 62
2
 10
264.092987
 20
-134.569000
 40
3.200000
  1
3.5
 50
0.000000
 41
0.912090
 51
0.000000
  7
STANDARD
  0
TEXT
  8
0
 62
2
 10
272.849060
 20
-132.968994
 40
1.600000
  1
+0.024
 50
0.000000
 41
0.912090
 51
0.000000
  7
STANDARD
  0
TEXT
  8
0
 62
2
 10
272.849060
 20
-134.569000
 40
1.600000
  1
+0.012
 50
0.000000
 41
0.912090
 51
0.000000
  7
STANDARD
  0
ENDBLK
  8
0
  0
ENDSEC
  0
SECTION
  2
ENTITIES
  0
POINT
  8
0
  62
7
  10
-102.500000
  20
175.500000
  30
0.0
  0
POINT
  8
0
  62
7
  10
-77.500099
  20
175.500000
  30
0.0
  0
POINT
  8
0
  62
7
  10
-52.500099
  20
175.500000
  30
0.0
  0
POINT
  8
0
  62
7
  10
-27.500099
  20
175.500000
  30
0.0
  0
POINT
  8
0
  62
7
  10
-2.500060
  20
-34.500000
  30
0.0
  0
POINT
  8
0
  62
7
  10
22.499901
  20
-34.500000
  30
0.0
  0
POINT
  8
0
  62
7
  10
47.499901
  20
-34.500000
  30
0.0
  0
POINT
  8
0
  62
7
  10
72.499901
  20
-34.500000
  30
0.0
  0
LINE
  8
0
  6
CONTINUOUS
 62
7
 10
399.799988
 20
276.250000
 11
399.799988
 21
-276.750000
  0
LINE
  8
0
  6
CONTINUOUS
 62
7
 10
-399.250000
 20
276.250000
 11
-399.250000
 21
-276.750000
  0
LINE
  8
0
  6
CONTINUOUS
 62
7
 10
-399.250000
 20
276.250000
 11
399.799988
 21
276.250000
  0
LINE
  8
0
  6
CONTINUOUS
 62
7
 10
-399.250000
 20
-276.750000
 11
399.799988
 21
-276.750000
  0
LINE
  8
0
  6
CONTINUOUS
 62
7
 10
239.800003
 20
-251.750000
 11
399.799988
 21
-251.750000
  0
LINE
  8
0
  6
CONTINUOUS
 62
7
 10
239.800003
 20
251.250000
 11
399.799988
 21
251.250000
  0
LINE
  8
0
  6
CONTINUOUS
 62
7
 10
-399.250000
 20
251.250000
 11
-239.250000
 21
251.250000
  0
LINE
  8
0
  6
CONTINUOUS
 62
7
 10
239.800003
 20
-251.750000
 11
239.800003
 21
-276.750000
  0
LINE
  8
0
  6
CONTINUOUS
 62
7
 10
239.800003
 20
251.250000
 11
239.800003
 21
276.250000
  0
LINE
  8
0
  6
CONTINUOUS
 62
7
 10
-239.250000
 20
276.250000
 11
-239.250000
 21
251.250000
  0
LINE
  8
0
  6
CONTINUOUS
 62
7
 10
-227.500000
 20
35.500000
 11
-102.500000
 21
35.500000
  0
LINE
  8
0
  6
CONTINUOUS
 62
7
 10
-227.500000
 20
-0.500000
 11
-102.500000
 21
-0.500000
  0
LINE
  8
0
  6
CONTINUOUS
 62
7
 10
-227.500000
 20
35.500000
 11
-227.500000
 21
-0.499969
  0
LINE
  8
0
  6
CENTER
 62
2
 10
-274.500000
 20
17.500000
 11
-100.500000
 21
17.500000
  0
LINE
  8
0
  6
CONTINUOUS
 62
7
 10
-272.500000
 20
9.500000
 11
-227.500000
 21
9.500000
  0
LINE
  8
0
  6
CONTINUOUS
 62
7
 10
-272.500000
 20
25.500000
 11
-227.500000
 21
25.500000
  0
LINE
  8
0
  6
CONTINUOUS
 62
7
 10
-272.500000
 20
25.500000
 11
-272.500000
 21
9.500020
  0
LINE
  8
0
  6
CONTINUOUS
 62
7
 10
-227.500000
 20
175.500000
 11
-102.500000
 21
175.500000
  0
LINE
  8
0
  6
CONTINUOUS
 62
7
 10
-227.500000
 20
139.500000
 11
-102.500000
 21
139.500000
  0
LINE
  8
0
  6
CONTINUOUS
 62
7
 10
-227.500000
 20
175.500000
 11
-227.500000
 21
139.500000
  0
LINE
  8
0
  6
CENTER
 62
2
 10
-274.500000
 20
157.500000
 11
-100.500000
 21
157.500000
  0
LINE
  8
0
  6
CONTINUOUS
 62
7
 10
-272.500000
 20
149.500000
 11
-227.500000
 21
149.500000
  0
LINE
  8
0
  6
CONTINUOUS
 62
7
 10
-272.500000
 20
165.500000
 11
-227.500000
 21
165.500000
  0
LINE
  8
0
  6
CONTINUOUS
 62
7
 10
-272.500000
 20
165.500000
 11
-272.500000
 21
149.500000
  0
LINE
  8
0
  6
CONTINUOUS
 62
7
 10
-292.500000
 20
60.500000
 11
-328.500000
 21
60.500000
  0
LINE
  8
0
  6
CONTINUOUS
 62
7
 10
-292.500000
 20
114.500000
 11
-328.500000
 21
114.500000
  0
LINE
  8
0
  6
CENTER
 62
2
 10
-290.500000
 20
87.500000
 11
-330.500000
 21
87.500000
  0
LINE
  8
0
  6
CENTER
 62
2
 10
-310.500000
 20
58.500000
 11
-310.500000
 21
116.500000
  0
LINE
  8
0
  6
CONTINUOUS
 62
2
 10
-292.500000
 20
104.800003
 11
-293.500000
 21
104.800003
  0
LINE
  8
0
  6
CONTINUOUS
 62
2
 10
-292.500000
 20
102.199997
 11
-293.500000
 21
102.199997
  0
LINE
  8
0
  6
CONTINUOUS
 62
2
 10
-293.500000
 20
105.650002
 11
-297.299988
 21
105.650002
  0
LINE
  8
0
  6
CONTINUOUS
 62
2
 10
-293.500000
 20
101.349998
 11
-297.299988
 21
101.349998
  0
LINE
  8
0
  6
CONTINUOUS
 62
2
 10
-298.799988
 20
102.849998
 11
-298.799988
 21
104.150002
  0
LINE
  8
0
  6
CONTINUOUS
 62
2
 10
-293.500000
 20
104.800003
 11
-293.500000
 21
105.650002
  0
LINE
  8
0
  6
CONTINUOUS
 62
2
 10
-293.500000
 20
102.199997
 11
-293.500000
 21
101.349998
  0
LINE
  8
0
  6
CONTINUOUS
 62
7
 10
-292.500000
 20
114.500000
 11
-292.500000
 21
60.500000
  0
LINE
  8
0
  6
CONTINUOUS
 62
7
 10
-328.500000
 20
114.500000
 11
-328.500000
 21
60.500000
  0
LINE
  8
0
  6
CENTER
 62
2
 10
-274.500000
 20
87.500000
 11
-100.500000
 21
87.500000
  0
LINE
  8
0
  6
CONTINUOUS
 62
7
 10
-227.500000
 20
60.500000
 11
-227.500000
 21
114.500000
  0
LINE
  8
0
  6
CONTINUOUS
 62
7
 10
-227.500000
 20
60.500000
 11
-102.500000
 21
60.500000
  0
LINE
  8
0
  6
CONTINUOUS
 62
7
 10
-227.500000
 20
114.500000
 11
-102.500000
 21
114.500000
  0
LINE
  8
0
  6
CONTINUOUS
 62
2
 10
-227.500000
 20
104.800003
 11
-219.225006
 21
104.800003
  0
LINE
  8
0
  6
CONTINUOUS
 62
2
 10
-227.500000
 20
102.199997
 11
-102.500000
 21
102.199997
  0
LINE
  8
0
  6
CONTINUOUS
 62
2
 10
-211.774994
 20
104.800003
 11
-182.225006
 21
104.800003
  0
LINE
  8
0
  6
CONTINUOUS
 62
2
 10
-174.776001
 20
104.800003
 11
-102.500000
 21
104.800003
  0
LINE
  8
0
  6
CONTINUOUS
 62
2
 10
-227.500000
 20
72.800003
 11
-102.500000
 21
72.800003
  0
LINE
  8
0
  6
CONTINUOUS
 62
2
 10
-227.500000
 20
70.199997
 11
-219.225006
 21
70.199997
  0
LINE
  8
0
  6
CONTINUOUS
 62
2
 10
-211.774994
 20
70.199997
 11
-182.225006
 21
70.199997
  0
LINE
  8
0
  6
CONTINUOUS
 62
2
 10
-174.776001
 20
70.199997
 11
-102.500000
 21
70.199997
  0
LINE
  8
0
  6
CONTINUOUS
 62
7
 10
-272.500000
 20
79.500000
 11
-227.500000
 21
79.500000
  0
LINE
  8
0
  6
CONTINUOUS
 62
7
 10
-272.500000
 20
95.500000
 11
-227.500000
 21
95.500000
  0
LINE
  8
0
  6
CONTINUOUS
 62
7
 10
-272.500000
 20
95.500000
 11
-272.500000
 21
79.500000
  0
LINE
  8
0
  6
CENTER
 62
2
 10
-330.500000
 20
103.500000
 11
-318.500000
 21
103.500000
  0
LINE
  8
0
  6
CENTER
 62
2
 10
-302.500000
 20
103.500000
 11
-290.500000
 21
103.500000
  0
LINE
  8
0
  6
CENTER
 62
2
 10
-330.500000
 20
71.500000
 11
-318.500000
 21
71.500000
  0
LINE
  8
0
  6
CENTER
 62
2
 10
-302.500000
 20
71.500000
 11
-290.500000
 21
71.500000
  0
LINE
  8
0
  6
CONTINUOUS
 62
7
 10
-102.500000
 20
60.500000
 11
-102.500000
 21
114.500000
  0
LINE
  8
0
  6
CONTINUOUS
 62
7
 10
-102.500000
 20
35.500000
 11
-102.500000
 21
-0.499969
  0
LINE
  8
0
  6
CONTINUOUS
 62
7
 10
-102.500000
 20
175.500000
 11
-102.500000
 21
139.500000
  0
LINE
  8
0
  6
CONTINUOUS
 62
7
 10
53.499901
 20
-149.500000
 11
17.499901
 21
-149.500000
  0
LINE
  8
0
  6
CONTINUOUS
 62
7
 10
53.499901
 20
-95.500000
 11
17.499901
 21
-95.500000
  0
LINE
  8
0
  6
CENTER
 62
2
 10
55.499901
 20
-122.500000
 11
15.499900
 21
-122.500000
  0
LINE
  8
0
  6
CENTER
 62
2
 10
35.499901
 20
-151.500000
 11
35.499901
 21
-93.500000
  0
LINE
  8
0
  6
CONTINUOUS
 62
2
 10
53.499901
 20
-105.199997
 11
52.499901
 21
-105.199997
  0
LINE
  8
0
  6
CONTINUOUS
 62
2
 10
53.499901
 20
-107.800003
 11
52.499901
 21
-107.800003
  0
LINE
  8
0
  6
CONTINUOUS
 62
2
 10
52.499901
 20
-104.349998
 11
48.699902
 21
-104.349998
  0
LINE
  8
0
  6
CONTINUOUS
 62
2
 10
52.499901
 20
-108.650002
 11
48.699902
 21
-108.650002
  0
LINE
  8
0
  6
CONTINUOUS
 62
2
 10
47.199902
 20
-107.150002
 11
47.199902
 21
-105.849998
  0
LINE
  8
0
  6
CONTINUOUS
 62
7
 10
53.499901
 20
-95.500000
 11
53.499901
 21
-149.500000
  0
LINE
  8
0
  6
CONTINUOUS
 62
7
 10
17.499901
 20
-95.500000
 11
17.499901
 21
-149.500000
  0
LINE
  8
0
  6
CONTINUOUS
 62
2
 10
52.499901
 20
-104.349998
 11
52.499901
 21
-105.199997
  0
LINE
  8
0
  6
CONTINUOUS
 62
2
 10
52.499901
 20
-107.800003
 11
52.499901
 21
-108.650002
  0
LINE
  8
0
  6
CENTER
 62
2
 10
15.499900
 20
-106.500000
 11
27.499901
 21
-106.500000
  0
LINE
  8
0
  6
CENTER
 62
2
 10
43.499901
 20
-106.500000
 11
55.499901
 21
-106.500000
  0
LINE
  8
0
  6
CENTER
 62
2
 10
15.499900
 20
-138.500000
 11
27.499901
 21
-138.500000
  0
LINE
  8
0
  6
CENTER
 62
2
 10
43.499901
 20
-138.500000
 11
55.499901
 21
-138.500000
  0
LINE
  8
0
  6
DASHED
 62
2
 10
-173.250000
 20
35.500000
 11
-173.250000
 21
29.000000
  0
LINE
  8
0
  6
DASHED
 62
2
 10
-210.250000
 20
35.500000
 11
-210.250000
 21
29.000000
  0
LINE
  8
0
  6
DASHED
 62
2
 10
-220.750000
 20
35.500000
 11
-220.750000
 21
29.000000
  0
LINE
  8
0
  6
DASHED
 62
2
 10
-183.750000
 20
35.500000
 11
-183.750000
 21
29.000000
  0
LINE
  8
0
  6
DASHED
 62
2
 10
-219.500000
 20
29.000000
 11
-219.500000
 21
6.000030
  0
LINE
  8
0
  6
DASHED
 62
2
 10
-211.500000
 20
29.000000
 11
-211.500000
 21
6.000030
  0
LINE
  8
0
  6
DASHED
 62
2
 10
-182.500000
 20
29.000000
 11
-182.500000
 21
6.000030
  0
LINE
  8
0
  6
DASHED
 62
2
 10
-174.500000
 20
29.000000
 11
-174.500000
 21
6.000030
  0
LINE
  8
0
  6
DASHED
 62
2
 10
-220.750000
 20
6.000000
 11
-210.250000
 21
6.000000
  0
LINE
  8
0
  6
DASHED
 62
2
 10
-220.750000
 20
29.000000
 11
-210.250000
 21
29.000000
  0
LINE
  8
0
  6
DASHED
 62
2
 10
-220.750000
 20
6.000030
 11
-220.750000
 21
-0.499969
  0
LINE
  8
0
  6
DASHED
 62
2
 10
-210.250000
 20
6.000030
 11
-210.250000
 21
-0.499969
  0
LINE
  8
0
  6
DASHED
 62
2
 10
-183.750000
 20
29.000000
 11
-173.250000
 21
29.000000
  0
LINE
  8
0
  6
DASHED
 62
2
 10
-183.750000
 20
6.000000
 11
-173.250000
 21
6.000000
  0
LINE
  8
0
  6
DASHED
 62
2
 10
-183.750000
 20
6.000030
 11
-183.750000
 21
-0.499969
  0
LINE
  8
0
  6
DASHED
 62
2
 10
-173.250000
 20
6.000030
 11
-173.250000
 21
-0.499969
  0
LINE
  8
0
  6
CENTER
 62
2
 10
-215.500000
 20
37.500000
 11
-215.500000
 21
-2.500000
  0
LINE
  8
0
  6
CENTER
 62
2
 10
-178.500000
 20
37.500000
 11
-178.500000
 21
-2.500000
  0
LINE
  8
0
  6
CONTINUOUS
 62
7
 10
-227.500000
 20
-174.500000
 11
-2.500060
 21
-174.500000
  0
LINE
  8
0
  6
CONTINUOUS
 62
7
 10
-227.500000
 20
-210.500000
 11
-2.500060
 21
-210.500000
  0
LINE
  8
0
  6
CONTINUOUS
 62
7
 10
-227.500000
 20
-174.500000
 11
-227.500000
 21
-210.500000
  0
LINE
  8
0
  6
CONTINUOUS
 62
7
 10
-2.500060
 20
-174.500000
 11
-2.500060
 21
-210.500000
  0
LINE
  8
0
  6
CENTER
 62
2
 10
-274.500000
 20
-192.500000
 11
-0.500061
 21
-192.500000
  0
LINE
  8
0
  6
CONTINUOUS
 62
7
 10
-272.500000
 20
-200.500000
 11
-227.500000
 21
-200.500000
  0
LINE
  8
0
  6
CONTINUOUS
 62
7
 10
-272.500000
 20
-184.500000
 11
-227.500000
 21
-184.500000
  0
LINE
  8
0
  6
CONTINUOUS
 62
7
 10
-272.500000
 20
-184.500000
 11
-272.500000
 21
-200.500000
  0
LINE
  8
0
  6
CONTINUOUS
 62
7
 10
-292.500000
 20
-149.500000
 11
-328.500000
 21
-149.500000
  0
LINE
  8
0
  6
CONTINUOUS
 62
7
 10
-292.500000
 20
-95.500000
 11
-328.500000
 21
-95.500000
  0
LINE
  8
0
  6
CENTER
 62
2
 10
-290.500000
 20
-122.500000
 11
-330.500000
 21
-122.500000
  0
LINE
  8
0
  6
CENTER
 62
2
 10
-310.500000
 20
-151.500000
 11
-310.500000
 21
-93.500000
  0
LINE
  8
0
  6
CONTINUOUS
 62
2
 10
-292.500000
 20
-105.199997
 11
-293.500000
 21
-105.199997
  0
LINE
  8
0
  6
CONTINUOUS
 62
2
 10
-292.500000
 20
-107.800003
 11
-293.500000
 21
-107.800003
  0
LINE
  8
0
  6
CONTINUOUS
 62
2
 10
-293.500000
 20
-104.349998
 11
-297.299988
 21
-104.349998
  0
LINE
  8
0
  6
CONTINUOUS
 62
2
 10
-293.500000
 20
-108.650002
 11
-297.299988
 21
-108.650002
  0
LINE
  8
0
  6
CONTINUOUS
 62
2
 10
-298.799988
 20
-107.150002
 11
-298.799988
 21
-105.849998
  0
LINE
  8
0
  6
CONTINUOUS
 62
2
 10
-293.500000
 20
-105.199997
 11
-293.500000
 21
-104.349998
  0
LINE
  8
0
  6
CONTINUOUS
 62
2
 10
-293.500000
 20
-107.800003
 11
-293.500000
 21
-108.650002
  0
LINE
  8
0
  6
CONTINUOUS
 62
7
 10
-328.500000
 20
-149.500000
 11
-328.500000
 21
-95.500000
  0
LINE
  8
0
  6
CONTINUOUS
 62
7
 10
-292.500000
 20
-95.500000
 11
-292.500000
 21
-149.500000
  0
LINE
  8
0
  6
CENTER
 62
2
 10
-304.550995
 20
-100.500000
 11
-316.270996
 21
-100.500000
  0
LINE
  8
0
  6
CENTER
 62
2
 10
-304.550995
 20
-144.500000
 11
-316.270996
 21
-144.500000
  0
LINE
  8
0
  6
CENTER
 62
2
 10
-274.500000
 20
-122.500000
 11
-0.500061
 21
-122.500000
  0
LINE
  8
0
  6
CONTINUOUS
 62
7
 10
-227.500000
 20
-149.500000
 11
-227.500000
 21
-95.500000
  0
LINE
  8
0
  6
CONTINUOUS
 62
7
 10
-2.500060
 20
-149.500000
 11
-2.500060
 21
-95.500000
  0
LINE
  8
0
  6
CONTINUOUS
 62
7
 10
-227.500000
 20
-149.500000
 11
-2.500060
 21
-149.500000
  0
LINE
  8
0
  6
CONTINUOUS
 62
7
 10
-227.500000
 20
-95.500000
 11
-2.500060
 21
-95.500000
  0
LINE
  8
0
  6
CONTINUOUS
 62
2
 10
-227.500000
 20
-105.199997
 11
-219.225006
 21
-105.199997
  0
LINE
  8
0
  6
CONTINUOUS
 62
2
 10
-227.500000
 20
-107.800003
 11
-2.500060
 21
-107.800003
  0
LINE
  8
0
  6
CONTINUOUS
 62
2
 10
-211.774994
 20
-105.199997
 11
-182.225006
 21
-105.199997
  0
LINE
  8
0
  6
CONTINUOUS
 62
2
 10
-174.774994
 20
-105.199997
 11
-96.224602
 21
-105.199997
  0
LINE
  8
0
  6
CONTINUOUS
 62
2
 10
-227.500000
 20
-137.199997
 11
-2.500060
 21
-137.199997
  0
LINE
  8
0
  6
CONTINUOUS
 62
2
 10
-227.500000
 20
-139.800003
 11
-219.225006
 21
-139.800003
  0
LINE
  8
0
  6
CONTINUOUS
 62
2
 10
-211.774994
 20
-139.800003
 11
-182.225006
 21
-139.800003
  0
LINE
  8
0
  6
CONTINUOUS
 62
2
 10
-174.774994
 20
-139.800003
 11
-96.224602
 21
-139.800003
  0
LINE
  8
0
  6
CONTINUOUS
 62
7
 10
-272.500000
 20
-130.500000
 11
-227.500000
 21
-130.500000
  0
LINE
  8
0
  6
CONTINUOUS
 62
7
 10
-272.500000
 20
-114.500000
 11
-227.500000
 21
-114.500000
  0
LINE
  8
0
  6
CONTINUOUS
 62
7
 10
-272.500000
 20
-114.500000
 11
-272.500000
 21
-130.500000
  0
LINE
  8
0
  6
CONTINUOUS
 62
2
 10
-88.775497
 20
-139.800003
 11
-2.500060
 21
-139.800003
  0
LINE
  8
0
  6
CONTINUOUS
 62
2
 10
-88.775497
 20
-105.199997
 11
-2.500060
 21
-105.199997
  0
LINE
  8
0
  6
CONTINUOUS
 62
7
 10
-2.500060
 20
-34.500000
 11
-2.500060
 21
-70.500000
  0
LINE
  8
0
  6
CENTER
 62
2
 10
-330.500000
 20
-106.500000
 11
-321.500000
 21
-106.500000
  0
LINE
  8
0
  6
CENTER
 62
2
 10
-330.500000
 20
-138.500000
 11
-321.500000
 21
-138.500000
  0
LINE
  8
0
  6
CENTER
 62
2
 10
-290.500000
 20
-138.500000
 11
-302.500000
 21
-138.500000
  0
LINE
  8
0
  6
CENTER
 62
2
 10
-290.500000
 20
-106.500000
 11
-302.500000
 21
-106.500000
  0
LINE
  8
0
  6
DASHED
 62
2
 10
-220.750000
 20
-174.500000
 11
-220.750000
 21
-181.000000
  0
LINE
  8
0
  6
DASHED
 62
2
 10
-210.250000
 20
-174.500000
 11
-210.250000
 21
-181.000000
  0
LINE
  8
0
  6
DASHED
 62
2
 10
-183.750000
 20
-174.500000
 11
-183.750000
 21
-181.000000
  0
LINE
  8
0
  6
DASHED
 62
2
 10
-173.250000
 20
-174.500000
 11
-173.250000
 21
-181.000000
  0
LINE
  8
0
  6
DASHED
 62
2
 10
-97.750099
 20
-174.500000
 11
-97.750099
 21
-181.000000
  0
LINE
  8
0
  6
DASHED
 62
2
 10
-87.250099
 20
-174.500000
 11
-87.250099
 21
-181.000000
  0
LINE
  8
0
  6
DASHED
 62
2
 10
-219.500000
 20
-181.000000
 11
-219.500000
 21
-204.000000
  0
LINE
  8
0
  6
DASHED
 62
2
 10
-211.500000
 20
-181.000000
 11
-211.500000
 21
-204.000000
  0
LINE
  8
0
  6
DASHED
 62
2
 10
-182.500000
 20
-181.000000
 11
-182.500000
 21
-204.000000
  0
LINE
  8
0
  6
DASHED
 62
2
 10
-174.500000
 20
-181.000000
 11
-174.500000
 21
-204.000000
  0
LINE
  8
0
  6
DASHED
 62
2
 10
-96.500099
 20
-181.000000
 11
-96.500099
 21
-204.000000
  0
LINE
  8
0
  6
DASHED
 62
2
 10
-88.500099
 20
-181.000000
 11
-88.500099
 21
-204.000000
  0
LINE
  8
0
  6
DASHED
 62
2
 10
-220.750000
 20
-181.000000
 11
-210.250000
 21
-181.000000
  0
LINE
  8
0
  6
DASHED
 62
2
 10
-220.750000
 20
-204.000000
 11
-210.250000
 21
-204.000000
  0
LINE
  8
0
  6
DASHED
 62
2
 10
-220.750000
 20
-204.000000
 11
-220.750000
 21
-210.500000
  0
LINE
  8
0
  6
DASHED
 62
2
 10
-210.250000
 20
-204.000000
 11
-210.250000
 21
-210.500000
  0
LINE
  8
0
  6
DASHED
 62
2
 10
-183.750000
 20
-181.000000
 11
-173.250000
 21
-181.000000
  0
LINE
  8
0
  6
DASHED
 62
2
 10
-183.750000
 20
-204.000000
 11
-173.250000
 21
-204.000000
  0
LINE
  8
0
  6
DASHED
 62
2
 10
-183.750000
 20
-204.000000
 11
-183.750000
 21
-210.500000
  0
LINE
  8
0
  6
DASHED
 62
2
 10
-173.250000
 20
-204.000000
 11
-173.250000
 21
-210.500000
  0
LINE
  8
0
  6
DASHED
 62
2
 10
-97.750099
 20
-204.000000
 11
-97.750099
 21
-210.500000
  0
LINE
  8
0
  6
DASHED
 62
2
 10
-87.250099
 20
-204.000000
 11
-87.250099
 21
-210.500000
  0
LINE
  8
0
  6
DASHED
 62
2
 10
-97.750099
 20
-181.000000
 11
-87.250099
 21
-181.000000
  0
LINE
  8
0
  6
DASHED
 62
2
 10
-97.750099
 20
-204.000000
 11
-87.250099
 21
-204.000000
  0
LINE
  8
0
  6
CENTER
 62
2
 10
-215.500000
 20
-172.500000
 11
-215.500000
 21
-212.500000
  0
LINE
  8
0
  6
CENTER
 62
2
 10
-178.500000
 20
-172.500000
 11
-178.500000
 21
-212.500000
  0
LINE
  8
0
  6
CENTER
 62
2
 10
-92.500099
 20
-172.500000
 11
-92.500099
 21
-212.500000
  0
LINE
  8
0
  6
CONTINUOUS
 62
4
 10
150.000000
 20
162.500000
 11
210.000000
 21
162.500000
  0
LINE
  8
0
  6
CONTINUOUS
 62
4
 10
164.000000
 20
187.500000
 11
196.000000
 21
187.500000
  0
LINE
  8
0
  6
CONTINUOUS
 62
4
 10
150.000000
 20
180.000000
 11
164.000000
 21
180.000000
  0
LINE
  8
0
  6
CONTINUOUS
 62
4
 10
150.000000
 20
180.000000
 11
150.000000
 21
162.500000
  0
LINE
  8
0
  6
CONTINUOUS
 62
4
 10
210.000000
 20
180.000000
 11
210.000000
 21
162.500000
  0
LINE
  8
0
  6
CENTER
 62
1
 10
180.000000
 20
189.500000
 11
180.000000
 21
160.500000
  0
LINE
  8
0
  6
CONTINUOUS
 62
4
 10
164.000000
 20
187.500000
 11
164.000000
 21
180.000000
  0
LINE
  8
0
  6
CONTINUOUS
 62
4
 10
196.000000
 20
187.500000
 11
196.000000
 21
180.000000
  0
LINE
  8
0
  6
CONTINUOUS
 62
4
 10
196.000000
 20
180.000000
 11
210.000000
 21
180.000000
  0
LINE
  8
0
  6
CENTER
 62
1
 10
203.000000
 20
182.000000
 11
203.000000
 21
160.500000
  0
LINE
  8
0
  6
CENTER
 62
1
 10
157.000000
 20
182.000000
 11
157.000000
 21
160.500000
  0
LINE
  8
0
  6
DASHED
 62
1
 10
199.600006
 20
180.000000
 11
199.600006
 21
162.500000
  0
LINE
  8
0
  6
DASHED
 62
1
 10
206.399994
 20
180.000000
 11
206.399994
 21
162.500000
  0
LINE
  8
0
  6
CONTINUOUS
 62
4
 10
150.000000
 20
152.500000
 11
210.000000
 21
152.500000
  0
LINE
  8
0
  6
CONTINUOUS
 62
4
 10
150.000000
 20
122.500000
 11
210.000000
 21
122.500000
  0
LINE
  8
0
  6
CONTINUOUS
 62
4
 10
150.000000
 20
152.500000
 11
150.000000
 21
122.500000
  0
LINE
  8
0
  6
CONTINUOUS
 62
4
 10
210.000000
 20
122.500000
 11
210.000000
 21
152.500000
  0
LINE
  8
0
  6
CONTINUOUS
 62
4
 10
230.000000
 20
122.500000
 11
230.000000
 21
152.500000
  0
LINE
  8
0
  6
CONTINUOUS
 62
4
 10
255.000000
 20
122.500000
 11
255.000000
 21
152.500000
  0
LINE
  8
0
  6
CONTINUOUS
 62
4
 10
230.000000
 20
152.500000
 11
255.000000
 21
152.500000
  0
LINE
  8
0
  6
CONTINUOUS
 62
4
 10
230.000000
 20
122.500000
 11
255.000000
 21
122.500000
  0
LINE
  8
0
  6
CENTER
 62
1
 10
228.000000
 20
137.500000
 11
257.000000
 21
137.500000
  0
LINE
  8
0
  6
CONTINUOUS
 62
7
 10
210.000000
 20
-36.500000
 11
220.000000
 21
-36.500000
  0
LINE
  8
0
  6
CONTINUOUS
 62
7
 10
210.000000
 20
-72.500000
 11
220.000000
 21
-72.500000
  0
LINE
  8
0
  6
CONTINUOUS
 62
7
 10
210.000000
 20
-36.500000
 11
210.000000
 21
-72.500000
  0
LINE
  8
0
  6
CENTER
 62
1
 10
162.000000
 20
-54.500000
 11
220.000000
 21
-54.500000
  0
LINE
  8
0
  6
CONTINUOUS
 62
4
 10
190.731995
 20
-62.500000
 11
210.000000
 21
-62.500000
  0
LINE
  8
0
  6
CONTINUOUS
 62
4
 10
190.731995
 20
-46.500000
 11
210.000000
 21
-46.500000
  0
LINE
  8
0
  6
CONTINUOUS
 62
4
 10
165.000000
 20
-47.500000
 11
165.000000
 21
-61.500000
  0
LINE
  8
0
  6
CONTINUOUS
 62
7
 10
-227.500000
 20
-34.500000
 11
-2.500060
 21
-34.500000
  0
LINE
  8
0
  6
CONTINUOUS
 62
7
 10
-227.500000
 20
-70.500000
 11
-2.500060
 21
-70.500000
  0
LINE
  8
0
  6
CONTINUOUS
 62
7
 10
-227.500000
 20
-34.500000
 11
-227.500000
 21
-70.500000
  0
LINE
  8
0
  6
CENTER
 62
2
 10
-274.500000
 20
-52.500000
 11
-0.500061
 21
-52.500000
  0
LINE
  8
0
  6
CONTINUOUS
 62
7
 10
-272.500000
 20
-60.500000
 11
-227.500000
 21
-60.500000
  0
LINE
  8
0
  6
CONTINUOUS
 62
7
 10
-272.500000
 20
-44.500000
 11
-227.500000
 21
-44.500000
  0
LINE
  8
0
  6
CONTINUOUS
 62
7
 10
-272.500000
 20
-44.500000
 11
-272.500000
 21
-60.500000
  0
LINE
  8
0
  6
CONTINUOUS
 62
7
 10
210.000000
 20
63.500000
 11
220.000000
 21
63.500000
  0
LINE
  8
0
  6
CONTINUOUS
 62
7
 10
210.000000
 20
27.500000
 11
220.000000
 21
27.500000
  0
LINE
  8
0
  6
CONTINUOUS
 62
7
 10
210.000000
 20
63.500000
 11
210.000000
 21
27.500000
  0
LINE
  8
0
  6
CENTER
 62
1
 10
163.000000
 20
45.500000
 11
220.000000
 21
45.500000
  0
LINE
  8
0
  6
CONTINUOUS
 62
4
 10
165.000000
 20
37.500000
 11
172.000000
 21
37.500000
  0
LINE
  8
0
  6
CONTINUOUS
 62
4
 10
165.000000
 20
53.500000
 11
172.000000
 21
53.500000
  0
LINE
  8
0
  6
CONTINUOUS
 62
4
 10
165.000000
 20
53.500000
 11
165.000000
 21
37.500000
  0
LINE
  8
0
  6
CONTINUOUS
 62
4
 10
172.000000
 20
53.500000
 11
172.000000
 21
52.500000
  0
LINE
  8
0
  6
CONTINUOUS
 62
4
 10
179.500000
 20
53.500000
 11
179.500000
 21
52.500000
  0
LINE
  8
0
  6
CONTINUOUS
 62
4
 10
172.000000
 20
38.500000
 11
179.500000
 21
38.500000
  0
LINE
  8
0
  6
CONTINUOUS
 62
4
 10
172.000000
 20
52.500000
 11
179.500000
 21
52.500000
  0
LINE
  8
0
  6
CONTINUOUS
 62
4
 10
179.500000
 20
38.500000
 11
179.500000
 21
37.500000
  0
LINE
  8
0
  6
CONTINUOUS
 62
4
 10
172.000000
 20
38.500000
 11
172.000000
 21
37.500000
  0
LINE
  8
0
  6
CONTINUOUS
 62
4
 10
179.500000
 20
37.500000
 11
210.000000
 21
37.500000
  0
LINE
  8
0
  6
CONTINUOUS
 62
4
 10
179.500000
 20
53.500000
 11
210.000000
 21
53.500000
  0
LINE
  8
0
  6
DASHED
 62
1
 10
183.000000
 20
51.500000
 11
183.000000
 21
39.500000
  0
LINE
  8
0
  6
DASHED
 62
1
 10
165.000000
 20
39.500000
 11
183.000000
 21
39.500000
  0
LINE
  8
0
  6
DASHED
 62
1
 10
165.000000
 20
51.500000
 11
183.000000
 21
51.500000
  0
LINE
  8
0
  6
DASHED
 62
1
 10
165.000000
 20
50.553001
 11
189.000000
 21
50.553001
  0
LINE
  8
0
  6
DASHED
 62
1
 10
165.000000
 20
40.446999
 11
189.000000
 21
40.446999
  0
LINE
  8
0
  6
CONTINUOUS
 62
4
 10
186.000000
 20
-47.500000
 11
186.000000
 21
-61.500000
  0
LINE
  8
0
  6
CONTINUOUS
 62
4
 10
189.000000
 20
-47.500000
 11
189.000000
 21
-61.500000
  0
LINE
  8
0
  6
CONTINUOUS
 62
4
 10
196.500000
 20
-50.626999
 11
196.500000
 21
-58.373001
  0
LINE
  8
0
  6
CONTINUOUS
 62
4
 10
165.000000
 20
-61.500000
 11
174.000000
 21
-61.500000
  0
LINE
  8
0
  6
CONTINUOUS
 62
4
 10
165.000000
 20
-47.500000
 11
174.000000
 21
-47.500000
  0
LINE
  8
0
  6
CONTINUOUS
 62
1
 10
165.000000
 20
-48.582500
 11
174.000000
 21
-48.582500
  0
LINE
  8
0
  6
CONTINUOUS
 62
1
 10
165.000000
 20
-60.417500
 11
174.000000
 21
-60.417500
  0
LINE
  8
0
  6
CONTINUOUS
 62
4
 10
189.000000
 20
-47.499802
 11
190.731995
 21
-46.499802
  0
LINE
  8
0
  6
CONTINUOUS
 62
4
 10
189.000000
 20
-61.499802
 11
190.731995
 21
-62.499802
  0
LINE
  8
0
  6
CONTINUOUS
 62
4
 10
190.733994
 20
-62.500000
 11
190.733994
 21
-58.373001
  0
LINE
  8
0
  6
CENTER
 62
1
 10
202.750000
 20
-26.500000
 11
182.750000
 21
-26.500000
  0
LINE
  8
0
  6
CENTER
 62
1
 10
192.750000
 20
-16.500000
 11
192.750000
 21
-36.500000
  0
LINE
  8
0
  6
CONTINUOUS
 62
4
 10
199.750000
 20
-22.627001
 11
199.750000
 21
-30.372999
  0
LINE
  8
0
  6
CONTINUOUS
 62
4
 10
185.750000
 20
-22.627001
 11
185.750000
 21
-30.372999
  0
LINE
  8
0
  6
CONTINUOUS
 62
4
 10
189.000000
 20
-50.626999
 11
196.500000
 21
-50.626999
  0
LINE
  8
0
  6
CONTINUOUS
 62
4
 10
189.000000
 20
-58.373001
 11
196.500000
 21
-58.373001
  0
LINE
  8
0
  6
CONTINUOUS
 62
4
 10
190.733994
 20
-50.626999
 11
190.733994
 21
-46.500000
  0
LINE
  8
0
  6
CONTINUOUS
 62
1
 10
189.001007
 20
-58.373402
 11
196.501007
 21
-50.627399
  0
LINE
  8
0
  6
CONTINUOUS
 62
1
 10
189.000000
 20
-50.627201
 11
196.500000
 21
-58.373199
  0
LINE
  8
0
  6
DASHED
 62
1
 10
189.000000
 20
50.553001
 11
189.000000
 21
40.446999
  0
LINE
  8
0
  6
CENTER
 62
1
 10
185.750000
 20
73.500000
 11
165.750000
 21
73.500000
  0
LINE
  8
0
  6
CENTER
 62
1
 10
175.750000
 20
83.500000
 11
175.750000
 21
63.500000
  0
LINE
  8
0
  6
CONTINUOUS
 62
4
 10
179.623001
 20
80.500000
 11
171.876999
 21
80.500000
  0
LINE
  8
0
  6
CONTINUOUS
 62
4
 10
179.623001
 20
66.500000
 11
171.876999
 21
66.500000
  0
LINE
  8
0
  6
CONTINUOUS
 62
7
 10
-46.500198
 20
60.500000
 11
-82.500198
 21
60.500000
  0
LINE
  8
0
  6
CONTINUOUS
 62
7
 10
-46.500198
 20
114.500000
 11
-82.500198
 21
114.500000
  0
LINE
  8
0
  6
CENTER
 62
2
 10
-44.500198
 20
87.500000
 11
-84.500198
 21
87.500000
  0
LINE
  8
0
  6
CENTER
 62
2
 10
-64.500198
 20
58.500000
 11
-64.500198
 21
116.500000
  0
LINE
  8
0
  6
CONTINUOUS
 62
2
 10
-46.500198
 20
104.800003
 11
-47.500198
 21
104.800003
  0
LINE
  8
0
  6
CONTINUOUS
 62
2
 10
-46.500198
 20
102.199997
 11
-47.500198
 21
102.199997
  0
LINE
  8
0
  6
CONTINUOUS
 62
2
 10
-47.500198
 20
105.650002
 11
-51.300201
 21
105.650002
  0
LINE
  8
0
  6
CONTINUOUS
 62
2
 10
-47.500198
 20
101.349998
 11
-51.300201
 21
101.349998
  0
LINE
  8
0
  6
CONTINUOUS
 62
2
 10
-52.800201
 20
102.849998
 11
-52.800201
 21
104.150002
  0
LINE
  8
0
  6
CONTINUOUS
 62
7
 10
-46.500198
 20
114.500000
 11
-46.500198
 21
60.500000
  0
LINE
  8
0
  6
CONTINUOUS
 62
7
 10
-82.500198
 20
114.500000
 11
-82.500198
 21
60.500000
  0
LINE
  8
0
  6
CONTINUOUS
 62
2
 10
-47.500198
 20
105.650002
 11
-47.500198
 21
104.800003
  0
LINE
  8
0
  6
CONTINUOUS
 62
2
 10
-47.500198
 20
102.199997
 11
-47.500198
 21
101.349998
  0
LINE
  8
0
  6
CENTER
 62
2
 10
-84.500198
 20
103.500000
 11
-72.500198
 21
103.500000
  0
LINE
  8
0
  6
CENTER
 62
2
 10
-56.500198
 20
103.500000
 11
-44.500198
 21
103.500000
  0
LINE
  8
0
  6
CENTER
 62
2
 10
-84.500198
 20
71.500000
 11
-72.500198
 21
71.500000
  0
LINE
  8
0
  6
CENTER
 62
2
 10
-56.500198
 20
71.500000
 11
-44.500198
 21
71.500000
  0
LINE
  8
0
  6
CONTINUOUS
 62
4
 10
174.000000
 20
-67.201698
 11
182.000000
 21
-67.201698
  0
LINE
  8
0
  6
CONTINUOUS
 62
4
 10
182.000000
 20
-41.798302
 11
182.000000
 21
-67.201698
  0
LINE
  8
0
  6
CONTINUOUS
 62
4
 10
174.000000
 20
-41.798302
 11
174.000000
 21
-67.201698
  0
LINE
  8
0
  6
CONTINUOUS
 62
4
 10
174.000000
 20
-60.850899
 11
182.000000
 21
-60.850899
  0
LINE
  8
0
  6
CONTINUOUS
 62
4
 10
174.000000
 20
-41.798302
 11
182.000000
 21
-41.798302
  0
LINE
  8
0
  6
CONTINUOUS
 62
4
 10
174.000000
 20
-48.149101
 11
182.000000
 21
-48.149101
  0
LINE
  8
0
  6
CONTINUOUS
 62
1
 10
182.000000
 20
-60.417500
 11
186.000000
 21
-60.417500
  0
LINE
  8
0
  6
CONTINUOUS
 62
4
 10
182.000000
 20
-61.500000
 11
189.000000
 21
-61.500000
  0
LINE
  8
0
  6
CONTINUOUS
 62
1
 10
182.000000
 20
-48.582500
 11
186.000000
 21
-48.582500
  0
LINE
  8
0
  6
CONTINUOUS
 62
4
 10
182.000000
 20
-47.500000
 11
189.000000
 21
-47.500000
  0
LINE
  8
0
  6
CONTINUOUS
 62
4
 10
247.500000
 20
122.500000
 11
247.500000
 21
152.500000
  0
LINE
  8
0
  6
CENTER
 62
2
 10
-315.500000
 20
109.500000
 11
-305.500000
 21
109.500000
  0
LINE
  8
0
  6
CENTER
 62
2
 10
-315.500000
 20
65.500000
 11
-305.500000
 21
65.500000
  0
LINE
  8
0
  6
CENTER
 62
2
 10
-122.500000
 20
158.399994
 11
-122.500000
 21
144.600006
  0
LINE
  8
0
  6
CENTER
 62
2
 10
-129.399994
 20
151.500000
 11
-115.599998
 21
151.500000
  0
LINE
  8
0
  6
CENTER
 62
2
 10
-165.500000
 20
170.399994
 11
-165.500000
 21
156.600006
  0
LINE
  8
0
  6
CENTER
 62
2
 10
-172.399994
 20
163.500000
 11
-158.600006
 21
163.500000
  0
LINE
  8
0
  6
CENTER
 62
2
 10
-215.500000
 20
73.750000
 11
-215.500000
 21
59.250000
  0
LINE
  8
0
  6
CENTER
 62
2
 10
-222.750000
 20
66.500000
 11
-208.250000
 21
66.500000
  0
LINE
  8
0
  6
CENTER
 62
2
 10
-178.500000
 20
73.750000
 11
-178.500000
 21
59.250000
  0
LINE
  8
0
  6
CENTER
 62
2
 10
-185.750000
 20
66.500000
 11
-171.250000
 21
66.500000
  0
LINE
  8
0
  6
CENTER
 62
2
 10
-178.500000
 20
115.750000
 11
-178.500000
 21
101.250000
  0
LINE
  8
0
  6
CENTER
 62
2
 10
-185.750000
 20
108.500000
 11
-171.250000
 21
108.500000
  0
LINE
  8
0
  6
CENTER
 62
2
 10
-215.500000
 20
115.750000
 11
-215.500000
 21
101.250000
  0
LINE
  8
0
  6
CENTER
 62
2
 10
-222.750000
 20
108.500000
 11
-208.250000
 21
108.500000
  0
LINE
  8
0
  6
CENTER
 62
2
 10
-205.500000
 20
35.500000
 11
-205.500000
 21
25.500000
  0
LINE
  8
0
  6
CENTER
 62
2
 10
-210.500000
 20
30.500000
 11
-200.500000
 21
30.500000
  0
LINE
  8
0
  6
CENTER
 62
2
 10
-168.500000
 20
35.500000
 11
-168.500000
 21
25.500000
  0
LINE
  8
0
  6
CENTER
 62
2
 10
-173.500000
 20
30.500000
 11
-163.500000
 21
30.500000
  0
LINE
  8
0
  6
CENTER
 62
2
 10
-168.500000
 20
9.500000
 11
-168.500000
 21
-0.500000
  0
LINE
  8
0
  6
CENTER
 62
2
 10
-173.500000
 20
4.500000
 11
-163.500000
 21
4.500000
  0
LINE
  8
0
  6
CENTER
 62
2
 10
-205.500000
 20
9.500000
 11
-205.500000
 21
-0.500000
  0
LINE
  8
0
  6
CENTER
 62
2
 10
-210.500000
 20
4.500000
 11
-200.500000
 21
4.500000
  0
LINE
  8
0
  6
DASHED
 62
2
 10
-212.100006
 20
29.000000
 11
-212.100006
 21
6.000000
  0
LINE
  8
0
  6
DASHED
 62
2
 10
-218.899994
 20
29.000000
 11
-218.899994
 21
6.000000
  0
LINE
  8
0
  6
DASHED
 62
2
 10
-175.100006
 20
29.000000
 11
-175.100006
 21
6.000000
  0
LINE
  8
0
  6
DASHED
 62
2
 10
-181.899994
 20
29.000000
 11
-181.899994
 21
6.000000
  0
LINE
  8
0
  6
CENTER
 62
2
 10
-22.500099
 20
-51.599998
 11
-22.500099
 21
-65.400002
  0
LINE
  8
0
  6
CENTER
 62
2
 10
-29.400101
 20
-58.500000
 11
-15.600100
 21
-58.500000
  0
LINE
  8
0
  6
CENTER
 62
2
 10
-165.500000
 20
-39.599998
 11
-165.500000
 21
-53.400002
  0
LINE
  8
0
  6
CENTER
 62
2
 10
-172.399994
 20
-46.500000
 11
-158.600006
 21
-46.500000
  0
LINE
  8
0
  6
CENTER
 62
2
 10
-215.500000
 20
-94.250000
 11
-215.500000
 21
-108.750000
  0
LINE
  8
0
  6
CENTER
 62
2
 10
-222.750000
 20
-101.500000
 11
-208.250000
 21
-101.500000
  0
LINE
  8
0
  6
CENTER
 62
2
 10
-178.500000
 20
-94.250000
 11
-178.500000
 21
-108.750000
  0
LINE
  8
0
  6
CENTER
 62
2
 10
-185.750000
 20
-101.500000
 11
-171.250000
 21
-101.500000
  0
LINE
  8
0
  6
CENTER
 62
2
 10
-92.500099
 20
-94.250000
 11
-92.500099
 21
-108.750000
  0
LINE
  8
0
  6
CENTER
 62
2
 10
-99.750099
 20
-101.500000
 11
-85.250099
 21
-101.500000
  0
LINE
  8
0
  6
CENTER
 62
2
 10
-92.500099
 20
-136.250000
 11
-92.500099
 21
-150.750000
  0
LINE
  8
0
  6
CENTER
 62
2
 10
-99.750099
 20
-143.500000
 11
-85.250099
 21
-143.500000
  0
LINE
  8
0
  6
CENTER
 62
2
 10
-178.500000
 20
-136.250000
 11
-178.500000
 21
-150.750000
  0
LINE
  8
0
  6
CENTER
 62
2
 10
-185.750000
 20
-143.500000
 11
-171.250000
 21
-143.500000
  0
LINE
  8
0
  6
CENTER
 62
2
 10
-215.500000
 20
-136.250000
 11
-215.500000
 21
-150.750000
  0
LINE
  8
0
  6
CENTER
 62
2
 10
-222.750000
 20
-143.500000
 11
-208.250000
 21
-143.500000
  0
LINE
  8
0
  6
DASHED
 62
2
 10
-95.900101
 20
-181.000000
 11
-95.900101
 21
-204.000000
  0
LINE
  8
0
  6
DASHED
 62
2
 10
-89.100098
 20
-181.000000
 11
-89.100098
 21
-204.000000
  0
LINE
  8
0
  6
DASHED
 62
2
 10
-175.100006
 20
-181.000000
 11
-175.100006
 21
-204.000000
  0
LINE
  8
0
  6
DASHED
 62
2
 10
-181.899994
 20
-181.000000
 11
-181.899994
 21
-204.000000
  0
LINE
  8
0
  6
DASHED
 62
2
 10
-212.100006
 20
-181.000000
 11
-212.100006
 21
-204.000000
  0
LINE
  8
0
  6
DASHED
 62
2
 10
-218.899994
 20
-181.000000
 11
-218.899994
 21
-204.000000
  0
LINE
  8
0
  6
CENTER
 62
2
 10
-205.500000
 20
-174.500000
 11
-205.500000
 21
-184.500000
  0
LINE
  8
0
  6
CENTER
 62
2
 10
-210.500000
 20
-179.500000
 11
-200.500000
 21
-179.500000
  0
LINE
  8
0
  6
CENTER
 62
2
 10
-205.500000
 20
-200.500000
 11
-205.500000
 21
-210.500000
  0
LINE
  8
0
  6
CENTER
 62
2
 10
-210.500000
 20
-205.500000
 11
-200.500000
 21
-205.500000
  0
LINE
  8
0
  6
CENTER
 62
2
 10
-168.500000
 20
-200.500000
 11
-168.500000
 21
-210.500000
  0
LINE
  8
0
  6
CENTER
 62
2
 10
-173.500000
 20
-205.500000
 11
-163.500000
 21
-205.500000
  0
LINE
  8
0
  6
CENTER
 62
2
 10
-168.500000
 20
-174.500000
 11
-168.500000
 21
-184.500000
  0
LINE
  8
0
  6
CENTER
 62
2
 10
-173.500000
 20
-179.500000
 11
-163.500000
 21
-179.500000
  0
LINE
  8
0
  6
CENTER
 62
2
 10
-82.500099
 20
-174.500000
 11
-82.500099
 21
-184.500000
  0
LINE
  8
0
  6
CENTER
 62
2
 10
-87.500099
 20
-179.500000
 11
-77.500099
 21
-179.500000
  0
LINE
  8
0
  6
CENTER
 62
2
 10
-82.500099
 20
-200.500000
 11
-82.500099
 21
-210.500000
  0
LINE
  8
0
  6
CENTER
 62
2
 10
-87.500099
 20
-205.500000
 11
-77.500099
 21
-205.500000
  0
LINE
  8
0
  6
CENTER
 62
1
 10
157.000000
 20
151.399994
 11
157.000000
 21
140.600006
  0
LINE
  8
0
  6
CENTER
 62
1
 10
151.600006
 20
146.000000
 11
162.399994
 21
146.000000
  0
LINE
  8
0
  6
CENTER
 62
1
 10
180.000000
 20
147.500000
 11
180.000000
 21
127.500000
  0
LINE
  8
0
  6
CENTER
 62
1
 10
170.000000
 20
137.500000
 11
190.000000
 21
137.500000
  0
LINE
  8
0
  6
CENTER
 62
1
 10
203.000000
 20
151.399994
 11
203.000000
 21
140.600006
  0
LINE
  8
0
  6
CENTER
 62
1
 10
197.600006
 20
146.000000
 11
208.399994
 21
146.000000
  0
LINE
  8
0
  6
CENTER
 62
1
 10
203.000000
 20
134.399994
 11
203.000000
 21
123.599998
  0
LINE
  8
0
  6
CENTER
 62
1
 10
197.600006
 20
129.000000
 11
208.399994
 21
129.000000
  0
LINE
  8
0
  6
CENTER
 62
1
 10
157.000000
 20
134.399994
 11
157.000000
 21
123.599998
  0
LINE
  8
0
  6
CENTER
 62
1
 10
151.600006
 20
129.000000
 11
162.399994
 21
129.000000
  0
LINE
  8
0
  6
CENTER
 62
1
 10
188.431000
 20
-178.000000
 11
295.431000
 21
-178.000000
  0
LINE
  8
0
  6
CONTINUOUS
 62
7
 10
285.431000
 20
-205.000000
 11
285.431000
 21
-151.000000
  0
LINE
  8
0
  6
CONTINUOUS
 62
7
 10
285.431000
 20
-205.000000
 11
295.431000
 21
-205.000000
  0
LINE
  8
0
  6
CONTINUOUS
 62
7
 10
285.431000
 20
-151.000000
 11
295.431000
 21
-151.000000
  0
LINE
  8
0
  6
CONTINUOUS
 62
2
 10
285.431000
 20
-160.699997
 11
295.431000
 21
-160.699997
  0
LINE
  8
0
  6
CONTINUOUS
 62
2
 10
285.431000
 20
-163.300003
 11
295.431000
 21
-163.300003
  0
LINE
  8
0
  6
CONTINUOUS
 62
2
 10
285.431000
 20
-192.699997
 11
295.431000
 21
-192.699997
  0
LINE
  8
0
  6
CONTINUOUS
 62
2
 10
285.431000
 20
-195.300003
 11
295.431000
 21
-195.300003
  0
LINE
  8
0
  6
CONTINUOUS
 62
4
 10
190.431000
 20
-186.000000
 11
214.431000
 21
-186.000000
  0
LINE
  8
0
  6
CONTINUOUS
 62
4
 10
190.431000
 20
-170.000000
 11
214.431000
 21
-170.000000
  0
LINE
  8
0
  6
CONTINUOUS
 62
4
 10
190.431000
 20
-170.000000
 11
190.431000
 21
-186.000000
  0
LINE
  8
0
  6
CONTINUOUS
 62
4
 10
214.431000
 20
-162.500000
 11
214.431000
 21
-193.500000
  0
LINE
  8
0
  6
CONTINUOUS
 62
4
 10
214.431000
 20
-162.500000
 11
264.431000
 21
-162.500000
  0
LINE
  8
0
  6
CONTINUOUS
 62
4
 10
264.431000
 20
-193.500000
 11
214.431000
 21
-193.500000
  0
LINE
  8
0
  6
CONTINUOUS
 62
4
 10
264.431000
 20
-193.500000
 11
264.431000
 21
-162.500000
  0
LINE
  8
0
  6
CONTINUOUS
 62
4
 10
264.431000
 20
-170.000000
 11
285.431000
 21
-170.000000
  0
LINE
  8
0
  6
CONTINUOUS
 62
4
 10
264.431000
 20
-186.000000
 11
285.431000
 21
-186.000000
  0
LINE
  8
0
  6
DASHED
 62
1
 10
190.431000
 20
-182.000000
 11
203.431000
 21
-182.000000
  0
LINE
  8
0
  6
DASHED
 62
1
 10
190.431000
 20
-174.000000
 11
203.431000
 21
-174.000000
  0
LINE
  8
0
  6
DASHED
 62
1
 10
203.431000
 20
-174.000000
 11
203.431000
 21
-182.000000
  0
LINE
  8
0
  6
DASHED
 62
1
 10
206.431000
 20
-174.675995
 11
206.431000
 21
-181.322998
  0
LINE
  8
0
  6
DASHED
 62
1
 10
230.681000
 20
-164.500000
 11
248.181000
 21
-164.500000
  0
LINE
  8
0
  6
DASHED
 62
1
 10
230.681000
 20
-162.500000
 11
230.681000
 21
-164.500000
  0
LINE
  8
0
  6
DASHED
 62
1
 10
248.181000
 20
-164.500000
 11
248.181000
 21
-162.500000
  0
LINE
  8
0
  6
DASHED
 62
1
 10
148.681000
 20
-162.598999
 11
148.681000
 21
-164.500000
  0
LINE
  8
0
  6
DASHED
 62
1
 10
148.681000
 20
-164.500000
 11
152.181000
 21
-164.500000
  0
LINE
  8
0
  6
DASHED
 62
1
 10
152.181000
 20
-162.598999
 11
152.181000
 21
-164.500000
  0
LINE
  8
0
  6
CENTER
 62
1
 10
151.375000
 20
-159.985001
 11
150.431000
 21
-178.000000
  0
LINE
  8
0
  6
CENTER
 62
1
 10
132.391006
 20
-178.000000
 11
168.470993
 21
-178.000000
  0
LINE
  8
0
  6
DASHED
 62
1
 10
190.431000
 20
-174.675995
 11
206.431000
 21
-174.675995
  0
LINE
  8
0
  6
DASHED
 62
1
 10
190.431000
 20
-181.322998
 11
206.431000
 21
-181.322998
  0
LINE
  8
0
  6
CONTINUOUS
 62
4
 10
232.431000
 20
-140.750000
 11
246.431000
 21
-140.750000
  0
LINE
  8
0
  6
CONTINUOUS
 62
4
 10
232.431000
 20
-144.250000
 11
246.431000
 21
-144.250000
  0
LINE
  8
0
  6
CENTER
 62
1
 10
228.681000
 20
-142.500000
 11
250.181000
 21
-142.500000
  0
LINE
  8
0
  6
CENTER
 62
1
 10
150.431000
 20
-159.960007
 11
150.431000
 21
-196.039993
  0
LINE
  8
0
  6
CENTER
 62
1
 10
149.487000
 20
-159.985001
 11
150.431000
 21
-178.000000
  0
LINE
  8
0
  6
CENTER
 62
1
 10
323.553009
 20
-114.518997
 11
302.606995
 21
-114.518997
  0
LINE
  8
0
  6
CENTER
 62
1
 10
288.057007
 20
-122.268997
 11
288.057007
 21
-129.768997
  0
LINE
  8
0
  6
CONTINUOUS
 62
4
 10
289.807007
 20
-124.268997
 11
289.807007
 21
-127.768997
  0
LINE
  8
0
  6
CONTINUOUS
 62
4
 10
286.307007
 20
-124.268997
 11
286.307007
 21
-127.768997
  0
LINE
  8
0
  6
CONTINUOUS
 62
4
 10
286.307007
 20
-127.768997
 11
289.807007
 21
-127.768997
  0
LINE
  8
0
  6
CONTINUOUS
 62
4
 10
286.307007
 20
-124.268997
 11
289.807007
 21
-124.268997
  0
LINE
  8
0
  6
CONTINUOUS
 62
4
 10
322.307007
 20
-127.768997
 11
304.807007
 21
-127.768997
  0
LINE
  8
0
  6
CONTINUOUS
 62
4
 10
322.307007
 20
-124.268997
 11
304.807007
 21
-124.268997
  0
LINE
  8
0
  6
CONTINUOUS
 62
4
 10
320.557007
 20
-112.768997
 11
306.557007
 21
-112.768997
  0
LINE
  8
0
  6
CONTINUOUS
 62
4
 10
320.557007
 20
-116.268997
 11
306.557007
 21
-116.268997
  0
LINE
  8
0
  6
CONTINUOUS
 62
4
 10
304.807007
 20
-124.268997
 11
304.807007
 21
-127.768997
  0
LINE
  8
0
  6
CONTINUOUS
 62
4
 10
322.307007
 20
-124.268997
 11
322.307007
 21
-127.768997
  0
CIRCLE
  8
0
  6
CONTINUOUS
 62
7
 10
-168.500000
 20
4.500000
 40
2.500000
  0
CIRCLE
  8
0
  6
CONTINUOUS
 62
7
 10
-205.500000
 20
30.500000
 40
2.500000
  0
CIRCLE
  8
0
  6
CONTINUOUS
 62
7
 10
-205.500000
 20
4.500000
 40
2.500000
  0
CIRCLE
  8
0
  6
CONTINUOUS
 62
7
 10
-168.500000
 20
30.500000
 40
2.500000
  0
CIRCLE
  8
0
  6
CONTINUOUS
 62
2
 10
-205.500000
 20
30.500000
 40
3.000000
  0
CIRCLE
  8
0
  6
CONTINUOUS
 62
2
 10
-168.500000
 20
30.500000
 40
3.000000
  0
CIRCLE
  8
0
  6
CONTINUOUS
 62
2
 10
-168.500000
 20
4.500000
 40
3.000000
  0
CIRCLE
  8
0
  6
CONTINUOUS
 62
2
 10
-205.500000
 20
4.500000
 40
3.000000
  0
CIRCLE
  8
0
  6
CONTINUOUS
 62
7
 10
-122.500000
 20
151.500000
 40
4.300000
  0
CIRCLE
  8
0
  6
CONTINUOUS
 62
2
 10
-122.500000
 20
151.500000
 40
4.900000
  0
CIRCLE
  8
0
  6
CONTINUOUS
 62
7
 10
-165.500000
 20
163.500000
 40
4.300000
  0
CIRCLE
  8
0
  6
CONTINUOUS
 62
2
 10
-165.500000
 20
163.500000
 40
4.900000
  0
CIRCLE
  8
0
  6
CONTINUOUS
 62
7
 10
-310.500000
 20
109.500000
 40
2.500000
  0
CIRCLE
  8
0
  6
CONTINUOUS
 62
2
 10
-310.500000
 20
109.500000
 40
3.000000
  0
CIRCLE
  8
0
  6
CONTINUOUS
 62
7
 10
-310.500000
 20
65.500000
 40
2.500000
  0
CIRCLE
  8
0
  6
CONTINUOUS
 62
2
 10
-310.500000
 20
65.500000
 40
3.000000
  0
ARC
  8
0
  6
CONTINUOUS
 62
2
 10
-297.299988
 20
104.150002
 40
1.500000
 50
90.000000
 51
180.000000
  0
ARC
  8
0
  6
CONTINUOUS
 62
2
 10
-297.299988
 20
102.849998
 40
1.500000
 50
180.000000
 51
270.000000
  0
CIRCLE
  8
0
  6
CONTINUOUS
 62
7
 10
-310.500000
 20
87.500000
 40
8.000000
  0
CIRCLE
  8
0
  6
CONTINUOUS
 62
7
 10
-178.500000
 20
108.500000
 40
5.250000
  0
CIRCLE
  8
0
  6
CONTINUOUS
 62
7
 10
-215.500000
 20
108.500000
 40
5.250000
  0
CIRCLE
  8
0
  6
CONTINUOUS
 62
7
 10
-215.500000
 20
66.500000
 40
5.250000
  0
CIRCLE
  8
0
  6
CONTINUOUS
 62
7
 10
-178.500000
 20
66.500000
 40
5.250000
  0
CIRCLE
  8
0
  6
CONTINUOUS
 62
2
 10
-215.500000
 20
108.500000
 40
4.000000
  0
CIRCLE
  8
0
  6
CONTINUOUS
 62
2
 10
-178.500000
 20
108.500000
 40
4.000000
  0
CIRCLE
  8
0
  6
CONTINUOUS
 62
2
 10
-178.500000
 20
66.500000
 40
4.000000
  0
CIRCLE
  8
0
  6
CONTINUOUS
 62
2
 10
-215.500000
 20
66.500000
 40
4.000000
  0
ARC
  8
0
  6
CONTINUOUS
 62
2
 10
48.699902
 20
-105.849998
 40
1.500000
 50
90.000000
 51
180.000000
  0
ARC
  8
0
  6
CONTINUOUS
 62
2
 10
48.699902
 20
-107.150002
 40
1.500000
 50
180.000000
 51
270.000000
  0
CIRCLE
  8
0
  6
CONTINUOUS
 62
7
 10
-82.500099
 20
-205.500000
 40
2.500000
  0
CIRCLE
  8
0
  6
CONTINUOUS
 62
7
 10
-205.500000
 20
-179.500000
 40
2.500000
  0
CIRCLE
  8
0
  6
CONTINUOUS
 62
7
 10
-205.500000
 20
-205.500000
 40
2.500000
  0
CIRCLE
  8
0
  6
CONTINUOUS
 62
7
 10
-82.500099
 20
-179.500000
 40
2.500000
  0
CIRCLE
  8
0
  6
CONTINUOUS
 62
2
 10
-205.500000
 20
-179.500000
 40
3.000000
  0
CIRCLE
  8
0
  6
CONTINUOUS
 62
2
 10
-82.500099
 20
-179.500000
 40
3.000000
  0
CIRCLE
  8
0
  6
CONTINUOUS
 62
2
 10
-82.500099
 20
-205.500000
 40
3.000000
  0
CIRCLE
  8
0
  6
CONTINUOUS
 62
2
 10
-205.500000
 20
-205.500000
 40
3.000000
  0
CIRCLE
  8
0
  6
CONTINUOUS
 62
7
 10
-310.500000
 20
-100.500000
 40
2.500000
  0
CIRCLE
  8
0
  6
CONTINUOUS
 62
2
 10
-310.500000
 20
-100.500000
 40
3.000000
  0
CIRCLE
  8
0
  6
CONTINUOUS
 62
7
 10
-310.500000
 20
-144.500000
 40
2.500000
  0
CIRCLE
  8
0
  6
CONTINUOUS
 62
2
 10
-310.500000
 20
-144.500000
 40
3.000000
  0
ARC
  8
0
  6
CONTINUOUS
 62
2
 10
-297.299988
 20
-105.849998
 40
1.500000
 50
90.000000
 51
180.000000
  0
ARC
  8
0
  6
CONTINUOUS
 62
2
 10
-297.299988
 20
-107.150002
 40
1.500000
 50
180.000000
 51
270.000000
  0
CIRCLE
  8
0
  6
CONTINUOUS
 62
7
 10
-310.500000
 20
-122.500000
 40
8.000000
  0
CIRCLE
  8
0
  6
CONTINUOUS
 62
7
 10
-92.500099
 20
-101.500000
 40
5.250000
  0
CIRCLE
  8
0
  6
CONTINUOUS
 62
7
 10
-215.500000
 20
-101.500000
 40
5.250000
  0
CIRCLE
  8
0
  6
CONTINUOUS
 62
7
 10
-215.500000
 20
-143.500000
 40
5.250000
  0
CIRCLE
  8
0
  6
CONTINUOUS
 62
7
 10
-92.500099
 20
-143.500000
 40
5.250000
  0
CIRCLE
  8
0
  6
CONTINUOUS
 62
2
 10
-215.500000
 20
-101.500000
 40
4.000000
  0
CIRCLE
  8
0
  6
CONTINUOUS
 62
2
 10
-92.500099
 20
-101.500000
 40
4.000000
  0
CIRCLE
  8
0
  6
CONTINUOUS
 62
2
 10
-92.500099
 20
-143.500000
 40
4.000000
  0
CIRCLE
  8
0
  6
CONTINUOUS
 62
2
 10
-215.500000
 20
-143.500000
 40
4.000000
  0
CIRCLE
  8
0
  6
CONTINUOUS
 62
7
 10
-178.500000
 20
-143.500000
 40
5.250000
  0
CIRCLE
  8
0
  6
CONTINUOUS
 62
2
 10
-178.500000
 20
-143.500000
 40
4.000000
  0
CIRCLE
  8
0
  6
CONTINUOUS
 62
7
 10
-178.500000
 20
-101.500000
 40
5.250000
  0
CIRCLE
  8
0
  6
CONTINUOUS
 62
2
 10
-178.500000
 20
-101.500000
 40
4.000000
  0
CIRCLE
  8
0
  6
CONTINUOUS
 62
2
 10
-168.500000
 20
-205.500000
 40
3.000000
  0
CIRCLE
  8
0
  6
CONTINUOUS
 62
7
 10
-168.500000
 20
-205.500000
 40
2.500000
  0
CIRCLE
  8
0
  6
CONTINUOUS
 62
7
 10
-168.500000
 20
-179.500000
 40
2.500000
  0
CIRCLE
  8
0
  6
CONTINUOUS
 62
2
 10
-168.500000
 20
-179.500000
 40
3.000000
  0
CIRCLE
  8
0
  6
CONTINUOUS
 62
7
 10
-22.500099
 20
-58.500000
 40
4.300000
  0
CIRCLE
  8
0
  6
CONTINUOUS
 62
2
 10
-22.500099
 20
-58.500000
 40
4.900000
  0
CIRCLE
  8
0
  6
CONTINUOUS
 62
7
 10
-165.500000
 20
-46.500000
 40
4.300000
  0
CIRCLE
  8
0
  6
CONTINUOUS
 62
2
 10
-165.500000
 20
-46.500000
 40
4.900000
  0
CIRCLE
  8
0
  6
CONTINUOUS
 62
4
 10
180.000000
 20
137.500000
 40
8.000000
  0
CIRCLE
  8
0
  6
CONTINUOUS
 62
4
 10
203.000000
 20
146.000000
 40
3.400000
  0
CIRCLE
  8
0
  6
CONTINUOUS
 62
4
 10
203.000000
 20
129.000000
 40
3.400000
  0
CIRCLE
  8
0
  6
CONTINUOUS
 62
4
 10
157.000000
 20
129.000000
 40
3.400000
  0
CIRCLE
  8
0
  6
CONTINUOUS
 62
4
 10
157.000000
 20
146.000000
 40
3.400000
  0
CIRCLE
  8
0
  6
CONTINUOUS
 62
4
 10
192.750000
 20
-26.500000
 40
8.000000
  0
CIRCLE
  8
0
  6
CONTINUOUS
 62
4
 10
175.750000
 20
73.500000
 40
8.000000
  0
ARC
  8
0
  6
CONTINUOUS
 62
2
 10
-51.300201
 20
104.150002
 40
1.500000
 50
90.000000
 51
180.000000
  0
ARC
  8
0
  6
CONTINUOUS
 62
2
 10
-51.300201
 20
102.849998
 40
1.500000
 50
180.000000
 51
270.000000
  0
CIRCLE
  8
0
  6
CONTINUOUS
 62
7
 10
-215.500000
 20
66.500000
 40
3.400000
  0
CIRCLE
  8
0
  6
CONTINUOUS
 62
7
 10
-178.500000
 20
66.500000
 40
3.400000
  0
CIRCLE
  8
0
  6
CONTINUOUS
 62
7
 10
-178.500000
 20
108.500000
 40
3.400000
  0
CIRCLE
  8
0
  6
CONTINUOUS
 62
7
 10
-215.500000
 20
108.500000
 40
3.400000
  0
CIRCLE
  8
0
  6
CONTINUOUS
 62
7
 10
-215.500000
 20
-101.500000
 40
3.400000
  0
CIRCLE
  8
0
  6
CONTINUOUS
 62
7
 10
-178.500000
 20
-101.500000
 40
3.400000
  0
CIRCLE
  8
0
  6
CONTINUOUS
 62
7
 10
-92.500099
 20
-101.500000
 40
3.400000
  0
CIRCLE
  8
0
  6
CONTINUOUS
 62
7
 10
-92.500099
 20
-143.500000
 40
3.400000
  0
CIRCLE
  8
0
  6
CONTINUOUS
 62
7
 10
-178.500000
 20
-143.500000
 40
3.400000
  0
CIRCLE
  8
0
  6
CONTINUOUS
 62
7
 10
-215.500000
 20
-143.500000
 40
3.400000
  0
CIRCLE
  8
0
  6
CONTINUOUS
 62
4
 10
150.431000
 20
-178.000000
 40
15.500000
  0
CIRCLE
  8
0
  6
CONTINUOUS
 62
4
 10
150.431000
 20
-178.000000
 40
8.000000
  0
CIRCLE
  8
0
  6
CONTINUOUS
 62
1
 10
150.431000
 20
-178.000000
 40
4.000000
  0
CIRCLE
  8
0
  6
CONTINUOUS
 62
4
 10
150.431000
 20
-178.000000
 40
3.323500
  0
ARC
  8
0
  6
CONTINUOUS
 62
4
 10
232.431000
 20
-142.500000
 40
1.750000
 50
90.000000
 51
270.000000
  0
ARC
  8
0
  6
CONTINUOUS
 62
4
 10
246.431000
 20
-142.500000
 40
1.750000
 50
270.000000
 51
90.000000
  0
ARC
  8
0
  6
CONTINUOUS
 62
4
 10
306.557007
 20
-114.518997
 40
1.750000
 50
90.000000
 51
270.000000
  0
ARC
  8
0
  6
CONTINUOUS
 62
4
 10
320.557007
 20
-114.518997
 40
1.750000
 50
270.000000
 51
90.000000
  0
TEXT
  8
0
 62
7
 10
249.264832
 20
-267.375000
 40
12.500000
  1
KOGANEI CORP.
 50
0.000000
 41
0.771525
 51
0.000000
  7
STANDARD
  0
TEXT
  8
0
 62
7
 10
292.414673
 20
261.500000
 40
9.000000
  1
Ver.1.0
 50
0.000000
 41
1.010331
 51
0.000000
  7
STANDARD
  0
TEXT
  8
0
 62
7
 10
-383.750580
 20
229.000000
 40
9.000000
  1
MODEL:AXAS-SD30-25-R***
 50
0.000000
 41
0.762751
 51
0.000000
  7
STANDARD
  0
TEXT
  8
0
 62
7
 10
-364.635315
 20
261.500000
 40
9.000000
  1
AX CYLINDER
 50
0.000000
 41
0.783349
 51
0.000000
  7
STANDARD
  0
TEXT
  8
0
 62
7
 10
-101.699997
 20
175.500000
 40
3.200000
  1
25st
 50
90.000000
 41
0.857250
 51
0.000000
  7
STANDARD
  0
TEXT
  8
0
 62
7
 10
-76.700096
 20
175.500000
 40
3.200000
  1
50st
 50
90.000000
 41
0.907676
 51
0.000000
  7
STANDARD
  0
TEXT
  8
0
 62
7
 10
-51.700100
 20
175.500000
 40
3.200000
  1
75st
 50
90.000000
 41
0.857250
 51
0.000000
  7
STANDARD
  0
TEXT
  8
0
 62
7
 10
-26.700100
 20
175.500000
 40
3.200000
  1
100st
 50
90.000000
 41
0.985838
 51
0.000000
  7
STANDARD
  0
TEXT
  8
0
 62
7
 10
-1.700060
 20
-34.500000
 40
3.200000
  1
125st
 50
90.000000
 41
0.896216
 51
0.000000
  7
STANDARD
  0
TEXT
  8
0
 62
7
 10
23.299900
 20
-34.500000
 40
3.200000
  1
150st
 50
90.000000
 41
0.938893
 51
0.000000
  7
STANDARD
  0
TEXT
  8
0
 62
7
 10
48.299900
 20
-34.500000
 40
3.200000
  1
175st
 50
90.000000
 41
0.896216
 51
0.000000
  7
STANDARD
  0
TEXT
  8
0
 62
7
 10
73.299904
 20
-34.500000
 40
3.200000
  1
200st
 50
90.000000
 41
0.896216
 51
0.000000
  7
STANDARD
  0
TEXT
  8
0
 62
7
 10
132.899551
 20
200.199997
 40
7.200000
  1
OPTION
 50
0.000000
 41
0.857250
 51
0.000000
  7
STANDARD
  0
TEXT
  8
0
 62
7
 10
158.203064
 20
106.349998
 40
4.600000
  1
ZT(FLANGE ROD END)
 50
0.000000
 41
0.754379
 51
0.000000
  7
STANDARD
  0
TEXT
  8
0
 62
7
 10
155.903061
 20
11.350000
 40
4.600000
  1
WS(INTERNAL THREAD)
 50
0.000000
 41
0.752114
 51
0.000000
  7
STANDARD
  0
TEXT
  8
0
 62
7
 10
155.903061
 20
-88.650002
 40
4.600000
  1
WT(EXTERNAL THREAD)
 50
0.000000
 41
0.738186
 51
0.000000
  7
STANDARD
  0
TEXT
  8
0
 62
7
 10
272.531006
 20
-118.400002
 40
4.800000
  1
KEY
 50
0.000000
 41
0.928571
 51
0.000000
  7
STANDARD
  0
TEXT
  8
0
 62
7
 10
149.402863
 20
-222.300003
 40
4.600000
  1
      FOR FLOATING UNIT)
 50
0.000000
 41
0.754799
 51
0.000000
  7
STANDARD
  0
TEXT
  8
0
 62
7
 10
150.902863
 20
-214.300003
 40
4.600000
  1
FN(WITH BEARING NUT
 50
0.000000
 41
0.766485
 51
0.000000
  7
STANDARD
  0
TEXT
  8
0
 62
7
 10
134.830994
 20
-135.900009
 40
3.200000
  1
(KEYWAY
 50
0.000000
 41
0.766485
 51
0.000000
  7
STANDARD
  0
TEXT
  8
0
 62
7
 10
134.830994
 20
-139.100006
 40
3.200000
  1
  POSITION)
 50
0.000000
 41
0.766485
 51
0.000000
  7
STANDARD
  0
DIMENSION
  8
0
  2
*DIM0
 62
2
  10
182.431000
 20
-162.500000
 30
0.0
 11
182.431000
 21
-178.000000
 31
0.0
  13
214.431000
 23
-162.500000
 33
0.0
14
214.431000
 24
-193.500000
 34
0.0
 70
1
 50
90
  0
DIMENSION
  8
0
  2
*DIM1
 62
2
 10
149.018005
 20
-151.037003
 30
0.0
 11
142.431000
 21
-151.300003
 31
0.0
 13
151.843994
 23
-151.037003
 33
0.0
 14
151.375000
 24
-159.985001
 34
0.0
  15
149.487000
 25
-159.985001
 35
0.0
 16
151.765564
 26
-152.534943
 36
0.0
 70
2
  0
DIMENSION
  8
0
  2
*DIM2
 62
2
  10
258.181000
 20
-134.750000
 30
0.0
 11
258.181000
 21
-128.593994
 31
0.0
  13
246.431000
 23
-140.750000
 33
0.0
14
246.431000
 24
-144.250000
 34
0.0
 70
1
 50
90
  0
DIMENSION
  8
0
  2
*DIM3
 62
2
  10
286.307007
 20
-135.768997
 30
0.0
 11
273.692993
 21
-135.768997
 31
0.0
  13
286.307007
 23
-135.768997
 33
0.0
14
286.307007
 24
-127.768997
 34
0.0
 70
1
 50
0
  0
ENDSEC
  0
EOF
