  0
SECTION
  2
HEADER
  0
ENDSEC
  0
SECTION
  2
TABLES
  0
TABLE
  2
LTYPE
 70
     4
  0
LTYPE
  2
CONTINUOUS
 70
    64
  3
Solid line
 72
    65
 73
     0
 40
0.000000
  0
LTYPE
  2
DASHED
 70
    64
  3
__ __ __ __ __ __ __ __ __ __ __ __ __ __ __
 72
    65
 73
     2
 40
3.500000
 49
2.000000
 49
-1.500000
  0
LTYPE
  2
CENTER
 70
    64
  3
____ _ ____ _ ____ _ ____ _ ____ _ ____ _ ____
 72
    65
 73
     4
 40
17.500000
 49
13.000000
 49
-1.500000
 49
1.500000
 49
-1.500000
  0
LTYPE
  2
PHANTOM
 70
    64
  3
_____ _ _ _____ _ _ _____ _ _ _____ _ _ ____  
 72
    65
 73
     6
 40
15.500000
 49
8.000000
 49
-1.500000
 49
1.500000
 49
-1.500000
 49
1.500000
 49
-1.500000
  0
ENDTAB
  0
TABLE
  2
LAYER
 70
     1
  0
LAYER
  2
0
 70
     0
 62
     7
  6
CONTINUOUS
  0
ENDTAB
  0
TABLE
  2
STYLE
 70
     1
  0
STYLE
  2
STANDARD
 70
     0
 40
0.000000
 41
1.000000
 50
0.000000
 71
     0
 42
0.200000
  3
txt
  4
BIGFONT
  0
ENDTAB
  0
TABLE
  2
VIEW
 70
     0
  0
ENDTAB
  0
ENDSEC
  0
SECTION
  2
BLOCKS
  0
BLOCK
  8
0
 70
65
  2
*DIM0
 10
0.0
 20
0.0
 30
0.0
  0
ARC
  8
0
  6
BYBLOCK
 62
0
 10
251.181000
 20
-156.649994
 40
23.000000
 50
77.035515
 51
102.964485
  0
LINE
  8
0
  6
BYBLOCK
 62
0
 10
251.966003
 20
-141.671005
 11
252.462997
 21
-132.184006
  0
LINE
  8
0
  6
BYBLOCK
 62
0
 10
250.395996
 20
-141.671005
 11
249.897995
 21
-132.184006
  0
LINE
  8
0
  6
BYBLOCK
 62
0
 10
252.384720
 20
-133.681519
 11
255.034439
 21
-135.088287
  0
LINE
  8
0
  6
BYBLOCK
 62
0
 10
252.384720
 20
-133.681519
 11
255.382828
 21
-133.574951
  0
LINE
  8
0
  6
BYBLOCK
 62
0
 10
249.977280
 20
-133.681519
 11
246.979172
 21
-133.574951
  0
LINE
  8
0
  6
BYBLOCK
 62
0
 10
249.977280
 20
-133.681519
 11
247.327560
 21
-135.088287
  0
TEXT
  8
0
 62
2
 10
243.181000
 20
-132.449997
 40
3.200000
  1
ü}3üï
 50
0.000000
 41
1.500330
 51
0.000000
  7
STANDARD
  0
ENDBLK
  8
3
  0
BLOCK
  8
0
 70
65
  2
*DIM1
 10
0.0
 20
0.0
 30
0.0
  0
LINE
  8
0
  6
BYBLOCK
 62
2
 10
306.181000
 20
-143.649994
 11
276.681000
 21
-143.649994
  0
LINE
  8
0
  6
BYBLOCK
 62
2
 10
306.181000
 20
-169.649994
 11
276.681000
 21
-169.649994
  0
LINE
  8
0
  6
BYBLOCK
 62
2
 10
278.181000
 20
-143.649994
 11
278.181000
 21
-169.649994
  0
LINE
  8
0
  6
BYBLOCK
 62
2
 10
278.181000
 20
-143.649994
 11
277.404541
 21
-146.547775
  0
LINE
  8
0
  6
BYBLOCK
 62
2
 10
278.181000
 20
-143.649994
 11
278.957458
 21
-146.547775
  0
LINE
  8
0
  6
BYBLOCK
 62
2
 10
278.181000
 20
-169.649994
 11
278.957458
 21
-166.752213
  0
LINE
  8
0
  6
BYBLOCK
 62
2
 10
278.181000
 20
-169.649994
 11
277.404541
 21
-166.752213
  0
TEXT
  8
0
 62
2
 10
276.980988
 20
-167.849991
 40
3.200000
  1
âË26
 50
90.000000
 41
0.908729
 51
0.000000
  7
STANDARD
  0
TEXT
  8
0
 62
2
 10
275.381378
 20
-159.126114
 40
1.600000
  1
 0
 50
90.000000
 41
0.908729
 51
0.000000
  7
STANDARD
  0
TEXT
  8
0
 62
2
 10
276.981384
 20
-159.126190
 40
1.600000
  1
-0.013
 50
90.000000
 41
0.908729
 51
0.000000
  7
STANDARD
  0
ENDBLK
  8
0
  0
BLOCK
  8
0
 70
65
  2
*DIM2
 10
0.0
 20
0.0
 30
0.0
  0
LINE
  8
0
  6
BYBLOCK
 62
2
 10
330.181000
 20
-127.150002
 11
341.181000
 21
-127.150002
  0
LINE
  8
0
  6
BYBLOCK
 62
2
 10
330.181000
 20
-130.149994
 11
341.181000
 21
-130.149994
  0
LINE
  8
0
  6
BYBLOCK
 62
2
 10
339.681000
 20
-121.150002
 11
339.681000
 21
-136.149994
  0
LINE
  8
0
  6
BYBLOCK
 62
2
 10
339.681000
 20
-127.150002
 11
339.681000
 21
-111.707001
  0
LINE
  8
0
  6
BYBLOCK
 62
2
 10
339.681000
 20
-127.150002
 11
340.457458
 21
-124.252228
  0
LINE
  8
0
  6
BYBLOCK
 62
2
 10
339.681000
 20
-127.150002
 11
338.904541
 21
-124.252228
  0
LINE
  8
0
  6
BYBLOCK
 62
2
 10
339.681000
 20
-130.149994
 11
338.904541
 21
-133.047775
  0
LINE
  8
0
  6
BYBLOCK
 62
2
 10
339.681000
 20
-130.149994
 11
340.457458
 21
-133.047775
  0
TEXT
  8
0
 62
2
 10
338.480988
 20
-123.650002
 40
3.200000
  1
3
 50
90.000000
 41
0.873629
 51
0.000000
  7
STANDARD
  0
TEXT
  8
0
 62
2
 10
336.881104
 20
-120.854317
 40
1.600000
  1
+0.014
 50
90.000000
 41
0.873629
 51
0.000000
  7
STANDARD
  0
TEXT
  8
0
 62
2
 10
338.481110
 20
-120.854393
 40
1.600000
  1
 0
 50
90.000000
 41
0.873629
 51
0.000000
  7
STANDARD
  0
ENDBLK
  8
0
  0
BLOCK
  8
0
 70
65
  2
*DIM3
 10
0.0
 20
0.0
 30
0.0
  0
LINE
  8
0
  6
BYBLOCK
 62
2
 10
362.307007
 20
-118.668999
 11
365.307007
 21
-118.668999
  0
LINE
  8
0
  6
BYBLOCK
 62
2
 10
362.307007
 20
-110.668999
 11
362.307007
 21
-120.168999
  0
LINE
  8
0
  6
BYBLOCK
 62
2
 10
362.307007
 20
-118.668999
 11
365.307007
 21
-118.668999
  0
LINE
  8
0
  6
BYBLOCK
 62
2
 10
362.307007
 20
-118.668999
 11
347.049011
 21
-118.668999
  0
TEXT
  8
0
 62
2
 10
346.192017
 20
-117.469002
 40
3.200000
  1
3
 50
0.000000
 41
0.906835
 51
0.000000
  7
STANDARD
  0
TEXT
  8
0
 62
2
 10
349.093872
 20
-115.869003
 40
1.600000
  1
+0.016
 50
0.000000
 41
0.906835
 51
0.000000
  7
STANDARD
  0
TEXT
  8
0
 62
2
 10
349.093872
 20
-117.469002
 40
1.600000
  1
+0.006
 50
0.000000
 41
0.906835
 51
0.000000
  7
STANDARD
  0
ENDBLK
  8
0
  0
ENDSEC
  0
SECTION
  2
ENTITIES
  0
POINT
  8
0
  62
7
  10
-191.250000
  20
165.500000
  30
0.0
  0
POINT
  8
0
  62
7
  10
-166.250000
  20
165.500000
  30
0.0
  0
POINT
  8
0
  62
7
  10
-141.250000
  20
165.500000
  30
0.0
  0
POINT
  8
0
  62
7
  10
-127.250000
  20
155.000000
  30
0.0
  0
POINT
  8
0
  62
7
  10
-116.250000
  20
165.500000
  30
0.0
  0
POINT
  8
0
  62
7
  10
-77.250000
  20
155.000000
  30
0.0
  0
POINT
  8
0
  62
7
  10
-27.250000
  20
155.000000
  30
0.0
  0
POINT
  8
0
  62
7
  10
22.750000
  20
155.000000
  30
0.0
  0
POINT
  8
0
  62
7
  10
-91.250000
  20
-44.500000
  30
0.0
  0
POINT
  8
0
  62
7
  10
-66.250000
  20
-44.500000
  30
0.0
  0
POINT
  8
0
  62
7
  10
-41.250000
  20
-44.500000
  30
0.0
  0
POINT
  8
0
  62
7
  10
-16.250000
  20
-44.500000
  30
0.0
  0
POINT
  8
0
  62
7
  10
72.750000
  20
-55.000000
  30
0.0
  0
POINT
  8
0
  62
7
  10
122.750000
  20
-55.000000
  30
0.0
  0
POINT
  8
0
  62
7
  10
172.750000
  20
-55.000000
  30
0.0
  0
POINT
  8
0
  62
7
  10
222.750000
  20
-55.000000
  30
0.0
  0
LINE
  8
0
  6
CONTINUOUS
 62
7
 10
399.799988
 20
276.250000
 11
399.799988
 21
-276.750000
  0
LINE
  8
0
  6
CONTINUOUS
 62
7
 10
-399.250000
 20
276.250000
 11
-399.250000
 21
-276.750000
  0
LINE
  8
0
  6
CONTINUOUS
 62
7
 10
-399.250000
 20
276.250000
 11
399.799988
 21
276.250000
  0
LINE
  8
0
  6
CONTINUOUS
 62
7
 10
-399.250000
 20
-276.750000
 11
399.799988
 21
-276.750000
  0
LINE
  8
0
  6
CONTINUOUS
 62
7
 10
239.800003
 20
-251.750000
 11
399.799988
 21
-251.750000
  0
LINE
  8
0
  6
CONTINUOUS
 62
7
 10
239.800003
 20
251.250000
 11
399.799988
 21
251.250000
  0
LINE
  8
0
  6
CONTINUOUS
 62
7
 10
-399.250000
 20
251.250000
 11
-239.250000
 21
251.250000
  0
LINE
  8
0
  6
CONTINUOUS
 62
7
 10
239.800003
 20
-251.750000
 11
239.800003
 21
-276.750000
  0
LINE
  8
0
  6
CONTINUOUS
 62
7
 10
239.800003
 20
251.250000
 11
239.800003
 21
276.250000
  0
LINE
  8
0
  6
CONTINUOUS
 62
7
 10
-239.250000
 20
276.250000
 11
-239.250000
 21
251.250000
  0
LINE
  8
0
  6
CONTINUOUS
 62
7
 10
-298.250000
 20
-196.500000
 11
-298.250000
 21
-165.500000
  0
LINE
  8
0
  6
CONTINUOUS
 62
7
 10
-298.250000
 20
-196.500000
 11
-91.250000
 21
-196.500000
  0
LINE
  8
0
  6
CONTINUOUS
 62
7
 10
-298.250000
 20
-165.500000
 11
-91.250000
 21
-165.500000
  0
LINE
  8
0
  6
CONTINUOUS
 62
7
 10
-298.250000
 20
-140.500000
 11
-91.250000
 21
-140.500000
  0
LINE
  8
0
  6
CONTINUOUS
 62
7
 10
-298.250000
 20
-95.500000
 11
-91.250000
 21
-95.500000
  0
LINE
  8
0
  6
CONTINUOUS
 62
7
 10
-298.250000
 20
-140.500000
 11
-298.250000
 21
-95.500000
  0
LINE
  8
0
  6
CONTINUOUS
 62
2
 10
-298.250000
 20
-102.699997
 11
-290.175995
 21
-102.699997
  0
LINE
  8
0
  6
CONTINUOUS
 62
2
 10
-282.324005
 20
-102.699997
 11
-263.175995
 21
-102.699997
  0
LINE
  8
0
  6
CONTINUOUS
 62
2
 10
-298.250000
 20
-133.300003
 11
-290.175995
 21
-133.300003
  0
LINE
  8
0
  6
CONTINUOUS
 62
2
 10
-298.250000
 20
-130.699997
 11
-91.250000
 21
-130.699997
  0
LINE
  8
0
  6
CONTINUOUS
 62
2
 10
-282.324005
 20
-133.300003
 11
-263.175995
 21
-133.300003
  0
LINE
  8
0
  6
CONTINUOUS
 62
2
 10
-255.324005
 20
-133.300003
 11
-175.175995
 21
-133.300003
  0
LINE
  8
0
  6
CONTINUOUS
 62
2
 10
-255.324005
 20
-102.699997
 11
-175.175995
 21
-102.699997
  0
LINE
  8
0
  6
CENTER
 62
2
 10
-340.750000
 20
-181.000000
 11
74.250000
 21
-181.000000
  0
LINE
  8
0
  6
CENTER
 62
2
 10
-340.750000
 20
-118.000000
 11
74.250000
 21
-118.000000
  0
LINE
  8
0
  6
CONTINUOUS
 62
7
 10
-91.250000
 20
-196.500000
 11
-91.250000
 21
-165.500000
  0
LINE
  8
0
  6
CONTINUOUS
 62
7
 10
-91.250000
 20
-75.500000
 11
-91.250000
 21
-44.500000
  0
LINE
  8
0
  6
CONTINUOUS
 62
7
 10
-338.250000
 20
-187.500000
 11
-298.250000
 21
-187.500000
  0
LINE
  8
0
  6
CONTINUOUS
 62
7
 10
-338.250000
 20
-187.500000
 11
-338.250000
 21
-174.500000
  0
LINE
  8
0
  6
CONTINUOUS
 62
7
 10
-338.250000
 20
-174.500000
 11
-298.250000
 21
-174.500000
  0
LINE
  8
0
  6
CONTINUOUS
 62
2
 10
70.250000
 20
-64.300003
 11
72.750000
 21
-64.300003
  0
LINE
  8
0
  6
CONTINUOUS
 62
2
 10
70.250000
 20
-55.700001
 11
72.750000
 21
-55.700001
  0
LINE
  8
0
  6
CONTINUOUS
 62
7
 10
70.250000
 20
-55.000000
 11
72.750000
 21
-55.000000
  0
LINE
  8
0
  6
CONTINUOUS
 62
7
 10
70.250000
 20
-65.000000
 11
72.750000
 21
-65.000000
  0
LINE
  8
0
  6
CONTINUOUS
 62
7
 10
72.750000
 20
-65.000000
 11
72.750000
 21
-55.000000
  0
LINE
  8
0
  6
CONTINUOUS
 62
7
 10
-88.750000
 20
-66.000000
 11
36.250000
 21
-66.000000
  0
LINE
  8
0
  6
CONTINUOUS
 62
7
 10
-88.750000
 20
-54.000000
 11
36.250000
 21
-54.000000
  0
LINE
  8
0
  6
CONTINUOUS
 62
7
 10
-91.250000
 20
-45.250000
 11
-89.750000
 21
-45.250000
  0
LINE
  8
0
  6
CONTINUOUS
 62
7
 10
-91.250000
 20
-74.750000
 11
-89.750000
 21
-74.750000
  0
LINE
  8
0
  6
CONTINUOUS
 62
7
 10
-89.750000
 20
-69.500000
 11
-88.750000
 21
-69.500000
  0
LINE
  8
0
  6
CONTINUOUS
 62
7
 10
-89.750000
 20
-50.500000
 11
-88.750000
 21
-50.500000
  0
LINE
  8
0
  6
CONTINUOUS
 62
7
 10
-88.750000
 20
-69.500000
 11
-88.750000
 21
-50.500000
  0
LINE
  8
0
  6
CONTINUOUS
 62
7
 10
-88.750000
 20
-127.500000
 11
-88.750000
 21
-108.500000
  0
LINE
  8
0
  6
CONTINUOUS
 62
7
 10
-89.750000
 20
-132.750000
 11
-89.750000
 21
-103.250000
  0
LINE
  8
0
  6
CONTINUOUS
 62
7
 10
-89.750000
 20
-127.500000
 11
-88.750000
 21
-127.500000
  0
LINE
  8
0
  6
CONTINUOUS
 62
7
 10
-89.750000
 20
-108.500000
 11
-88.750000
 21
-108.500000
  0
LINE
  8
0
  6
CONTINUOUS
 62
7
 10
36.250000
 20
-49.000000
 11
36.250000
 21
-71.000000
  0
LINE
  8
0
  6
CONTINUOUS
 62
7
 10
36.250000
 20
-71.000000
 11
56.250000
 21
-71.000000
  0
LINE
  8
0
  6
CONTINUOUS
 62
7
 10
36.250000
 20
-49.000000
 11
56.250000
 21
-49.000000
  0
LINE
  8
0
  6
CONTINUOUS
 62
7
 10
56.250000
 20
-50.500000
 11
64.250000
 21
-50.500000
  0
LINE
  8
0
  6
CONTINUOUS
 62
7
 10
56.250000
 20
-69.500000
 11
64.250000
 21
-69.500000
  0
LINE
  8
0
  6
CONTINUOUS
 62
7
 10
56.250000
 20
-49.000000
 11
56.250000
 21
-50.500000
  0
LINE
  8
0
  6
CONTINUOUS
 62
7
 10
56.250000
 20
-69.500000
 11
56.250000
 21
-71.000000
  0
LINE
  8
0
  6
CONTINUOUS
 62
7
 10
-89.750000
 20
-190.500000
 11
-88.750000
 21
-190.500000
  0
LINE
  8
0
  6
CONTINUOUS
 62
7
 10
-88.750000
 20
-171.500000
 11
-88.750000
 21
-190.500000
  0
LINE
  8
0
  6
CONTINUOUS
 62
7
 10
-91.250000
 20
-195.750000
 11
-89.750000
 21
-195.750000
  0
LINE
  8
0
  6
CONTINUOUS
 62
7
 10
-91.250000
 20
-166.250000
 11
-89.750000
 21
-166.250000
  0
LINE
  8
0
  6
CONTINUOUS
 62
7
 10
-89.750000
 20
-171.500000
 11
-88.750000
 21
-171.500000
  0
LINE
  8
0
  6
CONTINUOUS
 62
2
 10
70.250000
 20
-176.699997
 11
72.750000
 21
-176.699997
  0
LINE
  8
0
  6
CONTINUOUS
 62
2
 10
70.250000
 20
-185.300003
 11
72.750000
 21
-185.300003
  0
LINE
  8
0
  6
CONTINUOUS
 62
7
 10
70.250000
 20
-186.000000
 11
72.750000
 21
-186.000000
  0
LINE
  8
0
  6
CONTINUOUS
 62
7
 10
70.250000
 20
-176.000000
 11
72.750000
 21
-176.000000
  0
LINE
  8
0
  6
CONTINUOUS
 62
7
 10
72.750000
 20
-176.000000
 11
72.750000
 21
-186.000000
  0
LINE
  8
0
  6
CONTINUOUS
 62
7
 10
-88.750000
 20
-175.000000
 11
36.250000
 21
-175.000000
  0
LINE
  8
0
  6
CONTINUOUS
 62
7
 10
-88.750000
 20
-187.000000
 11
36.250000
 21
-187.000000
  0
LINE
  8
0
  6
CONTINUOUS
 62
7
 10
36.250000
 20
-192.000000
 11
36.250000
 21
-170.000000
  0
LINE
  8
0
  6
CONTINUOUS
 62
7
 10
64.250000
 20
-190.815002
 11
64.250000
 21
-171.184998
  0
LINE
  8
0
  6
CONTINUOUS
 62
7
 10
36.250000
 20
-170.000000
 11
56.250000
 21
-170.000000
  0
LINE
  8
0
  6
CONTINUOUS
 62
7
 10
36.250000
 20
-192.000000
 11
56.250000
 21
-192.000000
  0
LINE
  8
0
  6
CONTINUOUS
 62
7
 10
56.250000
 20
-190.500000
 11
64.250000
 21
-190.500000
  0
LINE
  8
0
  6
CONTINUOUS
 62
7
 10
56.250000
 20
-171.500000
 11
64.250000
 21
-171.500000
  0
LINE
  8
0
  6
CONTINUOUS
 62
7
 10
56.250000
 20
-192.000000
 11
56.250000
 21
-190.500000
  0
LINE
  8
0
  6
CONTINUOUS
 62
7
 10
56.250000
 20
-171.500000
 11
56.250000
 21
-170.000000
  0
LINE
  8
0
  6
CONTINUOUS
 62
7
 10
70.250000
 20
-190.815002
 11
70.250000
 21
-171.184998
  0
LINE
  8
0
  6
CONTINUOUS
 62
7
 10
64.250000
 20
-176.093002
 11
70.250000
 21
-176.093002
  0
LINE
  8
0
  6
CONTINUOUS
 62
7
 10
64.250000
 20
-190.815002
 11
70.250000
 21
-190.815002
  0
LINE
  8
0
  6
CONTINUOUS
 62
7
 10
64.250000
 20
-171.184998
 11
70.250000
 21
-171.184998
  0
LINE
  8
0
  6
CONTINUOUS
 62
7
 10
-338.250000
 20
-111.500000
 11
-298.250000
 21
-111.500000
  0
LINE
  8
0
  6
CONTINUOUS
 62
7
 10
-338.250000
 20
-111.500000
 11
-338.250000
 21
-124.500000
  0
LINE
  8
0
  6
CONTINUOUS
 62
7
 10
-338.250000
 20
-124.500000
 11
-298.250000
 21
-124.500000
  0
LINE
  8
0
  6
CONTINUOUS
 62
2
 10
70.250000
 20
-122.300003
 11
72.750000
 21
-122.300003
  0
LINE
  8
0
  6
CONTINUOUS
 62
2
 10
70.250000
 20
-113.699997
 11
72.750000
 21
-113.699997
  0
LINE
  8
0
  6
CONTINUOUS
 62
7
 10
70.250000
 20
-113.000000
 11
72.750000
 21
-113.000000
  0
LINE
  8
0
  6
CONTINUOUS
 62
7
 10
70.250000
 20
-123.000000
 11
72.750000
 21
-123.000000
  0
LINE
  8
0
  6
CONTINUOUS
 62
7
 10
72.750000
 20
-123.000000
 11
72.750000
 21
-113.000000
  0
LINE
  8
0
  6
CONTINUOUS
 62
7
 10
-88.750000
 20
-124.000000
 11
36.250000
 21
-124.000000
  0
LINE
  8
0
  6
CONTINUOUS
 62
7
 10
-88.750000
 20
-112.000000
 11
36.250000
 21
-112.000000
  0
LINE
  8
0
  6
CONTINUOUS
 62
7
 10
36.250000
 20
-107.000000
 11
36.250000
 21
-129.000000
  0
LINE
  8
0
  6
CONTINUOUS
 62
7
 10
36.250000
 20
-129.000000
 11
64.250000
 21
-129.000000
  0
LINE
  8
0
  6
CONTINUOUS
 62
7
 10
36.250000
 20
-107.000000
 11
64.250000
 21
-107.000000
  0
LINE
  8
0
  6
CONTINUOUS
 62
7
 10
70.250000
 20
-109.500000
 11
70.250000
 21
-126.500000
  0
LINE
  8
0
  6
CONTINUOUS
 62
7
 10
64.250000
 20
-107.000000
 11
64.250000
 21
-129.000000
  0
LINE
  8
0
  6
CONTINUOUS
 62
7
 10
56.250000
 20
-123.545998
 11
64.250000
 21
-123.545998
  0
LINE
  8
0
  6
CONTINUOUS
 62
7
 10
56.250000
 20
-112.454002
 11
64.250000
 21
-112.454002
  0
LINE
  8
0
  6
CONTINUOUS
 62
7
 10
56.250000
 20
-112.454002
 11
56.250000
 21
-123.545998
  0
LINE
  8
0
  6
CONTINUOUS
 62
2
 10
56.250099
 20
-123.545998
 11
64.250099
 21
-112.455002
  0
LINE
  8
0
  6
CONTINUOUS
 62
2
 10
56.250000
 20
-112.454002
 11
64.250000
 21
-123.544998
  0
LINE
  8
0
  6
CONTINUOUS
 62
7
 10
-91.250000
 20
-140.500000
 11
-91.250000
 21
-95.500000
  0
LINE
  8
0
  6
CONTINUOUS
 62
2
 10
117.750000
 20
-102.699997
 11
118.750000
 21
-102.699997
  0
LINE
  8
0
  6
CONTINUOUS
 62
2
 10
113.949997
 20
-101.849998
 11
117.750000
 21
-101.849998
  0
LINE
  8
0
  6
CONTINUOUS
 62
2
 10
117.750000
 20
-101.849998
 11
117.750000
 21
-102.699997
  0
LINE
  8
0
  6
CONTINUOUS
 62
2
 10
112.449997
 20
-103.349998
 11
112.449997
 21
-104.650002
  0
LINE
  8
0
  6
CONTINUOUS
 62
2
 10
113.949997
 20
-106.150002
 11
117.750000
 21
-106.150002
  0
LINE
  8
0
  6
CONTINUOUS
 62
2
 10
117.750000
 20
-105.300003
 11
117.750000
 21
-106.150002
  0
LINE
  8
0
  6
CONTINUOUS
 62
2
 10
117.750000
 20
-105.300003
 11
118.750000
 21
-105.300003
  0
LINE
  8
0
  6
CONTINUOUS
 62
7
 10
118.750000
 20
-140.500000
 11
118.750000
 21
-95.500000
  0
LINE
  8
0
  6
CONTINUOUS
 62
7
 10
87.750000
 20
-140.500000
 11
118.750000
 21
-140.500000
  0
LINE
  8
0
  6
CONTINUOUS
 62
7
 10
87.750000
 20
-140.500000
 11
87.750000
 21
-95.500000
  0
LINE
  8
0
  6
CONTINUOUS
 62
7
 10
87.750000
 20
-95.500000
 11
118.750000
 21
-95.500000
  0
LINE
  8
0
  6
CENTER
 62
2
 10
85.750000
 20
-118.000000
 11
120.750000
 21
-118.000000
  0
LINE
  8
0
  6
CENTER
 62
2
 10
103.250000
 20
-142.500000
 11
103.250000
 21
-93.500000
  0
LINE
  8
0
  6
CONTINUOUS
 62
7
 10
-89.750000
 20
-166.250000
 11
-89.750000
 21
-195.750000
  0
LINE
  8
0
  6
CONTINUOUS
 62
7
 10
-89.750000
 20
-74.750000
 11
-89.750000
 21
-45.250000
  0
LINE
  8
0
  6
CONTINUOUS
 62
2
 10
-298.250000
 20
-105.300003
 11
-91.250000
 21
-105.300003
  0
LINE
  8
0
  6
CONTINUOUS
 62
7
 10
-91.250000
 20
-132.750000
 11
-89.750000
 21
-132.750000
  0
LINE
  8
0
  6
CONTINUOUS
 62
7
 10
-91.250000
 20
-103.250000
 11
-89.750000
 21
-103.250000
  0
LINE
  8
0
  6
CENTER
 62
2
 10
110.026001
 20
-132.000000
 11
120.750000
 21
-132.000000
  0
LINE
  8
0
  6
CENTER
 62
2
 10
110.026001
 20
-104.000000
 11
120.750000
 21
-104.000000
  0
LINE
  8
0
  6
CENTER
 62
2
 10
96.473801
 20
-132.000000
 11
85.750000
 21
-132.000000
  0
LINE
  8
0
  6
CENTER
 62
2
 10
96.473801
 20
-104.000000
 11
85.750000
 21
-104.000000
  0
LINE
  8
0
  6
CONTINUOUS
 62
7
 10
64.250000
 20
-185.906998
 11
70.250000
 21
-185.906998
  0
LINE
  8
0
  6
DASHED
 62
2
 10
-175.750000
 20
-165.500000
 11
-175.750000
 21
-172.000000
  0
LINE
  8
0
  6
DASHED
 62
2
 10
-174.250000
 20
-172.000000
 11
-174.250000
 21
-190.000000
  0
LINE
  8
0
  6
DASHED
 62
2
 10
-173.949997
 20
-172.000000
 11
-173.949997
 21
-190.000000
  0
LINE
  8
0
  6
CENTER
 62
2
 10
-171.250000
 20
-163.500000
 11
-171.250000
 21
-198.500000
  0
LINE
  8
0
  6
DASHED
 62
2
 10
-175.750000
 20
-172.000000
 11
-166.750000
 21
-172.000000
  0
LINE
  8
0
  6
DASHED
 62
2
 10
-166.750000
 20
-165.500000
 11
-166.750000
 21
-172.000000
  0
LINE
  8
0
  6
DASHED
 62
2
 10
-175.750000
 20
-196.500000
 11
-175.750000
 21
-190.000000
  0
LINE
  8
0
  6
DASHED
 62
2
 10
-175.750000
 20
-190.000000
 11
-166.750000
 21
-190.000000
  0
LINE
  8
0
  6
DASHED
 62
2
 10
-166.750000
 20
-196.500000
 11
-166.750000
 21
-190.000000
  0
LINE
  8
0
  6
DASHED
 62
2
 10
-168.550003
 20
-172.000000
 11
-168.550003
 21
-190.000000
  0
LINE
  8
0
  6
DASHED
 62
2
 10
-168.250000
 20
-172.000000
 11
-168.250000
 21
-190.000000
  0
LINE
  8
0
  6
DASHED
 62
2
 10
-290.750000
 20
-196.500000
 11
-290.750000
 21
-190.000000
  0
LINE
  8
0
  6
DASHED
 62
2
 10
-290.750000
 20
-190.000000
 11
-281.750000
 21
-190.000000
  0
LINE
  8
0
  6
DASHED
 62
2
 10
-281.750000
 20
-196.500000
 11
-281.750000
 21
-190.000000
  0
LINE
  8
0
  6
DASHED
 62
2
 10
-283.250000
 20
-172.000000
 11
-283.250000
 21
-190.000000
  0
LINE
  8
0
  6
DASHED
 62
2
 10
-283.549988
 20
-172.000000
 11
-283.549988
 21
-190.000000
  0
LINE
  8
0
  6
DASHED
 62
2
 10
-288.950012
 20
-172.000000
 11
-288.950012
 21
-190.000000
  0
LINE
  8
0
  6
DASHED
 62
2
 10
-289.250000
 20
-172.000000
 11
-289.250000
 21
-190.000000
  0
LINE
  8
0
  6
CENTER
 62
2
 10
-286.250000
 20
-163.500000
 11
-286.250000
 21
-198.500000
  0
LINE
  8
0
  6
DASHED
 62
2
 10
-281.750000
 20
-165.500000
 11
-281.750000
 21
-172.000000
  0
LINE
  8
0
  6
DASHED
 62
2
 10
-290.750000
 20
-172.000000
 11
-281.750000
 21
-172.000000
  0
LINE
  8
0
  6
DASHED
 62
2
 10
-290.750000
 20
-165.500000
 11
-290.750000
 21
-172.000000
  0
LINE
  8
0
  6
CONTINUOUS
 62
2
 10
-354.250000
 20
-102.699997
 11
-353.250000
 21
-102.699997
  0
LINE
  8
0
  6
CONTINUOUS
 62
2
 10
-358.049988
 20
-101.849998
 11
-354.250000
 21
-101.849998
  0
LINE
  8
0
  6
CONTINUOUS
 62
2
 10
-354.250000
 20
-101.849998
 11
-354.250000
 21
-102.699997
  0
LINE
  8
0
  6
CONTINUOUS
 62
2
 10
-359.549988
 20
-103.349998
 11
-359.549988
 21
-104.650002
  0
LINE
  8
0
  6
CONTINUOUS
 62
2
 10
-358.049988
 20
-106.150002
 11
-354.250000
 21
-106.150002
  0
LINE
  8
0
  6
CONTINUOUS
 62
2
 10
-354.250000
 20
-105.300003
 11
-354.250000
 21
-106.150002
  0
LINE
  8
0
  6
CONTINUOUS
 62
2
 10
-354.250000
 20
-105.300003
 11
-353.250000
 21
-105.300003
  0
LINE
  8
0
  6
CONTINUOUS
 62
7
 10
-353.250000
 20
-140.500000
 11
-353.250000
 21
-95.500000
  0
LINE
  8
0
  6
CONTINUOUS
 62
7
 10
-384.250000
 20
-140.500000
 11
-353.250000
 21
-140.500000
  0
LINE
  8
0
  6
CONTINUOUS
 62
7
 10
-384.250000
 20
-140.500000
 11
-384.250000
 21
-95.500000
  0
LINE
  8
0
  6
CONTINUOUS
 62
7
 10
-384.250000
 20
-95.500000
 11
-353.250000
 21
-95.500000
  0
LINE
  8
0
  6
CENTER
 62
2
 10
-386.250000
 20
-118.000000
 11
-351.250000
 21
-118.000000
  0
LINE
  8
0
  6
CENTER
 62
2
 10
-368.750000
 20
-142.500000
 11
-368.750000
 21
-93.500000
  0
LINE
  8
0
  6
CENTER
 62
2
 10
-361.973999
 20
-132.000000
 11
-351.250000
 21
-132.000000
  0
LINE
  8
0
  6
CENTER
 62
2
 10
-361.973999
 20
-104.000000
 11
-351.250000
 21
-104.000000
  0
LINE
  8
0
  6
CENTER
 62
2
 10
-375.526001
 20
-132.000000
 11
-386.250000
 21
-132.000000
  0
LINE
  8
0
  6
CENTER
 62
2
 10
-375.526001
 20
-104.000000
 11
-386.250000
 21
-104.000000
  0
LINE
  8
0
  6
CONTINUOUS
 62
7
 10
64.250000
 20
-118.000000
 11
70.250000
 21
-118.000000
  0
LINE
  8
0
  6
CONTINUOUS
 62
7
 10
93.750000
 20
-123.544998
 11
93.750000
 21
-118.544998
  0
LINE
  8
0
  6
CONTINUOUS
 62
7
 10
112.750000
 20
-123.544998
 11
112.750000
 21
-118.545998
  0
LINE
  8
0
  6
CONTINUOUS
 62
7
 10
-298.250000
 20
-44.500000
 11
-298.250000
 21
-75.500000
  0
LINE
  8
0
  6
CONTINUOUS
 62
7
 10
-298.250000
 20
-44.500000
 11
-91.250000
 21
-44.500000
  0
LINE
  8
0
  6
CONTINUOUS
 62
7
 10
-298.250000
 20
-75.500000
 11
-91.250000
 21
-75.500000
  0
LINE
  8
0
  6
CENTER
 62
2
 10
-340.750000
 20
-60.000000
 11
74.250000
 21
-60.000000
  0
LINE
  8
0
  6
CONTINUOUS
 62
7
 10
-338.250000
 20
-66.500000
 11
-298.250000
 21
-66.500000
  0
LINE
  8
0
  6
CONTINUOUS
 62
7
 10
-338.250000
 20
-66.500000
 11
-338.250000
 21
-53.500000
  0
LINE
  8
0
  6
CONTINUOUS
 62
7
 10
-338.250000
 20
-53.500000
 11
-298.250000
 21
-53.500000
  0
LINE
  8
0
  6
CONTINUOUS
 62
7
 10
64.250000
 20
-50.185101
 11
64.250000
 21
-69.814903
  0
LINE
  8
0
  6
CONTINUOUS
 62
7
 10
64.250000
 20
-64.907501
 11
70.250000
 21
-64.907501
  0
LINE
  8
0
  6
CONTINUOUS
 62
7
 10
64.250000
 20
-55.092499
 11
70.250000
 21
-55.092499
  0
LINE
  8
0
  6
CONTINUOUS
 62
7
 10
64.250000
 20
-50.185101
 11
70.250000
 21
-50.185101
  0
LINE
  8
0
  6
CONTINUOUS
 62
7
 10
70.250000
 20
-50.185101
 11
70.250000
 21
-69.814903
  0
LINE
  8
0
  6
CONTINUOUS
 62
7
 10
64.250000
 20
-69.814903
 11
70.250000
 21
-69.814903
  0
LINE
  8
0
  6
DASHED
 62
2
 10
-256.250000
 20
-172.000000
 11
-256.250000
 21
-190.000000
  0
LINE
  8
0
  6
DASHED
 62
2
 10
-256.549988
 20
-172.000000
 11
-256.549988
 21
-190.000000
  0
LINE
  8
0
  6
DASHED
 62
2
 10
-261.950012
 20
-172.000000
 11
-261.950012
 21
-190.000000
  0
LINE
  8
0
  6
DASHED
 62
2
 10
-262.250000
 20
-172.000000
 11
-262.250000
 21
-190.000000
  0
LINE
  8
0
  6
CENTER
 62
2
 10
-259.250000
 20
-163.500000
 11
-259.250000
 21
-198.500000
  0
LINE
  8
0
  6
DASHED
 62
2
 10
-263.750000
 20
-172.000000
 11
-254.750000
 21
-172.000000
  0
LINE
  8
0
  6
DASHED
 62
2
 10
-254.750000
 20
-165.500000
 11
-254.750000
 21
-172.000000
  0
LINE
  8
0
  6
DASHED
 62
2
 10
-263.750000
 20
-165.500000
 11
-263.750000
 21
-172.000000
  0
LINE
  8
0
  6
DASHED
 62
2
 10
-263.750000
 20
-190.000000
 11
-254.750000
 21
-190.000000
  0
LINE
  8
0
  6
DASHED
 62
2
 10
-263.750000
 20
-196.500000
 11
-263.750000
 21
-190.000000
  0
LINE
  8
0
  6
DASHED
 62
2
 10
-254.750000
 20
-196.500000
 11
-254.750000
 21
-190.000000
  0
LINE
  8
0
  6
CONTINUOUS
 62
2
 10
-167.324005
 20
-133.300003
 11
-91.250000
 21
-133.300003
  0
LINE
  8
0
  6
CONTINUOUS
 62
2
 10
-167.324005
 20
-102.699997
 11
-91.250000
 21
-102.699997
  0
LINE
  8
0
  6
CONTINUOUS
 62
7
 10
64.250000
 20
-126.500000
 11
70.250000
 21
-126.500000
  0
LINE
  8
0
  6
CONTINUOUS
 62
7
 10
64.250000
 20
-109.500000
 11
70.250000
 21
-109.500000
  0
LINE
  8
0
  6
CONTINUOUS
 62
7
 10
98.342499
 20
-109.500000
 11
108.156998
 21
-109.500000
  0
LINE
  8
0
  6
CONTINUOUS
 62
7
 10
98.342499
 20
-126.500000
 11
108.156998
 21
-126.500000
  0
LINE
  8
0
  6
CONTINUOUS
 62
7
 10
93.750000
 20
-117.455002
 11
93.750000
 21
-112.455002
  0
LINE
  8
0
  6
CONTINUOUS
 62
7
 10
112.750000
 20
-117.454002
 11
112.750000
 21
-112.455002
  0
LINE
  8
0
  6
CONTINUOUS
 62
7
 10
93.435097
 20
-118.000000
 11
98.342598
 21
-126.500000
  0
LINE
  8
0
  6
CONTINUOUS
 62
7
 10
108.157997
 20
-109.500000
 11
113.065002
 21
-118.000000
  0
LINE
  8
0
  6
CONTINUOUS
 62
7
 10
108.157997
 20
-126.500000
 11
113.065002
 21
-118.000000
  0
LINE
  8
0
  6
CONTINUOUS
 62
7
 10
93.435303
 20
-118.000000
 11
98.342796
 21
-109.500000
  0
LINE
  8
0
  6
CONTINUOUS
 62
7
 10
-298.250000
 20
18.500000
 11
-298.250000
 21
49.500000
  0
LINE
  8
0
  6
CONTINUOUS
 62
7
 10
-298.250000
 20
18.500000
 11
-191.250000
 21
18.500000
  0
LINE
  8
0
  6
CONTINUOUS
 62
7
 10
-298.250000
 20
49.500000
 11
-191.250000
 21
49.500000
  0
LINE
  8
0
  6
CONTINUOUS
 62
7
 10
-298.250000
 20
69.500000
 11
-191.250000
 21
69.500000
  0
LINE
  8
0
  6
CONTINUOUS
 62
7
 10
-298.250000
 20
114.500000
 11
-191.250000
 21
114.500000
  0
LINE
  8
0
  6
CONTINUOUS
 62
7
 10
-298.250000
 20
69.500000
 11
-298.250000
 21
114.500000
  0
LINE
  8
0
  6
CONTINUOUS
 62
2
 10
-298.250000
 20
107.300003
 11
-290.175995
 21
107.300003
  0
LINE
  8
0
  6
CONTINUOUS
 62
2
 10
-282.324005
 20
107.300003
 11
-263.175995
 21
107.300003
  0
LINE
  8
0
  6
CONTINUOUS
 62
2
 10
-298.250000
 20
76.699997
 11
-290.175995
 21
76.699997
  0
LINE
  8
0
  6
CONTINUOUS
 62
2
 10
-298.250000
 20
79.300003
 11
-191.250000
 21
79.300003
  0
LINE
  8
0
  6
CONTINUOUS
 62
2
 10
-282.324005
 20
76.699997
 11
-263.175995
 21
76.699997
  0
LINE
  8
0
  6
CONTINUOUS
 62
2
 10
-255.324005
 20
76.699997
 11
-191.250000
 21
76.699997
  0
LINE
  8
0
  6
CONTINUOUS
 62
2
 10
-255.324005
 20
107.300003
 11
-191.250000
 21
107.300003
  0
LINE
  8
0
  6
CENTER
 62
2
 10
-340.250000
 20
34.000000
 11
-125.250000
 21
34.000000
  0
LINE
  8
0
  6
CENTER
 62
2
 10
-340.250000
 20
92.000000
 11
-125.250000
 21
92.000000
  0
LINE
  8
0
  6
CONTINUOUS
 62
7
 10
-191.250000
 20
18.500000
 11
-191.250000
 21
49.500000
  0
LINE
  8
0
  6
CONTINUOUS
 62
7
 10
-191.250000
 20
134.500000
 11
-191.250000
 21
165.500000
  0
LINE
  8
0
  6
CONTINUOUS
 62
7
 10
-338.250000
 20
27.500000
 11
-298.250000
 21
27.500000
  0
LINE
  8
0
  6
CONTINUOUS
 62
7
 10
-338.250000
 20
27.500000
 11
-338.250000
 21
40.500000
  0
LINE
  8
0
  6
CONTINUOUS
 62
7
 10
-338.250000
 20
40.500000
 11
-298.250000
 21
40.500000
  0
LINE
  8
0
  6
CONTINUOUS
 62
2
 10
-129.750000
 20
29.700001
 11
-127.250000
 21
29.700001
  0
LINE
  8
0
  6
CONTINUOUS
 62
2
 10
-129.750000
 20
38.299999
 11
-127.250000
 21
38.299999
  0
LINE
  8
0
  6
CONTINUOUS
 62
7
 10
-129.750000
 20
39.000000
 11
-127.250000
 21
39.000000
  0
LINE
  8
0
  6
CONTINUOUS
 62
7
 10
-129.750000
 20
29.000000
 11
-127.250000
 21
29.000000
  0
LINE
  8
0
  6
CONTINUOUS
 62
7
 10
-127.250000
 20
29.000000
 11
-127.250000
 21
39.000000
  0
LINE
  8
0
  6
CONTINUOUS
 62
7
 10
-188.750000
 20
28.000000
 11
-163.750000
 21
28.000000
  0
LINE
  8
0
  6
CONTINUOUS
 62
7
 10
-188.750000
 20
40.000000
 11
-163.750000
 21
40.000000
  0
LINE
  8
0
  6
CONTINUOUS
 62
7
 10
-191.250000
 20
164.750000
 11
-189.750000
 21
164.750000
  0
LINE
  8
0
  6
CONTINUOUS
 62
7
 10
-191.250000
 20
135.250000
 11
-189.750000
 21
135.250000
  0
LINE
  8
0
  6
CONTINUOUS
 62
7
 10
-189.750000
 20
140.500000
 11
-188.750000
 21
140.500000
  0
LINE
  8
0
  6
CONTINUOUS
 62
7
 10
-189.750000
 20
159.500000
 11
-188.750000
 21
159.500000
  0
LINE
  8
0
  6
CONTINUOUS
 62
7
 10
-188.750000
 20
140.500000
 11
-188.750000
 21
159.500000
  0
LINE
  8
0
  6
CONTINUOUS
 62
7
 10
-188.750000
 20
82.500000
 11
-188.750000
 21
101.500000
  0
LINE
  8
0
  6
CONTINUOUS
 62
7
 10
-189.750000
 20
77.250000
 11
-189.750000
 21
106.750000
  0
LINE
  8
0
  6
CONTINUOUS
 62
7
 10
-189.750000
 20
82.500000
 11
-188.750000
 21
82.500000
  0
LINE
  8
0
  6
CONTINUOUS
 62
7
 10
-189.750000
 20
101.500000
 11
-188.750000
 21
101.500000
  0
LINE
  8
0
  6
CONTINUOUS
 62
7
 10
-163.750000
 20
23.000000
 11
-143.750000
 21
23.000000
  0
LINE
  8
0
  6
CONTINUOUS
 62
7
 10
-163.750000
 20
45.000000
 11
-143.750000
 21
45.000000
  0
LINE
  8
0
  6
CONTINUOUS
 62
7
 10
-143.750000
 20
43.500000
 11
-135.750000
 21
43.500000
  0
LINE
  8
0
  6
CONTINUOUS
 62
7
 10
-143.750000
 20
24.500000
 11
-135.750000
 21
24.500000
  0
LINE
  8
0
  6
CONTINUOUS
 62
7
 10
-189.750000
 20
24.500000
 11
-188.750000
 21
24.500000
  0
LINE
  8
0
  6
CONTINUOUS
 62
7
 10
-188.750000
 20
43.500000
 11
-188.750000
 21
24.500000
  0
LINE
  8
0
  6
CONTINUOUS
 62
7
 10
-191.250000
 20
19.250000
 11
-189.750000
 21
19.250000
  0
LINE
  8
0
  6
CONTINUOUS
 62
7
 10
-191.250000
 20
48.750000
 11
-189.750000
 21
48.750000
  0
LINE
  8
0
  6
CONTINUOUS
 62
7
 10
-189.750000
 20
43.500000
 11
-188.750000
 21
43.500000
  0
LINE
  8
0
  6
CONTINUOUS
 62
7
 10
-338.250000
 20
98.500000
 11
-298.250000
 21
98.500000
  0
LINE
  8
0
  6
CONTINUOUS
 62
7
 10
-338.250000
 20
98.500000
 11
-338.250000
 21
85.500000
  0
LINE
  8
0
  6
CONTINUOUS
 62
7
 10
-338.250000
 20
85.500000
 11
-298.250000
 21
85.500000
  0
LINE
  8
0
  6
CONTINUOUS
 62
2
 10
-129.750000
 20
87.699997
 11
-127.250000
 21
87.699997
  0
LINE
  8
0
  6
CONTINUOUS
 62
2
 10
-129.750000
 20
96.300003
 11
-127.250000
 21
96.300003
  0
LINE
  8
0
  6
CONTINUOUS
 62
7
 10
-129.750000
 20
97.000000
 11
-127.250000
 21
97.000000
  0
LINE
  8
0
  6
CONTINUOUS
 62
7
 10
-129.750000
 20
87.000000
 11
-127.250000
 21
87.000000
  0
LINE
  8
0
  6
CONTINUOUS
 62
7
 10
-127.250000
 20
87.000000
 11
-127.250000
 21
97.000000
  0
LINE
  8
0
  6
CONTINUOUS
 62
7
 10
-188.750000
 20
86.000000
 11
-163.750000
 21
86.000000
  0
LINE
  8
0
  6
CONTINUOUS
 62
7
 10
-188.750000
 20
98.000000
 11
-163.750000
 21
98.000000
  0
LINE
  8
0
  6
CONTINUOUS
 62
7
 10
-163.750000
 20
81.000000
 11
-135.750000
 21
81.000000
  0
LINE
  8
0
  6
CONTINUOUS
 62
7
 10
-163.750000
 20
103.000000
 11
-135.750000
 21
103.000000
  0
LINE
  8
0
  6
CONTINUOUS
 62
7
 10
-143.750000
 20
86.454498
 11
-135.750000
 21
86.454498
  0
LINE
  8
0
  6
CONTINUOUS
 62
7
 10
-143.750000
 20
97.545502
 11
-135.750000
 21
97.545502
  0
LINE
  8
0
  6
CONTINUOUS
 62
2
 10
-143.750000
 20
86.454498
 11
-135.750000
 21
97.545502
  0
LINE
  8
0
  6
CONTINUOUS
 62
2
 10
-143.750000
 20
97.545601
 11
-135.750000
 21
86.454597
  0
LINE
  8
0
  6
CONTINUOUS
 62
7
 10
-191.250000
 20
69.500000
 11
-191.250000
 21
114.500000
  0
LINE
  8
0
  6
CONTINUOUS
 62
2
 10
-82.250000
 20
107.300003
 11
-81.250000
 21
107.300003
  0
LINE
  8
0
  6
CONTINUOUS
 62
2
 10
-86.050003
 20
108.150002
 11
-82.250000
 21
108.150002
  0
LINE
  8
0
  6
CONTINUOUS
 62
2
 10
-82.250000
 20
108.150002
 11
-82.250000
 21
107.300003
  0
LINE
  8
0
  6
CONTINUOUS
 62
2
 10
-87.550003
 20
106.650002
 11
-87.550003
 21
105.349998
  0
LINE
  8
0
  6
CONTINUOUS
 62
2
 10
-86.050003
 20
103.849998
 11
-82.250000
 21
103.849998
  0
LINE
  8
0
  6
CONTINUOUS
 62
2
 10
-82.250000
 20
104.699997
 11
-82.250000
 21
103.849998
  0
LINE
  8
0
  6
CONTINUOUS
 62
2
 10
-82.250000
 20
104.699997
 11
-81.250000
 21
104.699997
  0
LINE
  8
0
  6
CONTINUOUS
 62
7
 10
-81.250000
 20
69.500000
 11
-81.250000
 21
114.500000
  0
LINE
  8
0
  6
CONTINUOUS
 62
7
 10
-112.250000
 20
69.500000
 11
-81.250000
 21
69.500000
  0
LINE
  8
0
  6
CONTINUOUS
 62
7
 10
-112.250000
 20
69.500000
 11
-112.250000
 21
114.500000
  0
LINE
  8
0
  6
CONTINUOUS
 62
7
 10
-112.250000
 20
114.500000
 11
-81.250000
 21
114.500000
  0
LINE
  8
0
  6
CENTER
 62
2
 10
-114.250000
 20
92.000000
 11
-79.250000
 21
92.000000
  0
LINE
  8
0
  6
CENTER
 62
2
 10
-96.749901
 20
67.500000
 11
-96.749901
 21
116.500000
  0
LINE
  8
0
  6
CONTINUOUS
 62
7
 10
-189.750000
 20
48.750000
 11
-189.750000
 21
19.250000
  0
LINE
  8
0
  6
CONTINUOUS
 62
7
 10
-189.750000
 20
135.250000
 11
-189.750000
 21
164.750000
  0
LINE
  8
0
  6
CONTINUOUS
 62
2
 10
-298.250000
 20
104.699997
 11
-191.250000
 21
104.699997
  0
LINE
  8
0
  6
CONTINUOUS
 62
7
 10
-191.250000
 20
77.250000
 11
-189.750000
 21
77.250000
  0
LINE
  8
0
  6
CONTINUOUS
 62
7
 10
-191.250000
 20
106.750000
 11
-189.750000
 21
106.750000
  0
LINE
  8
0
  6
CENTER
 62
2
 10
-89.973701
 20
78.000000
 11
-79.250000
 21
78.000000
  0
LINE
  8
0
  6
CENTER
 62
2
 10
-89.973701
 20
106.000000
 11
-79.250000
 21
106.000000
  0
LINE
  8
0
  6
CENTER
 62
2
 10
-103.526001
 20
78.000000
 11
-114.250000
 21
78.000000
  0
LINE
  8
0
  6
CENTER
 62
2
 10
-103.526001
 20
106.000000
 11
-114.250000
 21
106.000000
  0
LINE
  8
0
  6
DASHED
 62
2
 10
-263.750000
 20
49.500000
 11
-263.750000
 21
43.000000
  0
LINE
  8
0
  6
DASHED
 62
2
 10
-262.250000
 20
43.000000
 11
-262.250000
 21
25.000000
  0
LINE
  8
0
  6
DASHED
 62
2
 10
-261.950012
 20
43.000000
 11
-261.950012
 21
25.000000
  0
LINE
  8
0
  6
CENTER
 62
2
 10
-259.250000
 20
51.500000
 11
-259.250000
 21
16.500000
  0
LINE
  8
0
  6
DASHED
 62
2
 10
-263.750000
 20
43.000000
 11
-254.750000
 21
43.000000
  0
LINE
  8
0
  6
DASHED
 62
2
 10
-254.750000
 20
49.500000
 11
-254.750000
 21
43.000000
  0
LINE
  8
0
  6
DASHED
 62
2
 10
-263.750000
 20
18.500000
 11
-263.750000
 21
25.000000
  0
LINE
  8
0
  6
DASHED
 62
2
 10
-263.750000
 20
25.000000
 11
-254.750000
 21
25.000000
  0
LINE
  8
0
  6
DASHED
 62
2
 10
-254.750000
 20
18.500000
 11
-254.750000
 21
25.000000
  0
LINE
  8
0
  6
DASHED
 62
2
 10
-256.549988
 20
43.000000
 11
-256.549988
 21
25.000000
  0
LINE
  8
0
  6
DASHED
 62
2
 10
-256.250000
 20
43.000000
 11
-256.250000
 21
25.000000
  0
LINE
  8
0
  6
DASHED
 62
2
 10
-290.750000
 20
18.500000
 11
-290.750000
 21
25.000000
  0
LINE
  8
0
  6
DASHED
 62
2
 10
-290.750000
 20
25.000000
 11
-281.750000
 21
25.000000
  0
LINE
  8
0
  6
DASHED
 62
2
 10
-281.750000
 20
18.500000
 11
-281.750000
 21
25.000000
  0
LINE
  8
0
  6
DASHED
 62
2
 10
-283.250000
 20
43.000000
 11
-283.250000
 21
25.000000
  0
LINE
  8
0
  6
DASHED
 62
2
 10
-283.549988
 20
43.000000
 11
-283.549988
 21
25.000000
  0
LINE
  8
0
  6
DASHED
 62
2
 10
-288.950012
 20
43.000000
 11
-288.950012
 21
25.000000
  0
LINE
  8
0
  6
DASHED
 62
2
 10
-289.250000
 20
43.000000
 11
-289.250000
 21
25.000000
  0
LINE
  8
0
  6
CENTER
 62
2
 10
-286.250000
 20
51.500000
 11
-286.250000
 21
16.500000
  0
LINE
  8
0
  6
DASHED
 62
2
 10
-281.750000
 20
49.500000
 11
-281.750000
 21
43.000000
  0
LINE
  8
0
  6
DASHED
 62
2
 10
-290.750000
 20
43.000000
 11
-281.750000
 21
43.000000
  0
LINE
  8
0
  6
DASHED
 62
2
 10
-290.750000
 20
49.500000
 11
-290.750000
 21
43.000000
  0
LINE
  8
0
  6
CONTINUOUS
 62
2
 10
-354.250000
 20
107.300003
 11
-353.250000
 21
107.300003
  0
LINE
  8
0
  6
CONTINUOUS
 62
2
 10
-358.049988
 20
108.150002
 11
-354.250000
 21
108.150002
  0
LINE
  8
0
  6
CONTINUOUS
 62
2
 10
-354.250000
 20
108.150002
 11
-354.250000
 21
107.300003
  0
LINE
  8
0
  6
CONTINUOUS
 62
2
 10
-359.549988
 20
106.650002
 11
-359.549988
 21
105.349998
  0
LINE
  8
0
  6
CONTINUOUS
 62
2
 10
-358.049988
 20
103.849998
 11
-354.250000
 21
103.849998
  0
LINE
  8
0
  6
CONTINUOUS
 62
2
 10
-354.250000
 20
104.699997
 11
-354.250000
 21
103.849998
  0
LINE
  8
0
  6
CONTINUOUS
 62
2
 10
-354.250000
 20
104.699997
 11
-353.250000
 21
104.699997
  0
LINE
  8
0
  6
CONTINUOUS
 62
7
 10
-353.250000
 20
69.500000
 11
-353.250000
 21
114.500000
  0
LINE
  8
0
  6
CONTINUOUS
 62
7
 10
-384.250000
 20
69.500000
 11
-353.250000
 21
69.500000
  0
LINE
  8
0
  6
CONTINUOUS
 62
7
 10
-384.250000
 20
69.500000
 11
-384.250000
 21
114.500000
  0
LINE
  8
0
  6
CONTINUOUS
 62
7
 10
-384.250000
 20
114.500000
 11
-353.250000
 21
114.500000
  0
LINE
  8
0
  6
CENTER
 62
2
 10
-386.250000
 20
92.000000
 11
-351.250000
 21
92.000000
  0
LINE
  8
0
  6
CENTER
 62
2
 10
-368.750000
 20
67.500000
 11
-368.750000
 21
116.500000
  0
LINE
  8
0
  6
CENTER
 62
2
 10
-361.973999
 20
78.000000
 11
-351.250000
 21
78.000000
  0
LINE
  8
0
  6
CENTER
 62
2
 10
-361.973999
 20
106.000000
 11
-351.250000
 21
106.000000
  0
LINE
  8
0
  6
CENTER
 62
2
 10
-375.526001
 20
78.000000
 11
-386.250000
 21
78.000000
  0
LINE
  8
0
  6
CENTER
 62
2
 10
-375.526001
 20
106.000000
 11
-386.250000
 21
106.000000
  0
LINE
  8
0
  6
CONTINUOUS
 62
7
 10
-135.750000
 20
92.000000
 11
-129.750000
 21
92.000000
  0
LINE
  8
0
  6
CONTINUOUS
 62
7
 10
-106.250000
 20
86.454697
 11
-106.250000
 21
91.454498
  0
LINE
  8
0
  6
CONTINUOUS
 62
7
 10
-87.249901
 20
86.454697
 11
-87.249901
 21
91.454498
  0
LINE
  8
0
  6
CONTINUOUS
 62
7
 10
-298.250000
 20
165.500000
 11
-298.250000
 21
134.500000
  0
LINE
  8
0
  6
CONTINUOUS
 62
7
 10
-298.250000
 20
165.500000
 11
-191.250000
 21
165.500000
  0
LINE
  8
0
  6
CONTINUOUS
 62
7
 10
-298.250000
 20
134.500000
 11
-191.250000
 21
134.500000
  0
LINE
  8
0
  6
CENTER
 62
2
 10
-340.250000
 20
150.000000
 11
-125.250000
 21
150.000000
  0
LINE
  8
0
  6
CONTINUOUS
 62
7
 10
-338.250000
 20
143.500000
 11
-298.250000
 21
143.500000
  0
LINE
  8
0
  6
CONTINUOUS
 62
7
 10
-338.250000
 20
143.500000
 11
-338.250000
 21
156.500000
  0
LINE
  8
0
  6
CONTINUOUS
 62
7
 10
-338.250000
 20
156.500000
 11
-298.250000
 21
156.500000
  0
LINE
  8
0
  6
CONTINUOUS
 62
7
 10
-135.750000
 20
29.092501
 11
-129.750000
 21
29.092501
  0
LINE
  8
0
  6
CONTINUOUS
 62
7
 10
-135.750000
 20
38.907501
 11
-129.750000
 21
38.907501
  0
LINE
  8
0
  6
CONTINUOUS
 62
7
 10
-135.750000
 20
43.814899
 11
-129.750000
 21
43.814899
  0
LINE
  8
0
  6
CONTINUOUS
 62
7
 10
-135.750000
 20
24.184999
 11
-129.750000
 21
24.184999
  0
LINE
  8
0
  6
CONTINUOUS
 62
7
 10
-106.250000
 20
92.545502
 11
-106.250000
 21
97.545303
  0
LINE
  8
0
  6
CONTINUOUS
 62
7
 10
-87.249901
 20
92.545502
 11
-87.249901
 21
97.545303
  0
LINE
  8
0
  6
CONTINUOUS
 62
7
 10
-135.750000
 20
100.500000
 11
-129.750000
 21
100.500000
  0
LINE
  8
0
  6
CONTINUOUS
 62
7
 10
-135.750000
 20
83.500000
 11
-129.750000
 21
83.500000
  0
LINE
  8
0
  6
CONTINUOUS
 62
7
 10
-101.656998
 20
83.500000
 11
-91.842499
 21
83.500000
  0
LINE
  8
0
  6
CONTINUOUS
 62
7
 10
-101.656998
 20
100.500000
 11
-91.842499
 21
100.500000
  0
LINE
  8
0
  6
CONTINUOUS
 62
7
 10
-106.565002
 20
92.000000
 11
-101.656998
 21
100.500000
  0
LINE
  8
0
  6
CONTINUOUS
 62
7
 10
-106.565002
 20
92.000000
 11
-101.656998
 21
83.500000
  0
LINE
  8
0
  6
CONTINUOUS
 62
7
 10
-86.934998
 20
92.000000
 11
-91.842499
 21
83.500000
  0
LINE
  8
0
  6
CONTINUOUS
 62
7
 10
-86.934998
 20
92.000000
 11
-91.842499
 21
100.500000
  0
LINE
  8
0
  6
CENTER
 62
2
 10
-373.250000
 20
109.500000
 11
-364.250000
 21
109.500000
  0
LINE
  8
0
  6
CENTER
 62
2
 10
-373.250000
 20
74.500000
 11
-364.250000
 21
74.500000
  0
LINE
  8
0
  6
CENTER
 62
2
 10
-206.250000
 20
151.500000
 11
-206.250000
 21
142.500000
  0
LINE
  8
0
  6
CENTER
 62
2
 10
-210.750000
 20
147.000000
 11
-201.750000
 21
147.000000
  0
LINE
  8
0
  6
CENTER
 62
2
 10
-250.250000
 20
157.500000
 11
-250.250000
 21
148.500000
  0
LINE
  8
0
  6
CENTER
 62
2
 10
-254.750000
 20
153.000000
 11
-245.750000
 21
153.000000
  0
LINE
  8
0
  6
CENTER
 62
2
 10
-286.250000
 20
116.000000
 11
-286.250000
 21
103.000000
  0
LINE
  8
0
  6
CENTER
 62
2
 10
-292.750000
 20
109.500000
 11
-279.750000
 21
109.500000
  0
LINE
  8
0
  6
CENTER
 62
2
 10
-259.250000
 20
116.000000
 11
-259.250000
 21
103.000000
  0
LINE
  8
0
  6
CENTER
 62
2
 10
-265.750000
 20
109.500000
 11
-252.750000
 21
109.500000
  0
LINE
  8
0
  6
CENTER
 62
2
 10
-259.250000
 20
81.000000
 11
-259.250000
 21
68.000000
  0
LINE
  8
0
  6
CENTER
 62
2
 10
-265.750000
 20
74.500000
 11
-252.750000
 21
74.500000
  0
LINE
  8
0
  6
CENTER
 62
2
 10
-286.250000
 20
81.000000
 11
-286.250000
 21
68.000000
  0
LINE
  8
0
  6
CENTER
 62
2
 10
-292.750000
 20
74.500000
 11
-279.750000
 21
74.500000
  0
LINE
  8
0
  6
CENTER
 62
2
 10
-278.250000
 20
49.000000
 11
-278.250000
 21
40.000000
  0
LINE
  8
0
  6
CENTER
 62
2
 10
-282.750000
 20
44.500000
 11
-273.750000
 21
44.500000
  0
LINE
  8
0
  6
CENTER
 62
2
 10
-251.250000
 20
49.000000
 11
-251.250000
 21
40.000000
  0
LINE
  8
0
  6
CENTER
 62
2
 10
-255.750000
 20
44.500000
 11
-246.750000
 21
44.500000
  0
LINE
  8
0
  6
CENTER
 62
2
 10
-251.250000
 20
28.000000
 11
-251.250000
 21
19.000000
  0
LINE
  8
0
  6
CENTER
 62
2
 10
-255.750000
 20
23.500000
 11
-246.750000
 21
23.500000
  0
LINE
  8
0
  6
CENTER
 62
2
 10
-278.250000
 20
28.000000
 11
-278.250000
 21
19.000000
  0
LINE
  8
0
  6
CENTER
 62
2
 10
-282.750000
 20
23.500000
 11
-273.750000
 21
23.500000
  0
LINE
  8
0
  6
CENTER
 62
2
 10
-373.250000
 20
-100.500000
 11
-364.250000
 21
-100.500000
  0
LINE
  8
0
  6
CENTER
 62
2
 10
-373.250000
 20
-135.500000
 11
-364.250000
 21
-135.500000
  0
LINE
  8
0
  6
CENTER
 62
2
 10
-250.250000
 20
-52.500000
 11
-250.250000
 21
-61.500000
  0
LINE
  8
0
  6
CENTER
 62
2
 10
-254.750000
 20
-57.000000
 11
-245.750000
 21
-57.000000
  0
LINE
  8
0
  6
CENTER
 62
2
 10
-106.250000
 20
-58.500000
 11
-106.250000
 21
-67.500000
  0
LINE
  8
0
  6
CENTER
 62
2
 10
-110.750000
 20
-63.000000
 11
-101.750000
 21
-63.000000
  0
LINE
  8
0
  6
CENTER
 62
2
 10
-286.250000
 20
-129.000000
 11
-286.250000
 21
-142.000000
  0
LINE
  8
0
  6
CENTER
 62
2
 10
-292.750000
 20
-135.500000
 11
-279.750000
 21
-135.500000
  0
LINE
  8
0
  6
CENTER
 62
2
 10
-259.250000
 20
-129.000000
 11
-259.250000
 21
-142.000000
  0
LINE
  8
0
  6
CENTER
 62
2
 10
-265.750000
 20
-135.500000
 11
-252.750000
 21
-135.500000
  0
LINE
  8
0
  6
CENTER
 62
2
 10
-259.250000
 20
-94.000000
 11
-259.250000
 21
-107.000000
  0
LINE
  8
0
  6
CENTER
 62
2
 10
-265.750000
 20
-100.500000
 11
-252.750000
 21
-100.500000
  0
LINE
  8
0
  6
CENTER
 62
2
 10
-286.250000
 20
-94.000000
 11
-286.250000
 21
-107.000000
  0
LINE
  8
0
  6
CENTER
 62
2
 10
-292.750000
 20
-100.500000
 11
-279.750000
 21
-100.500000
  0
LINE
  8
0
  6
CENTER
 62
2
 10
-171.250000
 20
-94.000000
 11
-171.250000
 21
-107.000000
  0
LINE
  8
0
  6
CENTER
 62
2
 10
-177.750000
 20
-100.500000
 11
-164.750000
 21
-100.500000
  0
LINE
  8
0
  6
CENTER
 62
2
 10
-171.250000
 20
-129.000000
 11
-171.250000
 21
-142.000000
  0
LINE
  8
0
  6
CENTER
 62
2
 10
-177.750000
 20
-135.500000
 11
-164.750000
 21
-135.500000
  0
LINE
  8
0
  6
CENTER
 62
2
 10
-278.250000
 20
-166.000000
 11
-278.250000
 21
-175.000000
  0
LINE
  8
0
  6
CENTER
 62
2
 10
-282.750000
 20
-170.500000
 11
-273.750000
 21
-170.500000
  0
LINE
  8
0
  6
CENTER
 62
2
 10
-278.250000
 20
-187.000000
 11
-278.250000
 21
-196.000000
  0
LINE
  8
0
  6
CENTER
 62
2
 10
-282.750000
 20
-191.500000
 11
-273.750000
 21
-191.500000
  0
LINE
  8
0
  6
CENTER
 62
2
 10
-251.250000
 20
-187.000000
 11
-251.250000
 21
-196.000000
  0
LINE
  8
0
  6
CENTER
 62
2
 10
-255.750000
 20
-191.500000
 11
-246.750000
 21
-191.500000
  0
LINE
  8
0
  6
CENTER
 62
2
 10
-251.250000
 20
-166.000000
 11
-251.250000
 21
-175.000000
  0
LINE
  8
0
  6
CENTER
 62
2
 10
-255.750000
 20
-170.500000
 11
-246.750000
 21
-170.500000
  0
LINE
  8
0
  6
CENTER
 62
2
 10
-163.250000
 20
-187.000000
 11
-163.250000
 21
-196.000000
  0
LINE
  8
0
  6
CENTER
 62
2
 10
-167.750000
 20
-191.500000
 11
-158.750000
 21
-191.500000
  0
LINE
  8
0
  6
CENTER
 62
2
 10
-163.250000
 20
-166.000000
 11
-163.250000
 21
-175.000000
  0
LINE
  8
0
  6
CENTER
 62
2
 10
-167.750000
 20
-170.500000
 11
-158.750000
 21
-170.500000
  0
LINE
  8
0
  6
CONTINUOUS
 62
7
 10
-135.750000
 20
24.184999
 11
-135.750000
 21
43.814899
  0
LINE
  8
0
  6
CONTINUOUS
 62
7
 10
-129.750000
 20
24.184999
 11
-129.750000
 21
43.814899
  0
LINE
  8
0
  6
CONTINUOUS
 62
7
 10
-143.750000
 20
23.000000
 11
-143.750000
 21
24.500000
  0
LINE
  8
0
  6
CONTINUOUS
 62
7
 10
-143.750000
 20
43.500000
 11
-143.750000
 21
45.000000
  0
LINE
  8
0
  6
CONTINUOUS
 62
7
 10
-163.750000
 20
23.000000
 11
-163.750000
 21
45.000000
  0
LINE
  8
0
  6
CONTINUOUS
 62
7
 10
-129.750000
 20
83.500000
 11
-129.750000
 21
100.500000
  0
LINE
  8
0
  6
CONTINUOUS
 62
7
 10
-135.750000
 20
81.000000
 11
-135.750000
 21
103.000000
  0
LINE
  8
0
  6
CONTINUOUS
 62
7
 10
-143.750000
 20
86.454498
 11
-143.750000
 21
97.545502
  0
LINE
  8
0
  6
CONTINUOUS
 62
7
 10
-163.750000
 20
81.000000
 11
-163.750000
 21
103.000000
  0
LINE
  8
0
  6
CONTINUOUS
 62
2
 10
-129.750000
 20
145.699997
 11
-127.250000
 21
145.699997
  0
LINE
  8
0
  6
CONTINUOUS
 62
2
 10
-129.750000
 20
154.300003
 11
-127.250000
 21
154.300003
  0
LINE
  8
0
  6
CONTINUOUS
 62
7
 10
-129.750000
 20
155.000000
 11
-127.250000
 21
155.000000
  0
LINE
  8
0
  6
CONTINUOUS
 62
7
 10
-129.750000
 20
145.000000
 11
-127.250000
 21
145.000000
  0
LINE
  8
0
  6
CONTINUOUS
 62
7
 10
-127.250000
 20
145.000000
 11
-127.250000
 21
155.000000
  0
LINE
  8
0
  6
CONTINUOUS
 62
7
 10
-188.750000
 20
144.000000
 11
-163.750000
 21
144.000000
  0
LINE
  8
0
  6
CONTINUOUS
 62
7
 10
-188.750000
 20
156.000000
 11
-163.750000
 21
156.000000
  0
LINE
  8
0
  6
CONTINUOUS
 62
7
 10
-163.750000
 20
139.000000
 11
-143.750000
 21
139.000000
  0
LINE
  8
0
  6
CONTINUOUS
 62
7
 10
-163.750000
 20
161.000000
 11
-143.750000
 21
161.000000
  0
LINE
  8
0
  6
CONTINUOUS
 62
7
 10
-143.750000
 20
159.500000
 11
-135.750000
 21
159.500000
  0
LINE
  8
0
  6
CONTINUOUS
 62
7
 10
-143.750000
 20
140.500000
 11
-135.750000
 21
140.500000
  0
LINE
  8
0
  6
CONTINUOUS
 62
7
 10
-163.750000
 20
139.000000
 11
-163.750000
 21
161.000000
  0
LINE
  8
0
  6
CONTINUOUS
 62
7
 10
-135.750000
 20
145.093002
 11
-129.750000
 21
145.093002
  0
LINE
  8
0
  6
CONTINUOUS
 62
7
 10
-135.750000
 20
154.906998
 11
-129.750000
 21
154.906998
  0
LINE
  8
0
  6
CONTINUOUS
 62
7
 10
-135.750000
 20
159.815002
 11
-129.750000
 21
159.815002
  0
LINE
  8
0
  6
CONTINUOUS
 62
7
 10
-135.750000
 20
140.184998
 11
-129.750000
 21
140.184998
  0
LINE
  8
0
  6
CONTINUOUS
 62
7
 10
-135.750000
 20
140.184998
 11
-135.750000
 21
159.815002
  0
LINE
  8
0
  6
CONTINUOUS
 62
7
 10
-129.750000
 20
140.184998
 11
-129.750000
 21
159.815002
  0
LINE
  8
0
  6
CONTINUOUS
 62
7
 10
-143.750000
 20
139.000000
 11
-143.750000
 21
140.500000
  0
LINE
  8
0
  6
CONTINUOUS
 62
7
 10
-143.750000
 20
159.500000
 11
-143.750000
 21
161.000000
  0
LINE
  8
0
  6
CONTINUOUS
 62
7
 10
286.181000
 20
-31.150000
 11
286.181000
 21
-62.150002
  0
LINE
  8
0
  6
CONTINUOUS
 62
7
 10
286.181000
 20
-31.150000
 11
296.181000
 21
-31.150000
  0
LINE
  8
0
  6
CONTINUOUS
 62
7
 10
286.181000
 20
-62.150002
 11
296.181000
 21
-62.150002
  0
LINE
  8
0
  6
CENTER
 62
1
 10
244.181000
 20
-46.650002
 11
296.181000
 21
-46.650002
  0
LINE
  8
0
  6
CONTINUOUS
 62
4
 10
255.181000
 20
-36.834999
 11
255.181000
 21
-56.465000
  0
LINE
  8
0
  6
CONTINUOUS
 62
4
 10
261.181000
 20
-36.834999
 11
261.181000
 21
-56.465000
  0
LINE
  8
0
  6
CONTINUOUS
 62
4
 10
255.181000
 20
-41.742500
 11
261.181000
 21
-41.742500
  0
LINE
  8
0
  6
CONTINUOUS
 62
4
 10
255.181000
 20
-51.557400
 11
261.181000
 21
-51.557400
  0
LINE
  8
0
  6
CONTINUOUS
 62
4
 10
255.181000
 20
-36.834999
 11
261.181000
 21
-36.834999
  0
LINE
  8
0
  6
CONTINUOUS
 62
4
 10
255.181000
 20
-56.465000
 11
261.181000
 21
-56.465000
  0
LINE
  8
0
  6
CONTINUOUS
 62
4
 10
246.181000
 20
-51.650002
 11
246.181000
 21
-41.650002
  0
LINE
  8
0
  6
CONTINUOUS
 62
4
 10
312.000000
 20
142.100006
 11
312.000000
 21
117.099998
  0
LINE
  8
0
  6
CONTINUOUS
 62
4
 10
249.500000
 20
154.600006
 11
299.500000
 21
154.600006
  0
LINE
  8
0
  6
CENTER
 62
1
 10
274.500000
 20
176.600006
 11
274.500000
 21
152.600006
  0
LINE
  8
0
  6
CENTER
 62
1
 10
310.000000
 20
129.600006
 11
334.000000
 21
129.600006
  0
LINE
  8
0
  6
CONTINUOUS
 62
4
 10
249.500000
 20
142.100006
 11
249.500000
 21
117.099998
  0
LINE
  8
0
  6
CONTINUOUS
 62
4
 10
299.500000
 20
142.100006
 11
299.500000
 21
117.099998
  0
LINE
  8
0
  6
CONTINUOUS
 62
4
 10
299.500000
 20
142.100006
 11
249.500000
 21
142.100006
  0
LINE
  8
0
  6
CONTINUOUS
 62
4
 10
299.500000
 20
117.099998
 11
249.500000
 21
117.099998
  0
LINE
  8
0
  6
CONTINUOUS
 62
4
 10
260.500000
 20
174.600006
 11
288.500000
 21
174.600006
  0
LINE
  8
0
  6
CONTINUOUS
 62
4
 10
249.500000
 20
168.300003
 11
260.500000
 21
168.300003
  0
LINE
  8
0
  6
CONTINUOUS
 62
4
 10
249.500000
 20
168.300003
 11
249.500000
 21
154.600006
  0
LINE
  8
0
  6
CONTINUOUS
 62
4
 10
299.500000
 20
168.300003
 11
299.500000
 21
154.600006
  0
LINE
  8
0
  6
CONTINUOUS
 62
4
 10
288.500000
 20
168.300003
 11
299.500000
 21
168.300003
  0
LINE
  8
0
  6
CONTINUOUS
 62
4
 10
260.500000
 20
174.600006
 11
260.500000
 21
168.300003
  0
LINE
  8
0
  6
CONTINUOUS
 62
4
 10
288.500000
 20
174.600006
 11
288.500000
 21
168.300003
  0
LINE
  8
0
  6
CENTER
 62
1
 10
293.500000
 20
170.300003
 11
293.500000
 21
152.600006
  0
LINE
  8
0
  6
CENTER
 62
1
 10
255.500000
 20
170.300003
 11
255.500000
 21
152.600006
  0
LINE
  8
0
  6
DASHED
 62
1
 10
290.750000
 20
168.300003
 11
290.750000
 21
154.600006
  0
LINE
  8
0
  6
DASHED
 62
1
 10
296.250000
 20
168.300003
 11
296.250000
 21
154.600006
  0
LINE
  8
0
  6
CONTINUOUS
 62
4
 10
332.000000
 20
142.100006
 11
332.000000
 21
117.099998
  0
LINE
  8
0
  6
CONTINUOUS
 62
4
 10
325.700012
 20
142.100006
 11
325.700012
 21
117.099998
  0
LINE
  8
0
  6
CONTINUOUS
 62
4
 10
312.000000
 20
117.099998
 11
332.000000
 21
117.099998
  0
LINE
  8
0
  6
CONTINUOUS
 62
4
 10
312.000000
 20
142.100006
 11
332.000000
 21
142.100006
  0
LINE
  8
0
  6
CONTINUOUS
 62
4
 10
270.778992
 20
-53.150002
 11
286.181000
 21
-53.150002
  0
LINE
  8
0
  6
CONTINUOUS
 62
4
 10
270.778992
 20
-40.150002
 11
286.181000
 21
-40.150002
  0
LINE
  8
0
  6
CONTINUOUS
 62
7
 10
286.181000
 20
63.849998
 11
286.181000
 21
32.849998
  0
LINE
  8
0
  6
CONTINUOUS
 62
7
 10
286.181000
 20
63.849998
 11
296.181000
 21
63.849998
  0
LINE
  8
0
  6
CONTINUOUS
 62
7
 10
286.181000
 20
32.849998
 11
296.181000
 21
32.849998
  0
LINE
  8
0
  6
CENTER
 62
1
 10
244.181000
 20
48.349998
 11
296.181000
 21
48.349998
  0
LINE
  8
0
  6
CONTINUOUS
 62
4
 10
246.181000
 20
41.849998
 11
253.181000
 21
41.849998
  0
LINE
  8
0
  6
CONTINUOUS
 62
4
 10
246.181000
 20
41.849998
 11
246.181000
 21
54.849998
  0
LINE
  8
0
  6
CONTINUOUS
 62
4
 10
246.181000
 20
54.849998
 11
253.181000
 21
54.849998
  0
LINE
  8
0
  6
DASHED
 62
1
 10
259.181000
 20
44.349998
 11
259.181000
 21
52.349998
  0
LINE
  8
0
  6
DASHED
 62
1
 10
246.181000
 20
52.349998
 11
259.181000
 21
52.349998
  0
LINE
  8
0
  6
DASHED
 62
1
 10
246.181000
 20
44.349998
 11
259.181000
 21
44.349998
  0
LINE
  8
0
  6
DASHED
 62
1
 10
246.181000
 20
45.049999
 11
263.181000
 21
45.049999
  0
LINE
  8
0
  6
DASHED
 62
1
 10
246.181000
 20
51.650002
 11
263.181000
 21
51.650002
  0
LINE
  8
0
  6
DASHED
 62
1
 10
263.181000
 20
45.049999
 11
263.181000
 21
51.650002
  0
LINE
  8
0
  6
CONTINUOUS
 62
4
 10
253.181000
 20
41.849998
 11
253.181000
 21
43.349998
  0
LINE
  8
0
  6
CONTINUOUS
 62
7
 10
258.681000
 20
41.849998
 11
258.681000
 21
43.349998
  0
LINE
  8
0
  6
CONTINUOUS
 62
4
 10
258.681000
 20
41.849998
 11
286.181000
 21
41.849998
  0
LINE
  8
0
  6
CONTINUOUS
 62
4
 10
258.681000
 20
54.849998
 11
286.181000
 21
54.849998
  0
LINE
  8
0
  6
CONTINUOUS
 62
4
 10
253.181000
 20
53.349998
 11
253.181000
 21
54.849998
  0
LINE
  8
0
  6
CONTINUOUS
 62
4
 10
258.681000
 20
53.349998
 11
258.681000
 21
54.849998
  0
LINE
  8
0
  6
CONTINUOUS
 62
4
 10
253.181000
 20
43.349998
 11
258.681000
 21
43.349998
  0
LINE
  8
0
  6
CONTINUOUS
 62
4
 10
253.181000
 20
53.349998
 11
258.681000
 21
53.349998
  0
LINE
  8
0
  6
CONTINUOUS
 62
4
 10
246.181000
 20
-41.650002
 11
255.181000
 21
-41.650002
  0
LINE
  8
0
  6
CONTINUOUS
 62
4
 10
246.181000
 20
-51.650002
 11
255.181000
 21
-51.650002
  0
LINE
  8
0
  6
CONTINUOUS
 62
1
 10
246.181000
 20
-50.750000
 11
255.181000
 21
-50.750000
  0
LINE
  8
0
  6
CONTINUOUS
 62
1
 10
246.181000
 20
-42.549999
 11
255.181000
 21
-42.549999
  0
LINE
  8
0
  6
CONTINUOUS
 62
4
 10
265.681000
 20
-51.650002
 11
265.681000
 21
-41.650002
  0
LINE
  8
0
  6
CONTINUOUS
 62
4
 10
268.181000
 20
-51.650002
 11
268.181000
 21
-41.650002
  0
LINE
  8
0
  6
CONTINUOUS
 62
4
 10
273.681000
 20
-50.803299
 11
273.681000
 21
-42.496700
  0
LINE
  8
0
  6
CENTER
 62
1
 10
263.431000
 20
69.849998
 11
248.431000
 21
69.849998
  0
LINE
  8
0
  6
CENTER
 62
1
 10
255.931000
 20
77.349998
 11
255.931000
 21
62.349998
  0
LINE
  8
0
  6
CONTINUOUS
 62
4
 10
251.776993
 20
64.849998
 11
260.084015
 21
64.849998
  0
LINE
  8
0
  6
CONTINUOUS
 62
4
 10
251.776993
 20
74.849998
 11
260.084015
 21
74.849998
  0
LINE
  8
0
  6
CONTINUOUS
 62
4
 10
268.181000
 20
-50.803299
 11
273.681000
 21
-50.803299
  0
LINE
  8
0
  6
CONTINUOUS
 62
4
 10
268.181000
 20
-42.496700
 11
273.681000
 21
-42.496700
  0
LINE
  8
0
  6
CONTINUOUS
 62
1
 10
268.181000
 20
-50.803600
 11
273.681000
 21
-42.497002
  0
LINE
  8
0
  6
CONTINUOUS
 62
1
 10
268.181000
 20
-42.496601
 11
273.681000
 21
-50.803200
  0
LINE
  8
0
  6
CONTINUOUS
 62
4
 10
268.181000
 20
-41.649899
 11
270.778992
 21
-40.149899
  0
LINE
  8
0
  6
CONTINUOUS
 62
4
 10
268.181000
 20
-51.650002
 11
270.778992
 21
-53.150002
  0
LINE
  8
0
  6
CONTINUOUS
 62
4
 10
270.778992
 20
-40.150002
 11
270.778992
 21
-42.496700
  0
LINE
  8
0
  6
CONTINUOUS
 62
4
 10
270.778992
 20
-50.803299
 11
270.778992
 21
-53.150002
  0
LINE
  8
0
  6
CENTER
 62
1
 10
278.431000
 20
-25.150000
 11
263.431000
 21
-25.150000
  0
LINE
  8
0
  6
CENTER
 62
1
 10
270.931000
 20
-17.650000
 11
270.931000
 21
-32.650002
  0
LINE
  8
0
  6
CONTINUOUS
 62
4
 10
265.931000
 20
-20.996700
 11
265.931000
 21
-29.303301
  0
LINE
  8
0
  6
CONTINUOUS
 62
4
 10
275.931000
 20
-20.996700
 11
275.931000
 21
-29.303301
  0
LINE
  8
0
  6
CONTINUOUS
 62
4
 10
261.181000
 20
-51.650002
 11
268.181000
 21
-51.650002
  0
LINE
  8
0
  6
CONTINUOUS
 62
1
 10
261.181000
 20
-50.750000
 11
265.681000
 21
-50.750000
  0
LINE
  8
0
  6
CONTINUOUS
 62
1
 10
261.181000
 20
-42.549999
 11
265.681000
 21
-42.549999
  0
LINE
  8
0
  6
CONTINUOUS
 62
4
 10
261.181000
 20
-41.650002
 11
268.181000
 21
-41.650002
  0
LINE
  8
0
  6
CENTER
 62
1
 10
293.500000
 20
141.350006
 11
293.500000
 21
131.850006
  0
LINE
  8
0
  6
CENTER
 62
1
 10
288.750000
 20
136.600006
 11
298.250000
 21
136.600006
  0
LINE
  8
0
  6
CENTER
 62
1
 10
293.500000
 20
127.349998
 11
293.500000
 21
117.849998
  0
LINE
  8
0
  6
CENTER
 62
1
 10
288.750000
 20
122.599998
 11
298.250000
 21
122.599998
  0
LINE
  8
0
  6
CENTER
 62
1
 10
274.500000
 20
138.100006
 11
274.500000
 21
121.099998
  0
LINE
  8
0
  6
CENTER
 62
1
 10
266.000000
 20
129.600006
 11
283.000000
 21
129.600006
  0
LINE
  8
0
  6
CENTER
 62
1
 10
255.500000
 20
141.350006
 11
255.500000
 21
131.850006
  0
LINE
  8
0
  6
CENTER
 62
1
 10
250.750000
 20
136.600006
 11
260.250000
 21
136.600006
  0
LINE
  8
0
  6
CENTER
 62
1
 10
255.500000
 20
127.349998
 11
255.500000
 21
117.849998
  0
LINE
  8
0
  6
CENTER
 62
1
 10
250.750000
 20
122.599998
 11
260.250000
 21
122.599998
  0
LINE
  8
0
  6
CONTINUOUS
 62
2
 10
361.181000
 20
-141.350006
 11
371.181000
 21
-141.350006
  0
LINE
  8
0
  6
CONTINUOUS
 62
2
 10
361.181000
 20
-171.949997
 11
371.181000
 21
-171.949997
  0
LINE
  8
0
  6
CENTER
 62
1
 10
314.681000
 20
-128.649994
 11
333.681000
 21
-128.649994
  0
LINE
  8
0
  6
CENTER
 62
1
 10
284.181000
 20
-156.649994
 11
371.181000
 21
-156.649994
  0
LINE
  8
0
  6
CONTINUOUS
 62
4
 10
286.181000
 20
-150.149994
 11
306.181000
 21
-150.149994
  0
LINE
  8
0
  6
CONTINUOUS
 62
4
 10
286.181000
 20
-150.149994
 11
286.181000
 21
-163.149994
  0
LINE
  8
0
  6
CONTINUOUS
 62
4
 10
286.181000
 20
-163.149994
 11
306.181000
 21
-163.149994
  0
LINE
  8
0
  6
CONTINUOUS
 62
7
 10
361.181000
 20
-134.149994
 11
371.181000
 21
-134.149994
  0
LINE
  8
0
  6
CONTINUOUS
 62
2
 10
361.181000
 20
-169.350006
 11
371.181000
 21
-169.350006
  0
LINE
  8
0
  6
CONTINUOUS
 62
7
 10
361.181000
 20
-179.149994
 11
371.181000
 21
-179.149994
  0
LINE
  8
0
  6
CONTINUOUS
 62
2
 10
361.181000
 20
-143.949997
 11
371.181000
 21
-143.949997
  0
LINE
  8
0
  6
CONTINUOUS
 62
4
 10
342.181000
 20
-150.149994
 11
361.181000
 21
-150.149994
  0
LINE
  8
0
  6
CONTINUOUS
 62
4
 10
342.181000
 20
-163.149994
 11
361.181000
 21
-163.149994
  0
LINE
  8
0
  6
DASHED
 62
1
 10
298.181000
 20
-153.649994
 11
298.181000
 21
-159.649994
  0
LINE
  8
0
  6
DASHED
 62
1
 10
301.181000
 20
-154.190994
 11
301.181000
 21
-159.108002
  0
LINE
  8
0
  6
DASHED
 62
1
 10
286.181000
 20
-159.649994
 11
298.181000
 21
-159.649994
  0
LINE
  8
0
  6
DASHED
 62
1
 10
286.181000
 20
-153.649994
 11
298.181000
 21
-153.649994
  0
LINE
  8
0
  6
CONTINUOUS
 62
4
 10
306.181000
 20
-143.649994
 11
306.181000
 21
-169.649994
  0
LINE
  8
0
  6
CONTINUOUS
 62
4
 10
342.181000
 20
-143.649994
 11
342.181000
 21
-169.649994
  0
LINE
  8
0
  6
DASHED
 62
1
 10
316.681000
 20
-143.649994
 11
316.681000
 21
-145.149994
  0
LINE
  8
0
  6
DASHED
 62
1
 10
331.681000
 20
-145.149994
 11
331.681000
 21
-143.649994
  0
LINE
  8
0
  6
CONTINUOUS
 62
4
 10
306.181000
 20
-169.649994
 11
342.181000
 21
-169.649994
  0
LINE
  8
0
  6
CONTINUOUS
 62
4
 10
306.181000
 20
-143.649994
 11
342.181000
 21
-143.649994
  0
LINE
  8
0
  6
DASHED
 62
1
 10
316.681000
 20
-145.149994
 11
331.681000
 21
-145.149994
  0
LINE
  8
0
  6
CONTINUOUS
 62
4
 10
318.181000
 20
-127.150002
 11
330.181000
 21
-127.150002
  0
LINE
  8
0
  6
CONTINUOUS
 62
4
 10
318.190002
 20
-130.149994
 11
330.181000
 21
-130.149994
  0
LINE
  8
0
  6
CENTER
 62
1
 10
266.181000
 20
-156.649994
 11
236.181000
 21
-156.649994
  0
LINE
  8
0
  6
CENTER
 62
1
 10
251.966003
 20
-141.671005
 11
251.181000
 21
-156.649994
  0
LINE
  8
0
  6
DASHED
 62
1
 10
286.181000
 20
-154.190994
 11
301.181000
 21
-154.190994
  0
LINE
  8
0
  6
DASHED
 62
1
 10
286.181000
 20
-159.108002
 11
301.181000
 21
-159.108002
  0
LINE
  8
0
  6
CENTER
 62
1
 10
251.181000
 20
-141.649994
 11
251.181000
 21
-171.649994
  0
LINE
  8
0
  6
CENTER
 62
1
 10
250.395996
 20
-141.671005
 11
251.181000
 21
-156.649994
  0
LINE
  8
0
  6
CONTINUOUS
 62
4
 10
362.307007
 20
-107.668999
 11
362.307007
 21
-110.668999
  0
LINE
  8
0
  6
CONTINUOUS
 62
4
 10
362.307007
 20
-107.668999
 11
365.307007
 21
-107.668999
  0
LINE
  8
0
  6
CONTINUOUS
 62
4
 10
362.307007
 20
-110.668999
 11
365.307007
 21
-110.668999
  0
LINE
  8
0
  6
CONTINUOUS
 62
4
 10
365.307007
 20
-107.668999
 11
365.307007
 21
-110.668999
  0
LINE
  8
0
  6
CENTER
 62
1
 10
363.807007
 20
-105.668999
 11
363.807007
 21
-112.668999
  0
LINE
  8
0
  6
CONTINUOUS
 62
4
 10
376.807007
 20
-107.668999
 11
376.807007
 21
-110.668999
  0
LINE
  8
0
  6
CONTINUOUS
 62
4
 10
376.807007
 20
-107.668999
 11
391.807007
 21
-107.668999
  0
LINE
  8
0
  6
CONTINUOUS
 62
4
 10
376.807007
 20
-110.668999
 11
391.807007
 21
-110.668999
  0
LINE
  8
0
  6
CONTINUOUS
 62
4
 10
391.807007
 20
-107.668999
 11
391.807007
 21
-110.668999
  0
LINE
  8
0
  6
CONTINUOUS
 62
4
 10
378.307007
 20
-100.668999
 11
390.307007
 21
-100.668999
  0
LINE
  8
0
  6
CONTINUOUS
 62
4
 10
378.307007
 20
-97.668602
 11
390.307007
 21
-97.668602
  0
LINE
  8
0
  6
CENTER
 62
1
 10
393.807007
 20
-99.168602
 11
374.807007
 21
-99.168602
  0
LINE
  8
0
  6
CONTINUOUS
 62
7
 10
361.181000
 20
-134.149994
 11
361.181000
 21
-179.149994
  0
LINE
  8
0
  6
DASHED
 62
1
 10
249.681000
 20
-143.737000
 11
249.681000
 21
-145.149994
  0
LINE
  8
0
  6
DASHED
 62
1
 10
252.681000
 20
-143.737000
 11
252.681000
 21
-145.149994
  0
LINE
  8
0
  6
DASHED
 62
1
 10
249.681000
 20
-145.149994
 11
252.681000
 21
-145.149994
  0
CIRCLE
  8
0
  6
CONTINUOUS
 62
7
 10
-250.250000
 20
-57.000000
 40
2.100000
  0
CIRCLE
  8
0
  6
CONTINUOUS
 62
7
 10
-106.250000
 20
-63.000000
 40
2.100000
  0
CIRCLE
  8
0
  6
CONTINUOUS
 62
7
 10
-286.250000
 20
-100.500000
 40
4.500000
  0
CIRCLE
  8
0
  6
CONTINUOUS
 62
7
 10
-286.250000
 20
-100.500000
 40
2.700000
  0
CIRCLE
  8
0
  6
CONTINUOUS
 62
7
 10
-286.250000
 20
-135.500000
 40
2.700000
  0
CIRCLE
  8
0
  6
CONTINUOUS
 62
7
 10
-286.250000
 20
-135.500000
 40
4.500000
  0
CIRCLE
  8
0
  6
CONTINUOUS
 62
7
 10
-259.250000
 20
-100.500000
 40
2.700000
  0
CIRCLE
  8
0
  6
CONTINUOUS
 62
7
 10
-259.250000
 20
-135.500000
 40
2.700000
  0
CIRCLE
  8
0
  6
CONTINUOUS
 62
7
 10
-171.250000
 20
-100.500000
 40
4.500000
  0
CIRCLE
  8
0
  6
CONTINUOUS
 62
7
 10
-171.250000
 20
-135.500000
 40
4.500000
  0
CIRCLE
  8
0
  6
CONTINUOUS
 62
2
 10
-250.250000
 20
-57.000000
 40
2.500000
  0
CIRCLE
  8
0
  6
CONTINUOUS
 62
2
 10
-106.250000
 20
-63.000000
 40
2.500000
  0
CIRCLE
  8
0
  6
CONTINUOUS
 62
2
 10
-286.250000
 20
-135.500000
 40
3.000000
  0
CIRCLE
  8
0
  6
CONTINUOUS
 62
2
 10
-286.250000
 20
-100.500000
 40
3.000000
  0
CIRCLE
  8
0
  6
CONTINUOUS
 62
2
 10
-171.250000
 20
-135.500000
 40
3.000000
  0
CIRCLE
  8
0
  6
CONTINUOUS
 62
2
 10
-171.250000
 20
-100.500000
 40
3.000000
  0
ARC
  8
0
  6
CONTINUOUS
 62
2
 10
113.949997
 20
-103.349998
 40
1.500000
 50
90.000000
 51
180.000000
  0
CIRCLE
  8
0
  6
CONTINUOUS
 62
2
 10
-278.250000
 20
-191.500000
 40
2.500000
  0
CIRCLE
  8
0
  6
CONTINUOUS
 62
2
 10
-278.250000
 20
-170.500000
 40
2.500000
  0
CIRCLE
  8
0
  6
CONTINUOUS
 62
2
 10
-163.250000
 20
-170.500000
 40
2.500000
  0
CIRCLE
  8
0
  6
CONTINUOUS
 62
2
 10
-163.250000
 20
-191.500000
 40
2.500000
  0
CIRCLE
  8
0
  6
CONTINUOUS
 62
7
 10
-163.250000
 20
-191.500000
 40
2.100000
  0
CIRCLE
  8
0
  6
CONTINUOUS
 62
7
 10
-278.250000
 20
-191.500000
 40
2.100000
  0
CIRCLE
  8
0
  6
CONTINUOUS
 62
7
 10
-278.250000
 20
-170.500000
 40
2.100000
  0
CIRCLE
  8
0
  6
CONTINUOUS
 62
7
 10
-163.250000
 20
-170.500000
 40
2.100000
  0
ARC
  8
0
  6
CONTINUOUS
 62
2
 10
-358.049988
 20
-103.349998
 40
1.500000
 50
90.000000
 51
180.000000
  0
CIRCLE
  8
0
  6
CONTINUOUS
 62
7
 10
-368.750000
 20
-100.500000
 40
2.100000
  0
CIRCLE
  8
0
  6
CONTINUOUS
 62
7
 10
-368.750000
 20
-135.500000
 40
2.100000
  0
ARC
  8
0
  6
CONTINUOUS
 62
2
 10
-358.049988
 20
-104.650002
 40
1.500000
 50
180.000000
 51
270.000000
  0
CIRCLE
  8
0
  6
CONTINUOUS
 62
2
 10
-368.750000
 20
-100.500000
 40
2.500000
  0
CIRCLE
  8
0
  6
CONTINUOUS
 62
2
 10
-368.750000
 20
-135.500000
 40
2.500000
  0
CIRCLE
  8
0
  6
CONTINUOUS
 62
7
 10
-368.750000
 20
-118.000000
 40
6.500000
  0
CIRCLE
  8
0
  6
CONTINUOUS
 62
7
 10
103.250000
 20
-118.000000
 40
11.000000
  0
ARC
  8
0
  6
CONTINUOUS
 62
2
 10
113.949997
 20
-104.650002
 40
1.500000
 50
180.000000
 51
270.000000
  0
CIRCLE
  8
0
  6
CONTINUOUS
 62
2
 10
-251.250000
 20
-191.500000
 40
2.500000
  0
CIRCLE
  8
0
  6
CONTINUOUS
 62
7
 10
-251.250000
 20
-191.500000
 40
2.100000
  0
CIRCLE
  8
0
  6
CONTINUOUS
 62
2
 10
-251.250000
 20
-170.500000
 40
2.500000
  0
CIRCLE
  8
0
  6
CONTINUOUS
 62
7
 10
-251.250000
 20
-170.500000
 40
2.100000
  0
CIRCLE
  8
0
  6
CONTINUOUS
 62
7
 10
-259.250000
 20
-135.500000
 40
4.500000
  0
CIRCLE
  8
0
  6
CONTINUOUS
 62
2
 10
-259.250000
 20
-135.500000
 40
3.000000
  0
CIRCLE
  8
0
  6
CONTINUOUS
 62
7
 10
-259.250000
 20
-100.500000
 40
4.500000
  0
CIRCLE
  8
0
  6
CONTINUOUS
 62
2
 10
-259.250000
 20
-100.500000
 40
3.000000
  0
CIRCLE
  8
0
  6
CONTINUOUS
 62
7
 10
-250.250000
 20
153.000000
 40
2.100000
  0
CIRCLE
  8
0
  6
CONTINUOUS
 62
7
 10
-206.250000
 20
147.000000
 40
2.100000
  0
CIRCLE
  8
0
  6
CONTINUOUS
 62
7
 10
-286.250000
 20
109.500000
 40
4.500000
  0
CIRCLE
  8
0
  6
CONTINUOUS
 62
7
 10
-286.250000
 20
109.500000
 40
2.700000
  0
CIRCLE
  8
0
  6
CONTINUOUS
 62
7
 10
-286.250000
 20
74.500000
 40
2.700000
  0
CIRCLE
  8
0
  6
CONTINUOUS
 62
7
 10
-286.250000
 20
74.500000
 40
4.500000
  0
CIRCLE
  8
0
  6
CONTINUOUS
 62
7
 10
-259.250000
 20
109.500000
 40
2.700000
  0
CIRCLE
  8
0
  6
CONTINUOUS
 62
7
 10
-259.250000
 20
74.500000
 40
2.700000
  0
CIRCLE
  8
0
  6
CONTINUOUS
 62
7
 10
-259.250000
 20
109.500000
 40
4.500000
  0
CIRCLE
  8
0
  6
CONTINUOUS
 62
7
 10
-259.250000
 20
74.500000
 40
4.500000
  0
CIRCLE
  8
0
  6
CONTINUOUS
 62
2
 10
-250.250000
 20
153.000000
 40
2.500000
  0
CIRCLE
  8
0
  6
CONTINUOUS
 62
2
 10
-206.250000
 20
147.000000
 40
2.500000
  0
CIRCLE
  8
0
  6
CONTINUOUS
 62
2
 10
-286.250000
 20
74.500000
 40
3.000000
  0
CIRCLE
  8
0
  6
CONTINUOUS
 62
2
 10
-286.250000
 20
109.500000
 40
3.000000
  0
CIRCLE
  8
0
  6
CONTINUOUS
 62
2
 10
-259.250000
 20
74.500000
 40
3.000000
  0
CIRCLE
  8
0
  6
CONTINUOUS
 62
2
 10
-259.250000
 20
109.500000
 40
3.000000
  0
ARC
  8
0
  6
CONTINUOUS
 62
2
 10
-86.050003
 20
106.650002
 40
1.500000
 50
90.000000
 51
180.000000
  0
CIRCLE
  8
0
  6
CONTINUOUS
 62
2
 10
-278.250000
 20
23.500000
 40
2.500000
  0
CIRCLE
  8
0
  6
CONTINUOUS
 62
2
 10
-278.250000
 20
44.500000
 40
2.500000
  0
CIRCLE
  8
0
  6
CONTINUOUS
 62
2
 10
-251.250000
 20
44.500000
 40
2.500000
  0
CIRCLE
  8
0
  6
CONTINUOUS
 62
2
 10
-251.250000
 20
23.500000
 40
2.500000
  0
CIRCLE
  8
0
  6
CONTINUOUS
 62
7
 10
-251.250000
 20
23.500000
 40
2.100000
  0
CIRCLE
  8
0
  6
CONTINUOUS
 62
7
 10
-278.250000
 20
23.500000
 40
2.100000
  0
CIRCLE
  8
0
  6
CONTINUOUS
 62
7
 10
-278.250000
 20
44.500000
 40
2.100000
  0
CIRCLE
  8
0
  6
CONTINUOUS
 62
7
 10
-251.250000
 20
44.500000
 40
2.100000
  0
ARC
  8
0
  6
CONTINUOUS
 62
2
 10
-358.049988
 20
106.650002
 40
1.500000
 50
90.000000
 51
180.000000
  0
CIRCLE
  8
0
  6
CONTINUOUS
 62
7
 10
-368.750000
 20
109.500000
 40
2.100000
  0
CIRCLE
  8
0
  6
CONTINUOUS
 62
7
 10
-368.750000
 20
74.500000
 40
2.100000
  0
ARC
  8
0
  6
CONTINUOUS
 62
2
 10
-358.049988
 20
105.349998
 40
1.500000
 50
180.000000
 51
270.000000
  0
CIRCLE
  8
0
  6
CONTINUOUS
 62
2
 10
-368.750000
 20
109.500000
 40
2.500000
  0
CIRCLE
  8
0
  6
CONTINUOUS
 62
2
 10
-368.750000
 20
74.500000
 40
2.500000
  0
CIRCLE
  8
0
  6
CONTINUOUS
 62
7
 10
-368.750000
 20
92.000000
 40
6.500000
  0
CIRCLE
  8
0
  6
CONTINUOUS
 62
7
 10
-96.749901
 20
92.000000
 40
11.000000
  0
ARC
  8
0
  6
CONTINUOUS
 62
2
 10
-86.050003
 20
105.349998
 40
1.500000
 50
180.000000
 51
270.000000
  0
CIRCLE
  8
0
  6
CONTINUOUS
 62
7
 10
-171.250000
 20
-135.500000
 40
2.700000
  0
CIRCLE
  8
0
  6
CONTINUOUS
 62
7
 10
-171.250000
 20
-100.500000
 40
2.700000
  0
CIRCLE
  8
0
  6
CONTINUOUS
 62
7
 10
103.250000
 20
-118.000000
 40
5.000000
  0
CIRCLE
  8
0
  6
CONTINUOUS
 62
2
 10
103.250000
 20
-118.000000
 40
4.299990
  0
CIRCLE
  8
0
  6
CONTINUOUS
 62
7
 10
-96.749901
 20
92.000000
 40
4.999980
  0
CIRCLE
  8
0
  6
CONTINUOUS
 62
2
 10
-96.749901
 20
92.000000
 40
4.299990
  0
CIRCLE
  8
0
  6
CONTINUOUS
 62
4
 10
293.500000
 20
122.599998
 40
2.750000
  0
CIRCLE
  8
0
  6
CONTINUOUS
 62
4
 10
293.500000
 20
136.600006
 40
2.750000
  0
CIRCLE
  8
0
  6
CONTINUOUS
 62
4
 10
255.500000
 20
136.600006
 40
2.750000
  0
CIRCLE
  8
0
  6
CONTINUOUS
 62
4
 10
255.500000
 20
122.599998
 40
2.750000
  0
CIRCLE
  8
0
  6
CONTINUOUS
 62
4
 10
274.500000
 20
129.600006
 40
6.500000
  0
CIRCLE
  8
0
  6
CONTINUOUS
 62
4
 10
255.931000
 20
69.849998
 40
6.500000
  0
CIRCLE
  8
0
  6
CONTINUOUS
 62
4
 10
270.931000
 20
-25.150000
 40
6.500000
  0
ARC
  8
0
  6
CONTINUOUS
 62
4
 10
330.181000
 20
-128.649994
 40
1.500000
 50
270.000000
 51
90.000000
  0
ARC
  8
0
  6
CONTINUOUS
 62
4
 10
318.181000
 20
-128.649994
 40
1.500000
 50
90.000000
 51
270.000000
  0
CIRCLE
  8
0
  6
CONTINUOUS
 62
1
 10
251.181000
 20
-156.649994
 40
3.000000
  0
CIRCLE
  8
0
  6
CONTINUOUS
 62
4
 10
251.181000
 20
-156.649994
 40
6.500000
  0
CIRCLE
  8
0
  6
CONTINUOUS
 62
4
 10
251.181000
 20
-156.649994
 40
13.000000
  0
CIRCLE
  8
0
  6
CONTINUOUS
 62
4
 10
251.181000
 20
-156.649994
 40
2.458500
  0
ARC
  8
0
  6
CONTINUOUS
 62
4
 10
390.307007
 20
-99.168602
 40
1.500000
 50
270.000000
 51
90.000000
  0
ARC
  8
0
  6
CONTINUOUS
 62
4
 10
378.307007
 20
-99.168602
 40
1.500000
 50
90.000000
 51
270.000000
  0
TEXT
  8
0
 62
7
 10
249.264832
 20
-267.375000
 40
12.500000
  1
KOGANEI CORP.
 50
0.000000
 41
0.771525
 51
0.000000
  7
STANDARD
  0
TEXT
  8
0
 62
7
 10
292.414673
 20
261.500000
 40
9.000000
  1
Ver.1.0
 50
0.000000
 41
1.010331
 51
0.000000
  7
STANDARD
  0
TEXT
  8
0
 62
7
 10
-383.750580
 20
229.000000
 40
9.000000
  1
MODEL:AXAS-SD25-25-ZE-R***
 50
0.000000
 41
0.751562
 51
0.000000
  7
STANDARD
  0
TEXT
  8
0
 62
7
 10
-364.635315
 20
261.500000
 40
9.000000
  1
AX CYLINDER
 50
0.000000
 41
0.783349
 51
0.000000
  7
STANDARD
  0
TEXT
  8
0
 62
7
 10
-89.650002
 20
-44.500000
 40
3.200000
  1
125st
 50
90.000000
 41
0.896216
 51
0.000000
  7
STANDARD
  0
TEXT
  8
0
 62
7
 10
74.349998
 20
-55.000000
 40
3.200000
  1
125st
 50
90.000000
 41
0.896216
 51
0.000000
  7
STANDARD
  0
TEXT
  8
0
 62
7
 10
174.350006
 20
-55.000000
 40
3.200000
  1
175st
 50
90.000000
 41
0.896216
 51
0.000000
  7
STANDARD
  0
TEXT
  8
0
 62
7
 10
124.349998
 20
-55.000000
 40
3.200000
  1
150st
 50
90.000000
 41
0.938893
 51
0.000000
  7
STANDARD
  0
TEXT
  8
0
 62
7
 10
-39.650002
 20
-44.500000
 40
3.200000
  1
175st
 50
90.000000
 41
0.896216
 51
0.000000
  7
STANDARD
  0
TEXT
  8
0
 62
7
 10
-64.650002
 20
-44.500000
 40
3.200000
  1
150st
 50
90.000000
 41
0.938893
 51
0.000000
  7
STANDARD
  0
TEXT
  8
0
 62
7
 10
-14.650000
 20
-44.500000
 40
3.200000
  1
200st
 50
90.000000
 41
0.896216
 51
0.000000
  7
STANDARD
  0
TEXT
  8
0
 62
7
 10
224.350006
 20
-55.000000
 40
3.200000
  1
200st
 50
90.000000
 41
0.896216
 51
0.000000
  7
STANDARD
  0
TEXT
  8
0
 62
7
 10
-189.649994
 20
165.500000
 40
3.200000
  1
25st
 50
90.000000
 41
0.857250
 51
0.000000
  7
STANDARD
  0
TEXT
  8
0
 62
7
 10
-164.649994
 20
165.500000
 40
3.200000
  1
50st
 50
90.000000
 41
0.907676
 51
0.000000
  7
STANDARD
  0
TEXT
  8
0
 62
7
 10
-139.649994
 20
165.500000
 40
3.200000
  1
75st
 50
90.000000
 41
0.857250
 51
0.000000
  7
STANDARD
  0
TEXT
  8
0
 62
7
 10
-125.650002
 20
155.000000
 40
3.200000
  1
25st
 50
90.000000
 41
0.857250
 51
0.000000
  7
STANDARD
  0
TEXT
  8
0
 62
7
 10
-25.650000
 20
155.000000
 40
3.200000
  1
75st
 50
90.000000
 41
0.857250
 51
0.000000
  7
STANDARD
  0
TEXT
  8
0
 62
7
 10
-75.650002
 20
155.000000
 40
3.200000
  1
50st
 50
90.000000
 41
0.907676
 51
0.000000
  7
STANDARD
  0
TEXT
  8
0
 62
7
 10
-114.650002
 20
165.500000
 40
3.200000
  1
100st
 50
90.000000
 41
0.985838
 51
0.000000
  7
STANDARD
  0
TEXT
  8
0
 62
7
 10
24.350000
 20
155.000000
 40
3.200000
  1
100st
 50
90.000000
 41
0.985838
 51
0.000000
  7
STANDARD
  0
TEXT
  8
0
 62
7
 10
254.807343
 20
99.849998
 40
4.500000
  1
ZT(FLANGE ROD END)
 50
0.000000
 41
0.754381
 51
0.000000
  7
STANDARD
  0
TEXT
  8
0
 62
7
 10
252.557343
 20
15.600000
 40
4.500000
  1
WS(INTERNAL THREAD)
 50
0.000000
 41
0.752116
 51
0.000000
  7
STANDARD
  0
TEXT
  8
0
 62
7
 10
252.557343
 20
-79.400002
 40
4.500000
  1
WT(EXTERNAL THREAD)
 50
0.000000
 41
0.738188
 51
0.000000
  7
STANDARD
  0
TEXT
  8
0
 62
7
 10
229.899582
 20
200.649994
 40
6.700000
  1
OPTION
 50
0.000000
 41
0.857250
 51
0.000000
  7
STANDARD
  0
TEXT
  8
0
 62
7
 10
348.280701
 20
-101.550003
 40
4.800000
  1
KEY
 50
0.000000
 41
0.928687
 51
0.000000
  7
STANDARD
  0
TEXT
  8
0
 62
7
 10
252.078568
 20
-190.149994
 40
4.000000
  1
FN(WITH BEARING NUT
 50
0.000000
 41
0.766483
 51
0.000000
  7
STANDARD
  0
TEXT
  8
0
 62
7
 10
252.078568
 20
-197.149994
 40
4.000000
  1
      FOR FLOATING UNIT)
 50
0.000000
 41
0.754797
 51
0.000000
  7
STANDARD
  0
TEXT
  8
0
 62
7
 10
235.580994
 20
-117.050003
 40
3.200000
  1
(KEYWAY
 50
0.000000
 41
0.766485
 51
0.000000
  7
STANDARD
  0
TEXT
  8
0
 62
7
 10
235.580994
 20
-120.250000
 40
3.200000
  1
  POSITION)
 50
0.000000
 41
0.766485
 51
0.000000
  7
STANDARD
  0
DIMENSION
  8
0
  2
*DIM0
 62
0
 10
249.897995
 20
-132.184006
 30
0.0
 11
243.181000
 21
-132.449997
 31
0.0
 13
252.462997
 23
-132.184006
 33
0.0
 14
251.966003
 24
-141.671005
 34
0.0
  15
250.395996
 25
-141.671005
 35
0.0
 16
252.384720
 26
-133.681519
 36
0.0
 70
2
  0
DIMENSION
  8
0
  2
*DIM1
 62
2
  10
278.181000
 20
-143.649994
 30
0.0
 11
278.181000
 21
-156.649994
 31
0.0
  13
306.181000
 23
-143.649994
 33
0.0
14
306.181000
 24
-169.649994
 34
0.0
 70
1
 50
90
  0
DIMENSION
  8
0
  2
*DIM2
 62
2
  10
339.681000
 20
-121.150002
 30
0.0
 11
339.681000
 21
-117.250000
 31
0.0
  13
330.181000
 23
-127.150002
 33
0.0
14
330.181000
 24
-130.149994
 34
0.0
 70
1
 50
90
  0
DIMENSION
  8
0
  2
*DIM3
 62
2
  10
362.307007
 20
-118.668999
 30
0.0
 11
352.592010
 21
-118.668999
 31
0.0
  13
362.307007
 23
-118.668999
 33
0.0
14
362.307007
 24
-110.668999
 34
0.0
 70
1
 50
0
  0
ENDSEC
  0
EOF
