  0
SECTION
  2
HEADER
  0
ENDSEC
  0
SECTION
  2
TABLES
  0
TABLE
  2
LTYPE
 70
     4
  0
LTYPE
  2
CONTINUOUS
 70
    64
  3
Solid line
 72
    65
 73
     0
 40
0.000000
  0
LTYPE
  2
DASHED
 70
    64
  3
__ __ __ __ __ __ __ __ __ __ __ __ __ __ __
 72
    65
 73
     2
 40
3.500000
 49
2.000000
 49
-1.500000
  0
LTYPE
  2
CENTER
 70
    64
  3
____ _ ____ _ ____ _ ____ _ ____ _ ____ _ ____
 72
    65
 73
     4
 40
17.500000
 49
13.000000
 49
-1.500000
 49
1.500000
 49
-1.500000
  0
LTYPE
  2
PHANTOM
 70
    64
  3
_____ _ _ _____ _ _ _____ _ _ _____ _ _ ____  
 72
    65
 73
     6
 40
15.500000
 49
8.000000
 49
-1.500000
 49
1.500000
 49
-1.500000
 49
1.500000
 49
-1.500000
  0
ENDTAB
  0
TABLE
  2
LAYER
 70
     1
  0
LAYER
  2
0
 70
     0
 62
     7
  6
CONTINUOUS
  0
ENDTAB
  0
TABLE
  2
STYLE
 70
     1
  0
STYLE
  2
STANDARD
 70
     0
 40
0.000000
 41
1.000000
 50
0.000000
 71
     0
 42
0.200000
  3
txt
  4
BIGFONT
  0
ENDTAB
  0
TABLE
  2
VIEW
 70
     0
  0
ENDTAB
  0
ENDSEC
  0
SECTION
  2
BLOCKS
  0
BLOCK
  8
0
 70
65
  2
*DIM0
 10
0.0
 20
0.0
 30
0.0
  0
ARC
  8
0
  6
BYBLOCK
 62
0
 10
235.750000
 20
-152.000000
 40
20.500000
 50
75.820335
 51
104.179665
  0
LINE
  8
0
  6
BYBLOCK
 62
0
 10
236.404007
 20
-139.516998
 11
236.901001
 21
-130.029999
  0
LINE
  8
0
  6
BYBLOCK
 62
0
 10
235.095993
 20
-139.516998
 11
234.598999
 21
-130.029999
  0
LINE
  8
0
  6
BYBLOCK
 62
0
 10
236.822891
 20
-131.528091
 11
239.442169
 21
-132.990738
  0
LINE
  8
0
  6
BYBLOCK
 62
0
 10
236.822891
 20
-131.528091
 11
239.822586
 21
-131.485138
  0
LINE
  8
0
  6
BYBLOCK
 62
0
 10
234.677109
 20
-131.528091
 11
231.677414
 21
-131.485138
  0
LINE
  8
0
  6
BYBLOCK
 62
0
 10
234.677109
 20
-131.528091
 11
232.057831
 21
-132.990738
  0
TEXT
  8
0
 62
2
 10
227.750000
 20
-130.300003
 40
3.200000
  1
ü}3üï
 50
0.000000
 41
1.500330
 51
0.000000
  7
STANDARD
  0
ENDBLK
  8
3
  0
BLOCK
  8
0
 70
65
  2
*DIM1
 10
0.0
 20
0.0
 30
0.0
  0
LINE
  8
0
  6
BYBLOCK
 62
2
 10
282.750000
 20
-141.500000
 11
256.250000
 21
-141.500000
  0
LINE
  8
0
  6
BYBLOCK
 62
2
 10
282.750000
 20
-162.500000
 11
256.250000
 21
-162.500000
  0
LINE
  8
0
  6
BYBLOCK
 62
2
 10
257.750000
 20
-141.500000
 11
257.750000
 21
-162.500000
  0
LINE
  8
0
  6
BYBLOCK
 62
2
 10
257.750000
 20
-141.500000
 11
256.973541
 21
-144.397781
  0
LINE
  8
0
  6
BYBLOCK
 62
2
 10
257.750000
 20
-141.500000
 11
258.526459
 21
-144.397781
  0
LINE
  8
0
  6
BYBLOCK
 62
2
 10
257.750000
 20
-162.500000
 11
258.526459
 21
-159.602219
  0
LINE
  8
0
  6
BYBLOCK
 62
2
 10
257.750000
 20
-162.500000
 11
256.973541
 21
-159.602219
  0
TEXT
  8
0
 62
2
 10
256.549988
 20
-163.199997
 40
3.200000
  1
âË21
 50
90.000000
 41
0.937977
 51
0.000000
  7
STANDARD
  0
TEXT
  8
0
 62
2
 10
254.950409
 20
-154.195343
 40
1.600000
  1
 0
 50
90.000000
 41
0.937977
 51
0.000000
  7
STANDARD
  0
TEXT
  8
0
 62
2
 10
256.550415
 20
-154.195419
 40
1.600000
  1
-0.013
 50
90.000000
 41
0.937977
 51
0.000000
  7
STANDARD
  0
ENDBLK
  8
0
  0
BLOCK
  8
0
 70
65
  2
*DIM2
 10
0.0
 20
0.0
 30
0.0
  0
LINE
  8
0
  6
BYBLOCK
 62
2
 10
304.250000
 20
-120.000000
 11
315.250000
 21
-120.000000
  0
LINE
  8
0
  6
BYBLOCK
 62
2
 10
304.250000
 20
-123.000000
 11
315.250000
 21
-123.000000
  0
LINE
  8
0
  6
BYBLOCK
 62
2
 10
313.750000
 20
-114.000000
 11
313.750000
 21
-129.000000
  0
LINE
  8
0
  6
BYBLOCK
 62
2
 10
313.750000
 20
-120.000000
 11
313.750000
 21
-104.494003
  0
LINE
  8
0
  6
BYBLOCK
 62
2
 10
313.750000
 20
-120.000000
 11
314.526459
 21
-117.102226
  0
LINE
  8
0
  6
BYBLOCK
 62
2
 10
313.750000
 20
-120.000000
 11
312.973541
 21
-117.102226
  0
LINE
  8
0
  6
BYBLOCK
 62
2
 10
313.750000
 20
-123.000000
 11
312.973541
 21
-125.897774
  0
LINE
  8
0
  6
BYBLOCK
 62
2
 10
313.750000
 20
-123.000000
 11
314.526459
 21
-125.897774
  0
TEXT
  8
0
 62
2
 10
312.549988
 20
-116.437004
 40
3.200000
  1
3
 50
90.000000
 41
0.873629
 51
0.000000
  7
STANDARD
  0
TEXT
  8
0
 62
2
 10
310.950104
 20
-113.641319
 40
1.600000
  1
+0.014
 50
90.000000
 41
0.873629
 51
0.000000
  7
STANDARD
  0
TEXT
  8
0
 62
2
 10
312.550110
 20
-113.641396
 40
1.600000
  1
 0
 50
90.000000
 41
0.873629
 51
0.000000
  7
STANDARD
  0
ENDBLK
  8
0
  0
BLOCK
  8
0
 70
65
  2
*DIM3
 10
0.0
 20
0.0
 30
0.0
  0
LINE
  8
0
  6
BYBLOCK
 62
2
 10
341.876007
 20
-121.518997
 11
344.876007
 21
-121.518997
  0
LINE
  8
0
  6
BYBLOCK
 62
2
 10
341.876007
 20
-113.518997
 11
341.876007
 21
-123.018997
  0
LINE
  8
0
  6
BYBLOCK
 62
2
 10
341.876007
 20
-121.518997
 11
344.876007
 21
-121.518997
  0
LINE
  8
0
  6
BYBLOCK
 62
2
 10
341.876007
 20
-121.518997
 11
326.783997
 21
-121.518997
  0
TEXT
  8
0
 62
2
 10
325.927002
 20
-120.319000
 40
3.200000
  1
3
 50
0.000000
 41
0.906835
 51
0.000000
  7
STANDARD
  0
TEXT
  8
0
 62
2
 10
328.828857
 20
-118.719002
 40
1.600000
  1
+0.016
 50
0.000000
 41
0.906835
 51
0.000000
  7
STANDARD
  0
TEXT
  8
0
 62
2
 10
328.828857
 20
-120.319000
 40
1.600000
  1
+0.006
 50
0.000000
 41
0.906835
 51
0.000000
  7
STANDARD
  0
ENDBLK
  8
0
  0
ENDSEC
  0
SECTION
  2
ENTITIES
  0
POINT
  8
0
  62
7
  10
-198.750000
  20
164.000000
  30
0.0
  0
POINT
  8
0
  62
7
  10
-173.750000
  20
164.000000
  30
0.0
  0
POINT
  8
0
  62
7
  10
-148.750000
  20
164.000000
  30
0.0
  0
POINT
  8
0
  62
7
  10
-136.250000
  20
155.000000
  30
0.0
  0
POINT
  8
0
  62
7
  10
-123.750000
  20
164.000000
  30
0.0
  0
POINT
  8
0
  62
7
  10
-86.250000
  20
155.000000
  30
0.0
  0
POINT
  8
0
  62
7
  10
-36.250000
  20
155.000000
  30
0.0
  0
POINT
  8
0
  62
7
  10
13.750000
  20
155.000000
  30
0.0
  0
POINT
  8
0
  62
7
  10
-98.750000
  20
-61.000000
  30
0.0
  0
POINT
  8
0
  62
7
  10
-73.750000
  20
-61.000000
  30
0.0
  0
POINT
  8
0
  62
7
  10
-48.750000
  20
-61.000000
  30
0.0
  0
POINT
  8
0
  62
7
  10
-23.750000
  20
-61.000000
  30
0.0
  0
POINT
  8
0
  62
7
  10
63.750000
  20
-70.000000
  30
0.0
  0
POINT
  8
0
  62
7
  10
113.750000
  20
-70.000000
  30
0.0
  0
POINT
  8
0
  62
7
  10
163.750000
  20
-70.000000
  30
0.0
  0
POINT
  8
0
  62
7
  10
213.750000
  20
-70.000000
  30
0.0
  0
LINE
  8
0
  6
CONTINUOUS
 62
7
 10
399.799988
 20
276.250000
 11
399.799988
 21
-276.750000
  0
LINE
  8
0
  6
CONTINUOUS
 62
7
 10
-399.250000
 20
276.250000
 11
-399.250000
 21
-276.750000
  0
LINE
  8
0
  6
CONTINUOUS
 62
7
 10
-399.250000
 20
276.250000
 11
399.799988
 21
276.250000
  0
LINE
  8
0
  6
CONTINUOUS
 62
7
 10
-399.250000
 20
-276.750000
 11
399.799988
 21
-276.750000
  0
LINE
  8
0
  6
CONTINUOUS
 62
7
 10
239.800003
 20
-251.750000
 11
399.799988
 21
-251.750000
  0
LINE
  8
0
  6
CONTINUOUS
 62
7
 10
239.800003
 20
251.250000
 11
399.799988
 21
251.250000
  0
LINE
  8
0
  6
CONTINUOUS
 62
7
 10
-399.250000
 20
251.250000
 11
-239.250000
 21
251.250000
  0
LINE
  8
0
  6
CONTINUOUS
 62
7
 10
239.800003
 20
-251.750000
 11
239.800003
 21
-276.750000
  0
LINE
  8
0
  6
CONTINUOUS
 62
7
 10
239.800003
 20
251.250000
 11
239.800003
 21
276.250000
  0
LINE
  8
0
  6
CONTINUOUS
 62
7
 10
-239.250000
 20
276.250000
 11
-239.250000
 21
251.250000
  0
LINE
  8
0
  6
CONTINUOUS
 62
7
 10
-197.250000
 20
83.500000
 11
-196.750000
 21
83.500000
  0
LINE
  8
0
  6
CONTINUOUS
 62
7
 10
-198.750000
 20
79.000000
 11
-197.250000
 21
79.000000
  0
LINE
  8
0
  6
CONTINUOUS
 62
7
 10
-198.750000
 20
103.000000
 11
-197.250000
 21
103.000000
  0
LINE
  8
0
  6
CONTINUOUS
 62
7
 10
-197.250000
 20
103.000000
 11
-197.250000
 21
79.000000
  0
LINE
  8
0
  6
CONTINUOUS
 62
7
 10
-197.250000
 20
98.500000
 11
-196.750000
 21
98.500000
  0
LINE
  8
0
  6
CONTINUOUS
 62
7
 10
-136.250000
 20
95.000000
 11
-136.250000
 21
87.000000
  0
LINE
  8
0
  6
CONTINUOUS
 62
7
 10
-138.723007
 20
87.000000
 11
-136.250000
 21
87.000000
  0
LINE
  8
0
  6
CONTINUOUS
 62
2
 10
-138.723007
 20
87.500000
 11
-136.250000
 21
87.500000
  0
LINE
  8
0
  6
CONTINUOUS
 62
2
 10
-138.723007
 20
94.500000
 11
-136.250000
 21
94.500000
  0
LINE
  8
0
  6
CONTINUOUS
 62
7
 10
-138.723007
 20
95.000000
 11
-136.250000
 21
95.000000
  0
LINE
  8
0
  6
CONTINUOUS
 62
7
 10
-298.750000
 20
71.000000
 11
-198.750000
 21
71.000000
  0
LINE
  8
0
  6
CONTINUOUS
 62
7
 10
-298.750000
 20
111.000000
 11
-198.750000
 21
111.000000
  0
LINE
  8
0
  6
CONTINUOUS
 62
7
 10
-298.750000
 20
71.000000
 11
-298.750000
 21
111.000000
  0
LINE
  8
0
  6
CONTINUOUS
 62
7
 10
-198.750000
 20
111.000000
 11
-198.750000
 21
71.000000
  0
LINE
  8
0
  6
CONTINUOUS
 62
2
 10
-298.750000
 20
80.800003
 11
-198.750000
 21
80.800003
  0
LINE
  8
0
  6
CENTER
 62
2
 10
-338.750000
 20
91.000000
 11
-134.250000
 21
91.000000
  0
LINE
  8
0
  6
CONTINUOUS
 62
2
 10
-298.750000
 20
101.199997
 11
-198.750000
 21
101.199997
  0
LINE
  8
0
  6
CONTINUOUS
 62
7
 10
-336.750000
 20
96.000000
 11
-298.750000
 21
96.000000
  0
LINE
  8
0
  6
CONTINUOUS
 62
7
 10
-336.750000
 20
86.000000
 11
-298.750000
 21
86.000000
  0
LINE
  8
0
  6
CONTINUOUS
 62
7
 10
-336.750000
 20
96.000000
 11
-336.750000
 21
86.000000
  0
LINE
  8
0
  6
CONTINUOUS
 62
7
 10
-138.723007
 20
97.500000
 11
-138.723007
 21
84.500000
  0
LINE
  8
0
  6
CONTINUOUS
 62
7
 10
-143.750000
 20
97.500000
 11
-138.723007
 21
97.500000
  0
LINE
  8
0
  6
CONTINUOUS
 62
7
 10
-143.750000
 20
91.000000
 11
-138.723007
 21
91.000000
  0
LINE
  8
0
  6
CONTINUOUS
 62
7
 10
-143.750000
 20
84.500000
 11
-138.723007
 21
84.500000
  0
LINE
  8
0
  6
CONTINUOUS
 62
7
 10
-196.750000
 20
83.500000
 11
-196.750000
 21
98.500000
  0
LINE
  8
0
  6
CONTINUOUS
 62
7
 10
-171.750000
 20
86.000000
 11
-196.750000
 21
86.000000
  0
LINE
  8
0
  6
CONTINUOUS
 62
7
 10
-171.750000
 20
96.000000
 11
-196.750000
 21
96.000000
  0
LINE
  8
0
  6
CONTINUOUS
 62
7
 10
-171.750000
 20
100.000000
 11
-171.750000
 21
82.000000
  0
LINE
  8
0
  6
CONTINUOUS
 62
7
 10
-143.750000
 20
100.000000
 11
-143.750000
 21
82.000000
  0
LINE
  8
0
  6
CONTINUOUS
 62
7
 10
-171.750000
 20
100.000000
 11
-143.750000
 21
100.000000
  0
LINE
  8
0
  6
CONTINUOUS
 62
7
 10
-171.750000
 20
82.000000
 11
-143.750000
 21
82.000000
  0
LINE
  8
0
  6
CONTINUOUS
 62
7
 10
-151.750000
 20
96.656898
 11
-151.750000
 21
85.343102
  0
LINE
  8
0
  6
CONTINUOUS
 62
7
 10
-298.750000
 20
13.000000
 11
-298.750000
 21
39.000000
  0
LINE
  8
0
  6
CONTINUOUS
 62
7
 10
-198.750000
 20
13.000000
 11
-198.750000
 21
39.000000
  0
LINE
  8
0
  6
CONTINUOUS
 62
7
 10
-298.750000
 20
39.000000
 11
-198.750000
 21
39.000000
  0
LINE
  8
0
  6
CONTINUOUS
 62
7
 10
-298.750000
 20
13.000000
 11
-198.750000
 21
13.000000
  0
LINE
  8
0
  6
CENTER
 62
2
 10
-338.750000
 20
26.000000
 11
-134.250000
 21
26.000000
  0
LINE
  8
0
  6
CONTINUOUS
 62
7
 10
-336.750000
 20
31.000000
 11
-298.750000
 21
31.000000
  0
LINE
  8
0
  6
CONTINUOUS
 62
7
 10
-336.750000
 20
21.000000
 11
-298.750000
 21
21.000000
  0
LINE
  8
0
  6
CONTINUOUS
 62
7
 10
-336.750000
 20
31.000000
 11
-336.750000
 21
21.000000
  0
LINE
  8
0
  6
CONTINUOUS
 62
7
 10
-171.750000
 20
35.000000
 11
-171.750000
 21
17.000000
  0
LINE
  8
0
  6
CONTINUOUS
 62
7
 10
-143.750000
 20
33.505600
 11
-143.750000
 21
18.494400
  0
LINE
  8
0
  6
CONTINUOUS
 62
7
 10
-171.750000
 20
35.000000
 11
-151.750000
 21
35.000000
  0
LINE
  8
0
  6
CONTINUOUS
 62
7
 10
-171.750000
 20
17.000000
 11
-151.750000
 21
17.000000
  0
LINE
  8
0
  6
CONTINUOUS
 62
7
 10
-151.750000
 20
35.000000
 11
-151.750000
 21
33.000000
  0
LINE
  8
0
  6
CONTINUOUS
 62
7
 10
-197.250000
 20
18.500000
 11
-196.750000
 21
18.500000
  0
LINE
  8
0
  6
CONTINUOUS
 62
7
 10
-198.750000
 20
14.000000
 11
-197.250000
 21
14.000000
  0
LINE
  8
0
  6
CONTINUOUS
 62
7
 10
-198.750000
 20
38.000000
 11
-197.250000
 21
38.000000
  0
LINE
  8
0
  6
CONTINUOUS
 62
7
 10
-197.250000
 20
38.000000
 11
-197.250000
 21
14.000000
  0
LINE
  8
0
  6
CONTINUOUS
 62
7
 10
-197.250000
 20
33.500000
 11
-196.750000
 21
33.500000
  0
LINE
  8
0
  6
CONTINUOUS
 62
7
 10
-136.250000
 20
30.000000
 11
-136.250000
 21
22.000000
  0
LINE
  8
0
  6
CONTINUOUS
 62
7
 10
-138.750000
 20
22.000000
 11
-136.250000
 21
22.000000
  0
LINE
  8
0
  6
CONTINUOUS
 62
2
 10
-138.750000
 20
22.500000
 11
-136.250000
 21
22.500000
  0
LINE
  8
0
  6
CONTINUOUS
 62
2
 10
-138.750000
 20
29.500000
 11
-136.250000
 21
29.500000
  0
LINE
  8
0
  6
CONTINUOUS
 62
7
 10
-138.750000
 20
30.000000
 11
-136.250000
 21
30.000000
  0
LINE
  8
0
  6
CONTINUOUS
 62
7
 10
-138.750000
 20
33.505600
 11
-138.750000
 21
18.494400
  0
LINE
  8
0
  6
CONTINUOUS
 62
7
 10
-143.750000
 20
33.505600
 11
-138.750000
 21
33.505600
  0
LINE
  8
0
  6
CONTINUOUS
 62
7
 10
-143.750000
 20
29.752800
 11
-138.750000
 21
29.752800
  0
LINE
  8
0
  6
CONTINUOUS
 62
7
 10
-143.750000
 20
22.247200
 11
-138.750000
 21
22.247200
  0
LINE
  8
0
  6
CONTINUOUS
 62
7
 10
-143.750000
 20
18.494400
 11
-138.750000
 21
18.494400
  0
LINE
  8
0
  6
CONTINUOUS
 62
7
 10
-196.750000
 20
18.500000
 11
-196.750000
 21
33.500000
  0
LINE
  8
0
  6
CONTINUOUS
 62
7
 10
-171.750000
 20
21.000000
 11
-196.750000
 21
21.000000
  0
LINE
  8
0
  6
CONTINUOUS
 62
7
 10
-171.750000
 20
31.000000
 11
-196.750000
 21
31.000000
  0
LINE
  8
0
  6
CONTINUOUS
 62
7
 10
-151.750000
 20
33.000000
 11
-143.750000
 21
33.000000
  0
LINE
  8
0
  6
CONTINUOUS
 62
7
 10
-151.750000
 20
19.000000
 11
-143.750000
 21
19.000000
  0
LINE
  8
0
  6
CONTINUOUS
 62
7
 10
-151.750000
 20
19.000000
 11
-151.750000
 21
17.000000
  0
LINE
  8
0
  6
CONTINUOUS
 62
7
 10
-171.750000
 20
160.000000
 11
-171.750000
 21
142.000000
  0
LINE
  8
0
  6
CONTINUOUS
 62
7
 10
-171.750000
 20
160.000000
 11
-151.750000
 21
160.000000
  0
LINE
  8
0
  6
CONTINUOUS
 62
7
 10
-171.750000
 20
142.000000
 11
-151.750000
 21
142.000000
  0
LINE
  8
0
  6
CONTINUOUS
 62
7
 10
-198.750000
 20
164.000000
 11
-198.750000
 21
138.000000
  0
LINE
  8
0
  6
CONTINUOUS
 62
7
 10
-151.750000
 20
160.000000
 11
-151.750000
 21
158.000000
  0
LINE
  8
0
  6
CONTINUOUS
 62
7
 10
-197.250000
 20
143.500000
 11
-196.750000
 21
143.500000
  0
LINE
  8
0
  6
CONTINUOUS
 62
7
 10
-198.750000
 20
139.000000
 11
-197.250000
 21
139.000000
  0
LINE
  8
0
  6
CONTINUOUS
 62
7
 10
-198.750000
 20
163.000000
 11
-197.250000
 21
163.000000
  0
LINE
  8
0
  6
CONTINUOUS
 62
7
 10
-197.250000
 20
163.000000
 11
-197.250000
 21
139.000000
  0
LINE
  8
0
  6
CONTINUOUS
 62
7
 10
-197.250000
 20
158.500000
 11
-196.750000
 21
158.500000
  0
LINE
  8
0
  6
CONTINUOUS
 62
7
 10
-136.250000
 20
155.000000
 11
-136.250000
 21
147.000000
  0
LINE
  8
0
  6
CONTINUOUS
 62
7
 10
-138.750000
 20
147.000000
 11
-136.250000
 21
147.000000
  0
LINE
  8
0
  6
CONTINUOUS
 62
2
 10
-138.750000
 20
147.500000
 11
-136.250000
 21
147.500000
  0
LINE
  8
0
  6
CONTINUOUS
 62
2
 10
-138.750000
 20
154.500000
 11
-136.250000
 21
154.500000
  0
LINE
  8
0
  6
CONTINUOUS
 62
7
 10
-138.750000
 20
155.000000
 11
-136.250000
 21
155.000000
  0
LINE
  8
0
  6
CONTINUOUS
 62
7
 10
-196.750000
 20
143.500000
 11
-196.750000
 21
158.500000
  0
LINE
  8
0
  6
CONTINUOUS
 62
7
 10
-171.750000
 20
146.000000
 11
-196.750000
 21
146.000000
  0
LINE
  8
0
  6
CONTINUOUS
 62
7
 10
-171.750000
 20
156.000000
 11
-196.750000
 21
156.000000
  0
LINE
  8
0
  6
CONTINUOUS
 62
7
 10
-151.750000
 20
158.000000
 11
-143.750000
 21
158.000000
  0
LINE
  8
0
  6
CONTINUOUS
 62
7
 10
-151.750000
 20
144.000000
 11
-143.750000
 21
144.000000
  0
LINE
  8
0
  6
CONTINUOUS
 62
7
 10
-151.750000
 20
144.000000
 11
-151.750000
 21
142.000000
  0
LINE
  8
0
  6
CONTINUOUS
 62
2
 10
-101.250000
 20
101.199997
 11
-100.250000
 21
101.199997
  0
LINE
  8
0
  6
CONTINUOUS
 62
2
 10
-101.250000
 20
101.199997
 11
-101.250000
 21
100.349998
  0
LINE
  8
0
  6
CONTINUOUS
 62
2
 10
-101.250000
 20
104.650002
 11
-101.250000
 21
103.800003
  0
LINE
  8
0
  6
CONTINUOUS
 62
2
 10
-101.250000
 20
103.800003
 11
-100.250000
 21
103.800003
  0
LINE
  8
0
  6
CONTINUOUS
 62
7
 10
-126.250000
 20
111.000000
 11
-126.250000
 21
71.000000
  0
LINE
  8
0
  6
CENTER
 62
2
 10
-128.250000
 20
91.000000
 11
-98.250000
 21
91.000000
  0
LINE
  8
0
  6
CONTINUOUS
 62
7
 10
-126.250000
 20
71.000000
 11
-100.250000
 21
71.000000
  0
LINE
  8
0
  6
CONTINUOUS
 62
7
 10
-100.250000
 20
71.000000
 11
-100.250000
 21
111.000000
  0
LINE
  8
0
  6
CONTINUOUS
 62
7
 10
-126.250000
 20
111.000000
 11
-100.250000
 21
111.000000
  0
LINE
  8
0
  6
CENTER
 62
2
 10
-113.250000
 20
113.000000
 11
-113.250000
 21
69.000000
  0
LINE
  8
0
  6
CONTINUOUS
 62
2
 10
-105.050003
 20
104.650002
 11
-101.250000
 21
104.650002
  0
LINE
  8
0
  6
CONTINUOUS
 62
2
 10
-106.550003
 20
103.150002
 11
-106.550003
 21
101.849998
  0
LINE
  8
0
  6
CONTINUOUS
 62
2
 10
-105.050003
 20
100.349998
 11
-101.250000
 21
100.349998
  0
LINE
  8
0
  6
CENTER
 62
2
 10
-109.519997
 20
79.500000
 11
-98.250000
 21
79.500000
  0
LINE
  8
0
  6
CENTER
 62
2
 10
-109.519997
 20
102.500000
 11
-98.250000
 21
102.500000
  0
LINE
  8
0
  6
CENTER
 62
2
 10
-116.980003
 20
79.500000
 11
-128.250000
 21
79.500000
  0
LINE
  8
0
  6
CENTER
 62
2
 10
-116.980003
 20
102.500000
 11
-128.250000
 21
102.500000
  0
LINE
  8
0
  6
CONTINUOUS
 62
2
 10
-298.750000
 20
103.800003
 11
-290.675995
 21
103.800003
  0
LINE
  8
0
  6
CENTER
 62
2
 10
-286.750000
 20
41.000000
 11
-286.750000
 21
11.000000
  0
LINE
  8
0
  6
CENTER
 62
2
 10
-262.750000
 20
41.000000
 11
-262.750000
 21
11.000000
  0
LINE
  8
0
  6
CONTINUOUS
 62
2
 10
-282.824005
 20
103.800003
 11
-266.675995
 21
103.800003
  0
LINE
  8
0
  6
CONTINUOUS
 62
2
 10
-258.824005
 20
103.800003
 11
-198.750000
 21
103.800003
  0
LINE
  8
0
  6
CONTINUOUS
 62
2
 10
-282.824005
 20
78.199997
 11
-266.675995
 21
78.199997
  0
LINE
  8
0
  6
CONTINUOUS
 62
2
 10
-298.750000
 20
78.199997
 11
-290.675995
 21
78.199997
  0
LINE
  8
0
  6
CONTINUOUS
 62
2
 10
-258.824005
 20
78.199997
 11
-198.750000
 21
78.199997
  0
LINE
  8
0
  6
DASHED
 62
2
 10
-267.250000
 20
39.000000
 11
-267.250000
 21
32.500000
  0
LINE
  8
0
  6
DASHED
 62
2
 10
-265.750000
 20
32.500000
 11
-265.750000
 21
19.500000
  0
LINE
  8
0
  6
DASHED
 62
2
 10
-267.250000
 20
32.500000
 11
-258.250000
 21
32.500000
  0
LINE
  8
0
  6
DASHED
 62
2
 10
-258.250000
 20
39.000000
 11
-258.250000
 21
32.500000
  0
LINE
  8
0
  6
DASHED
 62
2
 10
-267.250000
 20
13.000000
 11
-267.250000
 21
19.500000
  0
LINE
  8
0
  6
DASHED
 62
2
 10
-267.250000
 20
19.500000
 11
-258.250000
 21
19.500000
  0
LINE
  8
0
  6
DASHED
 62
2
 10
-258.250000
 20
13.000000
 11
-258.250000
 21
19.500000
  0
LINE
  8
0
  6
DASHED
 62
2
 10
-259.750000
 20
32.500000
 11
-259.750000
 21
19.500000
  0
LINE
  8
0
  6
DASHED
 62
2
 10
-291.250000
 20
13.000000
 11
-291.250000
 21
19.500000
  0
LINE
  8
0
  6
DASHED
 62
2
 10
-291.250000
 20
19.500000
 11
-282.250000
 21
19.500000
  0
LINE
  8
0
  6
DASHED
 62
2
 10
-282.250000
 20
13.000000
 11
-282.250000
 21
19.500000
  0
LINE
  8
0
  6
DASHED
 62
2
 10
-283.750000
 20
32.500000
 11
-283.750000
 21
19.500000
  0
LINE
  8
0
  6
DASHED
 62
2
 10
-289.750000
 20
32.500000
 11
-289.750000
 21
19.500000
  0
LINE
  8
0
  6
DASHED
 62
2
 10
-291.250000
 20
32.500000
 11
-282.250000
 21
32.500000
  0
LINE
  8
0
  6
DASHED
 62
2
 10
-291.250000
 20
39.000000
 11
-291.250000
 21
32.500000
  0
LINE
  8
0
  6
DASHED
 62
2
 10
-282.250000
 20
39.000000
 11
-282.250000
 21
32.500000
  0
LINE
  8
0
  6
CONTINUOUS
 62
2
 10
-348.549988
 20
-124.650002
 11
-344.750000
 21
-124.650002
  0
LINE
  8
0
  6
CENTER
 62
2
 10
-353.019989
 20
-145.500000
 11
-341.750000
 21
-145.500000
  0
LINE
  8
0
  6
CENTER
 62
2
 10
-353.019989
 20
-122.500000
 11
-341.750000
 21
-122.500000
  0
LINE
  8
0
  6
CENTER
 62
2
 10
-360.480011
 20
-145.500000
 11
-371.750000
 21
-145.500000
  0
LINE
  8
0
  6
CENTER
 62
2
 10
-360.480011
 20
-122.500000
 11
-371.750000
 21
-122.500000
  0
LINE
  8
0
  6
CONTINUOUS
 62
2
 10
-344.750000
 20
-123.800003
 11
-343.750000
 21
-123.800003
  0
LINE
  8
0
  6
CONTINUOUS
 62
1
 10
-344.750000
 20
-123.800003
 11
-344.750000
 21
-124.650002
  0
LINE
  8
0
  6
CONTINUOUS
 62
2
 10
-344.750000
 20
-120.349998
 11
-344.750000
 21
-121.199997
  0
LINE
  8
0
  6
CONTINUOUS
 62
2
 10
-344.750000
 20
-121.199997
 11
-343.750000
 21
-121.199997
  0
LINE
  8
0
  6
CONTINUOUS
 62
7
 10
-369.750000
 20
-114.000000
 11
-369.750000
 21
-154.000000
  0
LINE
  8
0
  6
CONTINUOUS
 62
7
 10
-369.750000
 20
-154.000000
 11
-343.750000
 21
-154.000000
  0
LINE
  8
0
  6
CONTINUOUS
 62
7
 10
-343.750000
 20
-154.000000
 11
-343.750000
 21
-114.000000
  0
LINE
  8
0
  6
CONTINUOUS
 62
7
 10
-369.750000
 20
-114.000000
 11
-343.750000
 21
-114.000000
  0
LINE
  8
0
  6
CENTER
 62
2
 10
-356.750000
 20
-112.000000
 11
-356.750000
 21
-156.000000
  0
LINE
  8
0
  6
CONTINUOUS
 62
2
 10
-348.549988
 20
-120.349998
 11
-344.750000
 21
-120.349998
  0
LINE
  8
0
  6
CONTINUOUS
 62
2
 10
-350.049988
 20
-121.849998
 11
-350.049988
 21
-123.150002
  0
LINE
  8
0
  6
CONTINUOUS
 62
7
 10
-117.002998
 20
84.500000
 11
-109.497002
 21
84.500000
  0
LINE
  8
0
  6
CONTINUOUS
 62
7
 10
-117.002998
 20
97.500000
 11
-109.497002
 21
97.500000
  0
LINE
  8
0
  6
CONTINUOUS
 62
7
 10
-109.497002
 20
97.500099
 11
-105.744003
 21
91.000099
  0
LINE
  8
0
  6
CONTINUOUS
 62
7
 10
-105.745003
 20
91.000000
 11
-109.497002
 21
84.500000
  0
LINE
  8
0
  6
CONTINUOUS
 62
7
 10
-117.002998
 20
84.500099
 11
-120.754997
 21
91.000000
  0
LINE
  8
0
  6
CONTINUOUS
 62
7
 10
-120.755997
 20
91.000000
 11
-117.002998
 21
97.500000
  0
LINE
  8
0
  6
CONTINUOUS
 62
7
 10
-298.750000
 20
164.000000
 11
-298.750000
 21
138.000000
  0
LINE
  8
0
  6
CONTINUOUS
 62
7
 10
-298.750000
 20
138.000000
 11
-198.750000
 21
138.000000
  0
LINE
  8
0
  6
CONTINUOUS
 62
7
 10
-298.750000
 20
164.000000
 11
-198.750000
 21
164.000000
  0
LINE
  8
0
  6
CENTER
 62
2
 10
-338.750000
 20
151.000000
 11
-134.250000
 21
151.000000
  0
LINE
  8
0
  6
CONTINUOUS
 62
7
 10
-336.750000
 20
156.000000
 11
-298.750000
 21
156.000000
  0
LINE
  8
0
  6
CONTINUOUS
 62
7
 10
-336.750000
 20
146.000000
 11
-298.750000
 21
146.000000
  0
LINE
  8
0
  6
CONTINUOUS
 62
7
 10
-336.750000
 20
156.000000
 11
-336.750000
 21
146.000000
  0
LINE
  8
0
  6
CONTINUOUS
 62
7
 10
-143.750000
 20
143.494003
 11
-138.750000
 21
143.494003
  0
LINE
  8
0
  6
CONTINUOUS
 62
7
 10
-138.750000
 20
158.505997
 11
-138.750000
 21
143.494003
  0
LINE
  8
0
  6
CONTINUOUS
 62
7
 10
-143.750000
 20
158.505997
 11
-143.750000
 21
143.494003
  0
LINE
  8
0
  6
CONTINUOUS
 62
7
 10
-143.750000
 20
147.246994
 11
-138.750000
 21
147.246994
  0
LINE
  8
0
  6
CONTINUOUS
 62
7
 10
-143.750000
 20
154.753006
 11
-138.750000
 21
154.753006
  0
LINE
  8
0
  6
CONTINUOUS
 62
7
 10
-143.750000
 20
158.505997
 11
-138.750000
 21
158.505997
  0
LINE
  8
0
  6
CONTINUOUS
 62
7
 10
-120.250000
 20
96.656898
 11
-120.250000
 21
91.875702
  0
LINE
  8
0
  6
CONTINUOUS
 62
7
 10
-106.250000
 20
96.656898
 11
-106.250000
 21
91.875603
  0
LINE
  8
0
  6
CONTINUOUS
 62
7
 10
-120.250000
 20
90.124397
 11
-120.250000
 21
85.343102
  0
LINE
  8
0
  6
CONTINUOUS
 62
7
 10
-106.250000
 20
90.124397
 11
-106.250000
 21
85.343102
  0
LINE
  8
0
  6
CONTINUOUS
 62
7
 10
-151.750000
 20
85.343102
 11
-143.750000
 21
85.343102
  0
LINE
  8
0
  6
CONTINUOUS
 62
7
 10
-151.750000
 20
96.656898
 11
-143.750000
 21
96.656898
  0
LINE
  8
0
  6
CONTINUOUS
 62
2
 10
-143.750000
 20
96.656799
 11
-151.750000
 21
85.343102
  0
LINE
  8
0
  6
CONTINUOUS
 62
2
 10
-143.750000
 20
85.343102
 11
-151.750000
 21
96.656799
  0
LINE
  8
0
  6
CONTINUOUS
 62
7
 10
-97.250000
 20
-141.500000
 11
-96.750000
 21
-141.500000
  0
LINE
  8
0
  6
CONTINUOUS
 62
7
 10
-98.750000
 20
-146.000000
 11
-97.250000
 21
-146.000000
  0
LINE
  8
0
  6
CONTINUOUS
 62
7
 10
-98.750000
 20
-122.000000
 11
-97.250000
 21
-122.000000
  0
LINE
  8
0
  6
CONTINUOUS
 62
7
 10
-97.250000
 20
-122.000000
 11
-97.250000
 21
-146.000000
  0
LINE
  8
0
  6
CONTINUOUS
 62
7
 10
-97.250000
 20
-126.500000
 11
-96.750000
 21
-126.500000
  0
LINE
  8
0
  6
CONTINUOUS
 62
7
 10
63.750000
 20
-130.000000
 11
63.750000
 21
-138.000000
  0
LINE
  8
0
  6
CONTINUOUS
 62
7
 10
61.250000
 20
-138.000000
 11
63.750000
 21
-138.000000
  0
LINE
  8
0
  6
CONTINUOUS
 62
2
 10
61.250000
 20
-137.500000
 11
63.750000
 21
-137.500000
  0
LINE
  8
0
  6
CONTINUOUS
 62
2
 10
61.250000
 20
-130.500000
 11
63.750000
 21
-130.500000
  0
LINE
  8
0
  6
CONTINUOUS
 62
7
 10
61.250000
 20
-130.000000
 11
63.750000
 21
-130.000000
  0
LINE
  8
0
  6
CONTINUOUS
 62
7
 10
-298.750000
 20
-154.000000
 11
-98.750000
 21
-154.000000
  0
LINE
  8
0
  6
CONTINUOUS
 62
7
 10
-298.750000
 20
-114.000000
 11
-98.750000
 21
-114.000000
  0
LINE
  8
0
  6
CONTINUOUS
 62
7
 10
-298.750000
 20
-154.000000
 11
-298.750000
 21
-114.000000
  0
LINE
  8
0
  6
CONTINUOUS
 62
7
 10
-98.750000
 20
-114.000000
 11
-98.750000
 21
-154.000000
  0
LINE
  8
0
  6
CONTINUOUS
 62
2
 10
-298.750000
 20
-144.199997
 11
-98.750000
 21
-144.199997
  0
LINE
  8
0
  6
CONTINUOUS
 62
2
 10
-298.750000
 20
-123.800003
 11
-98.750000
 21
-123.800003
  0
LINE
  8
0
  6
CONTINUOUS
 62
7
 10
-336.750000
 20
-129.000000
 11
-298.750000
 21
-129.000000
  0
LINE
  8
0
  6
CONTINUOUS
 62
7
 10
-336.750000
 20
-139.000000
 11
-298.750000
 21
-139.000000
  0
LINE
  8
0
  6
CONTINUOUS
 62
7
 10
-336.750000
 20
-129.000000
 11
-336.750000
 21
-139.000000
  0
LINE
  8
0
  6
CONTINUOUS
 62
7
 10
56.250000
 20
-127.500000
 11
61.250000
 21
-127.500000
  0
LINE
  8
0
  6
CONTINUOUS
 62
7
 10
56.250000
 20
-134.000000
 11
61.250000
 21
-134.000000
  0
LINE
  8
0
  6
CONTINUOUS
 62
7
 10
56.250000
 20
-140.500000
 11
61.250000
 21
-140.500000
  0
LINE
  8
0
  6
CONTINUOUS
 62
7
 10
-96.750000
 20
-141.500000
 11
-96.750000
 21
-126.500000
  0
LINE
  8
0
  6
CONTINUOUS
 62
7
 10
28.250000
 20
-139.000000
 11
-96.750000
 21
-139.000000
  0
LINE
  8
0
  6
CONTINUOUS
 62
7
 10
28.250000
 20
-129.000000
 11
-96.750000
 21
-129.000000
  0
LINE
  8
0
  6
CONTINUOUS
 62
7
 10
28.250000
 20
-125.000000
 11
28.250000
 21
-143.000000
  0
LINE
  8
0
  6
CONTINUOUS
 62
7
 10
56.250000
 20
-125.000000
 11
56.250000
 21
-143.000000
  0
LINE
  8
0
  6
CONTINUOUS
 62
7
 10
28.250000
 20
-125.000000
 11
56.250000
 21
-125.000000
  0
LINE
  8
0
  6
CONTINUOUS
 62
7
 10
28.250000
 20
-143.000000
 11
56.250000
 21
-143.000000
  0
LINE
  8
0
  6
CONTINUOUS
 62
7
 10
48.250000
 20
-128.343002
 11
48.250000
 21
-139.656998
  0
LINE
  8
0
  6
CONTINUOUS
 62
7
 10
-298.750000
 20
-212.000000
 11
-298.750000
 21
-186.000000
  0
LINE
  8
0
  6
CONTINUOUS
 62
7
 10
-98.750000
 20
-212.000000
 11
-98.750000
 21
-186.000000
  0
LINE
  8
0
  6
CONTINUOUS
 62
7
 10
-298.750000
 20
-186.000000
 11
-98.750000
 21
-186.000000
  0
LINE
  8
0
  6
CONTINUOUS
 62
7
 10
-298.750000
 20
-212.000000
 11
-98.750000
 21
-212.000000
  0
LINE
  8
0
  6
CENTER
 62
2
 10
-338.750000
 20
-199.000000
 11
65.750000
 21
-199.000000
  0
LINE
  8
0
  6
CONTINUOUS
 62
7
 10
-336.750000
 20
-194.000000
 11
-298.750000
 21
-194.000000
  0
LINE
  8
0
  6
CONTINUOUS
 62
7
 10
-336.750000
 20
-204.000000
 11
-298.750000
 21
-204.000000
  0
LINE
  8
0
  6
CONTINUOUS
 62
7
 10
-336.750000
 20
-194.000000
 11
-336.750000
 21
-204.000000
  0
LINE
  8
0
  6
CONTINUOUS
 62
7
 10
28.250000
 20
-190.000000
 11
28.250000
 21
-208.000000
  0
LINE
  8
0
  6
CONTINUOUS
 62
7
 10
56.250000
 20
-191.494003
 11
56.250000
 21
-206.505997
  0
LINE
  8
0
  6
CONTINUOUS
 62
7
 10
28.250000
 20
-190.000000
 11
48.250000
 21
-190.000000
  0
LINE
  8
0
  6
CONTINUOUS
 62
7
 10
28.250000
 20
-208.000000
 11
48.250000
 21
-208.000000
  0
LINE
  8
0
  6
CONTINUOUS
 62
7
 10
48.250000
 20
-190.000000
 11
48.250000
 21
-192.000000
  0
LINE
  8
0
  6
CONTINUOUS
 62
7
 10
-97.250000
 20
-206.500000
 11
-96.750000
 21
-206.500000
  0
LINE
  8
0
  6
CONTINUOUS
 62
7
 10
-98.750000
 20
-211.000000
 11
-97.250000
 21
-211.000000
  0
LINE
  8
0
  6
CONTINUOUS
 62
7
 10
-98.750000
 20
-187.000000
 11
-97.250000
 21
-187.000000
  0
LINE
  8
0
  6
CONTINUOUS
 62
7
 10
-97.250000
 20
-187.000000
 11
-97.250000
 21
-211.000000
  0
LINE
  8
0
  6
CONTINUOUS
 62
7
 10
-97.250000
 20
-191.500000
 11
-96.750000
 21
-191.500000
  0
LINE
  8
0
  6
CONTINUOUS
 62
7
 10
63.750000
 20
-195.000000
 11
63.750000
 21
-203.000000
  0
LINE
  8
0
  6
CONTINUOUS
 62
7
 10
61.250000
 20
-203.000000
 11
63.750000
 21
-203.000000
  0
LINE
  8
0
  6
CONTINUOUS
 62
2
 10
61.250000
 20
-202.500000
 11
63.750000
 21
-202.500000
  0
LINE
  8
0
  6
CONTINUOUS
 62
2
 10
61.250000
 20
-195.500000
 11
63.750000
 21
-195.500000
  0
LINE
  8
0
  6
CONTINUOUS
 62
7
 10
61.250000
 20
-195.000000
 11
63.750000
 21
-195.000000
  0
LINE
  8
0
  6
CONTINUOUS
 62
7
 10
61.250000
 20
-191.494003
 11
61.250000
 21
-206.505997
  0
LINE
  8
0
  6
CONTINUOUS
 62
7
 10
56.250000
 20
-191.494003
 11
61.250000
 21
-191.494003
  0
LINE
  8
0
  6
CONTINUOUS
 62
7
 10
56.250000
 20
-195.246994
 11
61.250000
 21
-195.246994
  0
LINE
  8
0
  6
CONTINUOUS
 62
7
 10
56.250000
 20
-202.753006
 11
61.250000
 21
-202.753006
  0
LINE
  8
0
  6
CONTINUOUS
 62
7
 10
56.250000
 20
-206.505997
 11
61.250000
 21
-206.505997
  0
LINE
  8
0
  6
CONTINUOUS
 62
7
 10
-96.750000
 20
-206.500000
 11
-96.750000
 21
-191.500000
  0
LINE
  8
0
  6
CONTINUOUS
 62
7
 10
28.250000
 20
-204.000000
 11
-96.750000
 21
-204.000000
  0
LINE
  8
0
  6
CONTINUOUS
 62
7
 10
28.250000
 20
-194.000000
 11
-96.750000
 21
-194.000000
  0
LINE
  8
0
  6
CONTINUOUS
 62
7
 10
48.250000
 20
-192.000000
 11
56.250000
 21
-192.000000
  0
LINE
  8
0
  6
CONTINUOUS
 62
7
 10
48.250000
 20
-206.000000
 11
56.250000
 21
-206.000000
  0
LINE
  8
0
  6
CONTINUOUS
 62
7
 10
48.250000
 20
-206.000000
 11
48.250000
 21
-208.000000
  0
LINE
  8
0
  6
CONTINUOUS
 62
7
 10
28.250000
 20
-65.000000
 11
28.250000
 21
-83.000000
  0
LINE
  8
0
  6
CONTINUOUS
 62
7
 10
28.250000
 20
-65.000000
 11
48.250000
 21
-65.000000
  0
LINE
  8
0
  6
CONTINUOUS
 62
7
 10
28.250000
 20
-83.000000
 11
48.250000
 21
-83.000000
  0
LINE
  8
0
  6
CONTINUOUS
 62
7
 10
-98.750000
 20
-61.000000
 11
-98.750000
 21
-87.000000
  0
LINE
  8
0
  6
CONTINUOUS
 62
7
 10
48.250000
 20
-65.000000
 11
48.250000
 21
-67.000000
  0
LINE
  8
0
  6
CONTINUOUS
 62
7
 10
-97.250000
 20
-81.500000
 11
-96.750000
 21
-81.500000
  0
LINE
  8
0
  6
CONTINUOUS
 62
7
 10
-98.750000
 20
-86.000000
 11
-97.250000
 21
-86.000000
  0
LINE
  8
0
  6
CONTINUOUS
 62
7
 10
-98.750000
 20
-62.000000
 11
-97.250000
 21
-62.000000
  0
LINE
  8
0
  6
CONTINUOUS
 62
7
 10
-97.250000
 20
-62.000000
 11
-97.250000
 21
-86.000000
  0
LINE
  8
0
  6
CONTINUOUS
 62
7
 10
-97.250000
 20
-66.500000
 11
-96.750000
 21
-66.500000
  0
LINE
  8
0
  6
CONTINUOUS
 62
7
 10
63.750000
 20
-70.000000
 11
63.750000
 21
-78.000000
  0
LINE
  8
0
  6
CONTINUOUS
 62
7
 10
61.250000
 20
-78.000000
 11
63.750000
 21
-78.000000
  0
LINE
  8
0
  6
CONTINUOUS
 62
2
 10
61.250000
 20
-77.500000
 11
63.750000
 21
-77.500000
  0
LINE
  8
0
  6
CONTINUOUS
 62
2
 10
61.250000
 20
-70.500000
 11
63.750000
 21
-70.500000
  0
LINE
  8
0
  6
CONTINUOUS
 62
7
 10
61.250000
 20
-70.000000
 11
63.750000
 21
-70.000000
  0
LINE
  8
0
  6
CONTINUOUS
 62
7
 10
-96.750000
 20
-81.500000
 11
-96.750000
 21
-66.500000
  0
LINE
  8
0
  6
CONTINUOUS
 62
7
 10
28.250000
 20
-79.000000
 11
-96.750000
 21
-79.000000
  0
LINE
  8
0
  6
CONTINUOUS
 62
7
 10
28.250000
 20
-69.000000
 11
-96.750000
 21
-69.000000
  0
LINE
  8
0
  6
CONTINUOUS
 62
7
 10
48.250000
 20
-67.000000
 11
56.250000
 21
-67.000000
  0
LINE
  8
0
  6
CONTINUOUS
 62
7
 10
48.250000
 20
-81.000000
 11
56.250000
 21
-81.000000
  0
LINE
  8
0
  6
CONTINUOUS
 62
7
 10
48.250000
 20
-81.000000
 11
48.250000
 21
-83.000000
  0
LINE
  8
0
  6
CONTINUOUS
 62
2
 10
98.750000
 20
-123.800003
 11
99.750000
 21
-123.800003
  0
LINE
  8
0
  6
CONTINUOUS
 62
2
 10
98.750000
 20
-123.800003
 11
98.750000
 21
-124.650002
  0
LINE
  8
0
  6
CONTINUOUS
 62
2
 10
98.750000
 20
-120.349998
 11
98.750000
 21
-121.199997
  0
LINE
  8
0
  6
CONTINUOUS
 62
2
 10
98.750000
 20
-121.199997
 11
99.750000
 21
-121.199997
  0
LINE
  8
0
  6
CONTINUOUS
 62
7
 10
73.750000
 20
-114.000000
 11
73.750000
 21
-154.000000
  0
LINE
  8
0
  6
CENTER
 62
2
 10
71.750000
 20
-134.000000
 11
101.750000
 21
-134.000000
  0
LINE
  8
0
  6
CONTINUOUS
 62
7
 10
73.750000
 20
-154.000000
 11
99.750000
 21
-154.000000
  0
LINE
  8
0
  6
CONTINUOUS
 62
7
 10
99.750000
 20
-154.000000
 11
99.750000
 21
-114.000000
  0
LINE
  8
0
  6
CONTINUOUS
 62
7
 10
73.750000
 20
-114.000000
 11
99.750000
 21
-114.000000
  0
LINE
  8
0
  6
CENTER
 62
2
 10
86.750000
 20
-112.000000
 11
86.750000
 21
-156.000000
  0
LINE
  8
0
  6
CONTINUOUS
 62
2
 10
94.949997
 20
-120.349998
 11
98.750000
 21
-120.349998
  0
LINE
  8
0
  6
CONTINUOUS
 62
2
 10
93.449997
 20
-121.849998
 11
93.449997
 21
-123.150002
  0
LINE
  8
0
  6
CONTINUOUS
 62
2
 10
94.949997
 20
-124.650002
 11
98.750000
 21
-124.650002
  0
LINE
  8
0
  6
CENTER
 62
2
 10
90.480103
 20
-145.500000
 11
101.750000
 21
-145.500000
  0
LINE
  8
0
  6
CENTER
 62
2
 10
90.480103
 20
-122.500000
 11
101.750000
 21
-122.500000
  0
LINE
  8
0
  6
CENTER
 62
2
 10
83.019897
 20
-145.500000
 11
71.750000
 21
-145.500000
  0
LINE
  8
0
  6
CENTER
 62
2
 10
83.019897
 20
-122.500000
 11
71.750000
 21
-122.500000
  0
LINE
  8
0
  6
CONTINUOUS
 62
2
 10
-298.750000
 20
-121.199997
 11
-290.675995
 21
-121.199997
  0
LINE
  8
0
  6
CENTER
 62
2
 10
-286.750000
 20
-184.000000
 11
-286.750000
 21
-214.000000
  0
LINE
  8
0
  6
CENTER
 62
2
 10
-173.750000
 20
-184.000000
 11
-173.750000
 21
-214.000000
  0
LINE
  8
0
  6
CONTINUOUS
 62
2
 10
-282.824005
 20
-121.199997
 11
-266.675995
 21
-121.199997
  0
LINE
  8
0
  6
CONTINUOUS
 62
2
 10
-258.824005
 20
-121.199997
 11
-177.675995
 21
-121.199997
  0
LINE
  8
0
  6
CONTINUOUS
 62
2
 10
-282.824005
 20
-146.800003
 11
-266.675995
 21
-146.800003
  0
LINE
  8
0
  6
CONTINUOUS
 62
2
 10
-298.750000
 20
-146.800003
 11
-290.675995
 21
-146.800003
  0
LINE
  8
0
  6
CONTINUOUS
 62
2
 10
-258.824005
 20
-146.800003
 11
-177.675995
 21
-146.800003
  0
LINE
  8
0
  6
DASHED
 62
2
 10
-178.250000
 20
-186.000000
 11
-178.250000
 21
-192.500000
  0
LINE
  8
0
  6
DASHED
 62
2
 10
-176.750000
 20
-192.500000
 11
-176.750000
 21
-205.500000
  0
LINE
  8
0
  6
DASHED
 62
2
 10
-178.250000
 20
-192.500000
 11
-169.250000
 21
-192.500000
  0
LINE
  8
0
  6
DASHED
 62
2
 10
-169.250000
 20
-186.000000
 11
-169.250000
 21
-192.500000
  0
LINE
  8
0
  6
DASHED
 62
2
 10
-178.250000
 20
-212.000000
 11
-178.250000
 21
-205.500000
  0
LINE
  8
0
  6
DASHED
 62
2
 10
-178.250000
 20
-205.500000
 11
-169.250000
 21
-205.500000
  0
LINE
  8
0
  6
DASHED
 62
2
 10
-169.250000
 20
-212.000000
 11
-169.250000
 21
-205.500000
  0
LINE
  8
0
  6
DASHED
 62
2
 10
-170.750000
 20
-192.500000
 11
-170.750000
 21
-205.500000
  0
LINE
  8
0
  6
DASHED
 62
2
 10
-291.250000
 20
-212.000000
 11
-291.250000
 21
-205.500000
  0
LINE
  8
0
  6
DASHED
 62
2
 10
-291.250000
 20
-205.500000
 11
-282.250000
 21
-205.500000
  0
LINE
  8
0
  6
DASHED
 62
2
 10
-282.250000
 20
-212.000000
 11
-282.250000
 21
-205.500000
  0
LINE
  8
0
  6
DASHED
 62
2
 10
-283.750000
 20
-192.500000
 11
-283.750000
 21
-205.500000
  0
LINE
  8
0
  6
DASHED
 62
2
 10
-289.750000
 20
-192.500000
 11
-289.750000
 21
-205.500000
  0
LINE
  8
0
  6
DASHED
 62
2
 10
-291.250000
 20
-192.500000
 11
-282.250000
 21
-192.500000
  0
LINE
  8
0
  6
DASHED
 62
2
 10
-291.250000
 20
-186.000000
 11
-291.250000
 21
-192.500000
  0
LINE
  8
0
  6
DASHED
 62
2
 10
-282.250000
 20
-186.000000
 11
-282.250000
 21
-192.500000
  0
LINE
  8
0
  6
CENTER
 62
2
 10
-338.750000
 20
-134.000000
 11
65.750000
 21
-134.000000
  0
LINE
  8
0
  6
CONTINUOUS
 62
7
 10
82.997200
 20
-140.500000
 11
90.502800
 21
-140.500000
  0
LINE
  8
0
  6
CONTINUOUS
 62
7
 10
82.997200
 20
-127.500000
 11
90.502800
 21
-127.500000
  0
LINE
  8
0
  6
CONTINUOUS
 62
7
 10
90.502800
 20
-127.500000
 11
94.255501
 21
-134.000000
  0
LINE
  8
0
  6
CONTINUOUS
 62
7
 10
94.255600
 20
-134.000000
 11
90.502899
 21
-140.500000
  0
LINE
  8
0
  6
CONTINUOUS
 62
7
 10
82.997299
 20
-140.500000
 11
79.244499
 21
-134.000000
  0
LINE
  8
0
  6
CONTINUOUS
 62
7
 10
79.244598
 20
-134.000000
 11
82.997398
 21
-127.500000
  0
LINE
  8
0
  6
CONTINUOUS
 62
7
 10
-298.750000
 20
-61.000000
 11
-298.750000
 21
-87.000000
  0
LINE
  8
0
  6
CONTINUOUS
 62
7
 10
-298.750000
 20
-87.000000
 11
-98.750000
 21
-87.000000
  0
LINE
  8
0
  6
CONTINUOUS
 62
7
 10
-298.750000
 20
-61.000000
 11
-98.750000
 21
-61.000000
  0
LINE
  8
0
  6
CENTER
 62
2
 10
-338.750000
 20
-74.000000
 11
65.750000
 21
-74.000000
  0
LINE
  8
0
  6
CONTINUOUS
 62
7
 10
-336.750000
 20
-69.000000
 11
-298.750000
 21
-69.000000
  0
LINE
  8
0
  6
CONTINUOUS
 62
7
 10
-336.750000
 20
-79.000000
 11
-298.750000
 21
-79.000000
  0
LINE
  8
0
  6
CONTINUOUS
 62
7
 10
-336.750000
 20
-69.000000
 11
-336.750000
 21
-79.000000
  0
LINE
  8
0
  6
CONTINUOUS
 62
7
 10
56.250000
 20
-81.505600
 11
61.250000
 21
-81.505600
  0
LINE
  8
0
  6
CONTINUOUS
 62
7
 10
61.250000
 20
-66.494499
 11
61.250000
 21
-81.505600
  0
LINE
  8
0
  6
CONTINUOUS
 62
7
 10
56.250000
 20
-66.494499
 11
56.250000
 21
-81.505600
  0
LINE
  8
0
  6
CONTINUOUS
 62
7
 10
56.250000
 20
-77.752800
 11
61.250000
 21
-77.752800
  0
LINE
  8
0
  6
CONTINUOUS
 62
7
 10
56.250000
 20
-70.247200
 11
61.250000
 21
-70.247200
  0
LINE
  8
0
  6
CONTINUOUS
 62
7
 10
56.250000
 20
-66.494499
 11
61.250000
 21
-66.494499
  0
LINE
  8
0
  6
CONTINUOUS
 62
2
 10
-169.824005
 20
-146.800003
 11
-98.750000
 21
-146.800003
  0
LINE
  8
0
  6
CONTINUOUS
 62
2
 10
-169.824005
 20
-121.199997
 11
-98.750000
 21
-121.199997
  0
LINE
  8
0
  6
DASHED
 62
2
 10
-267.250000
 20
-212.000000
 11
-267.250000
 21
-205.500000
  0
LINE
  8
0
  6
DASHED
 62
2
 10
-258.250000
 20
-212.000000
 11
-258.250000
 21
-205.500000
  0
LINE
  8
0
  6
DASHED
 62
2
 10
-259.750000
 20
-192.500000
 11
-259.750000
 21
-205.500000
  0
LINE
  8
0
  6
CENTER
 62
2
 10
-262.750000
 20
-184.000000
 11
-262.750000
 21
-214.000000
  0
LINE
  8
0
  6
DASHED
 62
2
 10
-267.250000
 20
-205.500000
 11
-258.250000
 21
-205.500000
  0
LINE
  8
0
  6
DASHED
 62
2
 10
-267.250000
 20
-192.500000
 11
-258.250000
 21
-192.500000
  0
LINE
  8
0
  6
DASHED
 62
2
 10
-258.250000
 20
-186.000000
 11
-258.250000
 21
-192.500000
  0
LINE
  8
0
  6
DASHED
 62
2
 10
-267.250000
 20
-186.000000
 11
-267.250000
 21
-192.500000
  0
LINE
  8
0
  6
DASHED
 62
2
 10
-265.750000
 20
-192.500000
 11
-265.750000
 21
-205.500000
  0
LINE
  8
0
  6
CONTINUOUS
 62
7
 10
79.750000
 20
-128.343002
 11
79.750000
 21
-133.123993
  0
LINE
  8
0
  6
CONTINUOUS
 62
7
 10
93.750000
 20
-128.343002
 11
93.750000
 21
-133.123993
  0
LINE
  8
0
  6
CONTINUOUS
 62
7
 10
79.750000
 20
-134.876007
 11
79.750000
 21
-139.656998
  0
LINE
  8
0
  6
CONTINUOUS
 62
7
 10
93.750000
 20
-134.876007
 11
93.750000
 21
-139.656998
  0
LINE
  8
0
  6
CONTINUOUS
 62
7
 10
48.250000
 20
-139.656998
 11
56.250000
 21
-139.656998
  0
LINE
  8
0
  6
CONTINUOUS
 62
7
 10
48.250000
 20
-128.343002
 11
56.250000
 21
-128.343002
  0
LINE
  8
0
  6
CONTINUOUS
 62
2
 10
48.249901
 20
-139.656998
 11
56.249901
 21
-128.343002
  0
LINE
  8
0
  6
CONTINUOUS
 62
2
 10
48.250000
 20
-128.343002
 11
56.249901
 21
-139.656998
  0
LINE
  8
0
  6
CENTER
 62
2
 10
-361.250000
 20
-119.000000
 11
-352.250000
 21
-119.000000
  0
LINE
  8
0
  6
CENTER
 62
2
 10
-361.250000
 20
-149.000000
 11
-352.250000
 21
-149.000000
  0
LINE
  8
0
  6
CENTER
 62
2
 10
-371.750000
 20
-134.000000
 11
-341.750000
 21
-134.000000
  0
LINE
  8
0
  6
CONTINUOUS
 62
2
 10
-348.549988
 20
100.349998
 11
-344.750000
 21
100.349998
  0
LINE
  8
0
  6
CENTER
 62
2
 10
-353.019989
 20
79.500000
 11
-341.750000
 21
79.500000
  0
LINE
  8
0
  6
CENTER
 62
2
 10
-353.019989
 20
102.500000
 11
-341.750000
 21
102.500000
  0
LINE
  8
0
  6
CENTER
 62
2
 10
-360.480011
 20
79.500000
 11
-371.750000
 21
79.500000
  0
LINE
  8
0
  6
CENTER
 62
2
 10
-360.480011
 20
102.500000
 11
-371.750000
 21
102.500000
  0
LINE
  8
0
  6
CONTINUOUS
 62
2
 10
-344.750000
 20
101.199997
 11
-343.750000
 21
101.199997
  0
LINE
  8
0
  6
CONTINUOUS
 62
2
 10
-344.750000
 20
-123.800003
 11
-344.750000
 21
-124.650002
  0
LINE
  8
0
  6
CONTINUOUS
 62
2
 10
-344.750000
 20
104.650002
 11
-344.750000
 21
103.800003
  0
LINE
  8
0
  6
CONTINUOUS
 62
2
 10
-344.750000
 20
103.800003
 11
-343.750000
 21
103.800003
  0
LINE
  8
0
  6
CONTINUOUS
 62
7
 10
-369.750000
 20
111.000000
 11
-369.750000
 21
71.000000
  0
LINE
  8
0
  6
CONTINUOUS
 62
7
 10
-369.750000
 20
71.000000
 11
-343.750000
 21
71.000000
  0
LINE
  8
0
  6
CONTINUOUS
 62
7
 10
-369.750000
 20
111.000000
 11
-343.750000
 21
111.000000
  0
LINE
  8
0
  6
CENTER
 62
2
 10
-356.750000
 20
113.000000
 11
-356.750000
 21
69.000000
  0
LINE
  8
0
  6
CONTINUOUS
 62
2
 10
-348.549988
 20
104.650002
 11
-344.750000
 21
104.650002
  0
LINE
  8
0
  6
CONTINUOUS
 62
2
 10
-350.049988
 20
103.150002
 11
-350.049988
 21
101.849998
  0
LINE
  8
0
  6
CENTER
 62
2
 10
-361.250000
 20
106.000000
 11
-352.250000
 21
106.000000
  0
LINE
  8
0
  6
CENTER
 62
2
 10
-361.250000
 20
76.000000
 11
-352.250000
 21
76.000000
  0
LINE
  8
0
  6
CENTER
 62
2
 10
-371.750000
 20
91.000000
 11
-341.750000
 21
91.000000
  0
LINE
  8
0
  6
CONTINUOUS
 62
7
 10
-343.750000
 20
71.000000
 11
-343.750000
 21
111.000000
  0
LINE
  8
0
  6
CONTINUOUS
 62
2
 10
-344.750000
 20
101.199997
 11
-344.750000
 21
100.349998
  0
LINE
  8
0
  6
CENTER
 62
2
 10
-211.750000
 20
152.500000
 11
-211.750000
 21
143.500000
  0
LINE
  8
0
  6
CENTER
 62
2
 10
-216.250000
 20
148.000000
 11
-207.250000
 21
148.000000
  0
LINE
  8
0
  6
CENTER
 62
2
 10
-254.750000
 20
158.500000
 11
-254.750000
 21
149.500000
  0
LINE
  8
0
  6
CENTER
 62
2
 10
-259.250000
 20
154.000000
 11
-250.250000
 21
154.000000
  0
LINE
  8
0
  6
CENTER
 62
2
 10
-286.750000
 20
82.500000
 11
-286.750000
 21
69.500000
  0
LINE
  8
0
  6
CENTER
 62
2
 10
-293.250000
 20
76.000000
 11
-280.250000
 21
76.000000
  0
LINE
  8
0
  6
CENTER
 62
2
 10
-286.750000
 20
112.500000
 11
-286.750000
 21
99.500000
  0
LINE
  8
0
  6
CENTER
 62
2
 10
-293.250000
 20
106.000000
 11
-280.250000
 21
106.000000
  0
LINE
  8
0
  6
CENTER
 62
2
 10
-262.750000
 20
112.500000
 11
-262.750000
 21
99.500000
  0
LINE
  8
0
  6
CENTER
 62
2
 10
-269.250000
 20
106.000000
 11
-256.250000
 21
106.000000
  0
LINE
  8
0
  6
CENTER
 62
2
 10
-262.750000
 20
82.500000
 11
-262.750000
 21
69.500000
  0
LINE
  8
0
  6
CENTER
 62
2
 10
-269.250000
 20
76.000000
 11
-256.250000
 21
76.000000
  0
LINE
  8
0
  6
CENTER
 62
2
 10
-278.750000
 20
38.500000
 11
-278.750000
 21
29.500000
  0
LINE
  8
0
  6
CENTER
 62
2
 10
-283.250000
 20
34.000000
 11
-274.250000
 21
34.000000
  0
LINE
  8
0
  6
CENTER
 62
2
 10
-254.750000
 20
38.500000
 11
-254.750000
 21
29.500000
  0
LINE
  8
0
  6
CENTER
 62
2
 10
-259.250000
 20
34.000000
 11
-250.250000
 21
34.000000
  0
LINE
  8
0
  6
CENTER
 62
2
 10
-254.750000
 20
22.500000
 11
-254.750000
 21
13.500000
  0
LINE
  8
0
  6
CENTER
 62
2
 10
-259.250000
 20
18.000000
 11
-250.250000
 21
18.000000
  0
LINE
  8
0
  6
CENTER
 62
2
 10
-278.750000
 20
22.500000
 11
-278.750000
 21
13.500000
  0
LINE
  8
0
  6
CENTER
 62
2
 10
-283.250000
 20
18.000000
 11
-274.250000
 21
18.000000
  0
LINE
  8
0
  6
DASHED
 62
2
 10
-289.450012
 20
32.500000
 11
-289.450012
 21
19.500000
  0
LINE
  8
0
  6
DASHED
 62
2
 10
-284.049988
 20
32.500000
 11
-284.049988
 21
19.500000
  0
LINE
  8
0
  6
DASHED
 62
2
 10
-265.450012
 20
32.500000
 11
-265.450012
 21
19.500000
  0
LINE
  8
0
  6
DASHED
 62
2
 10
-260.049988
 20
32.500000
 11
-260.049988
 21
19.500000
  0
LINE
  8
0
  6
CENTER
 62
2
 10
-254.750000
 20
-66.500000
 11
-254.750000
 21
-75.500000
  0
LINE
  8
0
  6
CENTER
 62
2
 10
-259.250000
 20
-71.000000
 11
-250.250000
 21
-71.000000
  0
LINE
  8
0
  6
CENTER
 62
2
 10
-111.750000
 20
-72.500000
 11
-111.750000
 21
-81.500000
  0
LINE
  8
0
  6
CENTER
 62
2
 10
-116.250000
 20
-77.000000
 11
-107.250000
 21
-77.000000
  0
LINE
  8
0
  6
CENTER
 62
2
 10
-286.750000
 20
-112.500000
 11
-286.750000
 21
-125.500000
  0
LINE
  8
0
  6
CENTER
 62
2
 10
-293.250000
 20
-119.000000
 11
-280.250000
 21
-119.000000
  0
LINE
  8
0
  6
CENTER
 62
2
 10
-262.750000
 20
-112.500000
 11
-262.750000
 21
-125.500000
  0
LINE
  8
0
  6
CENTER
 62
2
 10
-269.250000
 20
-119.000000
 11
-256.250000
 21
-119.000000
  0
LINE
  8
0
  6
CENTER
 62
2
 10
-262.750000
 20
-142.500000
 11
-262.750000
 21
-155.500000
  0
LINE
  8
0
  6
CENTER
 62
2
 10
-269.250000
 20
-149.000000
 11
-256.250000
 21
-149.000000
  0
LINE
  8
0
  6
CENTER
 62
2
 10
-286.750000
 20
-142.500000
 11
-286.750000
 21
-155.500000
  0
LINE
  8
0
  6
CENTER
 62
2
 10
-293.250000
 20
-149.000000
 11
-280.250000
 21
-149.000000
  0
LINE
  8
0
  6
CENTER
 62
2
 10
-173.750000
 20
-142.500000
 11
-173.750000
 21
-155.500000
  0
LINE
  8
0
  6
CENTER
 62
2
 10
-180.250000
 20
-149.000000
 11
-167.250000
 21
-149.000000
  0
LINE
  8
0
  6
CENTER
 62
2
 10
-173.750000
 20
-112.500000
 11
-173.750000
 21
-125.500000
  0
LINE
  8
0
  6
CENTER
 62
2
 10
-180.250000
 20
-119.000000
 11
-167.250000
 21
-119.000000
  0
LINE
  8
0
  6
CENTER
 62
2
 10
-254.750000
 20
-186.500000
 11
-254.750000
 21
-195.500000
  0
LINE
  8
0
  6
CENTER
 62
2
 10
-259.250000
 20
-191.000000
 11
-250.250000
 21
-191.000000
  0
LINE
  8
0
  6
CENTER
 62
2
 10
-254.750000
 20
-202.500000
 11
-254.750000
 21
-211.500000
  0
LINE
  8
0
  6
CENTER
 62
2
 10
-259.250000
 20
-207.000000
 11
-250.250000
 21
-207.000000
  0
LINE
  8
0
  6
CENTER
 62
2
 10
-278.750000
 20
-202.500000
 11
-278.750000
 21
-211.500000
  0
LINE
  8
0
  6
CENTER
 62
2
 10
-283.250000
 20
-207.000000
 11
-274.250000
 21
-207.000000
  0
LINE
  8
0
  6
CENTER
 62
2
 10
-278.750000
 20
-186.500000
 11
-278.750000
 21
-195.500000
  0
LINE
  8
0
  6
CENTER
 62
2
 10
-283.250000
 20
-191.000000
 11
-274.250000
 21
-191.000000
  0
LINE
  8
0
  6
DASHED
 62
2
 10
-289.450012
 20
-192.500000
 11
-289.450012
 21
-205.500000
  0
LINE
  8
0
  6
DASHED
 62
2
 10
-284.049988
 20
-192.500000
 11
-284.049988
 21
-205.500000
  0
LINE
  8
0
  6
DASHED
 62
2
 10
-265.450012
 20
-192.500000
 11
-265.450012
 21
-205.500000
  0
LINE
  8
0
  6
DASHED
 62
2
 10
-260.049988
 20
-192.500000
 11
-260.049988
 21
-205.500000
  0
LINE
  8
0
  6
CENTER
 62
2
 10
-165.750000
 20
-202.500000
 11
-165.750000
 21
-211.500000
  0
LINE
  8
0
  6
CENTER
 62
2
 10
-170.250000
 20
-207.000000
 11
-161.250000
 21
-207.000000
  0
LINE
  8
0
  6
CENTER
 62
2
 10
-165.750000
 20
-186.500000
 11
-165.750000
 21
-195.500000
  0
LINE
  8
0
  6
CENTER
 62
2
 10
-170.250000
 20
-191.000000
 11
-161.250000
 21
-191.000000
  0
LINE
  8
0
  6
DASHED
 62
2
 10
-176.449997
 20
-192.500000
 11
-176.449997
 21
-205.500000
  0
LINE
  8
0
  6
DASHED
 62
2
 10
-171.050003
 20
-192.500000
 11
-171.050003
 21
-205.500000
  0
LINE
  8
0
  6
CONTINUOUS
 62
7
 10
61.250000
 20
-127.500000
 11
61.250000
 21
-140.500000
  0
LINE
  8
0
  6
CONTINUOUS
 62
4
 10
249.750000
 20
-41.494400
 11
249.750000
 21
-56.505501
  0
LINE
  8
0
  6
CONTINUOUS
 62
7
 10
280.750000
 20
-36.000000
 11
280.750000
 21
-62.000000
  0
LINE
  8
0
  6
CONTINUOUS
 62
7
 10
280.750000
 20
-62.000000
 11
290.750000
 21
-62.000000
  0
LINE
  8
0
  6
CONTINUOUS
 62
7
 10
280.750000
 20
-36.000000
 11
290.750000
 21
-36.000000
  0
LINE
  8
0
  6
CENTER
 62
1
 10
240.750000
 20
-49.000000
 11
290.750000
 21
-49.000000
  0
LINE
  8
0
  6
CONTINUOUS
 62
4
 10
242.750000
 20
-45.000000
 11
242.750000
 21
-53.000000
  0
LINE
  8
0
  6
CONTINUOUS
 62
4
 10
254.750000
 20
-41.494400
 11
254.750000
 21
-56.505501
  0
LINE
  8
0
  6
CONTINUOUS
 62
4
 10
249.750000
 20
-41.494400
 11
254.750000
 21
-41.494400
  0
LINE
  8
0
  6
CONTINUOUS
 62
4
 10
249.750000
 20
-45.247200
 11
254.750000
 21
-45.247200
  0
LINE
  8
0
  6
CONTINUOUS
 62
4
 10
249.750000
 20
-52.752701
 11
254.750000
 21
-52.752701
  0
LINE
  8
0
  6
CONTINUOUS
 62
4
 10
249.750000
 20
-56.505501
 11
254.750000
 21
-56.505501
  0
LINE
  8
0
  6
CONTINUOUS
 62
4
 10
235.750000
 20
96.000000
 11
275.750000
 21
96.000000
  0
LINE
  8
0
  6
CONTINUOUS
 62
4
 10
235.750000
 20
116.000000
 11
275.750000
 21
116.000000
  0
LINE
  8
0
  6
CONTINUOUS
 62
4
 10
235.750000
 20
151.000000
 11
235.750000
 21
136.000000
  0
LINE
  8
0
  6
CONTINUOUS
 62
4
 10
275.750000
 20
151.000000
 11
275.750000
 21
136.000000
  0
LINE
  8
0
  6
CONTINUOUS
 62
4
 10
235.750000
 20
116.000000
 11
235.750000
 21
96.000000
  0
LINE
  8
0
  6
CONTINUOUS
 62
4
 10
275.750000
 20
116.000000
 11
275.750000
 21
96.000000
  0
LINE
  8
0
  6
CONTINUOUS
 62
4
 10
285.750000
 20
116.000000
 11
305.750000
 21
116.000000
  0
LINE
  8
0
  6
CONTINUOUS
 62
4
 10
285.750000
 20
96.000000
 11
305.750000
 21
96.000000
  0
LINE
  8
0
  6
CONTINUOUS
 62
4
 10
285.750000
 20
116.000000
 11
285.750000
 21
96.000000
  0
LINE
  8
0
  6
CONTINUOUS
 62
4
 10
300.750000
 20
116.000000
 11
300.750000
 21
96.000000
  0
LINE
  8
0
  6
CONTINUOUS
 62
4
 10
305.750000
 20
116.000000
 11
305.750000
 21
96.000000
  0
LINE
  8
0
  6
CONTINUOUS
 62
4
 10
235.750000
 20
136.000000
 11
275.750000
 21
136.000000
  0
LINE
  8
0
  6
CONTINUOUS
 62
4
 10
245.750000
 20
156.000000
 11
265.750000
 21
156.000000
  0
LINE
  8
0
  6
CONTINUOUS
 62
4
 10
265.750000
 20
151.000000
 11
275.750000
 21
151.000000
  0
LINE
  8
0
  6
CONTINUOUS
 62
4
 10
235.750000
 20
151.000000
 11
245.750000
 21
151.000000
  0
LINE
  8
0
  6
CONTINUOUS
 62
4
 10
245.750000
 20
156.000000
 11
245.750000
 21
151.000000
  0
LINE
  8
0
  6
CONTINUOUS
 62
4
 10
265.750000
 20
156.000000
 11
265.750000
 21
151.000000
  0
LINE
  8
0
  6
CENTER
 62
1
 10
255.750000
 20
158.000000
 11
255.750000
 21
134.000000
  0
LINE
  8
0
  6
CENTER
 62
1
 10
270.750000
 20
153.645996
 11
270.750000
 21
134.000000
  0
LINE
  8
0
  6
CENTER
 62
1
 10
240.750000
 20
153.000000
 11
240.750000
 21
134.000000
  0
LINE
  8
0
  6
DASHED
 62
1
 10
268.399994
 20
151.000000
 11
268.399994
 21
136.000000
  0
LINE
  8
0
  6
DASHED
 62
1
 10
273.100006
 20
151.000000
 11
273.100006
 21
136.000000
  0
LINE
  8
0
  6
CONTINUOUS
 62
4
 10
262.481995
 20
-44.000000
 11
280.750000
 21
-44.000000
  0
LINE
  8
0
  6
CENTER
 62
1
 10
270.750000
 20
-34.000000
 11
255.750000
 21
-34.000000
  0
LINE
  8
0
  6
CENTER
 62
1
 10
263.250000
 20
-26.500000
 11
263.250000
 21
-41.500000
  0
LINE
  8
0
  6
CONTINUOUS
 62
4
 10
259.250000
 20
-31.000000
 11
259.250000
 21
-37.000000
  0
LINE
  8
0
  6
CONTINUOUS
 62
4
 10
267.250000
 20
-31.000000
 11
267.250000
 21
-37.000000
  0
LINE
  8
0
  6
CONTINUOUS
 62
7
 10
280.750000
 20
44.000000
 11
280.750000
 21
18.000000
  0
LINE
  8
0
  6
CONTINUOUS
 62
7
 10
280.750000
 20
18.000000
 11
290.750000
 21
18.000000
  0
LINE
  8
0
  6
CONTINUOUS
 62
7
 10
280.750000
 20
44.000000
 11
290.750000
 21
44.000000
  0
LINE
  8
0
  6
CENTER
 62
1
 10
240.750000
 20
31.000000
 11
290.750000
 21
31.000000
  0
LINE
  8
0
  6
CONTINUOUS
 62
4
 10
242.750000
 20
36.000000
 11
249.750000
 21
36.000000
  0
LINE
  8
0
  6
CONTINUOUS
 62
4
 10
242.750000
 20
36.000000
 11
242.750000
 21
26.000000
  0
LINE
  8
0
  6
CONTINUOUS
 62
4
 10
249.750000
 20
35.000000
 11
254.750000
 21
35.000000
  0
LINE
  8
0
  6
CONTINUOUS
 62
4
 10
249.750000
 20
36.000000
 11
249.750000
 21
35.000000
  0
LINE
  8
0
  6
CONTINUOUS
 62
4
 10
254.750000
 20
36.000000
 11
254.750000
 21
35.000000
  0
LINE
  8
0
  6
CONTINUOUS
 62
4
 10
254.750000
 20
36.000000
 11
280.750000
 21
36.000000
  0
LINE
  8
0
  6
DASHED
 62
1
 10
254.750000
 20
34.000000
 11
254.750000
 21
28.000000
  0
LINE
  8
0
  6
DASHED
 62
1
 10
242.750000
 20
34.000000
 11
254.750000
 21
34.000000
  0
LINE
  8
0
  6
DASHED
 62
1
 10
242.750000
 20
33.500000
 11
257.750000
 21
33.500000
  0
LINE
  8
0
  6
CONTINUOUS
 62
4
 10
242.750000
 20
26.000000
 11
249.750000
 21
26.000000
  0
LINE
  8
0
  6
CONTINUOUS
 62
4
 10
249.750000
 20
26.000000
 11
249.750000
 21
27.000000
  0
LINE
  8
0
  6
CONTINUOUS
 62
4
 10
249.750000
 20
27.000000
 11
254.750000
 21
27.000000
  0
LINE
  8
0
  6
CONTINUOUS
 62
4
 10
254.750000
 20
26.000000
 11
280.750000
 21
26.000000
  0
LINE
  8
0
  6
DASHED
 62
1
 10
242.750000
 20
28.000000
 11
254.750000
 21
28.000000
  0
LINE
  8
0
  6
DASHED
 62
1
 10
242.750000
 20
28.500000
 11
257.750000
 21
28.500000
  0
LINE
  8
0
  6
CONTINUOUS
 62
4
 10
254.750000
 20
26.000000
 11
254.750000
 21
27.000000
  0
LINE
  8
0
  6
DASHED
 62
1
 10
257.750000
 20
33.500000
 11
257.750000
 21
28.500000
  0
LINE
  8
0
  6
CENTER
 62
1
 10
259.750000
 20
46.000000
 11
244.750000
 21
46.000000
  0
LINE
  8
0
  6
CENTER
 62
1
 10
252.250000
 20
53.500000
 11
252.250000
 21
38.500000
  0
LINE
  8
0
  6
CONTINUOUS
 62
4
 10
255.250000
 20
50.000000
 11
249.250000
 21
50.000000
  0
LINE
  8
0
  6
CONTINUOUS
 62
4
 10
255.250000
 20
42.000000
 11
249.250000
 21
42.000000
  0
LINE
  8
0
  6
CONTINUOUS
 62
4
 10
258.250000
 20
-45.000000
 11
258.250000
 21
-53.000000
  0
LINE
  8
0
  6
CONTINUOUS
 62
4
 10
242.750000
 20
-45.000000
 11
249.750000
 21
-45.000000
  0
LINE
  8
0
  6
CONTINUOUS
 62
1
 10
242.750000
 20
-45.700001
 11
249.750000
 21
-45.700001
  0
LINE
  8
0
  6
CONTINUOUS
 62
4
 10
260.750000
 20
-45.000000
 11
260.750000
 21
-53.000000
  0
LINE
  8
0
  6
CONTINUOUS
 62
4
 10
265.750000
 20
-46.000000
 11
265.750000
 21
-52.000000
  0
LINE
  8
0
  6
CONTINUOUS
 62
4
 10
260.750000
 20
-44.999901
 11
262.481995
 21
-43.999901
  0
LINE
  8
0
  6
CONTINUOUS
 62
4
 10
262.481995
 20
-44.000000
 11
262.481995
 21
-46.000000
  0
LINE
  8
0
  6
CONTINUOUS
 62
1
 10
242.750000
 20
-52.299999
 11
249.750000
 21
-52.299999
  0
LINE
  8
0
  6
CONTINUOUS
 62
4
 10
242.750000
 20
-53.000000
 11
249.750000
 21
-53.000000
  0
LINE
  8
0
  6
CONTINUOUS
 62
4
 10
260.750000
 20
-52.999802
 11
262.481995
 21
-53.999901
  0
LINE
  8
0
  6
CONTINUOUS
 62
4
 10
262.481995
 20
-54.000000
 11
280.750000
 21
-54.000000
  0
LINE
  8
0
  6
CONTINUOUS
 62
4
 10
260.750000
 20
-46.000000
 11
265.750000
 21
-46.000000
  0
LINE
  8
0
  6
CONTINUOUS
 62
4
 10
260.750000
 20
-52.000000
 11
265.750000
 21
-52.000000
  0
LINE
  8
0
  6
CONTINUOUS
 62
4
 10
262.481995
 20
-52.000000
 11
262.481995
 21
-54.000000
  0
LINE
  8
0
  6
CONTINUOUS
 62
1
 10
265.750000
 20
-45.999901
 11
260.750000
 21
-51.999901
  0
LINE
  8
0
  6
CONTINUOUS
 62
1
 10
265.750000
 20
-52.000000
 11
260.750000
 21
-46.000000
  0
LINE
  8
0
  6
CONTINUOUS
 62
4
 10
254.750000
 20
-53.000000
 11
260.750000
 21
-53.000000
  0
LINE
  8
0
  6
CONTINUOUS
 62
4
 10
254.750000
 20
-45.000000
 11
260.750000
 21
-45.000000
  0
LINE
  8
0
  6
CONTINUOUS
 62
1
 10
254.750000
 20
-45.700001
 11
258.250000
 21
-45.700001
  0
LINE
  8
0
  6
CONTINUOUS
 62
1
 10
254.750000
 20
-52.299999
 11
258.250000
 21
-52.299999
  0
LINE
  8
0
  6
CENTER
 62
1
 10
283.750000
 20
106.000000
 11
307.750000
 21
106.000000
  0
LINE
  8
0
  6
CENTER
 62
1
 10
270.750000
 20
104.349998
 11
270.750000
 21
95.650002
  0
LINE
  8
0
  6
CENTER
 62
1
 10
266.399994
 20
100.000000
 11
275.100006
 21
100.000000
  0
LINE
  8
0
  6
CENTER
 62
1
 10
270.750000
 20
116.349998
 11
270.750000
 21
107.650002
  0
LINE
  8
0
  6
CENTER
 62
1
 10
266.399994
 20
112.000000
 11
275.100006
 21
112.000000
  0
LINE
  8
0
  6
CENTER
 62
1
 10
255.750000
 20
113.000000
 11
255.750000
 21
99.000000
  0
LINE
  8
0
  6
CENTER
 62
1
 10
248.750000
 20
106.000000
 11
262.750000
 21
106.000000
  0
LINE
  8
0
  6
CENTER
 62
1
 10
240.750000
 20
116.349998
 11
240.750000
 21
107.650002
  0
LINE
  8
0
  6
CENTER
 62
1
 10
236.399994
 20
112.000000
 11
245.100006
 21
112.000000
  0
LINE
  8
0
  6
CENTER
 62
1
 10
240.750000
 20
104.349998
 11
240.750000
 21
95.650002
  0
LINE
  8
0
  6
CENTER
 62
1
 10
236.399994
 20
100.000000
 11
245.100006
 21
100.000000
  0
LINE
  8
0
  6
CONTINUOUS
 62
7
 10
335.750000
 20
-172.000000
 11
345.750000
 21
-172.000000
  0
LINE
  8
0
  6
CONTINUOUS
 62
7
 10
335.750000
 20
-132.000000
 11
345.750000
 21
-132.000000
  0
LINE
  8
0
  6
CONTINUOUS
 62
7
 10
335.750000
 20
-172.000000
 11
335.750000
 21
-132.000000
  0
LINE
  8
0
  6
CONTINUOUS
 62
2
 10
335.750000
 20
-139.199997
 11
345.750000
 21
-139.199997
  0
LINE
  8
0
  6
CONTINUOUS
 62
2
 10
335.750000
 20
-164.800003
 11
345.750000
 21
-164.800003
  0
LINE
  8
0
  6
CONTINUOUS
 62
2
 10
335.750000
 20
-162.199997
 11
345.750000
 21
-162.199997
  0
LINE
  8
0
  6
CENTER
 62
1
 10
262.282013
 20
-152.000000
 11
345.750000
 21
-152.000000
  0
LINE
  8
0
  6
CONTINUOUS
 62
2
 10
335.750000
 20
-141.800003
 11
345.750000
 21
-141.800003
  0
LINE
  8
0
  6
CONTINUOUS
 62
4
 10
265.750000
 20
-147.000000
 11
282.750000
 21
-147.000000
  0
LINE
  8
0
  6
CONTINUOUS
 62
4
 10
265.750000
 20
-157.000000
 11
282.750000
 21
-157.000000
  0
LINE
  8
0
  6
CONTINUOUS
 62
4
 10
265.750000
 20
-147.000000
 11
265.750000
 21
-157.000000
  0
LINE
  8
0
  6
CONTINUOUS
 62
4
 10
282.750000
 20
-141.500000
 11
282.750000
 21
-162.500000
  0
LINE
  8
0
  6
CONTINUOUS
 62
4
 10
282.750000
 20
-141.500000
 11
315.750000
 21
-141.500000
  0
LINE
  8
0
  6
CONTINUOUS
 62
4
 10
315.750000
 20
-162.500000
 11
315.750000
 21
-141.500000
  0
LINE
  8
0
  6
CONTINUOUS
 62
4
 10
315.750000
 20
-162.500000
 11
282.750000
 21
-162.500000
  0
LINE
  8
0
  6
DASHED
 62
1
 10
292.750000
 20
-141.500000
 11
292.750000
 21
-143.000000
  0
LINE
  8
0
  6
DASHED
 62
1
 10
305.750000
 20
-141.500000
 11
305.750000
 21
-143.000000
  0
LINE
  8
0
  6
DASHED
 62
1
 10
292.750000
 20
-143.000000
 11
305.750000
 21
-143.000000
  0
LINE
  8
0
  6
CONTINUOUS
 62
4
 10
315.750000
 20
-147.000000
 11
335.750000
 21
-147.000000
  0
LINE
  8
0
  6
CONTINUOUS
 62
4
 10
315.750000
 20
-157.000000
 11
335.750000
 21
-157.000000
  0
LINE
  8
0
  6
DASHED
 62
1
 10
275.750000
 20
-149.500000
 11
275.750000
 21
-154.500000
  0
LINE
  8
0
  6
DASHED
 62
1
 10
277.750000
 20
-149.932999
 11
277.750000
 21
-154.067001
  0
LINE
  8
0
  6
DASHED
 62
1
 10
265.750000
 20
-149.500000
 11
275.750000
 21
-149.500000
  0
LINE
  8
0
  6
DASHED
 62
1
 10
265.750000
 20
-154.500000
 11
275.750000
 21
-154.500000
  0
LINE
  8
0
  6
DASHED
 62
1
 10
265.750000
 20
-154.067001
 11
277.750000
 21
-154.067001
  0
LINE
  8
0
  6
DASHED
 62
1
 10
265.750000
 20
-149.932999
 11
277.750000
 21
-149.932999
  0
LINE
  8
0
  6
DASHED
 62
1
 10
234.250000
 20
-141.608002
 11
234.250000
 21
-143.000000
  0
LINE
  8
0
  6
DASHED
 62
1
 10
234.250000
 20
-143.000000
 11
237.250000
 21
-143.000000
  0
LINE
  8
0
  6
DASHED
 62
1
 10
237.250000
 20
-141.608002
 11
237.250000
 21
-143.000000
  0
LINE
  8
0
  6
CENTER
 62
1
 10
248.250000
 20
-152.000000
 11
223.250000
 21
-152.000000
  0
LINE
  8
0
  6
CENTER
 62
1
 10
236.404007
 20
-139.516998
 11
235.750000
 21
-152.000000
  0
LINE
  8
0
  6
CENTER
 62
1
 10
235.750000
 20
-139.500000
 11
235.750000
 21
-164.500000
  0
LINE
  8
0
  6
CENTER
 62
1
 10
235.095993
 20
-139.516998
 11
235.750000
 21
-152.000000
  0
LINE
  8
0
  6
CONTINUOUS
 62
4
 10
294.250000
 20
-120.000000
 11
304.250000
 21
-120.000000
  0
LINE
  8
0
  6
CONTINUOUS
 62
4
 10
294.250000
 20
-123.000000
 11
304.250000
 21
-123.000000
  0
LINE
  8
0
  6
CENTER
 62
1
 10
290.750000
 20
-121.500000
 11
307.750000
 21
-121.500000
  0
LINE
  8
0
  6
CONTINUOUS
 62
4
 10
341.876007
 20
-110.518997
 11
341.876007
 21
-113.518997
  0
LINE
  8
0
  6
CONTINUOUS
 62
4
 10
341.876007
 20
-110.518997
 11
344.876007
 21
-110.518997
  0
LINE
  8
0
  6
CONTINUOUS
 62
4
 10
344.876007
 20
-110.518997
 11
344.876007
 21
-113.518997
  0
LINE
  8
0
  6
CONTINUOUS
 62
4
 10
341.876007
 20
-113.518997
 11
344.876007
 21
-113.518997
  0
LINE
  8
0
  6
CONTINUOUS
 62
4
 10
357.859009
 20
-102.018997
 11
367.859009
 21
-102.018997
  0
LINE
  8
0
  6
CONTINUOUS
 62
4
 10
357.859009
 20
-105.018997
 11
367.859009
 21
-105.018997
  0
LINE
  8
0
  6
CONTINUOUS
 62
4
 10
356.359009
 20
-110.518997
 11
356.359009
 21
-113.518997
  0
LINE
  8
0
  6
CONTINUOUS
 62
4
 10
356.359009
 20
-110.518997
 11
369.359009
 21
-110.518997
  0
LINE
  8
0
  6
CONTINUOUS
 62
4
 10
356.359009
 20
-113.518997
 11
369.359009
 21
-113.518997
  0
LINE
  8
0
  6
CONTINUOUS
 62
4
 10
369.359009
 20
-110.518997
 11
369.359009
 21
-113.518997
  0
LINE
  8
0
  6
CENTER
 62
1
 10
343.376007
 20
-108.518997
 11
343.376007
 21
-115.518997
  0
LINE
  8
0
  6
CENTER
 62
1
 10
371.359009
 20
-103.518997
 11
354.359009
 21
-103.518997
  0
CIRCLE
  8
0
  6
CONTINUOUS
 62
7
 10
-286.750000
 20
106.000000
 40
4.500000
  0
CIRCLE
  8
0
  6
CONTINUOUS
 62
7
 10
-262.750000
 20
106.000000
 40
4.500000
  0
CIRCLE
  8
0
  6
CONTINUOUS
 62
7
 10
-286.750000
 20
76.000000
 40
4.500000
  0
CIRCLE
  8
0
  6
CONTINUOUS
 62
7
 10
-262.750000
 20
76.000000
 40
4.500000
  0
CIRCLE
  8
0
  6
CONTINUOUS
 62
2
 10
-286.750000
 20
106.000000
 40
3.000000
  0
CIRCLE
  8
0
  6
CONTINUOUS
 62
2
 10
-262.750000
 20
106.000000
 40
3.000000
  0
CIRCLE
  8
0
  6
CONTINUOUS
 62
2
 10
-262.750000
 20
76.000000
 40
3.000000
  0
CIRCLE
  8
0
  6
CONTINUOUS
 62
2
 10
-286.750000
 20
76.000000
 40
3.000000
  0
CIRCLE
  8
0
  6
CONTINUOUS
 62
7
 10
-286.750000
 20
106.000000
 40
2.700000
  0
CIRCLE
  8
0
  6
CONTINUOUS
 62
7
 10
-262.750000
 20
106.000000
 40
2.700000
  0
CIRCLE
  8
0
  6
CONTINUOUS
 62
7
 10
-262.750000
 20
76.000000
 40
2.700000
  0
CIRCLE
  8
0
  6
CONTINUOUS
 62
7
 10
-286.750000
 20
76.000000
 40
2.700000
  0
CIRCLE
  8
0
  6
CONTINUOUS
 62
2
 10
-254.750000
 20
154.000000
 40
2.500000
  0
CIRCLE
  8
0
  6
CONTINUOUS
 62
7
 10
-254.750000
 20
154.000000
 40
2.100000
  0
CIRCLE
  8
0
  6
CONTINUOUS
 62
2
 10
-211.750000
 20
148.000000
 40
2.500000
  0
CIRCLE
  8
0
  6
CONTINUOUS
 62
7
 10
-211.750000
 20
148.000000
 40
2.100000
  0
ARC
  8
0
  6
CONTINUOUS
 62
2
 10
-105.050003
 20
101.849998
 40
1.500000
 50
180.000000
 51
270.000000
  0
ARC
  8
0
  6
CONTINUOUS
 62
2
 10
-105.050003
 20
103.150002
 40
1.500000
 50
90.000000
 51
180.000000
  0
ARC
  8
0
  6
CONTINUOUS
 62
2
 10
-348.549988
 20
-121.849998
 40
1.500000
 50
90.000000
 51
180.000000
  0
CIRCLE
  8
0
  6
CONTINUOUS
 62
7
 10
-356.750000
 20
-134.000000
 40
5.000000
  0
CIRCLE
  8
0
  6
CONTINUOUS
 62
2
 10
-356.750000
 20
-119.000000
 40
2.500000
  0
CIRCLE
  8
0
  6
CONTINUOUS
 62
7
 10
-356.750000
 20
-119.000000
 40
2.100000
  0
CIRCLE
  8
0
  6
CONTINUOUS
 62
7
 10
-356.750000
 20
-149.000000
 40
2.100000
  0
CIRCLE
  8
0
  6
CONTINUOUS
 62
2
 10
-356.750000
 20
-149.000000
 40
2.500000
  0
ARC
  8
0
  6
CONTINUOUS
 62
2
 10
-348.549988
 20
-123.150002
 40
1.500000
 50
180.000000
 51
270.000000
  0
CIRCLE
  8
0
  6
CONTINUOUS
 62
7
 10
-113.250000
 20
91.000000
 40
9.000000
  0
CIRCLE
  8
0
  6
CONTINUOUS
 62
2
 10
-278.750000
 20
18.000000
 40
2.500000
  0
CIRCLE
  8
0
  6
CONTINUOUS
 62
2
 10
-278.750000
 20
34.000000
 40
2.500000
  0
CIRCLE
  8
0
  6
CONTINUOUS
 62
2
 10
-254.750000
 20
34.000000
 40
2.500000
  0
CIRCLE
  8
0
  6
CONTINUOUS
 62
2
 10
-254.750000
 20
18.000000
 40
2.500000
  0
CIRCLE
  8
0
  6
CONTINUOUS
 62
7
 10
-278.750000
 20
34.000000
 40
2.100000
  0
CIRCLE
  8
0
  6
CONTINUOUS
 62
7
 10
-254.750000
 20
34.000000
 40
2.100000
  0
CIRCLE
  8
0
  6
CONTINUOUS
 62
7
 10
-254.750000
 20
18.000000
 40
2.100000
  0
CIRCLE
  8
0
  6
CONTINUOUS
 62
7
 10
-278.750000
 20
18.000000
 40
2.100000
  0
CIRCLE
  8
0
  6
CONTINUOUS
 62
7
 10
-286.750000
 20
-119.000000
 40
4.500000
  0
CIRCLE
  8
0
  6
CONTINUOUS
 62
7
 10
-173.750000
 20
-119.000000
 40
4.500000
  0
CIRCLE
  8
0
  6
CONTINUOUS
 62
7
 10
-286.750000
 20
-149.000000
 40
4.500000
  0
CIRCLE
  8
0
  6
CONTINUOUS
 62
7
 10
-173.750000
 20
-149.000000
 40
4.500000
  0
CIRCLE
  8
0
  6
CONTINUOUS
 62
2
 10
-286.750000
 20
-119.000000
 40
3.000000
  0
CIRCLE
  8
0
  6
CONTINUOUS
 62
2
 10
-173.750000
 20
-119.000000
 40
3.000000
  0
CIRCLE
  8
0
  6
CONTINUOUS
 62
2
 10
-173.750000
 20
-149.000000
 40
3.000000
  0
CIRCLE
  8
0
  6
CONTINUOUS
 62
2
 10
-286.750000
 20
-149.000000
 40
3.000000
  0
CIRCLE
  8
0
  6
CONTINUOUS
 62
7
 10
-286.750000
 20
-119.000000
 40
2.700000
  0
CIRCLE
  8
0
  6
CONTINUOUS
 62
7
 10
-173.750000
 20
-119.000000
 40
2.700000
  0
CIRCLE
  8
0
  6
CONTINUOUS
 62
7
 10
-173.750000
 20
-149.000000
 40
2.700000
  0
CIRCLE
  8
0
  6
CONTINUOUS
 62
7
 10
-286.750000
 20
-149.000000
 40
2.700000
  0
CIRCLE
  8
0
  6
CONTINUOUS
 62
2
 10
-254.750000
 20
-71.000000
 40
2.500000
  0
CIRCLE
  8
0
  6
CONTINUOUS
 62
7
 10
-254.750000
 20
-71.000000
 40
2.100000
  0
CIRCLE
  8
0
  6
CONTINUOUS
 62
2
 10
-111.750000
 20
-77.000000
 40
2.500000
  0
CIRCLE
  8
0
  6
CONTINUOUS
 62
7
 10
-111.750000
 20
-77.000000
 40
2.100000
  0
ARC
  8
0
  6
CONTINUOUS
 62
2
 10
94.949997
 20
-123.150002
 40
1.500000
 50
180.000000
 51
270.000000
  0
ARC
  8
0
  6
CONTINUOUS
 62
2
 10
94.949997
 20
-121.849998
 40
1.500000
 50
90.000000
 51
180.000000
  0
CIRCLE
  8
0
  6
CONTINUOUS
 62
2
 10
-278.750000
 20
-207.000000
 40
2.500000
  0
CIRCLE
  8
0
  6
CONTINUOUS
 62
2
 10
-278.750000
 20
-191.000000
 40
2.500000
  0
CIRCLE
  8
0
  6
CONTINUOUS
 62
2
 10
-165.750000
 20
-191.000000
 40
2.500000
  0
CIRCLE
  8
0
  6
CONTINUOUS
 62
2
 10
-165.750000
 20
-207.000000
 40
2.500000
  0
CIRCLE
  8
0
  6
CONTINUOUS
 62
7
 10
-262.750000
 20
-149.000000
 40
2.700000
  0
CIRCLE
  8
0
  6
CONTINUOUS
 62
2
 10
-262.750000
 20
-149.000000
 40
3.000000
  0
CIRCLE
  8
0
  6
CONTINUOUS
 62
2
 10
-262.750000
 20
-119.000000
 40
3.000000
  0
CIRCLE
  8
0
  6
CONTINUOUS
 62
7
 10
-262.750000
 20
-149.000000
 40
4.500000
  0
CIRCLE
  8
0
  6
CONTINUOUS
 62
7
 10
-262.750000
 20
-119.000000
 40
4.500000
  0
CIRCLE
  8
0
  6
CONTINUOUS
 62
7
 10
-262.750000
 20
-119.000000
 40
2.700000
  0
CIRCLE
  8
0
  6
CONTINUOUS
 62
2
 10
-254.750000
 20
-207.000000
 40
2.500000
  0
CIRCLE
  8
0
  6
CONTINUOUS
 62
2
 10
-254.750000
 20
-191.000000
 40
2.500000
  0
CIRCLE
  8
0
  6
CONTINUOUS
 62
7
 10
-165.750000
 20
-207.000000
 40
2.100000
  0
CIRCLE
  8
0
  6
CONTINUOUS
 62
7
 10
-165.750000
 20
-191.000000
 40
2.100000
  0
CIRCLE
  8
0
  6
CONTINUOUS
 62
7
 10
-254.750000
 20
-191.000000
 40
2.100000
  0
CIRCLE
  8
0
  6
CONTINUOUS
 62
7
 10
-254.750000
 20
-207.000000
 40
2.100000
  0
CIRCLE
  8
0
  6
CONTINUOUS
 62
7
 10
-278.750000
 20
-207.000000
 40
2.100000
  0
CIRCLE
  8
0
  6
CONTINUOUS
 62
7
 10
-278.750000
 20
-191.000000
 40
2.100000
  0
CIRCLE
  8
0
  6
CONTINUOUS
 62
7
 10
86.750000
 20
-134.000000
 40
9.000000
  0
CIRCLE
  8
0
  6
CONTINUOUS
 62
2
 10
86.750000
 20
-134.000000
 40
3.500000
  0
CIRCLE
  8
0
  6
CONTINUOUS
 62
7
 10
86.750000
 20
-134.000000
 40
4.000000
  0
CIRCLE
  8
0
  6
CONTINUOUS
 62
2
 10
-113.250000
 20
91.000000
 40
3.500000
  0
CIRCLE
  8
0
  6
CONTINUOUS
 62
7
 10
-113.250000
 20
91.000000
 40
4.000000
  0
ARC
  8
0
  6
CONTINUOUS
 62
2
 10
-348.549988
 20
103.150002
 40
1.500000
 50
90.000000
 51
180.000000
  0
CIRCLE
  8
0
  6
CONTINUOUS
 62
7
 10
-356.750000
 20
91.000000
 40
5.000000
  0
CIRCLE
  8
0
  6
CONTINUOUS
 62
2
 10
-356.750000
 20
106.000000
 40
2.500000
  0
CIRCLE
  8
0
  6
CONTINUOUS
 62
7
 10
-356.750000
 20
106.000000
 40
2.100000
  0
CIRCLE
  8
0
  6
CONTINUOUS
 62
7
 10
-356.750000
 20
76.000000
 40
2.100000
  0
CIRCLE
  8
0
  6
CONTINUOUS
 62
2
 10
-356.750000
 20
76.000000
 40
2.500000
  0
ARC
  8
0
  6
CONTINUOUS
 62
2
 10
-348.549988
 20
101.849998
 40
1.500000
 50
180.000000
 51
270.000000
  0
CIRCLE
  8
0
  6
CONTINUOUS
 62
4
 10
255.750000
 20
106.000000
 40
5.000000
  0
CIRCLE
  8
0
  6
CONTINUOUS
 62
4
 10
270.750000
 20
100.000000
 40
2.350000
  0
CIRCLE
  8
0
  6
CONTINUOUS
 62
4
 10
270.750000
 20
112.000000
 40
2.350000
  0
CIRCLE
  8
0
  6
CONTINUOUS
 62
4
 10
240.750000
 20
112.000000
 40
2.350000
  0
CIRCLE
  8
0
  6
CONTINUOUS
 62
4
 10
240.750000
 20
100.000000
 40
2.350000
  0
CIRCLE
  8
0
  6
CONTINUOUS
 62
4
 10
263.250000
 20
-34.000000
 40
5.000000
  0
CIRCLE
  8
0
  6
CONTINUOUS
 62
4
 10
252.250000
 20
46.000000
 40
5.000000
  0
CIRCLE
  8
0
  6
CONTINUOUS
 62
4
 10
235.750000
 20
-152.000000
 40
5.000000
  0
CIRCLE
  8
0
  6
CONTINUOUS
 62
4
 10
235.750000
 20
-152.000000
 40
10.500000
  0
CIRCLE
  8
0
  6
CONTINUOUS
 62
1
 10
235.750000
 20
-152.000000
 40
2.500000
  0
CIRCLE
  8
0
  6
CONTINUOUS
 62
4
 10
235.750000
 20
-152.000000
 40
2.067000
  0
ARC
  8
0
  6
CONTINUOUS
 62
4
 10
294.250000
 20
-121.500000
 40
1.500000
 50
90.000000
 51
270.000000
  0
ARC
  8
0
  6
CONTINUOUS
 62
4
 10
304.250000
 20
-121.500000
 40
1.500000
 50
270.000000
 51
90.000000
  0
ARC
  8
0
  6
CONTINUOUS
 62
4
 10
357.859009
 20
-103.518997
 40
1.500000
 50
90.000000
 51
270.000000
  0
ARC
  8
0
  6
CONTINUOUS
 62
4
 10
367.859009
 20
-103.518997
 40
1.500000
 50
270.000000
 51
90.000000
  0
TEXT
  8
0
 62
7
 10
249.264832
 20
-267.375000
 40
12.500000
  1
KOGANEI CORP.
 50
0.000000
 41
0.771525
 51
0.000000
  7
STANDARD
  0
TEXT
  8
0
 62
7
 10
292.414673
 20
261.500000
 40
9.000000
  1
Ver.1.0
 50
0.000000
 41
1.010331
 51
0.000000
  7
STANDARD
  0
TEXT
  8
0
 62
7
 10
-383.750580
 20
229.000000
 40
9.000000
  1
MODEL:AXAS-SD20-25-ZE-R***
 50
0.000000
 41
0.756745
 51
0.000000
  7
STANDARD
  0
TEXT
  8
0
 62
7
 10
-364.635315
 20
261.500000
 40
9.000000
  1
AX CYLINDER
 50
0.000000
 41
0.783349
 51
0.000000
  7
STANDARD
  0
TEXT
  8
0
 62
7
 10
-197.149994
 20
164.000000
 40
3.200000
  1
25st
 50
90.000000
 41
0.857250
 51
0.000000
  7
STANDARD
  0
TEXT
  8
0
 62
7
 10
-172.149994
 20
164.000000
 40
3.200000
  1
50st
 50
90.000000
 41
0.907676
 51
0.000000
  7
STANDARD
  0
TEXT
  8
0
 62
7
 10
-147.149994
 20
164.000000
 40
3.200000
  1
75st
 50
90.000000
 41
0.857250
 51
0.000000
  7
STANDARD
  0
TEXT
  8
0
 62
7
 10
-134.649994
 20
155.000000
 40
3.200000
  1
25st
 50
90.000000
 41
0.857250
 51
0.000000
  7
STANDARD
  0
TEXT
  8
0
 62
7
 10
-84.650002
 20
155.000000
 40
3.200000
  1
50st
 50
90.000000
 41
0.907676
 51
0.000000
  7
STANDARD
  0
TEXT
  8
0
 62
7
 10
-34.650002
 20
155.000000
 40
3.200000
  1
75st
 50
90.000000
 41
0.857250
 51
0.000000
  7
STANDARD
  0
TEXT
  8
0
 62
7
 10
-122.150002
 20
164.000000
 40
3.200000
  1
100st
 50
90.000000
 41
0.985838
 51
0.000000
  7
STANDARD
  0
TEXT
  8
0
 62
7
 10
15.350000
 20
155.000000
 40
3.200000
  1
100st
 50
90.000000
 41
0.985838
 51
0.000000
  7
STANDARD
  0
TEXT
  8
0
 62
7
 10
-97.150002
 20
-61.000000
 40
3.200000
  1
125st
 50
90.000000
 41
0.896216
 51
0.000000
  7
STANDARD
  0
TEXT
  8
0
 62
7
 10
65.349998
 20
-70.000000
 40
3.200000
  1
125st
 50
90.000000
 41
0.896216
 51
0.000000
  7
STANDARD
  0
TEXT
  8
0
 62
7
 10
-72.150002
 20
-61.000000
 40
3.200000
  1
150st
 50
90.000000
 41
0.938893
 51
0.000000
  7
STANDARD
  0
TEXT
  8
0
 62
7
 10
-47.150002
 20
-61.000000
 40
3.200000
  1
175st
 50
90.000000
 41
0.896216
 51
0.000000
  7
STANDARD
  0
TEXT
  8
0
 62
7
 10
-22.150000
 20
-61.000000
 40
3.200000
  1
200st
 50
90.000000
 41
0.896216
 51
0.000000
  7
STANDARD
  0
TEXT
  8
0
 62
7
 10
115.349998
 20
-70.000000
 40
3.200000
  1
150st
 50
90.000000
 41
0.938893
 51
0.000000
  7
STANDARD
  0
TEXT
  8
0
 62
7
 10
165.350006
 20
-70.000000
 40
3.200000
  1
175st
 50
90.000000
 41
0.896216
 51
0.000000
  7
STANDARD
  0
TEXT
  8
0
 62
7
 10
215.350006
 20
-70.000000
 40
3.200000
  1
200st
 50
90.000000
 41
0.896216
 51
0.000000
  7
STANDARD
  0
TEXT
  8
0
 62
7
 10
236.578751
 20
79.000000
 40
4.000000
  1
ZT(FLANGE ROD END)
 50
0.000000
 41
0.754380
 51
0.000000
  7
STANDARD
  0
TEXT
  8
0
 62
7
 10
234.578751
 20
1.000000
 40
4.000000
  1
WS(INTERNAL THREAD)
 50
0.000000
 41
0.752116
 51
0.000000
  7
STANDARD
  0
TEXT
  8
0
 62
7
 10
234.578751
 20
-79.000000
 40
4.000000
  1
WT(EXTERNAL THREAD)
 50
0.000000
 41
0.738187
 51
0.000000
  7
STANDARD
  0
TEXT
  8
0
 62
7
 10
225.599594
 20
188.250000
 40
6.500000
  1
OPTION
 50
0.000000
 41
0.857250
 51
0.000000
  7
STANDARD
  0
TEXT
  8
0
 62
7
 10
328.249756
 20
-104.000000
 40
4.000000
  1
KEY
 50
0.000000
 41
0.928688
 51
0.000000
  7
STANDARD
  0
TEXT
  8
0
 62
7
 10
229.578568
 20
-183.000000
 40
4.000000
  1
FN(WITH BEARING NUT
 50
0.000000
 41
0.766483
 51
0.000000
  7
STANDARD
  0
TEXT
  8
0
 62
7
 10
229.578568
 20
-190.000000
 40
4.000000
  1
      FOR FLOATING UNIT)
 50
0.000000
 41
0.754797
 51
0.000000
  7
STANDARD
  0
TEXT
  8
0
 62
7
 10
222.149994
 20
-114.900002
 40
3.200000
  1
(KEYWAY
 50
0.000000
 41
0.766485
 51
0.000000
  7
STANDARD
  0
TEXT
  8
0
 62
7
 10
222.149994
 20
-118.099998
 40
3.200000
  1
  POSITION)
 50
0.000000
 41
0.766485
 51
0.000000
  7
STANDARD
  0
DIMENSION
  8
0
  2
*DIM0
 62
0
 10
234.598999
 20
-130.029999
 30
0.0
 11
227.750000
 21
-130.300003
 31
0.0
 13
236.901001
 23
-130.029999
 33
0.0
 14
236.404007
 24
-139.516998
 34
0.0
  15
235.095993
 25
-139.516998
 35
0.0
 16
236.822891
 26
-131.528091
 36
0.0
 70
2
  0
DIMENSION
  8
0
  2
*DIM1
 62
2
  10
257.750000
 20
-141.500000
 30
0.0
 11
257.750000
 21
-152.000000
 31
0.0
  13
282.750000
 23
-141.500000
 33
0.0
14
282.750000
 24
-162.500000
 34
0.0
 70
1
 50
90
  0
DIMENSION
  8
0
  2
*DIM2
 62
2
  10
313.750000
 20
-114.000000
 30
0.0
 11
313.750000
 21
-110.037003
 31
0.0
  13
304.250000
 23
-120.000000
 33
0.0
14
304.250000
 24
-123.000000
 34
0.0
 70
1
 50
90
  0
DIMENSION
  8
0
  2
*DIM3
 62
2
  10
341.876007
 20
-121.518997
 30
0.0
 11
332.326996
 21
-121.518997
 31
0.0
  13
341.876007
 23
-121.518997
 33
0.0
14
341.876007
 24
-113.518997
 34
0.0
 70
1
 50
0
  0
ENDSEC
  0
EOF
