  0
SECTION
  2
HEADER
  0
ENDSEC
  0
SECTION
  2
TABLES
  0
TABLE
  2
LTYPE
 70
     4
  0
LTYPE
  2
CONTINUOUS
 70
    64
  3
Solid line
 72
    65
 73
     0
 40
0.000000
  0
LTYPE
  2
DASHED
 70
    64
  3
__ __ __ __ __ __ __ __ __ __ __ __ __ __ __
 72
    65
 73
     2
 40
3.500000
 49
2.000000
 49
-1.500000
  0
LTYPE
  2
CENTER
 70
    64
  3
____ _ ____ _ ____ _ ____ _ ____ _ ____ _ ____
 72
    65
 73
     4
 40
17.500000
 49
13.000000
 49
-1.500000
 49
1.500000
 49
-1.500000
  0
LTYPE
  2
PHANTOM
 70
    64
  3
_____ _ _ _____ _ _ _____ _ _ _____ _ _ ____  
 72
    65
 73
     6
 40
15.500000
 49
8.000000
 49
-1.500000
 49
1.500000
 49
-1.500000
 49
1.500000
 49
-1.500000
  0
ENDTAB
  0
TABLE
  2
LAYER
 70
     1
  0
LAYER
  2
0
 70
     0
 62
     7
  6
CONTINUOUS
  0
ENDTAB
  0
TABLE
  2
STYLE
 70
     1
  0
STYLE
  2
STANDARD
 70
     0
 40
0.000000
 41
1.000000
 50
0.000000
 71
     0
 42
0.200000
  3
txt
  4
BIGFONT
  0
ENDTAB
  0
TABLE
  2
VIEW
 70
     0
  0
ENDTAB
  0
ENDSEC
  0
SECTION
  2
BLOCKS
  0
BLOCK
  8
0
 70
65
  2
*DIM0
 10
0.0
 20
0.0
 30
0.0
  0
ARC
  8
0
  6
BYBLOCK
 62
0
 10
136.250000
 20
-130.362000
 40
20.500000
 50
75.820335
 51
104.179665
  0
LINE
  8
0
  6
BYBLOCK
 62
0
 10
136.904007
 20
-117.879997
 11
137.401001
 21
-108.392998
  0
LINE
  8
0
  6
BYBLOCK
 62
0
 10
135.595993
 20
-117.879997
 11
135.098999
 21
-108.392998
  0
LINE
  8
0
  6
BYBLOCK
 62
0
 10
137.322891
 20
-109.890091
 11
139.942184
 21
-111.352737
  0
LINE
  8
0
  6
BYBLOCK
 62
0
 10
137.322891
 20
-109.890091
 11
140.322586
 21
-109.847137
  0
LINE
  8
0
  6
BYBLOCK
 62
0
 10
135.177109
 20
-109.890091
 11
132.177414
 21
-109.847137
  0
LINE
  8
0
  6
BYBLOCK
 62
0
 10
135.177109
 20
-109.890091
 11
132.557816
 21
-111.352737
  0
TEXT
  8
0
 62
2
 10
128.250000
 20
-108.662003
 40
3.200000
  1
ü}3üï
 50
0.000000
 41
1.500330
 51
0.000000
  7
STANDARD
  0
ENDBLK
  8
3
  0
BLOCK
  8
0
 70
65
  2
*DIM1
 10
0.0
 20
0.0
 30
0.0
  0
LINE
  8
0
  6
BYBLOCK
 62
2
 10
183.250000
 20
-119.862000
 11
156.750000
 21
-119.862000
  0
LINE
  8
0
  6
BYBLOCK
 62
2
 10
183.250000
 20
-140.862000
 11
156.750000
 21
-140.862000
  0
LINE
  8
0
  6
BYBLOCK
 62
2
 10
158.250000
 20
-119.862000
 11
158.250000
 21
-140.862000
  0
LINE
  8
0
  6
BYBLOCK
 62
2
 10
158.250000
 20
-119.862000
 11
157.473541
 21
-122.759773
  0
LINE
  8
0
  6
BYBLOCK
 62
2
 10
158.250000
 20
-119.862000
 11
159.026459
 21
-122.759773
  0
LINE
  8
0
  6
BYBLOCK
 62
2
 10
158.250000
 20
-140.862000
 11
159.026459
 21
-137.964218
  0
LINE
  8
0
  6
BYBLOCK
 62
2
 10
158.250000
 20
-140.862000
 11
157.473541
 21
-137.964218
  0
TEXT
  8
0
 62
2
 10
157.050003
 20
-141.561996
 40
3.200000
  1
âË21
 50
90.000000
 41
0.937977
 51
0.000000
  7
STANDARD
  0
TEXT
  8
0
 62
2
 10
155.450424
 20
-132.557343
 40
1.600000
  1
 0
 50
90.000000
 41
0.937977
 51
0.000000
  7
STANDARD
  0
TEXT
  8
0
 62
2
 10
157.050415
 20
-132.557419
 40
1.600000
  1
-0.013
 50
90.000000
 41
0.937977
 51
0.000000
  7
STANDARD
  0
ENDBLK
  8
0
  0
BLOCK
  8
0
 70
65
  2
*DIM2
 10
0.0
 20
0.0
 30
0.0
  0
LINE
  8
0
  6
BYBLOCK
 62
2
 10
204.750000
 20
-98.362503
 11
215.750000
 21
-98.362503
  0
LINE
  8
0
  6
BYBLOCK
 62
2
 10
204.750000
 20
-101.362000
 11
215.750000
 21
-101.362000
  0
LINE
  8
0
  6
BYBLOCK
 62
2
 10
214.250000
 20
-92.362503
 11
214.250000
 21
-107.362000
  0
LINE
  8
0
  6
BYBLOCK
 62
2
 10
214.250000
 20
-98.362503
 11
214.250000
 21
-82.856499
  0
LINE
  8
0
  6
BYBLOCK
 62
2
 10
214.250000
 20
-98.362503
 11
215.026459
 21
-95.464729
  0
LINE
  8
0
  6
BYBLOCK
 62
2
 10
214.250000
 20
-98.362503
 11
213.473541
 21
-95.464729
  0
LINE
  8
0
  6
BYBLOCK
 62
2
 10
214.250000
 20
-101.362000
 11
213.473541
 21
-104.259773
  0
LINE
  8
0
  6
BYBLOCK
 62
2
 10
214.250000
 20
-101.362000
 11
215.026459
 21
-104.259773
  0
TEXT
  8
0
 62
2
 10
213.050003
 20
-94.799400
 40
3.200000
  1
3
 50
90.000000
 41
0.873629
 51
0.000000
  7
STANDARD
  0
TEXT
  8
0
 62
2
 10
211.450134
 20
-92.003716
 40
1.600000
  1
+0.014
 50
90.000000
 41
0.873629
 51
0.000000
  7
STANDARD
  0
TEXT
  8
0
 62
2
 10
213.050125
 20
-92.003792
 40
1.600000
  1
 0
 50
90.000000
 41
0.873629
 51
0.000000
  7
STANDARD
  0
ENDBLK
  8
0
  0
BLOCK
  8
0
 70
65
  2
*DIM3
 10
0.0
 20
0.0
 30
0.0
  0
LINE
  8
0
  6
BYBLOCK
 62
2
 10
242.376007
 20
-99.881104
 11
245.376007
 21
-99.881104
  0
LINE
  8
0
  6
BYBLOCK
 62
2
 10
242.376007
 20
-91.881104
 11
242.376007
 21
-101.380997
  0
LINE
  8
0
  6
BYBLOCK
 62
2
 10
242.376007
 20
-99.881104
 11
245.376007
 21
-99.881104
  0
LINE
  8
0
  6
BYBLOCK
 62
2
 10
242.376007
 20
-99.881104
 11
227.283997
 21
-99.881104
  0
TEXT
  8
0
 62
2
 10
226.427002
 20
-98.681107
 40
3.200000
  1
3
 50
0.000000
 41
0.906835
 51
0.000000
  7
STANDARD
  0
TEXT
  8
0
 62
2
 10
229.328873
 20
-97.081108
 40
1.600000
  1
+0.016
 50
0.000000
 41
0.906835
 51
0.000000
  7
STANDARD
  0
TEXT
  8
0
 62
2
 10
229.328873
 20
-98.681107
 40
1.600000
  1
+0.006
 50
0.000000
 41
0.906835
 51
0.000000
  7
STANDARD
  0
ENDBLK
  8
0
  0
ENDSEC
  0
SECTION
  2
ENTITIES
  0
POINT
  8
0
  62
7
  10
-76.250000
  20
130.938004
  30
0.0
  0
POINT
  8
0
  62
7
  10
-51.250000
  20
130.938004
  30
0.0
  0
POINT
  8
0
  62
7
  10
-26.250000
  20
130.938004
  30
0.0
  0
POINT
  8
0
  62
7
  10
-1.250000
  20
130.938004
  30
0.0
  0
POINT
  8
0
  62
7
  10
23.750000
  20
-29.062500
  30
0.0
  0
POINT
  8
0
  62
7
  10
48.750000
  20
-29.062500
  30
0.0
  0
POINT
  8
0
  62
7
  10
73.750000
  20
-29.062500
  30
0.0
  0
POINT
  8
0
  62
7
  10
98.750000
  20
-29.062500
  30
0.0
  0
LINE
  8
0
  6
CONTINUOUS
 62
7
 10
-281.250000
 20
195.500000
 11
282.100006
 21
195.500000
  0
LINE
  8
0
  6
CONTINUOUS
 62
7
 10
-281.250000
 20
195.500000
 11
-281.250000
 21
-195.000000
  0
LINE
  8
0
  6
CONTINUOUS
 62
7
 10
282.100006
 20
195.500000
 11
282.100006
 21
-195.000000
  0
LINE
  8
0
  6
CONTINUOUS
 62
7
 10
-281.250000
 20
-195.000000
 11
282.100006
 21
-195.000000
  0
LINE
  8
0
  6
CONTINUOUS
 62
7
 10
162.100006
 20
-175.000000
 11
162.100006
 21
-195.000000
  0
LINE
  8
0
  6
CONTINUOUS
 62
7
 10
162.100006
 20
-175.000000
 11
282.100006
 21
-175.000000
  0
LINE
  8
0
  6
CONTINUOUS
 62
7
 10
162.100006
 20
175.500000
 11
282.100006
 21
175.500000
  0
LINE
  8
0
  6
CONTINUOUS
 62
7
 10
-281.250000
 20
175.500000
 11
-161.250000
 21
175.500000
  0
LINE
  8
0
  6
CONTINUOUS
 62
7
 10
162.100006
 20
195.500000
 11
162.100006
 21
175.500000
  0
LINE
  8
0
  6
CONTINUOUS
 62
7
 10
-161.250000
 20
195.500000
 11
-161.250000
 21
175.500000
  0
LINE
  8
0
  6
CONTINUOUS
 62
7
 10
-176.250000
 20
49.937500
 11
-76.250000
 21
49.937500
  0
LINE
  8
0
  6
CONTINUOUS
 62
7
 10
-176.250000
 20
89.937500
 11
-76.250000
 21
89.937500
  0
LINE
  8
0
  6
CONTINUOUS
 62
7
 10
-176.250000
 20
49.937500
 11
-176.250000
 21
89.937500
  0
LINE
  8
0
  6
CONTINUOUS
 62
7
 10
-76.250000
 20
89.937500
 11
-76.250000
 21
49.937500
  0
LINE
  8
0
  6
CONTINUOUS
 62
2
 10
-176.250000
 20
59.737499
 11
-76.250000
 21
59.737499
  0
LINE
  8
0
  6
CENTER
 62
2
 10
-216.250000
 20
69.937500
 11
-74.250000
 21
69.937500
  0
LINE
  8
0
  6
CONTINUOUS
 62
2
 10
-176.250000
 20
80.137497
 11
-76.250000
 21
80.137497
  0
LINE
  8
0
  6
CONTINUOUS
 62
7
 10
-214.250000
 20
74.937500
 11
-176.250000
 21
74.937500
  0
LINE
  8
0
  6
CONTINUOUS
 62
7
 10
-214.250000
 20
64.937500
 11
-176.250000
 21
64.937500
  0
LINE
  8
0
  6
CONTINUOUS
 62
7
 10
-214.250000
 20
74.937500
 11
-214.250000
 21
64.937500
  0
LINE
  8
0
  6
CONTINUOUS
 62
7
 10
-176.250000
 20
8.937500
 11
-176.250000
 21
34.937500
  0
LINE
  8
0
  6
CONTINUOUS
 62
7
 10
-76.250000
 20
8.937500
 11
-76.250000
 21
34.937500
  0
LINE
  8
0
  6
CONTINUOUS
 62
7
 10
-176.250000
 20
34.937500
 11
-76.250000
 21
34.937500
  0
LINE
  8
0
  6
CONTINUOUS
 62
7
 10
-176.250000
 20
8.937500
 11
-76.250000
 21
8.937500
  0
LINE
  8
0
  6
CENTER
 62
2
 10
-216.250000
 20
21.937500
 11
-74.250000
 21
21.937500
  0
LINE
  8
0
  6
CONTINUOUS
 62
7
 10
-214.250000
 20
26.937500
 11
-176.250000
 21
26.937500
  0
LINE
  8
0
  6
CONTINUOUS
 62
7
 10
-214.250000
 20
16.937500
 11
-176.250000
 21
16.937500
  0
LINE
  8
0
  6
CONTINUOUS
 62
7
 10
-214.250000
 20
26.937500
 11
-214.250000
 21
16.937500
  0
LINE
  8
0
  6
CONTINUOUS
 62
4
 10
150.250000
 20
-39.856899
 11
150.250000
 21
-54.868000
  0
LINE
  8
0
  6
CONTINUOUS
 62
7
 10
181.250000
 20
-34.362499
 11
181.250000
 21
-60.362499
  0
LINE
  8
0
  6
CONTINUOUS
 62
7
 10
-76.250000
 20
130.938004
 11
-76.250000
 21
104.938004
  0
LINE
  8
0
  6
CONTINUOUS
 62
7
 10
181.250000
 20
-60.362499
 11
191.250000
 21
-60.362499
  0
LINE
  8
0
  6
CONTINUOUS
 62
7
 10
181.250000
 20
-34.362499
 11
191.250000
 21
-34.362499
  0
LINE
  8
0
  6
CENTER
 62
1
 10
141.250000
 20
-47.362499
 11
191.250000
 21
-47.362499
  0
LINE
  8
0
  6
CONTINUOUS
 62
4
 10
143.250000
 20
-43.362499
 11
143.250000
 21
-51.362499
  0
LINE
  8
0
  6
CONTINUOUS
 62
4
 10
155.250000
 20
-39.856899
 11
155.250000
 21
-54.868000
  0
LINE
  8
0
  6
CONTINUOUS
 62
4
 10
150.250000
 20
-39.856899
 11
155.250000
 21
-39.856899
  0
LINE
  8
0
  6
CONTINUOUS
 62
4
 10
150.250000
 20
-43.609699
 11
155.250000
 21
-43.609699
  0
LINE
  8
0
  6
CONTINUOUS
 62
4
 10
150.250000
 20
-51.115200
 11
155.250000
 21
-51.115200
  0
LINE
  8
0
  6
CONTINUOUS
 62
4
 10
150.250000
 20
-54.868000
 11
155.250000
 21
-54.868000
  0
LINE
  8
0
  6
CONTINUOUS
 62
2
 10
-31.250099
 20
80.137497
 11
-30.250099
 21
80.137497
  0
LINE
  8
0
  6
CONTINUOUS
 62
2
 10
-31.250000
 20
80.137497
 11
-31.250000
 21
79.287498
  0
LINE
  8
0
  6
CONTINUOUS
 62
2
 10
-31.250000
 20
83.587502
 11
-31.250000
 21
82.737503
  0
LINE
  8
0
  6
CONTINUOUS
 62
2
 10
-31.250099
 20
82.737503
 11
-30.250099
 21
82.737503
  0
LINE
  8
0
  6
CONTINUOUS
 62
7
 10
-56.250099
 20
89.937500
 11
-56.250099
 21
49.937500
  0
LINE
  8
0
  6
CENTER
 62
2
 10
-58.250099
 20
69.937500
 11
-28.250000
 21
69.937500
  0
LINE
  8
0
  6
CONTINUOUS
 62
7
 10
-56.250099
 20
49.937500
 11
-30.250000
 21
49.937500
  0
LINE
  8
0
  6
CONTINUOUS
 62
7
 10
-30.250000
 20
49.937500
 11
-30.250000
 21
89.937500
  0
LINE
  8
0
  6
CONTINUOUS
 62
7
 10
-56.250099
 20
89.937500
 11
-30.250000
 21
89.937500
  0
LINE
  8
0
  6
CENTER
 62
2
 10
-43.250000
 20
91.937500
 11
-43.250000
 21
47.937500
  0
LINE
  8
0
  6
CONTINUOUS
 62
2
 10
-35.049999
 20
83.587502
 11
-31.249901
 21
83.587502
  0
LINE
  8
0
  6
CONTINUOUS
 62
2
 10
-36.549999
 20
82.087502
 11
-36.549999
 21
80.787498
  0
LINE
  8
0
  6
CONTINUOUS
 62
2
 10
-35.049999
 20
79.287498
 11
-31.249901
 21
79.287498
  0
LINE
  8
0
  6
CENTER
 62
2
 10
-39.519798
 20
58.437500
 11
-28.250000
 21
58.437500
  0
LINE
  8
0
  6
CENTER
 62
2
 10
-39.519798
 20
81.437500
 11
-28.250000
 21
81.437500
  0
LINE
  8
0
  6
CENTER
 62
2
 10
-46.980202
 20
58.437500
 11
-58.250099
 21
58.437500
  0
LINE
  8
0
  6
CENTER
 62
2
 10
-46.980202
 20
81.437500
 11
-58.250099
 21
81.437500
  0
LINE
  8
0
  6
CONTINUOUS
 62
2
 10
-176.250000
 20
82.737503
 11
-168.175995
 21
82.737503
  0
LINE
  8
0
  6
CENTER
 62
2
 10
-164.250000
 20
36.937500
 11
-164.250000
 21
6.937500
  0
LINE
  8
0
  6
CENTER
 62
2
 10
-140.250000
 20
36.937500
 11
-140.250000
 21
6.937500
  0
LINE
  8
0
  6
CONTINUOUS
 62
2
 10
-160.324005
 20
82.737503
 11
-144.175995
 21
82.737503
  0
LINE
  8
0
  6
CONTINUOUS
 62
2
 10
-136.324005
 20
82.737503
 11
-76.250000
 21
82.737503
  0
LINE
  8
0
  6
CONTINUOUS
 62
2
 10
-160.324005
 20
57.137501
 11
-144.175995
 21
57.137501
  0
LINE
  8
0
  6
CONTINUOUS
 62
2
 10
-176.250000
 20
57.137501
 11
-168.175995
 21
57.137501
  0
LINE
  8
0
  6
CONTINUOUS
 62
2
 10
-136.324005
 20
57.137501
 11
-76.250000
 21
57.137501
  0
LINE
  8
0
  6
DASHED
 62
2
 10
-144.750000
 20
34.937500
 11
-144.750000
 21
28.437500
  0
LINE
  8
0
  6
DASHED
 62
2
 10
-142.949997
 20
28.437500
 11
-142.949997
 21
15.437500
  0
LINE
  8
0
  6
DASHED
 62
2
 10
-143.250000
 20
28.437500
 11
-143.250000
 21
15.437500
  0
LINE
  8
0
  6
DASHED
 62
2
 10
-144.750000
 20
28.437500
 11
-135.750000
 21
28.437500
  0
LINE
  8
0
  6
DASHED
 62
2
 10
-135.750000
 20
34.937500
 11
-135.750000
 21
28.437500
  0
LINE
  8
0
  6
DASHED
 62
2
 10
-144.750000
 20
8.937520
 11
-144.750000
 21
15.437500
  0
LINE
  8
0
  6
DASHED
 62
2
 10
-144.750000
 20
15.437500
 11
-135.750000
 21
15.437500
  0
LINE
  8
0
  6
DASHED
 62
2
 10
-135.750000
 20
8.937520
 11
-135.750000
 21
15.437500
  0
LINE
  8
0
  6
DASHED
 62
2
 10
-137.250000
 20
28.437500
 11
-137.250000
 21
15.437500
  0
LINE
  8
0
  6
DASHED
 62
2
 10
-137.550003
 20
28.437500
 11
-137.550003
 21
15.437500
  0
LINE
  8
0
  6
DASHED
 62
2
 10
-168.750000
 20
8.937520
 11
-168.750000
 21
15.437500
  0
LINE
  8
0
  6
DASHED
 62
2
 10
-168.750000
 20
15.437500
 11
-159.750000
 21
15.437500
  0
LINE
  8
0
  6
DASHED
 62
2
 10
-159.750000
 20
8.937520
 11
-159.750000
 21
15.437500
  0
LINE
  8
0
  6
DASHED
 62
2
 10
-161.550003
 20
28.437500
 11
-161.550003
 21
15.437500
  0
LINE
  8
0
  6
DASHED
 62
2
 10
-161.250000
 20
28.437500
 11
-161.250000
 21
15.437500
  0
LINE
  8
0
  6
DASHED
 62
2
 10
-166.949997
 20
28.437500
 11
-166.949997
 21
15.437500
  0
LINE
  8
0
  6
DASHED
 62
2
 10
-167.250000
 20
28.437500
 11
-167.250000
 21
15.437500
  0
LINE
  8
0
  6
DASHED
 62
2
 10
-168.750000
 20
28.437500
 11
-159.750000
 21
28.437500
  0
LINE
  8
0
  6
DASHED
 62
2
 10
-168.750000
 20
34.937500
 11
-168.750000
 21
28.437500
  0
LINE
  8
0
  6
DASHED
 62
2
 10
-159.750000
 20
34.937500
 11
-159.750000
 21
28.437500
  0
LINE
  8
0
  6
CONTINUOUS
 62
2
 10
-239.050003
 20
79.287498
 11
-235.250000
 21
79.287498
  0
LINE
  8
0
  6
CENTER
 62
2
 10
-243.520004
 20
58.437500
 11
-232.250000
 21
58.437500
  0
LINE
  8
0
  6
CENTER
 62
2
 10
-243.520004
 20
81.437500
 11
-232.250000
 21
81.437500
  0
LINE
  8
0
  6
CENTER
 62
2
 10
-250.979996
 20
58.437500
 11
-262.250000
 21
58.437500
  0
LINE
  8
0
  6
CENTER
 62
2
 10
-250.979996
 20
81.437500
 11
-262.250000
 21
81.437500
  0
LINE
  8
0
  6
CONTINUOUS
 62
2
 10
-235.250000
 20
80.137497
 11
-234.250000
 21
80.137497
  0
LINE
  8
0
  6
CONTINUOUS
 62
2
 10
-235.250000
 20
80.137497
 11
-235.250000
 21
79.287498
  0
LINE
  8
0
  6
CONTINUOUS
 62
2
 10
-235.250000
 20
83.587502
 11
-235.250000
 21
82.737503
  0
LINE
  8
0
  6
CONTINUOUS
 62
2
 10
-235.250000
 20
82.737503
 11
-234.250000
 21
82.737503
  0
LINE
  8
0
  6
CONTINUOUS
 62
7
 10
-260.250000
 20
89.937500
 11
-260.250000
 21
49.937500
  0
LINE
  8
0
  6
CENTER
 62
2
 10
-262.250000
 20
69.937500
 11
-232.250000
 21
69.937500
  0
LINE
  8
0
  6
CONTINUOUS
 62
7
 10
-260.250000
 20
49.937500
 11
-234.250000
 21
49.937500
  0
LINE
  8
0
  6
CONTINUOUS
 62
7
 10
-234.250000
 20
49.937500
 11
-234.250000
 21
89.937500
  0
LINE
  8
0
  6
CONTINUOUS
 62
7
 10
-260.250000
 20
89.937500
 11
-234.250000
 21
89.937500
  0
LINE
  8
0
  6
CENTER
 62
2
 10
-247.250000
 20
91.937500
 11
-247.250000
 21
47.937500
  0
LINE
  8
0
  6
CONTINUOUS
 62
2
 10
-239.050003
 20
83.587502
 11
-235.250000
 21
83.587502
  0
LINE
  8
0
  6
CONTINUOUS
 62
2
 10
-240.550003
 20
82.087502
 11
-240.550003
 21
80.787498
  0
LINE
  8
0
  6
CONTINUOUS
 62
4
 10
136.250000
 20
77.637497
 11
176.250000
 21
77.637497
  0
LINE
  8
0
  6
CONTINUOUS
 62
4
 10
136.250000
 20
97.637497
 11
176.250000
 21
97.637497
  0
LINE
  8
0
  6
CONTINUOUS
 62
4
 10
136.250000
 20
122.637001
 11
136.250000
 21
107.637001
  0
LINE
  8
0
  6
CONTINUOUS
 62
4
 10
176.250000
 20
122.637001
 11
176.250000
 21
107.637001
  0
LINE
  8
0
  6
CONTINUOUS
 62
4
 10
136.250000
 20
97.637497
 11
136.250000
 21
77.637497
  0
LINE
  8
0
  6
CONTINUOUS
 62
4
 10
176.250000
 20
97.637497
 11
176.250000
 21
77.637497
  0
LINE
  8
0
  6
CONTINUOUS
 62
4
 10
186.250000
 20
97.637497
 11
206.250000
 21
97.637497
  0
LINE
  8
0
  6
CONTINUOUS
 62
4
 10
186.250000
 20
77.637497
 11
206.250000
 21
77.637497
  0
LINE
  8
0
  6
CONTINUOUS
 62
4
 10
186.250000
 20
97.637497
 11
186.250000
 21
77.637497
  0
LINE
  8
0
  6
CONTINUOUS
 62
4
 10
201.250000
 20
97.637497
 11
201.250000
 21
77.637497
  0
LINE
  8
0
  6
CONTINUOUS
 62
4
 10
206.250000
 20
97.637497
 11
206.250000
 21
77.637497
  0
LINE
  8
0
  6
CONTINUOUS
 62
4
 10
136.250000
 20
107.637001
 11
176.250000
 21
107.637001
  0
LINE
  8
0
  6
CONTINUOUS
 62
4
 10
146.250000
 20
127.637001
 11
166.250000
 21
127.637001
  0
LINE
  8
0
  6
CONTINUOUS
 62
4
 10
166.250000
 20
122.637001
 11
176.250000
 21
122.637001
  0
LINE
  8
0
  6
CONTINUOUS
 62
4
 10
136.250000
 20
122.637001
 11
146.250000
 21
122.637001
  0
LINE
  8
0
  6
CONTINUOUS
 62
4
 10
146.250000
 20
127.637001
 11
146.250000
 21
122.637001
  0
LINE
  8
0
  6
CONTINUOUS
 62
4
 10
166.250000
 20
127.637001
 11
166.250000
 21
122.637001
  0
LINE
  8
0
  6
CENTER
 62
1
 10
156.250000
 20
129.636993
 11
156.250000
 21
105.637001
  0
LINE
  8
0
  6
CENTER
 62
1
 10
171.250000
 20
125.282997
 11
171.250000
 21
105.637001
  0
LINE
  8
0
  6
CENTER
 62
1
 10
141.250000
 20
124.637001
 11
141.250000
 21
105.637001
  0
LINE
  8
0
  6
DASHED
 62
4
 10
168.899994
 20
122.637001
 11
168.899994
 21
107.637001
  0
LINE
  8
0
  6
DASHED
 62
4
 10
173.600006
 20
122.637001
 11
173.600006
 21
107.637001
  0
LINE
  8
0
  6
CONTINUOUS
 62
7
 10
-176.250000
 20
130.938004
 11
-176.250000
 21
104.938004
  0
LINE
  8
0
  6
CONTINUOUS
 62
7
 10
-176.250000
 20
104.938004
 11
-76.250000
 21
104.938004
  0
LINE
  8
0
  6
CONTINUOUS
 62
7
 10
-176.250000
 20
130.938004
 11
-76.250000
 21
130.938004
  0
LINE
  8
0
  6
CENTER
 62
2
 10
-216.250000
 20
117.938004
 11
-74.250000
 21
117.938004
  0
LINE
  8
0
  6
CONTINUOUS
 62
7
 10
-214.250000
 20
122.938004
 11
-176.250000
 21
122.938004
  0
LINE
  8
0
  6
CONTINUOUS
 62
7
 10
-214.250000
 20
112.938004
 11
-176.250000
 21
112.938004
  0
LINE
  8
0
  6
CONTINUOUS
 62
7
 10
-214.250000
 20
122.938004
 11
-214.250000
 21
112.938004
  0
LINE
  8
0
  6
CONTINUOUS
 62
4
 10
162.981995
 20
-42.362499
 11
181.250000
 21
-42.362499
  0
LINE
  8
0
  6
CENTER
 62
1
 10
171.250000
 20
-32.362499
 11
156.250000
 21
-32.362499
  0
LINE
  8
0
  6
CENTER
 62
1
 10
163.750000
 20
-24.862499
 11
163.750000
 21
-39.862499
  0
LINE
  8
0
  6
CONTINUOUS
 62
4
 10
159.750000
 20
-29.362499
 11
159.750000
 21
-35.362499
  0
LINE
  8
0
  6
CONTINUOUS
 62
4
 10
167.750000
 20
-29.362499
 11
167.750000
 21
-35.362499
  0
LINE
  8
0
  6
CONTINUOUS
 62
7
 10
181.250000
 20
35.637501
 11
181.250000
 21
9.637500
  0
LINE
  8
0
  6
CONTINUOUS
 62
7
 10
181.250000
 20
9.637500
 11
191.250000
 21
9.637500
  0
LINE
  8
0
  6
CONTINUOUS
 62
7
 10
181.250000
 20
35.637501
 11
191.250000
 21
35.637501
  0
LINE
  8
0
  6
CENTER
 62
1
 10
141.250000
 20
22.637501
 11
191.250000
 21
22.637501
  0
LINE
  8
0
  6
CONTINUOUS
 62
4
 10
143.250000
 20
27.637501
 11
150.250000
 21
27.637501
  0
LINE
  8
0
  6
CONTINUOUS
 62
4
 10
143.250000
 20
27.637501
 11
143.250000
 21
17.637501
  0
LINE
  8
0
  6
CONTINUOUS
 62
4
 10
150.250000
 20
26.637501
 11
155.250000
 21
26.637501
  0
LINE
  8
0
  6
CONTINUOUS
 62
4
 10
150.250000
 20
27.637501
 11
150.250000
 21
26.637501
  0
LINE
  8
0
  6
CONTINUOUS
 62
4
 10
155.250000
 20
27.637501
 11
155.250000
 21
26.637501
  0
LINE
  8
0
  6
CONTINUOUS
 62
4
 10
155.250000
 20
27.637501
 11
181.250000
 21
27.637501
  0
LINE
  8
0
  6
DASHED
 62
1
 10
155.250000
 20
25.637501
 11
155.250000
 21
19.637501
  0
LINE
  8
0
  6
DASHED
 62
1
 10
143.250000
 20
25.637501
 11
155.250000
 21
25.637501
  0
LINE
  8
0
  6
DASHED
 62
1
 10
143.250000
 20
25.137501
 11
158.250000
 21
25.137501
  0
LINE
  8
0
  6
CONTINUOUS
 62
4
 10
143.250000
 20
17.637501
 11
150.250000
 21
17.637501
  0
LINE
  8
0
  6
CONTINUOUS
 62
4
 10
150.250000
 20
17.637501
 11
150.250000
 21
18.637501
  0
LINE
  8
0
  6
CONTINUOUS
 62
4
 10
150.250000
 20
18.637501
 11
155.250000
 21
18.637501
  0
LINE
  8
0
  6
CONTINUOUS
 62
4
 10
155.250000
 20
17.637501
 11
181.250000
 21
17.637501
  0
LINE
  8
0
  6
DASHED
 62
1
 10
143.250000
 20
19.637501
 11
155.250000
 21
19.637501
  0
LINE
  8
0
  6
DASHED
 62
1
 10
143.250000
 20
20.137501
 11
158.250000
 21
20.137501
  0
LINE
  8
0
  6
CONTINUOUS
 62
4
 10
155.250000
 20
17.637501
 11
155.250000
 21
18.637501
  0
LINE
  8
0
  6
DASHED
 62
1
 10
158.250000
 20
25.137501
 11
158.250000
 21
20.137501
  0
LINE
  8
0
  6
CENTER
 62
1
 10
160.250000
 20
37.637501
 11
145.250000
 21
37.637501
  0
LINE
  8
0
  6
CENTER
 62
1
 10
152.750000
 20
45.137501
 11
152.750000
 21
30.137501
  0
LINE
  8
0
  6
CONTINUOUS
 62
4
 10
155.750000
 20
41.637501
 11
149.750000
 21
41.637501
  0
LINE
  8
0
  6
CONTINUOUS
 62
4
 10
155.750000
 20
33.637501
 11
149.750000
 21
33.637501
  0
LINE
  8
0
  6
CONTINUOUS
 62
4
 10
158.750000
 20
-43.362499
 11
158.750000
 21
-51.362499
  0
LINE
  8
0
  6
CONTINUOUS
 62
4
 10
143.250000
 20
-43.362499
 11
150.250000
 21
-43.362499
  0
LINE
  8
0
  6
CONTINUOUS
 62
1
 10
143.250000
 20
-44.062500
 11
150.250000
 21
-44.062500
  0
LINE
  8
0
  6
CONTINUOUS
 62
4
 10
161.250000
 20
-43.362499
 11
161.250000
 21
-51.362499
  0
LINE
  8
0
  6
CONTINUOUS
 62
4
 10
166.250000
 20
-44.362499
 11
166.250000
 21
-50.362499
  0
LINE
  8
0
  6
CONTINUOUS
 62
4
 10
161.250000
 20
-43.362400
 11
162.981995
 21
-42.362400
  0
LINE
  8
0
  6
CONTINUOUS
 62
4
 10
162.981995
 20
-42.362499
 11
162.981995
 21
-44.362499
  0
LINE
  8
0
  6
CONTINUOUS
 62
1
 10
143.250000
 20
-50.662498
 11
150.250000
 21
-50.662498
  0
LINE
  8
0
  6
CONTINUOUS
 62
4
 10
143.250000
 20
-51.362499
 11
150.250000
 21
-51.362499
  0
LINE
  8
0
  6
CONTINUOUS
 62
4
 10
161.250000
 20
-51.362301
 11
162.981995
 21
-52.362301
  0
LINE
  8
0
  6
CONTINUOUS
 62
4
 10
162.981995
 20
-52.362499
 11
181.250000
 21
-52.362499
  0
LINE
  8
0
  6
CONTINUOUS
 62
4
 10
161.250000
 20
-44.362499
 11
166.250000
 21
-44.362499
  0
LINE
  8
0
  6
CONTINUOUS
 62
4
 10
161.250000
 20
-50.362499
 11
166.250000
 21
-50.362499
  0
LINE
  8
0
  6
CONTINUOUS
 62
4
 10
162.981995
 20
-50.362499
 11
162.981995
 21
-52.362499
  0
LINE
  8
0
  6
CONTINUOUS
 62
1
 10
166.250000
 20
-44.362400
 11
161.250000
 21
-50.362400
  0
LINE
  8
0
  6
CONTINUOUS
 62
1
 10
166.250000
 20
-50.362499
 11
161.250000
 21
-44.362499
  0
LINE
  8
0
  6
CONTINUOUS
 62
4
 10
155.250000
 20
-51.362499
 11
161.250000
 21
-51.362499
  0
LINE
  8
0
  6
CONTINUOUS
 62
4
 10
155.250000
 20
-43.362499
 11
161.250000
 21
-43.362499
  0
LINE
  8
0
  6
CONTINUOUS
 62
1
 10
155.250000
 20
-44.062500
 11
158.750000
 21
-44.062500
  0
LINE
  8
0
  6
CONTINUOUS
 62
1
 10
155.250000
 20
-50.662498
 11
158.750000
 21
-50.662498
  0
LINE
  8
0
  6
CENTER
 62
1
 10
184.250000
 20
87.637497
 11
208.250000
 21
87.637497
  0
LINE
  8
0
  6
CONTINUOUS
 62
7
 10
-176.250000
 20
-110.063004
 11
23.750000
 21
-110.063004
  0
LINE
  8
0
  6
CONTINUOUS
 62
7
 10
-176.250000
 20
-70.062500
 11
23.750000
 21
-70.062500
  0
LINE
  8
0
  6
CONTINUOUS
 62
7
 10
-176.250000
 20
-110.063004
 11
-176.250000
 21
-70.062500
  0
LINE
  8
0
  6
CONTINUOUS
 62
7
 10
23.750000
 20
-70.062500
 11
23.750000
 21
-110.063004
  0
LINE
  8
0
  6
CONTINUOUS
 62
2
 10
-176.250000
 20
-100.263000
 11
23.750000
 21
-100.263000
  0
LINE
  8
0
  6
CENTER
 62
2
 10
-216.250000
 20
-90.062500
 11
25.750000
 21
-90.062500
  0
LINE
  8
0
  6
CONTINUOUS
 62
2
 10
-176.250000
 20
-79.862503
 11
23.750000
 21
-79.862503
  0
LINE
  8
0
  6
CONTINUOUS
 62
7
 10
-214.250000
 20
-85.062500
 11
-176.250000
 21
-85.062500
  0
LINE
  8
0
  6
CONTINUOUS
 62
7
 10
-214.250000
 20
-95.062500
 11
-176.250000
 21
-95.062500
  0
LINE
  8
0
  6
CONTINUOUS
 62
7
 10
-214.250000
 20
-85.062500
 11
-214.250000
 21
-95.062500
  0
LINE
  8
0
  6
CONTINUOUS
 62
7
 10
-176.250000
 20
-151.063004
 11
-176.250000
 21
-125.063004
  0
LINE
  8
0
  6
CONTINUOUS
 62
7
 10
23.750000
 20
-151.063004
 11
23.750000
 21
-125.063004
  0
LINE
  8
0
  6
CONTINUOUS
 62
7
 10
-176.250000
 20
-125.063004
 11
23.750000
 21
-125.063004
  0
LINE
  8
0
  6
CONTINUOUS
 62
7
 10
-176.250000
 20
-151.063004
 11
23.750000
 21
-151.063004
  0
LINE
  8
0
  6
CENTER
 62
2
 10
-216.250000
 20
-138.063004
 11
25.750000
 21
-138.063004
  0
LINE
  8
0
  6
CONTINUOUS
 62
7
 10
-214.250000
 20
-133.063004
 11
-176.250000
 21
-133.063004
  0
LINE
  8
0
  6
CONTINUOUS
 62
7
 10
-214.250000
 20
-143.063004
 11
-176.250000
 21
-143.063004
  0
LINE
  8
0
  6
CONTINUOUS
 62
7
 10
-214.250000
 20
-133.063004
 11
-214.250000
 21
-143.063004
  0
LINE
  8
0
  6
CONTINUOUS
 62
7
 10
23.750000
 20
-29.062500
 11
23.750000
 21
-55.062500
  0
LINE
  8
0
  6
CONTINUOUS
 62
2
 10
68.749901
 20
-79.862503
 11
69.749901
 21
-79.862503
  0
LINE
  8
0
  6
CONTINUOUS
 62
2
 10
68.750000
 20
-79.862503
 11
68.750000
 21
-80.712502
  0
LINE
  8
0
  6
CONTINUOUS
 62
2
 10
68.750000
 20
-76.412498
 11
68.750000
 21
-77.262497
  0
LINE
  8
0
  6
CONTINUOUS
 62
2
 10
68.749901
 20
-77.262497
 11
69.749901
 21
-77.262497
  0
LINE
  8
0
  6
CONTINUOUS
 62
7
 10
43.749901
 20
-70.062500
 11
43.749901
 21
-110.063004
  0
LINE
  8
0
  6
CENTER
 62
2
 10
41.749901
 20
-90.062500
 11
71.750000
 21
-90.062500
  0
LINE
  8
0
  6
CONTINUOUS
 62
7
 10
43.749901
 20
-110.063004
 11
69.750000
 21
-110.063004
  0
LINE
  8
0
  6
CONTINUOUS
 62
7
 10
69.750000
 20
-110.063004
 11
69.750000
 21
-70.062500
  0
LINE
  8
0
  6
CONTINUOUS
 62
7
 10
43.749901
 20
-70.062500
 11
69.750000
 21
-70.062500
  0
LINE
  8
0
  6
CENTER
 62
2
 10
56.750000
 20
-68.062500
 11
56.750000
 21
-112.063004
  0
LINE
  8
0
  6
CONTINUOUS
 62
2
 10
64.949997
 20
-76.412498
 11
68.750099
 21
-76.412498
  0
LINE
  8
0
  6
CONTINUOUS
 62
2
 10
63.450001
 20
-77.912498
 11
63.450001
 21
-79.212502
  0
LINE
  8
0
  6
CONTINUOUS
 62
2
 10
64.949997
 20
-80.712502
 11
68.750099
 21
-80.712502
  0
LINE
  8
0
  6
CENTER
 62
2
 10
60.480202
 20
-101.563004
 11
71.750000
 21
-101.563004
  0
LINE
  8
0
  6
CENTER
 62
2
 10
60.480202
 20
-78.562500
 11
71.750000
 21
-78.562500
  0
LINE
  8
0
  6
CENTER
 62
2
 10
53.019798
 20
-101.563004
 11
41.749901
 21
-101.563004
  0
LINE
  8
0
  6
CENTER
 62
2
 10
53.019798
 20
-78.562500
 11
41.749901
 21
-78.562500
  0
LINE
  8
0
  6
CONTINUOUS
 62
2
 10
-176.250000
 20
-77.262497
 11
-168.175995
 21
-77.262497
  0
LINE
  8
0
  6
CENTER
 62
2
 10
-164.250000
 20
-123.063004
 11
-164.250000
 21
-153.063004
  0
LINE
  8
0
  6
CENTER
 62
2
 10
-51.250000
 20
-123.063004
 11
-51.250000
 21
-153.063004
  0
LINE
  8
0
  6
CONTINUOUS
 62
2
 10
-160.324005
 20
-77.262497
 11
-144.175995
 21
-77.262497
  0
LINE
  8
0
  6
CONTINUOUS
 62
2
 10
-136.324005
 20
-77.262497
 11
-55.175499
 21
-77.262497
  0
LINE
  8
0
  6
CONTINUOUS
 62
2
 10
-160.324005
 20
-102.862000
 11
-144.175995
 21
-102.862000
  0
LINE
  8
0
  6
CONTINUOUS
 62
2
 10
-176.250000
 20
-102.862000
 11
-168.175995
 21
-102.862000
  0
LINE
  8
0
  6
CONTINUOUS
 62
2
 10
-136.324005
 20
-102.862000
 11
-55.175499
 21
-102.862000
  0
LINE
  8
0
  6
DASHED
 62
2
 10
-55.750000
 20
-125.063004
 11
-55.750000
 21
-131.563004
  0
LINE
  8
0
  6
DASHED
 62
2
 10
-53.950001
 20
-131.563004
 11
-53.950001
 21
-144.563004
  0
LINE
  8
0
  6
DASHED
 62
2
 10
-54.250000
 20
-131.563004
 11
-54.250000
 21
-144.563004
  0
LINE
  8
0
  6
DASHED
 62
2
 10
-55.750000
 20
-131.563004
 11
-46.750000
 21
-131.563004
  0
LINE
  8
0
  6
DASHED
 62
2
 10
-46.750000
 20
-125.063004
 11
-46.750000
 21
-131.563004
  0
LINE
  8
0
  6
DASHED
 62
2
 10
-55.750000
 20
-151.063004
 11
-55.750000
 21
-144.563004
  0
LINE
  8
0
  6
DASHED
 62
2
 10
-55.750000
 20
-144.563004
 11
-46.750000
 21
-144.563004
  0
LINE
  8
0
  6
DASHED
 62
2
 10
-46.750000
 20
-151.063004
 11
-46.750000
 21
-144.563004
  0
LINE
  8
0
  6
DASHED
 62
2
 10
-48.250000
 20
-131.563004
 11
-48.250000
 21
-144.563004
  0
LINE
  8
0
  6
DASHED
 62
2
 10
-48.549999
 20
-131.563004
 11
-48.549999
 21
-144.563004
  0
LINE
  8
0
  6
DASHED
 62
2
 10
-168.750000
 20
-151.063004
 11
-168.750000
 21
-144.563004
  0
LINE
  8
0
  6
DASHED
 62
2
 10
-168.750000
 20
-144.563004
 11
-159.750000
 21
-144.563004
  0
LINE
  8
0
  6
DASHED
 62
2
 10
-159.750000
 20
-151.063004
 11
-159.750000
 21
-144.563004
  0
LINE
  8
0
  6
DASHED
 62
2
 10
-161.550003
 20
-131.563004
 11
-161.550003
 21
-144.563004
  0
LINE
  8
0
  6
DASHED
 62
2
 10
-161.250000
 20
-131.563004
 11
-161.250000
 21
-144.563004
  0
LINE
  8
0
  6
DASHED
 62
2
 10
-166.949997
 20
-131.563004
 11
-166.949997
 21
-144.563004
  0
LINE
  8
0
  6
DASHED
 62
2
 10
-167.250000
 20
-131.563004
 11
-167.250000
 21
-144.563004
  0
LINE
  8
0
  6
DASHED
 62
2
 10
-168.750000
 20
-131.563004
 11
-159.750000
 21
-131.563004
  0
LINE
  8
0
  6
DASHED
 62
2
 10
-168.750000
 20
-125.063004
 11
-168.750000
 21
-131.563004
  0
LINE
  8
0
  6
DASHED
 62
2
 10
-159.750000
 20
-125.063004
 11
-159.750000
 21
-131.563004
  0
LINE
  8
0
  6
CONTINUOUS
 62
2
 10
-239.050003
 20
-80.712502
 11
-235.250000
 21
-80.712502
  0
LINE
  8
0
  6
CENTER
 62
2
 10
-243.520004
 20
-101.563004
 11
-232.250000
 21
-101.563004
  0
LINE
  8
0
  6
CENTER
 62
2
 10
-243.520004
 20
-78.562500
 11
-232.250000
 21
-78.562500
  0
LINE
  8
0
  6
CENTER
 62
2
 10
-250.979996
 20
-101.563004
 11
-262.250000
 21
-101.563004
  0
LINE
  8
0
  6
CENTER
 62
2
 10
-250.979996
 20
-78.562500
 11
-262.250000
 21
-78.562500
  0
LINE
  8
0
  6
CONTINUOUS
 62
2
 10
-235.250000
 20
-79.862503
 11
-234.250000
 21
-79.862503
  0
LINE
  8
0
  6
CONTINUOUS
 62
2
 10
-235.250000
 20
-79.862503
 11
-235.250000
 21
-80.712502
  0
LINE
  8
0
  6
CONTINUOUS
 62
2
 10
-235.250000
 20
-76.412498
 11
-235.250000
 21
-77.262497
  0
LINE
  8
0
  6
CONTINUOUS
 62
2
 10
-235.250000
 20
-77.262497
 11
-234.250000
 21
-77.262497
  0
LINE
  8
0
  6
CONTINUOUS
 62
7
 10
-260.250000
 20
-70.062500
 11
-260.250000
 21
-110.063004
  0
LINE
  8
0
  6
CENTER
 62
2
 10
-262.250000
 20
-90.062500
 11
-232.250000
 21
-90.062500
  0
LINE
  8
0
  6
CONTINUOUS
 62
7
 10
-260.250000
 20
-110.063004
 11
-234.250000
 21
-110.063004
  0
LINE
  8
0
  6
CONTINUOUS
 62
7
 10
-234.250000
 20
-110.063004
 11
-234.250000
 21
-70.062500
  0
LINE
  8
0
  6
CONTINUOUS
 62
7
 10
-260.250000
 20
-70.062500
 11
-234.250000
 21
-70.062500
  0
LINE
  8
0
  6
CENTER
 62
2
 10
-247.250000
 20
-68.062500
 11
-247.250000
 21
-112.063004
  0
LINE
  8
0
  6
CONTINUOUS
 62
2
 10
-239.050003
 20
-76.412498
 11
-235.250000
 21
-76.412498
  0
LINE
  8
0
  6
CONTINUOUS
 62
2
 10
-240.550003
 20
-77.912498
 11
-240.550003
 21
-79.212502
  0
LINE
  8
0
  6
CONTINUOUS
 62
7
 10
-176.250000
 20
-29.062500
 11
-176.250000
 21
-55.062500
  0
LINE
  8
0
  6
CONTINUOUS
 62
7
 10
-176.250000
 20
-55.062500
 11
23.750000
 21
-55.062500
  0
LINE
  8
0
  6
CONTINUOUS
 62
7
 10
-176.250000
 20
-29.062500
 11
23.750000
 21
-29.062500
  0
LINE
  8
0
  6
CENTER
 62
2
 10
-216.250000
 20
-42.062500
 11
25.750000
 21
-42.062500
  0
LINE
  8
0
  6
CONTINUOUS
 62
7
 10
-214.250000
 20
-37.062500
 11
-176.250000
 21
-37.062500
  0
LINE
  8
0
  6
CONTINUOUS
 62
7
 10
-214.250000
 20
-47.062500
 11
-176.250000
 21
-47.062500
  0
LINE
  8
0
  6
CONTINUOUS
 62
7
 10
-214.250000
 20
-37.062500
 11
-214.250000
 21
-47.062500
  0
LINE
  8
0
  6
CONTINUOUS
 62
2
 10
-47.324501
 20
-102.862000
 11
23.750000
 21
-102.862000
  0
LINE
  8
0
  6
CONTINUOUS
 62
2
 10
-47.324501
 20
-77.262497
 11
23.750000
 21
-77.262497
  0
LINE
  8
0
  6
DASHED
 62
2
 10
-144.750000
 20
-151.063004
 11
-144.750000
 21
-144.563004
  0
LINE
  8
0
  6
DASHED
 62
2
 10
-137.550003
 20
-131.563004
 11
-137.550003
 21
-144.563004
  0
LINE
  8
0
  6
DASHED
 62
2
 10
-135.750000
 20
-151.063004
 11
-135.750000
 21
-144.563004
  0
LINE
  8
0
  6
DASHED
 62
2
 10
-137.250000
 20
-131.563004
 11
-137.250000
 21
-144.563004
  0
LINE
  8
0
  6
CENTER
 62
2
 10
-140.250000
 20
-123.063004
 11
-140.250000
 21
-153.063004
  0
LINE
  8
0
  6
DASHED
 62
2
 10
-144.750000
 20
-144.563004
 11
-135.750000
 21
-144.563004
  0
LINE
  8
0
  6
DASHED
 62
2
 10
-144.750000
 20
-131.563004
 11
-135.750000
 21
-131.563004
  0
LINE
  8
0
  6
DASHED
 62
2
 10
-135.750000
 20
-125.063004
 11
-135.750000
 21
-131.563004
  0
LINE
  8
0
  6
DASHED
 62
2
 10
-144.750000
 20
-125.063004
 11
-144.750000
 21
-131.563004
  0
LINE
  8
0
  6
DASHED
 62
2
 10
-143.250000
 20
-131.563004
 11
-143.250000
 21
-144.563004
  0
LINE
  8
0
  6
DASHED
 62
2
 10
-142.949997
 20
-131.563004
 11
-142.949997
 21
-144.563004
  0
LINE
  8
0
  6
CENTER
 62
2
 10
-251.750000
 20
84.937500
 11
-242.750000
 21
84.937500
  0
LINE
  8
0
  6
CENTER
 62
2
 10
-251.750000
 20
54.937500
 11
-242.750000
 21
54.937500
  0
LINE
  8
0
  6
CENTER
 62
2
 10
-89.250000
 20
119.438004
 11
-89.250000
 21
110.438004
  0
LINE
  8
0
  6
CENTER
 62
2
 10
-93.750000
 20
114.938004
 11
-84.750000
 21
114.938004
  0
LINE
  8
0
  6
CENTER
 62
2
 10
-132.250000
 20
125.438004
 11
-132.250000
 21
116.438004
  0
LINE
  8
0
  6
CENTER
 62
2
 10
-136.750000
 20
120.938004
 11
-127.750000
 21
120.938004
  0
LINE
  8
0
  6
CENTER
 62
2
 10
-164.250000
 20
61.437500
 11
-164.250000
 21
48.437500
  0
LINE
  8
0
  6
CENTER
 62
2
 10
-170.750000
 20
54.937500
 11
-157.750000
 21
54.937500
  0
LINE
  8
0
  6
CENTER
 62
2
 10
-164.250000
 20
91.437500
 11
-164.250000
 21
78.437500
  0
LINE
  8
0
  6
CENTER
 62
2
 10
-170.750000
 20
84.937500
 11
-157.750000
 21
84.937500
  0
LINE
  8
0
  6
CENTER
 62
2
 10
-140.250000
 20
91.437500
 11
-140.250000
 21
78.437500
  0
LINE
  8
0
  6
CENTER
 62
2
 10
-146.750000
 20
84.937500
 11
-133.750000
 21
84.937500
  0
LINE
  8
0
  6
CENTER
 62
2
 10
-140.250000
 20
61.437500
 11
-140.250000
 21
48.437500
  0
LINE
  8
0
  6
CENTER
 62
2
 10
-146.750000
 20
54.937500
 11
-133.750000
 21
54.937500
  0
LINE
  8
0
  6
CENTER
 62
2
 10
-132.250000
 20
34.437500
 11
-132.250000
 21
25.437500
  0
LINE
  8
0
  6
CENTER
 62
2
 10
-136.750000
 20
29.937500
 11
-127.750000
 21
29.937500
  0
LINE
  8
0
  6
CENTER
 62
2
 10
-132.250000
 20
18.437500
 11
-132.250000
 21
9.437500
  0
LINE
  8
0
  6
CENTER
 62
2
 10
-136.750000
 20
13.937500
 11
-127.750000
 21
13.937500
  0
LINE
  8
0
  6
CENTER
 62
2
 10
-156.250000
 20
18.437500
 11
-156.250000
 21
9.437500
  0
LINE
  8
0
  6
CENTER
 62
2
 10
-160.750000
 20
13.937500
 11
-151.750000
 21
13.937500
  0
LINE
  8
0
  6
CENTER
 62
2
 10
-156.250000
 20
34.437500
 11
-156.250000
 21
25.437500
  0
LINE
  8
0
  6
CENTER
 62
2
 10
-160.750000
 20
29.937500
 11
-151.750000
 21
29.937500
  0
LINE
  8
0
  6
CENTER
 62
2
 10
-132.250000
 20
-34.562500
 11
-132.250000
 21
-43.562500
  0
LINE
  8
0
  6
CENTER
 62
2
 10
-136.750000
 20
-39.062500
 11
-127.750000
 21
-39.062500
  0
LINE
  8
0
  6
CENTER
 62
2
 10
10.750000
 20
-40.562500
 11
10.750000
 21
-49.562500
  0
LINE
  8
0
  6
CENTER
 62
2
 10
6.250000
 20
-45.062500
 11
15.250000
 21
-45.062500
  0
LINE
  8
0
  6
CENTER
 62
2
 10
-251.750000
 20
-75.062500
 11
-242.750000
 21
-75.062500
  0
LINE
  8
0
  6
CENTER
 62
2
 10
-251.750000
 20
-105.063004
 11
-242.750000
 21
-105.063004
  0
LINE
  8
0
  6
CENTER
 62
2
 10
-164.250000
 20
-68.562500
 11
-164.250000
 21
-81.562500
  0
LINE
  8
0
  6
CENTER
 62
2
 10
-170.750000
 20
-75.062500
 11
-157.750000
 21
-75.062500
  0
LINE
  8
0
  6
CENTER
 62
2
 10
-140.250000
 20
-68.562500
 11
-140.250000
 21
-81.562500
  0
LINE
  8
0
  6
CENTER
 62
2
 10
-146.750000
 20
-75.062500
 11
-133.750000
 21
-75.062500
  0
LINE
  8
0
  6
CENTER
 62
2
 10
-140.250000
 20
-98.562500
 11
-140.250000
 21
-111.563004
  0
LINE
  8
0
  6
CENTER
 62
2
 10
-146.750000
 20
-105.063004
 11
-133.750000
 21
-105.063004
  0
LINE
  8
0
  6
CENTER
 62
2
 10
-164.250000
 20
-98.562500
 11
-164.250000
 21
-111.563004
  0
LINE
  8
0
  6
CENTER
 62
2
 10
-170.750000
 20
-105.063004
 11
-157.750000
 21
-105.063004
  0
LINE
  8
0
  6
CENTER
 62
2
 10
-51.250000
 20
-98.562500
 11
-51.250000
 21
-111.563004
  0
LINE
  8
0
  6
CENTER
 62
2
 10
-57.750000
 20
-105.063004
 11
-44.750000
 21
-105.063004
  0
LINE
  8
0
  6
CENTER
 62
2
 10
-51.250000
 20
-68.562500
 11
-51.250000
 21
-81.562500
  0
LINE
  8
0
  6
CENTER
 62
2
 10
-57.750000
 20
-75.062500
 11
-44.750000
 21
-75.062500
  0
LINE
  8
0
  6
CENTER
 62
2
 10
-132.250000
 20
-125.563004
 11
-132.250000
 21
-134.563004
  0
LINE
  8
0
  6
CENTER
 62
2
 10
-136.750000
 20
-130.063004
 11
-127.750000
 21
-130.063004
  0
LINE
  8
0
  6
CENTER
 62
2
 10
-132.250000
 20
-141.563004
 11
-132.250000
 21
-150.563004
  0
LINE
  8
0
  6
CENTER
 62
2
 10
-136.750000
 20
-146.063004
 11
-127.750000
 21
-146.063004
  0
LINE
  8
0
  6
CENTER
 62
2
 10
-156.250000
 20
-141.563004
 11
-156.250000
 21
-150.563004
  0
LINE
  8
0
  6
CENTER
 62
2
 10
-160.750000
 20
-146.063004
 11
-151.750000
 21
-146.063004
  0
LINE
  8
0
  6
CENTER
 62
2
 10
-156.250000
 20
-125.563004
 11
-156.250000
 21
-134.563004
  0
LINE
  8
0
  6
CENTER
 62
2
 10
-160.750000
 20
-130.063004
 11
-151.750000
 21
-130.063004
  0
LINE
  8
0
  6
CENTER
 62
2
 10
-43.250000
 20
-141.563004
 11
-43.250000
 21
-150.563004
  0
LINE
  8
0
  6
CENTER
 62
2
 10
-47.750000
 20
-146.063004
 11
-38.750000
 21
-146.063004
  0
LINE
  8
0
  6
CENTER
 62
2
 10
-43.250000
 20
-125.563004
 11
-43.250000
 21
-134.563004
  0
LINE
  8
0
  6
CENTER
 62
2
 10
-47.750000
 20
-130.063004
 11
-38.750000
 21
-130.063004
  0
LINE
  8
0
  6
CENTER
 62
1
 10
171.250000
 20
85.987503
 11
171.250000
 21
77.287498
  0
LINE
  8
0
  6
CENTER
 62
1
 10
166.899994
 20
81.637497
 11
175.600006
 21
81.637497
  0
LINE
  8
0
  6
CENTER
 62
1
 10
171.250000
 20
97.987503
 11
171.250000
 21
89.287498
  0
LINE
  8
0
  6
CENTER
 62
1
 10
166.899994
 20
93.637497
 11
175.600006
 21
93.637497
  0
LINE
  8
0
  6
CENTER
 62
1
 10
156.250000
 20
94.637497
 11
156.250000
 21
80.637497
  0
LINE
  8
0
  6
CENTER
 62
1
 10
149.250000
 20
87.637497
 11
163.250000
 21
87.637497
  0
LINE
  8
0
  6
CENTER
 62
1
 10
141.250000
 20
97.987503
 11
141.250000
 21
89.287498
  0
LINE
  8
0
  6
CENTER
 62
1
 10
136.899994
 20
93.637497
 11
145.600006
 21
93.637497
  0
LINE
  8
0
  6
CENTER
 62
1
 10
141.250000
 20
85.987503
 11
141.250000
 21
77.287498
  0
LINE
  8
0
  6
CENTER
 62
1
 10
136.899994
 20
81.637497
 11
145.600006
 21
81.637497
  0
LINE
  8
0
  6
CONTINUOUS
 62
7
 10
236.250000
 20
-150.362000
 11
246.250000
 21
-150.362000
  0
LINE
  8
0
  6
CONTINUOUS
 62
7
 10
236.250000
 20
-110.362999
 11
246.250000
 21
-110.362999
  0
LINE
  8
0
  6
CONTINUOUS
 62
7
 10
236.250000
 20
-150.362000
 11
236.250000
 21
-110.362999
  0
LINE
  8
0
  6
CONTINUOUS
 62
2
 10
236.250000
 20
-117.561996
 11
246.250000
 21
-117.561996
  0
LINE
  8
0
  6
CONTINUOUS
 62
2
 10
236.250000
 20
-143.162003
 11
246.250000
 21
-143.162003
  0
LINE
  8
0
  6
CONTINUOUS
 62
2
 10
236.250000
 20
-140.561996
 11
246.250000
 21
-140.561996
  0
LINE
  8
0
  6
CENTER
 62
1
 10
162.781998
 20
-130.362000
 11
246.250000
 21
-130.362000
  0
LINE
  8
0
  6
CONTINUOUS
 62
2
 10
236.250000
 20
-120.162003
 11
246.250000
 21
-120.162003
  0
LINE
  8
0
  6
CONTINUOUS
 62
4
 10
166.250000
 20
-125.362000
 11
183.250000
 21
-125.362000
  0
LINE
  8
0
  6
CONTINUOUS
 62
4
 10
166.250000
 20
-135.362000
 11
183.250000
 21
-135.362000
  0
LINE
  8
0
  6
CONTINUOUS
 62
4
 10
166.250000
 20
-125.362000
 11
166.250000
 21
-135.362000
  0
LINE
  8
0
  6
CONTINUOUS
 62
4
 10
183.250000
 20
-119.862000
 11
183.250000
 21
-140.862000
  0
LINE
  8
0
  6
CONTINUOUS
 62
4
 10
183.250000
 20
-119.862000
 11
216.250000
 21
-119.862000
  0
LINE
  8
0
  6
CONTINUOUS
 62
4
 10
216.250000
 20
-140.862000
 11
216.250000
 21
-119.862000
  0
LINE
  8
0
  6
CONTINUOUS
 62
4
 10
216.250000
 20
-140.862000
 11
183.250000
 21
-140.862000
  0
LINE
  8
0
  6
DASHED
 62
1
 10
193.250000
 20
-119.862000
 11
193.250000
 21
-121.362000
  0
LINE
  8
0
  6
DASHED
 62
1
 10
206.250000
 20
-119.862000
 11
206.250000
 21
-121.362000
  0
LINE
  8
0
  6
DASHED
 62
1
 10
193.250000
 20
-121.362000
 11
206.250000
 21
-121.362000
  0
LINE
  8
0
  6
CONTINUOUS
 62
4
 10
216.250000
 20
-125.362000
 11
236.250000
 21
-125.362000
  0
LINE
  8
0
  6
CONTINUOUS
 62
4
 10
216.250000
 20
-135.362000
 11
236.250000
 21
-135.362000
  0
LINE
  8
0
  6
DASHED
 62
1
 10
176.250000
 20
-127.862000
 11
176.250000
 21
-132.862000
  0
LINE
  8
0
  6
DASHED
 62
1
 10
178.250000
 20
-128.294998
 11
178.250000
 21
-132.429001
  0
LINE
  8
0
  6
DASHED
 62
1
 10
166.250000
 20
-127.862000
 11
176.250000
 21
-127.862000
  0
LINE
  8
0
  6
DASHED
 62
1
 10
166.250000
 20
-132.862000
 11
176.250000
 21
-132.862000
  0
LINE
  8
0
  6
DASHED
 62
1
 10
166.250000
 20
-132.429001
 11
178.250000
 21
-132.429001
  0
LINE
  8
0
  6
DASHED
 62
1
 10
166.250000
 20
-128.294998
 11
178.250000
 21
-128.294998
  0
LINE
  8
0
  6
DASHED
 62
4
 10
134.750000
 20
-119.970001
 11
134.750000
 21
-121.362000
  0
LINE
  8
0
  6
DASHED
 62
4
 10
134.750000
 20
-121.362000
 11
137.750000
 21
-121.362000
  0
LINE
  8
0
  6
DASHED
 62
4
 10
137.750000
 20
-119.970001
 11
137.750000
 21
-121.362000
  0
LINE
  8
0
  6
CENTER
 62
1
 10
148.750000
 20
-130.362000
 11
123.750000
 21
-130.362000
  0
LINE
  8
0
  6
CENTER
 62
1
 10
136.904007
 20
-117.879997
 11
136.250000
 21
-130.362000
  0
LINE
  8
0
  6
CENTER
 62
1
 10
136.250000
 20
-117.862000
 11
136.250000
 21
-142.862000
  0
LINE
  8
0
  6
CENTER
 62
1
 10
135.595993
 20
-117.879997
 11
136.250000
 21
-130.362000
  0
LINE
  8
0
  6
CONTINUOUS
 62
4
 10
194.750000
 20
-98.362503
 11
204.750000
 21
-98.362503
  0
LINE
  8
0
  6
CONTINUOUS
 62
4
 10
194.750000
 20
-101.362000
 11
204.750000
 21
-101.362000
  0
LINE
  8
0
  6
CENTER
 62
1
 10
191.250000
 20
-99.862503
 11
208.250000
 21
-99.862503
  0
LINE
  8
0
  6
CONTINUOUS
 62
4
 10
242.376007
 20
-88.881104
 11
242.376007
 21
-91.881104
  0
LINE
  8
0
  6
CONTINUOUS
 62
4
 10
242.376007
 20
-88.881104
 11
245.376007
 21
-88.881104
  0
LINE
  8
0
  6
CONTINUOUS
 62
4
 10
245.376007
 20
-88.881104
 11
245.376007
 21
-91.881104
  0
LINE
  8
0
  6
CONTINUOUS
 62
4
 10
242.376007
 20
-91.881104
 11
245.376007
 21
-91.881104
  0
LINE
  8
0
  6
CONTINUOUS
 62
4
 10
258.359009
 20
-80.381104
 11
268.359009
 21
-80.381104
  0
LINE
  8
0
  6
CONTINUOUS
 62
4
 10
258.359009
 20
-83.381104
 11
268.359009
 21
-83.381104
  0
LINE
  8
0
  6
CONTINUOUS
 62
4
 10
256.859009
 20
-88.881104
 11
256.859009
 21
-91.881104
  0
LINE
  8
0
  6
CONTINUOUS
 62
4
 10
256.859009
 20
-88.881104
 11
269.859009
 21
-88.881104
  0
LINE
  8
0
  6
CONTINUOUS
 62
4
 10
256.859009
 20
-91.881104
 11
269.859009
 21
-91.881104
  0
LINE
  8
0
  6
CONTINUOUS
 62
4
 10
269.859009
 20
-88.881104
 11
269.859009
 21
-91.881104
  0
LINE
  8
0
  6
CENTER
 62
1
 10
243.876007
 20
-86.881104
 11
243.876007
 21
-93.881104
  0
LINE
  8
0
  6
CENTER
 62
1
 10
271.859009
 20
-81.881104
 11
254.858994
 21
-81.881104
  0
CIRCLE
  8
0
  6
CONTINUOUS
 62
7
 10
-164.250000
 20
84.937500
 40
4.500000
  0
CIRCLE
  8
0
  6
CONTINUOUS
 62
7
 10
-140.250000
 20
84.937500
 40
4.500000
  0
CIRCLE
  8
0
  6
CONTINUOUS
 62
7
 10
-164.250000
 20
54.937500
 40
4.500000
  0
CIRCLE
  8
0
  6
CONTINUOUS
 62
7
 10
-140.250000
 20
54.937500
 40
4.500000
  0
CIRCLE
  8
0
  6
CONTINUOUS
 62
2
 10
-164.250000
 20
84.937500
 40
3.000000
  0
CIRCLE
  8
0
  6
CONTINUOUS
 62
2
 10
-140.250000
 20
84.937500
 40
3.000000
  0
CIRCLE
  8
0
  6
CONTINUOUS
 62
2
 10
-140.250000
 20
54.937500
 40
3.000000
  0
CIRCLE
  8
0
  6
CONTINUOUS
 62
2
 10
-164.250000
 20
54.937500
 40
3.000000
  0
CIRCLE
  8
0
  6
CONTINUOUS
 62
7
 10
-164.250000
 20
84.937500
 40
2.700000
  0
CIRCLE
  8
0
  6
CONTINUOUS
 62
7
 10
-140.250000
 20
84.937500
 40
2.700000
  0
CIRCLE
  8
0
  6
CONTINUOUS
 62
7
 10
-140.250000
 20
54.937500
 40
2.700000
  0
CIRCLE
  8
0
  6
CONTINUOUS
 62
7
 10
-164.250000
 20
54.937500
 40
2.700000
  0
CIRCLE
  8
0
  6
CONTINUOUS
 62
2
 10
-132.250000
 20
120.938004
 40
2.500000
  0
CIRCLE
  8
0
  6
CONTINUOUS
 62
7
 10
-132.250000
 20
120.938004
 40
2.100000
  0
CIRCLE
  8
0
  6
CONTINUOUS
 62
2
 10
-89.250000
 20
114.938004
 40
2.500000
  0
CIRCLE
  8
0
  6
CONTINUOUS
 62
7
 10
-89.250000
 20
114.938004
 40
2.100000
  0
ARC
  8
0
  6
CONTINUOUS
 62
2
 10
-35.049999
 20
80.787498
 40
1.500000
 50
180.000000
 51
270.000000
  0
ARC
  8
0
  6
CONTINUOUS
 62
2
 10
-35.049999
 20
82.087502
 40
1.500000
 50
90.000000
 51
180.000000
  0
ARC
  8
0
  6
CONTINUOUS
 62
2
 10
-239.050003
 20
82.087502
 40
1.500000
 50
90.000000
 51
180.000000
  0
CIRCLE
  8
0
  6
CONTINUOUS
 62
7
 10
-247.250000
 20
69.937500
 40
5.000000
  0
CIRCLE
  8
0
  6
CONTINUOUS
 62
2
 10
-247.250000
 20
84.937500
 40
2.500000
  0
CIRCLE
  8
0
  6
CONTINUOUS
 62
7
 10
-247.250000
 20
84.937500
 40
2.100000
  0
CIRCLE
  8
0
  6
CONTINUOUS
 62
7
 10
-247.250000
 20
54.937500
 40
2.100000
  0
CIRCLE
  8
0
  6
CONTINUOUS
 62
2
 10
-247.250000
 20
54.937500
 40
2.500000
  0
ARC
  8
0
  6
CONTINUOUS
 62
2
 10
-239.050003
 20
80.787498
 40
1.500000
 50
180.000000
 51
270.000000
  0
CIRCLE
  8
0
  6
CONTINUOUS
 62
2
 10
-156.250000
 20
13.937500
 40
2.500000
  0
CIRCLE
  8
0
  6
CONTINUOUS
 62
2
 10
-156.250000
 20
29.937500
 40
2.500000
  0
CIRCLE
  8
0
  6
CONTINUOUS
 62
2
 10
-132.250000
 20
29.937500
 40
2.500000
  0
CIRCLE
  8
0
  6
CONTINUOUS
 62
2
 10
-132.250000
 20
13.937500
 40
2.500000
  0
CIRCLE
  8
0
  6
CONTINUOUS
 62
4
 10
156.250000
 20
87.637497
 40
5.000000
  0
CIRCLE
  8
0
  6
CONTINUOUS
 62
4
 10
171.250000
 20
81.637497
 40
2.350000
  0
CIRCLE
  8
0
  6
CONTINUOUS
 62
4
 10
171.250000
 20
93.637497
 40
2.350000
  0
CIRCLE
  8
0
  6
CONTINUOUS
 62
4
 10
141.250000
 20
93.637497
 40
2.350000
  0
CIRCLE
  8
0
  6
CONTINUOUS
 62
4
 10
141.250000
 20
81.637497
 40
2.350000
  0
CIRCLE
  8
0
  6
CONTINUOUS
 62
4
 10
163.750000
 20
-32.362499
 40
5.000000
  0
CIRCLE
  8
0
  6
CONTINUOUS
 62
4
 10
152.750000
 20
37.637501
 40
5.000000
  0
CIRCLE
  8
0
  6
CONTINUOUS
 62
7
 10
-132.250000
 20
29.937500
 40
2.100000
  0
CIRCLE
  8
0
  6
CONTINUOUS
 62
7
 10
-132.250000
 20
13.937500
 40
2.100000
  0
CIRCLE
  8
0
  6
CONTINUOUS
 62
7
 10
-156.250000
 20
13.937500
 40
2.100000
  0
CIRCLE
  8
0
  6
CONTINUOUS
 62
7
 10
-156.250000
 20
29.937500
 40
2.100000
  0
CIRCLE
  8
0
  6
CONTINUOUS
 62
7
 10
-164.250000
 20
-75.062500
 40
4.500000
  0
CIRCLE
  8
0
  6
CONTINUOUS
 62
7
 10
-51.250000
 20
-75.062500
 40
4.500000
  0
CIRCLE
  8
0
  6
CONTINUOUS
 62
7
 10
-164.250000
 20
-105.063004
 40
4.500000
  0
CIRCLE
  8
0
  6
CONTINUOUS
 62
7
 10
-51.250000
 20
-105.063004
 40
4.500000
  0
CIRCLE
  8
0
  6
CONTINUOUS
 62
2
 10
-164.250000
 20
-75.062500
 40
3.000000
  0
CIRCLE
  8
0
  6
CONTINUOUS
 62
2
 10
-51.250000
 20
-75.062500
 40
3.000000
  0
CIRCLE
  8
0
  6
CONTINUOUS
 62
2
 10
-51.250000
 20
-105.063004
 40
3.000000
  0
CIRCLE
  8
0
  6
CONTINUOUS
 62
2
 10
-164.250000
 20
-105.063004
 40
3.000000
  0
CIRCLE
  8
0
  6
CONTINUOUS
 62
7
 10
-164.250000
 20
-75.062500
 40
2.700000
  0
CIRCLE
  8
0
  6
CONTINUOUS
 62
7
 10
-51.250000
 20
-75.062500
 40
2.700000
  0
CIRCLE
  8
0
  6
CONTINUOUS
 62
7
 10
-51.250000
 20
-105.063004
 40
2.700000
  0
CIRCLE
  8
0
  6
CONTINUOUS
 62
7
 10
-164.250000
 20
-105.063004
 40
2.700000
  0
CIRCLE
  8
0
  6
CONTINUOUS
 62
2
 10
-132.250000
 20
-39.062500
 40
2.500000
  0
CIRCLE
  8
0
  6
CONTINUOUS
 62
7
 10
-132.250000
 20
-39.062500
 40
2.100000
  0
CIRCLE
  8
0
  6
CONTINUOUS
 62
2
 10
10.750000
 20
-45.062500
 40
2.500000
  0
CIRCLE
  8
0
  6
CONTINUOUS
 62
7
 10
10.750000
 20
-45.062500
 40
2.100000
  0
ARC
  8
0
  6
CONTINUOUS
 62
2
 10
64.949997
 20
-79.212502
 40
1.500000
 50
180.000000
 51
270.000000
  0
ARC
  8
0
  6
CONTINUOUS
 62
2
 10
64.949997
 20
-77.912498
 40
1.500000
 50
90.000000
 51
180.000000
  0
ARC
  8
0
  6
CONTINUOUS
 62
2
 10
-239.050003
 20
-77.912498
 40
1.500000
 50
90.000000
 51
180.000000
  0
CIRCLE
  8
0
  6
CONTINUOUS
 62
7
 10
-247.250000
 20
-90.062500
 40
5.000000
  0
CIRCLE
  8
0
  6
CONTINUOUS
 62
2
 10
-247.250000
 20
-75.062500
 40
2.500000
  0
CIRCLE
  8
0
  6
CONTINUOUS
 62
7
 10
-247.250000
 20
-75.062500
 40
2.100000
  0
CIRCLE
  8
0
  6
CONTINUOUS
 62
7
 10
-247.250000
 20
-105.063004
 40
2.100000
  0
CIRCLE
  8
0
  6
CONTINUOUS
 62
2
 10
-247.250000
 20
-105.063004
 40
2.500000
  0
ARC
  8
0
  6
CONTINUOUS
 62
2
 10
-239.050003
 20
-79.212502
 40
1.500000
 50
180.000000
 51
270.000000
  0
CIRCLE
  8
0
  6
CONTINUOUS
 62
2
 10
-156.250000
 20
-146.063004
 40
2.500000
  0
CIRCLE
  8
0
  6
CONTINUOUS
 62
2
 10
-156.250000
 20
-130.063004
 40
2.500000
  0
CIRCLE
  8
0
  6
CONTINUOUS
 62
2
 10
-43.250000
 20
-130.063004
 40
2.500000
  0
CIRCLE
  8
0
  6
CONTINUOUS
 62
2
 10
-43.250000
 20
-146.063004
 40
2.500000
  0
CIRCLE
  8
0
  6
CONTINUOUS
 62
7
 10
-140.250000
 20
-105.063004
 40
2.700000
  0
CIRCLE
  8
0
  6
CONTINUOUS
 62
2
 10
-140.250000
 20
-105.063004
 40
3.000000
  0
CIRCLE
  8
0
  6
CONTINUOUS
 62
2
 10
-140.250000
 20
-75.062500
 40
3.000000
  0
CIRCLE
  8
0
  6
CONTINUOUS
 62
7
 10
-140.250000
 20
-105.063004
 40
4.500000
  0
CIRCLE
  8
0
  6
CONTINUOUS
 62
7
 10
-140.250000
 20
-75.062500
 40
4.500000
  0
CIRCLE
  8
0
  6
CONTINUOUS
 62
7
 10
-140.250000
 20
-75.062500
 40
2.700000
  0
CIRCLE
  8
0
  6
CONTINUOUS
 62
2
 10
-132.250000
 20
-146.063004
 40
2.500000
  0
CIRCLE
  8
0
  6
CONTINUOUS
 62
2
 10
-132.250000
 20
-130.063004
 40
2.500000
  0
CIRCLE
  8
0
  6
CONTINUOUS
 62
7
 10
-43.250000
 20
-130.063004
 40
2.100000
  0
CIRCLE
  8
0
  6
CONTINUOUS
 62
7
 10
-43.250000
 20
-146.063004
 40
2.100000
  0
CIRCLE
  8
0
  6
CONTINUOUS
 62
7
 10
-132.250000
 20
-146.063004
 40
2.100000
  0
CIRCLE
  8
0
  6
CONTINUOUS
 62
7
 10
-132.250000
 20
-130.063004
 40
2.100000
  0
CIRCLE
  8
0
  6
CONTINUOUS
 62
7
 10
-156.250000
 20
-130.063004
 40
2.100000
  0
CIRCLE
  8
0
  6
CONTINUOUS
 62
7
 10
-156.250000
 20
-146.063004
 40
2.100000
  0
CIRCLE
  8
0
  6
CONTINUOUS
 62
4
 10
136.250000
 20
-130.362000
 40
5.000000
  0
CIRCLE
  8
0
  6
CONTINUOUS
 62
4
 10
136.250000
 20
-130.362000
 40
10.500000
  0
CIRCLE
  8
0
  6
CONTINUOUS
 62
1
 10
136.250000
 20
-130.362000
 40
2.500000
  0
CIRCLE
  8
0
  6
CONTINUOUS
 62
4
 10
136.250000
 20
-130.362000
 40
2.067000
  0
ARC
  8
0
  6
CONTINUOUS
 62
4
 10
194.750000
 20
-99.862503
 40
1.500000
 50
90.000000
 51
270.000000
  0
ARC
  8
0
  6
CONTINUOUS
 62
4
 10
204.750000
 20
-99.862503
 40
1.500000
 50
270.000000
 51
90.000000
  0
ARC
  8
0
  6
CONTINUOUS
 62
4
 10
258.359009
 20
-81.881104
 40
1.500000
 50
90.000000
 51
270.000000
  0
ARC
  8
0
  6
CONTINUOUS
 62
4
 10
268.359009
 20
-81.881104
 40
1.500000
 50
270.000000
 51
90.000000
  0
TEXT
  8
0
 62
7
 10
202.930283
 20
183.925003
 40
6.300000
  1
Ver.1.0
 50
0.000000
 41
1.010330
 51
0.000000
  7
STANDARD
  0
TEXT
  8
0
 62
7
 10
172.714691
 20
-187.250000
 40
9.000000
  1
KOGANEI CORP.
 50
0.000000
 41
0.771524
 51
0.000000
  7
STANDARD
  0
TEXT
  8
0
 62
7
 10
-253.019714
 20
183.925003
 40
6.300000
  1
AX CYLINDER
 50
0.000000
 41
0.783349
 51
0.000000
  7
STANDARD
  0
TEXT
  8
0
 62
7
 10
-269.400391
 20
158.925003
 40
6.300000
  1
MODEL:AXAS-SD20-25-R***
 50
0.000000
 41
0.762749
 51
0.000000
  7
STANDARD
  0
TEXT
  8
0
 62
7
 10
-74.650002
 20
130.938004
 40
3.200000
  1
25st
 50
90.000000
 41
0.857250
 51
0.000000
  7
STANDARD
  0
TEXT
  8
0
 62
7
 10
-49.650002
 20
130.938004
 40
3.200000
  1
50st
 50
90.000000
 41
0.907676
 51
0.000000
  7
STANDARD
  0
TEXT
  8
0
 62
7
 10
-24.650000
 20
130.938004
 40
3.200000
  1
75st
 50
90.000000
 41
0.857250
 51
0.000000
  7
STANDARD
  0
TEXT
  8
0
 62
7
 10
137.078751
 20
60.637501
 40
4.000000
  1
ZT(FLANGE ROD END)
 50
0.000000
 41
0.754380
 51
0.000000
  7
STANDARD
  0
TEXT
  8
0
 62
7
 10
135.078751
 20
-7.362500
 40
4.000000
  1
WS(INTERNAL THREAD)
 50
0.000000
 41
0.752116
 51
0.000000
  7
STANDARD
  0
TEXT
  8
0
 62
7
 10
135.078751
 20
-77.362503
 40
4.000000
  1
WT(EXTERNAL THREAD)
 50
0.000000
 41
0.738187
 51
0.000000
  7
STANDARD
  0
TEXT
  8
0
 62
7
 10
0.350000
 20
130.938004
 40
3.200000
  1
100st
 50
90.000000
 41
0.985838
 51
0.000000
  7
STANDARD
  0
TEXT
  8
0
 62
7
 10
25.350000
 20
-29.062500
 40
3.200000
  1
125st
 50
90.000000
 41
0.896216
 51
0.000000
  7
STANDARD
  0
TEXT
  8
0
 62
7
 10
50.349998
 20
-29.062500
 40
3.200000
  1
150st
 50
90.000000
 41
0.938893
 51
0.000000
  7
STANDARD
  0
TEXT
  8
0
 62
7
 10
75.349998
 20
-29.062500
 40
3.200000
  1
175st
 50
90.000000
 41
0.896216
 51
0.000000
  7
STANDARD
  0
TEXT
  8
0
 62
7
 10
100.349998
 20
-29.062500
 40
3.200000
  1
200st
 50
90.000000
 41
0.896216
 51
0.000000
  7
STANDARD
  0
TEXT
  8
0
 62
7
 10
126.099602
 20
139.886993
 40
6.500000
  1
OPTION
 50
0.000000
 41
0.857250
 51
0.000000
  7
STANDARD
  0
TEXT
  8
0
 62
7
 10
228.749756
 20
-82.362503
 40
4.000000
  1
KEY
 50
0.000000
 41
0.928688
 51
0.000000
  7
STANDARD
  0
TEXT
  8
0
 62
7
 10
130.078568
 20
-161.362000
 40
4.000000
  1
FN(WITH BEARING NUT
 50
0.000000
 41
0.766483
 51
0.000000
  7
STANDARD
  0
TEXT
  8
0
 62
7
 10
130.078568
 20
-168.362000
 40
4.000000
  1
      FOR FLOATING UNIT)
 50
0.000000
 41
0.754797
 51
0.000000
  7
STANDARD
  0
TEXT
  8
0
 62
7
 10
122.649994
 20
-93.262505
 40
3.200000
  1
(KEYWAY
 50
0.000000
 41
0.766485
 51
0.000000
  7
STANDARD
  0
TEXT
  8
0
 62
7
 10
122.649994
 20
-96.462502
 40
3.200000
  1
  POSITION)
 50
0.000000
 41
0.766485
 51
0.000000
  7
STANDARD
  0
DIMENSION
  8
0
  2
*DIM0
 62
0
 10
135.098999
 20
-108.392998
 30
0.0
 11
128.250000
 21
-108.662003
 31
0.0
 13
137.401001
 23
-108.392998
 33
0.0
 14
136.904007
 24
-117.879997
 34
0.0
  15
135.595993
 25
-117.879997
 35
0.0
 16
137.322891
 26
-109.890091
 36
0.0
 70
2
  0
DIMENSION
  8
0
  2
*DIM1
 62
2
  10
158.250000
 20
-119.862000
 30
0.0
 11
158.250000
 21
-130.362000
 31
0.0
  13
183.250000
 23
-119.862000
 33
0.0
14
183.250000
 24
-140.862000
 34
0.0
 70
1
 50
90
  0
DIMENSION
  8
0
  2
*DIM2
 62
2
  10
214.250000
 20
-92.362503
 30
0.0
 11
214.250000
 21
-88.399399
 31
0.0
  13
204.750000
 23
-98.362503
 33
0.0
14
204.750000
 24
-101.362000
 34
0.0
 70
1
 50
90
  0
DIMENSION
  8
0
  2
*DIM3
 62
2
  10
242.376007
 20
-99.881104
 30
0.0
 11
232.826996
 21
-99.881104
 31
0.0
  13
242.376007
 23
-99.881104
 33
0.0
14
242.376007
 24
-91.881104
 34
0.0
 70
1
 50
0
  0
ENDSEC
  0
EOF
