  0
SECTION
  2
HEADER
  0
ENDSEC
  0
SECTION
  2
TABLES
  0
TABLE
  2
LTYPE
 70
     4
  0
LTYPE
  2
CONTINUOUS
 70
    64
  3
Solid line
 72
    65
 73
     0
 40
0.000000
  0
LTYPE
  2
DASHED
 70
    64
  3
__ __ __ __ __ __ __ __ __ __ __ __ __ __ __
 72
    65
 73
     2
 40
3.500000
 49
2.000000
 49
-1.500000
  0
LTYPE
  2
CENTER
 70
    64
  3
____ _ ____ _ ____ _ ____ _ ____ _ ____ _ ____
 72
    65
 73
     4
 40
17.500000
 49
13.000000
 49
-1.500000
 49
1.500000
 49
-1.500000
  0
LTYPE
  2
PHANTOM
 70
    64
  3
_____ _ _ _____ _ _ _____ _ _ _____ _ _ ____  
 72
    65
 73
     6
 40
15.500000
 49
8.000000
 49
-1.500000
 49
1.500000
 49
-1.500000
 49
1.500000
 49
-1.500000
  0
ENDTAB
  0
TABLE
  2
LAYER
 70
     1
  0
LAYER
  2
0
 70
     0
 62
     7
  6
CONTINUOUS
  0
ENDTAB
  0
TABLE
  2
STYLE
 70
     1
  0
STYLE
  2
STANDARD
 70
     0
 40
0.000000
 41
1.000000
 50
0.000000
 71
     0
 42
0.200000
  3
txt
  4
BIGFONT
  0
ENDTAB
  0
TABLE
  2
VIEW
 70
     0
  0
ENDTAB
  0
ENDSEC
  0
SECTION
  2
BLOCKS
  0
BLOCK
  8
0
 70
65
  2
*DIM0
 10
0.0
 20
0.0
 30
0.0
  0
ARC
  8
0
  6
BYBLOCK
 62
0
 10
147.500000
 20
-116.724998
 40
18.000000
 50
74.267609
 51
105.732391
  0
LINE
  8
0
  6
BYBLOCK
 62
0
 10
148.022995
 20
-106.738998
 11
148.520996
 21
-97.251701
  0
LINE
  8
0
  6
BYBLOCK
 62
0
 10
146.977005
 20
-106.738998
 11
146.479004
 21
-97.251701
  0
LINE
  8
0
  6
BYBLOCK
 62
0
 10
148.442047
 20
-98.749664
 11
151.020737
 21
-100.282745
  0
LINE
  8
0
  6
BYBLOCK
 62
0
 10
148.442047
 20
-98.749664
 11
151.441803
 21
-98.788010
  0
LINE
  8
0
  6
BYBLOCK
 62
0
 10
146.557953
 20
-98.749664
 11
143.558197
 21
-98.788010
  0
LINE
  8
0
  6
BYBLOCK
 62
0
 10
146.557953
 20
-98.749664
 11
143.979263
 21
-100.282745
  0
TEXT
  8
0
 62
2
 10
139.500000
 20
-97.525002
 40
3.200000
  1
ü}3üï
 50
0.000000
 41
1.500330
 51
0.000000
  7
STANDARD
  0
ENDBLK
  8
3
  0
BLOCK
  8
0
 70
65
  2
*DIM1
 10
0.0
 20
0.0
 30
0.0
  0
LINE
  8
0
  6
BYBLOCK
 62
2
 10
193.862000
 20
-108.724998
 11
168.362000
 21
-108.724998
  0
LINE
  8
0
  6
BYBLOCK
 62
2
 10
193.862000
 20
-124.724998
 11
168.362000
 21
-124.724998
  0
LINE
  8
0
  6
BYBLOCK
 62
2
 10
169.862000
 20
-108.724998
 11
169.862000
 21
-124.724998
  0
LINE
  8
0
  6
BYBLOCK
 62
2
 10
169.862000
 20
-108.724998
 11
169.085541
 21
-111.622772
  0
LINE
  8
0
  6
BYBLOCK
 62
2
 10
169.862000
 20
-108.724998
 11
170.638458
 21
-111.622772
  0
LINE
  8
0
  6
BYBLOCK
 62
2
 10
169.862000
 20
-124.724998
 11
170.638458
 21
-121.827225
  0
LINE
  8
0
  6
BYBLOCK
 62
2
 10
169.862000
 20
-124.724998
 11
169.085541
 21
-121.827225
  0
TEXT
  8
0
 62
2
 10
168.662003
 20
-127.924995
 40
3.200000
  1
âË16
 50
90.000000
 41
0.937977
 51
0.000000
  7
STANDARD
  0
TEXT
  8
0
 62
2
 10
167.062424
 20
-118.920349
 40
1.600000
  1
 0
 50
90.000000
 41
0.937977
 51
0.000000
  7
STANDARD
  0
TEXT
  8
0
 62
2
 10
168.662415
 20
-118.920418
 40
1.600000
  1
-0.011
 50
90.000000
 41
0.937977
 51
0.000000
  7
STANDARD
  0
ENDBLK
  8
0
  0
BLOCK
  8
0
 70
65
  2
*DIM2
 10
0.0
 20
0.0
 30
0.0
  0
LINE
  8
0
  6
BYBLOCK
 62
2
 10
210.362000
 20
-97.474998
 11
221.112000
 21
-97.474998
  0
LINE
  8
0
  6
BYBLOCK
 62
2
 10
210.362000
 20
-99.974998
 11
221.112000
 21
-99.974998
  0
LINE
  8
0
  6
BYBLOCK
 62
2
 10
219.612000
 20
-91.474998
 11
219.612000
 21
-105.974998
  0
LINE
  8
0
  6
BYBLOCK
 62
2
 10
219.612000
 20
-97.474998
 11
219.612000
 21
-76.960403
  0
LINE
  8
0
  6
BYBLOCK
 62
2
 10
219.612000
 20
-97.474998
 11
220.388458
 21
-94.577225
  0
LINE
  8
0
  6
BYBLOCK
 62
2
 10
219.612000
 20
-97.474998
 11
218.835541
 21
-94.577225
  0
LINE
  8
0
  6
BYBLOCK
 62
2
 10
219.612000
 20
-99.974998
 11
218.835541
 21
-102.872772
  0
LINE
  8
0
  6
BYBLOCK
 62
2
 10
219.612000
 20
-99.974998
 11
220.388458
 21
-102.872772
  0
TEXT
  8
0
 62
2
 10
218.412003
 20
-94.503296
 40
3.200000
  1
2.5
 50
90.000000
 41
0.900002
 51
0.000000
  7
STANDARD
  0
TEXT
  8
0
 62
2
 10
216.812408
 20
-85.863197
 40
1.600000
  1
+0.014
 50
90.000000
 41
0.900002
 51
0.000000
  7
STANDARD
  0
TEXT
  8
0
 62
2
 10
218.412399
 20
-85.863274
 40
1.600000
  1
 0
 50
90.000000
 41
0.900002
 51
0.000000
  7
STANDARD
  0
ENDBLK
  8
0
  0
BLOCK
  8
0
 70
65
  2
*DIM3
 10
0.0
 20
0.0
 30
0.0
  0
LINE
  8
0
  6
BYBLOCK
 62
2
 10
246.046997
 20
-89.552399
 11
248.546997
 21
-89.552399
  0
LINE
  8
0
  6
BYBLOCK
 62
2
 10
246.046997
 20
-81.552399
 11
246.046997
 21
-91.052399
  0
LINE
  8
0
  6
BYBLOCK
 62
2
 10
246.046997
 20
-89.552399
 11
248.546997
 21
-89.552399
  0
LINE
  8
0
  6
BYBLOCK
 62
2
 10
246.046997
 20
-89.552399
 11
225.490997
 21
-89.552399
  0
TEXT
  8
0
 62
2
 10
223.834000
 20
-88.352402
 40
3.200000
  1
2.5
 50
0.000000
 41
0.923936
 51
0.000000
  7
STANDARD
  0
TEXT
  8
0
 62
2
 10
232.703781
 20
-86.752403
 40
1.600000
  1
+0.016
 50
0.000000
 41
0.923936
 51
0.000000
  7
STANDARD
  0
TEXT
  8
0
 62
2
 10
232.703781
 20
-88.352402
 40
1.600000
  1
+0.006
 50
0.000000
 41
0.923936
 51
0.000000
  7
STANDARD
  0
ENDBLK
  8
0
  0
ENDSEC
  0
SECTION
  2
ENTITIES
  0
POINT
  8
0
  62
7
  10
-96.500000
  20
82.000000
  30
0.0
  0
POINT
  8
0
  62
7
  10
-76.500000
  20
82.000000
  30
0.0
  0
POINT
  8
0
  62
7
  10
-56.500000
  20
82.000000
  30
0.0
  0
POINT
  8
0
  62
7
  10
-45.000000
  20
74.500000
  30
0.0
  0
POINT
  8
0
  62
7
  10
-36.500000
  20
82.000000
  30
0.0
  0
POINT
  8
0
  62
7
  10
-16.500000
  20
82.000000
  30
0.0
  0
POINT
  8
0
  62
7
  10
-5.000020
  20
74.500000
  30
0.0
  0
POINT
  8
0
  62
7
  10
35.000000
  20
74.500000
  30
0.0
  0
POINT
  8
0
  62
7
  10
75.000000
  20
74.500000
  30
0.0
  0
POINT
  8
0
  62
7
  10
115.000000
  20
74.500000
  30
0.0
  0
LINE
  8
0
  6
CONTINUOUS
 62
7
 10
-281.250000
 20
195.500000
 11
282.100006
 21
195.500000
  0
LINE
  8
0
  6
CONTINUOUS
 62
7
 10
-281.250000
 20
195.500000
 11
-281.250000
 21
-195.000000
  0
LINE
  8
0
  6
CONTINUOUS
 62
7
 10
282.100006
 20
195.500000
 11
282.100006
 21
-195.000000
  0
LINE
  8
0
  6
CONTINUOUS
 62
7
 10
-281.250000
 20
-195.000000
 11
282.100006
 21
-195.000000
  0
LINE
  8
0
  6
CONTINUOUS
 62
7
 10
162.100006
 20
-175.000000
 11
162.100006
 21
-195.000000
  0
LINE
  8
0
  6
CONTINUOUS
 62
7
 10
162.100006
 20
-175.000000
 11
282.100006
 21
-175.000000
  0
LINE
  8
0
  6
CONTINUOUS
 62
7
 10
162.100006
 20
175.500000
 11
282.100006
 21
175.500000
  0
LINE
  8
0
  6
CONTINUOUS
 62
7
 10
-281.250000
 20
175.500000
 11
-161.250000
 21
175.500000
  0
LINE
  8
0
  6
CONTINUOUS
 62
7
 10
162.100006
 20
195.500000
 11
162.100006
 21
175.500000
  0
LINE
  8
0
  6
CONTINUOUS
 62
7
 10
-161.250000
 20
195.500000
 11
-161.250000
 21
175.500000
  0
LINE
  8
0
  6
CONTINUOUS
 62
7
 10
-191.500000
 20
-30.000000
 11
-191.500000
 21
2.000000
  0
LINE
  8
0
  6
CONTINUOUS
 62
7
 10
-96.500000
 20
2.000000
 11
-96.500000
 21
-30.000000
  0
LINE
  8
0
  6
CENTER
 62
2
 10
-225.500000
 20
-14.000000
 11
-43.000000
 21
-14.000000
  0
LINE
  8
0
  6
CONTINUOUS
 62
7
 10
-191.500000
 20
-30.000000
 11
-96.500000
 21
-30.000000
  0
LINE
  8
0
  6
CONTINUOUS
 62
7
 10
-191.500000
 20
2.000000
 11
-96.500000
 21
2.000000
  0
LINE
  8
0
  6
CONTINUOUS
 62
2
 10
-191.500000
 20
-25.799999
 11
-183.244995
 21
-25.799999
  0
LINE
  8
0
  6
CONTINUOUS
 62
2
 10
-191.500000
 20
-23.200001
 11
-181.994995
 21
-23.200001
  0
LINE
  8
0
  6
CONTINUOUS
 62
7
 10
-160.250000
 20
-26.000000
 11
-160.250000
 21
-30.000000
  0
LINE
  8
0
  6
CONTINUOUS
 62
7
 10
-152.750000
 20
-25.799999
 11
-152.750000
 21
-30.000000
  0
LINE
  8
0
  6
CONTINUOUS
 62
2
 10
-175.755005
 20
-25.799999
 11
-160.244995
 21
-25.799999
  0
LINE
  8
0
  6
CONTINUOUS
 62
2
 10
-177.005997
 20
-23.200001
 11
-158.994995
 21
-23.200001
  0
LINE
  8
0
  6
CONTINUOUS
 62
7
 10
-183.250000
 20
-26.000000
 11
-183.250000
 21
-30.000000
  0
LINE
  8
0
  6
CONTINUOUS
 62
7
 10
-175.750000
 20
-25.799999
 11
-175.750000
 21
-30.000000
  0
LINE
  8
0
  6
CONTINUOUS
 62
2
 10
-154.005997
 20
-23.200001
 11
-96.500000
 21
-23.200001
  0
LINE
  8
0
  6
CONTINUOUS
 62
2
 10
-152.750000
 20
-25.799999
 11
-96.500000
 21
-25.799999
  0
LINE
  8
0
  6
CONTINUOUS
 62
2
 10
-191.500000
 20
-2.200000
 11
-183.244995
 21
-2.200000
  0
LINE
  8
0
  6
CONTINUOUS
 62
2
 10
-191.500000
 20
-4.800020
 11
-181.994995
 21
-4.800020
  0
LINE
  8
0
  6
CONTINUOUS
 62
7
 10
-160.250000
 20
-2.000000
 11
-160.250000
 21
2.000000
  0
LINE
  8
0
  6
CONTINUOUS
 62
7
 10
-152.750000
 20
-2.200000
 11
-152.750000
 21
2.000000
  0
LINE
  8
0
  6
CONTINUOUS
 62
2
 10
-175.750000
 20
-2.200000
 11
-160.244995
 21
-2.200000
  0
LINE
  8
0
  6
CONTINUOUS
 62
2
 10
-177.005997
 20
-4.800020
 11
-158.994995
 21
-4.800020
  0
LINE
  8
0
  6
CONTINUOUS
 62
7
 10
-183.250000
 20
-2.000000
 11
-183.250000
 21
2.000000
  0
LINE
  8
0
  6
CONTINUOUS
 62
7
 10
-175.750000
 20
-2.200000
 11
-175.750000
 21
2.000000
  0
LINE
  8
0
  6
CONTINUOUS
 62
2
 10
-154.005997
 20
-4.800020
 11
-96.500000
 21
-4.800020
  0
LINE
  8
0
  6
CONTINUOUS
 62
2
 10
-152.755005
 20
-2.200000
 11
-96.500000
 21
-2.200000
  0
LINE
  8
0
  6
CONTINUOUS
 62
7
 10
-223.500000
 20
-10.000000
 11
-191.500000
 21
-10.000000
  0
LINE
  8
0
  6
CONTINUOUS
 62
7
 10
-223.500000
 20
-18.000000
 11
-191.500000
 21
-18.000000
  0
LINE
  8
0
  6
CONTINUOUS
 62
7
 10
-223.500000
 20
-10.000000
 11
-223.500000
 21
-18.000000
  0
LINE
  8
0
  6
CONTINUOUS
 62
7
 10
-95.000000
 20
-4.750000
 11
-95.000000
 21
-23.250000
  0
LINE
  8
0
  6
CONTINUOUS
 62
7
 10
-93.000000
 20
-9.000000
 11
-93.000000
 21
-19.000000
  0
LINE
  8
0
  6
CONTINUOUS
 62
7
 10
-95.000000
 20
-19.000000
 11
-93.000000
 21
-19.000000
  0
LINE
  8
0
  6
CONTINUOUS
 62
7
 10
-95.000000
 20
-9.000000
 11
-93.000000
 21
-9.000000
  0
LINE
  8
0
  6
CONTINUOUS
 62
7
 10
-93.000000
 20
-17.000000
 11
-73.000000
 21
-17.000000
  0
LINE
  8
0
  6
CONTINUOUS
 62
7
 10
-93.000000
 20
-11.000000
 11
-73.000000
 21
-11.000000
  0
LINE
  8
0
  6
CONTINUOUS
 62
7
 10
-96.500000
 20
-4.750000
 11
-95.000000
 21
-4.750000
  0
LINE
  8
0
  6
CONTINUOUS
 62
7
 10
-96.500000
 20
-23.250000
 11
-95.000000
 21
-23.250000
  0
LINE
  8
0
  6
CONTINUOUS
 62
7
 10
-45.000000
 20
-11.500000
 11
-45.000000
 21
-16.500000
  0
LINE
  8
0
  6
CONTINUOUS
 62
7
 10
-52.000000
 20
-9.000000
 11
-52.000000
 21
-19.000000
  0
LINE
  8
0
  6
CONTINUOUS
 62
2
 10
-48.000000
 20
-12.000000
 11
-45.000000
 21
-12.000000
  0
LINE
  8
0
  6
CONTINUOUS
 62
2
 10
-48.000000
 20
-16.000000
 11
-45.000000
 21
-16.000000
  0
LINE
  8
0
  6
CONTINUOUS
 62
7
 10
-73.000000
 20
-9.000000
 11
-52.000000
 21
-9.000000
  0
LINE
  8
0
  6
CONTINUOUS
 62
7
 10
-73.000000
 20
-19.000000
 11
-52.000000
 21
-19.000000
  0
LINE
  8
0
  6
CONTINUOUS
 62
7
 10
-48.000000
 20
-16.500000
 11
-45.000000
 21
-16.500000
  0
LINE
  8
0
  6
CONTINUOUS
 62
7
 10
-48.000000
 20
-11.500000
 11
-45.000000
 21
-11.500000
  0
LINE
  8
0
  6
CONTINUOUS
 62
7
 10
-73.000000
 20
-9.000000
 11
-73.000000
 21
-19.000000
  0
LINE
  8
0
  6
CONTINUOUS
 62
7
 10
-57.000000
 20
-17.000000
 11
-52.000000
 21
-17.000000
  0
LINE
  8
0
  6
CONTINUOUS
 62
7
 10
-57.000000
 20
-11.000000
 11
-52.000000
 21
-11.000000
  0
LINE
  8
0
  6
CONTINUOUS
 62
7
 10
-57.000000
 20
-11.000000
 11
-57.000000
 21
-17.000000
  0
LINE
  8
0
  6
CONTINUOUS
 62
2
 10
-57.000000
 20
-11.000000
 11
-52.000000
 21
-17.000000
  0
LINE
  8
0
  6
CONTINUOUS
 62
2
 10
-57.000000
 20
-17.000000
 11
-52.000000
 21
-11.000000
  0
LINE
  8
0
  6
CONTINUOUS
 62
7
 10
-48.000000
 20
-10.000000
 11
-48.000000
 21
-18.000000
  0
LINE
  8
0
  6
CONTINUOUS
 62
7
 10
-52.000000
 20
-10.000000
 11
-48.000000
 21
-10.000000
  0
LINE
  8
0
  6
CONTINUOUS
 62
7
 10
-52.000000
 20
-18.000000
 11
-48.000000
 21
-18.000000
  0
LINE
  8
0
  6
CONTINUOUS
 62
7
 10
-52.000000
 20
-14.000000
 11
-48.000000
 21
-14.000000
  0
LINE
  8
0
  6
CENTER
 62
2
 10
-225.500000
 20
-100.000000
 11
-43.000000
 21
-100.000000
  0
LINE
  8
0
  6
CONTINUOUS
 62
7
 10
-96.500000
 20
-110.000000
 11
-96.500000
 21
-90.000000
  0
LINE
  8
0
  6
CONTINUOUS
 62
7
 10
-183.250000
 20
-96.500000
 11
-175.750000
 21
-96.500000
  0
LINE
  8
0
  6
CONTINUOUS
 62
7
 10
-183.250000
 20
-103.500000
 11
-175.750000
 21
-103.500000
  0
LINE
  8
0
  6
CONTINUOUS
 62
7
 10
-183.250000
 20
-103.500000
 11
-183.250000
 21
-110.000000
  0
LINE
  8
0
  6
CONTINUOUS
 62
7
 10
-175.750000
 20
-103.500000
 11
-175.750000
 21
-110.000000
  0
LINE
  8
0
  6
CONTINUOUS
 62
7
 10
-160.250000
 20
-103.500000
 11
-160.250000
 21
-110.000000
  0
LINE
  8
0
  6
CONTINUOUS
 62
7
 10
-160.250000
 20
-103.500000
 11
-152.750000
 21
-103.500000
  0
LINE
  8
0
  6
CONTINUOUS
 62
7
 10
-152.750000
 20
-103.500000
 11
-152.750000
 21
-110.000000
  0
LINE
  8
0
  6
CONTINUOUS
 62
7
 10
-160.250000
 20
-96.500000
 11
-152.750000
 21
-96.500000
  0
LINE
  8
0
  6
CONTINUOUS
 62
7
 10
-160.250000
 20
-90.000000
 11
-160.250000
 21
-96.500000
  0
LINE
  8
0
  6
CONTINUOUS
 62
7
 10
-152.750000
 20
-90.000000
 11
-152.750000
 21
-96.500000
  0
LINE
  8
0
  6
CONTINUOUS
 62
7
 10
-175.750000
 20
-90.000000
 11
-175.750000
 21
-96.500000
  0
LINE
  8
0
  6
CONTINUOUS
 62
7
 10
-183.250000
 20
-90.000000
 11
-183.250000
 21
-96.500000
  0
LINE
  8
0
  6
CONTINUOUS
 62
7
 10
-95.000000
 20
-90.750000
 11
-95.000000
 21
-109.250000
  0
LINE
  8
0
  6
CONTINUOUS
 62
7
 10
-93.000000
 20
-95.000000
 11
-93.000000
 21
-105.000000
  0
LINE
  8
0
  6
CONTINUOUS
 62
7
 10
-95.000000
 20
-105.000000
 11
-93.000000
 21
-105.000000
  0
LINE
  8
0
  6
CONTINUOUS
 62
7
 10
-95.000000
 20
-95.000000
 11
-93.000000
 21
-95.000000
  0
LINE
  8
0
  6
CONTINUOUS
 62
7
 10
-93.000000
 20
-103.000000
 11
-73.000000
 21
-103.000000
  0
LINE
  8
0
  6
CONTINUOUS
 62
7
 10
-93.000000
 20
-97.000000
 11
-73.000000
 21
-97.000000
  0
LINE
  8
0
  6
CONTINUOUS
 62
7
 10
-96.500000
 20
-90.750000
 11
-95.000000
 21
-90.750000
  0
LINE
  8
0
  6
CONTINUOUS
 62
7
 10
-96.500000
 20
-109.250000
 11
-95.000000
 21
-109.250000
  0
LINE
  8
0
  6
CONTINUOUS
 62
7
 10
-45.000000
 20
-97.500000
 11
-45.000000
 21
-102.500000
  0
LINE
  8
0
  6
CONTINUOUS
 62
7
 10
-52.000000
 20
-95.381203
 11
-52.000000
 21
-104.619003
  0
LINE
  8
0
  6
CONTINUOUS
 62
2
 10
-48.000000
 20
-98.000000
 11
-45.000000
 21
-98.000000
  0
LINE
  8
0
  6
CONTINUOUS
 62
2
 10
-48.000000
 20
-102.000000
 11
-45.000000
 21
-102.000000
  0
LINE
  8
0
  6
CONTINUOUS
 62
7
 10
-73.000000
 20
-95.000000
 11
-57.000000
 21
-95.000000
  0
LINE
  8
0
  6
CONTINUOUS
 62
7
 10
-48.000000
 20
-102.500000
 11
-45.000000
 21
-102.500000
  0
LINE
  8
0
  6
CONTINUOUS
 62
7
 10
-48.000000
 20
-97.500000
 11
-45.000000
 21
-97.500000
  0
LINE
  8
0
  6
CONTINUOUS
 62
7
 10
-73.000000
 20
-95.000000
 11
-73.000000
 21
-105.000000
  0
LINE
  8
0
  6
CONTINUOUS
 62
7
 10
-57.000000
 20
-95.000000
 11
-57.000000
 21
-96.000000
  0
LINE
  8
0
  6
CONTINUOUS
 62
7
 10
-57.000000
 20
-96.000000
 11
-52.000000
 21
-96.000000
  0
LINE
  8
0
  6
CONTINUOUS
 62
7
 10
-73.000000
 20
-105.000000
 11
-57.000000
 21
-105.000000
  0
LINE
  8
0
  6
CONTINUOUS
 62
7
 10
-57.000000
 20
-105.000000
 11
-57.000000
 21
-104.000000
  0
LINE
  8
0
  6
CONTINUOUS
 62
7
 10
-57.000000
 20
-104.000000
 11
-52.000000
 21
-104.000000
  0
LINE
  8
0
  6
CONTINUOUS
 62
7
 10
-48.000000
 20
-95.381203
 11
-48.000000
 21
-104.619003
  0
LINE
  8
0
  6
CONTINUOUS
 62
7
 10
-52.000000
 20
-97.690598
 11
-48.000000
 21
-97.690598
  0
LINE
  8
0
  6
CONTINUOUS
 62
7
 10
-52.000000
 20
-102.308998
 11
-48.000000
 21
-102.308998
  0
LINE
  8
0
  6
CONTINUOUS
 62
7
 10
-52.000000
 20
-104.619003
 11
-48.000000
 21
-104.619003
  0
LINE
  8
0
  6
CONTINUOUS
 62
7
 10
-52.000000
 20
-95.381203
 11
-48.000000
 21
-95.381203
  0
LINE
  8
0
  6
CONTINUOUS
 62
7
 10
-191.500000
 20
62.000000
 11
-191.500000
 21
82.000000
  0
LINE
  8
0
  6
CONTINUOUS
 62
7
 10
-96.500000
 20
62.000000
 11
-96.500000
 21
82.000000
  0
LINE
  8
0
  6
CENTER
 62
2
 10
-225.500000
 20
72.000000
 11
-43.000000
 21
72.000000
  0
LINE
  8
0
  6
CONTINUOUS
 62
7
 10
-191.500000
 20
82.000000
 11
-96.500000
 21
82.000000
  0
LINE
  8
0
  6
CONTINUOUS
 62
7
 10
-191.500000
 20
62.000000
 11
-96.500000
 21
62.000000
  0
LINE
  8
0
  6
CONTINUOUS
 62
7
 10
-183.250000
 20
82.000000
 11
-183.250000
 21
75.500000
  0
LINE
  8
0
  6
CONTINUOUS
 62
7
 10
-175.750000
 20
82.000000
 11
-175.750000
 21
75.500000
  0
LINE
  8
0
  6
CONTINUOUS
 62
7
 10
-160.250000
 20
82.000000
 11
-160.250000
 21
75.500000
  0
LINE
  8
0
  6
CONTINUOUS
 62
7
 10
-152.750000
 20
82.000000
 11
-152.750000
 21
75.500000
  0
LINE
  8
0
  6
CONTINUOUS
 62
7
 10
-183.250000
 20
75.500000
 11
-175.750000
 21
75.500000
  0
LINE
  8
0
  6
CONTINUOUS
 62
7
 10
-183.250000
 20
68.500000
 11
-175.750000
 21
68.500000
  0
LINE
  8
0
  6
CONTINUOUS
 62
7
 10
-183.250000
 20
68.500000
 11
-183.250000
 21
62.000000
  0
LINE
  8
0
  6
CONTINUOUS
 62
7
 10
-175.750000
 20
68.500000
 11
-175.750000
 21
62.000000
  0
LINE
  8
0
  6
CONTINUOUS
 62
7
 10
-160.250000
 20
68.500000
 11
-160.250000
 21
62.000000
  0
LINE
  8
0
  6
CONTINUOUS
 62
7
 10
-152.750000
 20
68.500000
 11
-152.750000
 21
62.000000
  0
LINE
  8
0
  6
CONTINUOUS
 62
7
 10
-160.250000
 20
68.500000
 11
-152.750000
 21
68.500000
  0
LINE
  8
0
  6
CONTINUOUS
 62
7
 10
-160.250000
 20
75.500000
 11
-152.750000
 21
75.500000
  0
LINE
  8
0
  6
CONTINUOUS
 62
7
 10
-223.500000
 20
76.000000
 11
-191.500000
 21
76.000000
  0
LINE
  8
0
  6
CONTINUOUS
 62
7
 10
-223.500000
 20
68.000000
 11
-191.500000
 21
68.000000
  0
LINE
  8
0
  6
CONTINUOUS
 62
7
 10
-223.500000
 20
76.000000
 11
-223.500000
 21
68.000000
  0
LINE
  8
0
  6
CONTINUOUS
 62
7
 10
-95.000000
 20
81.250000
 11
-95.000000
 21
62.750000
  0
LINE
  8
0
  6
CONTINUOUS
 62
7
 10
-93.000000
 20
77.000000
 11
-93.000000
 21
67.000000
  0
LINE
  8
0
  6
CONTINUOUS
 62
7
 10
-95.000000
 20
67.000000
 11
-93.000000
 21
67.000000
  0
LINE
  8
0
  6
CONTINUOUS
 62
7
 10
-95.000000
 20
77.000000
 11
-93.000000
 21
77.000000
  0
LINE
  8
0
  6
CONTINUOUS
 62
7
 10
-93.000000
 20
69.000000
 11
-73.000000
 21
69.000000
  0
LINE
  8
0
  6
CONTINUOUS
 62
7
 10
-93.000000
 20
75.000000
 11
-73.000000
 21
75.000000
  0
LINE
  8
0
  6
CONTINUOUS
 62
7
 10
-96.500000
 20
81.250000
 11
-95.000000
 21
81.250000
  0
LINE
  8
0
  6
CONTINUOUS
 62
7
 10
-96.500000
 20
62.750000
 11
-95.000000
 21
62.750000
  0
LINE
  8
0
  6
CONTINUOUS
 62
7
 10
-45.000000
 20
74.500000
 11
-45.000000
 21
69.500000
  0
LINE
  8
0
  6
CONTINUOUS
 62
2
 10
-48.000000
 20
74.000000
 11
-45.000000
 21
74.000000
  0
LINE
  8
0
  6
CONTINUOUS
 62
2
 10
-48.000000
 20
70.000000
 11
-45.000000
 21
70.000000
  0
LINE
  8
0
  6
CONTINUOUS
 62
7
 10
-73.000000
 20
77.000000
 11
-57.000000
 21
77.000000
  0
LINE
  8
0
  6
CONTINUOUS
 62
7
 10
-48.000000
 20
69.500000
 11
-45.000000
 21
69.500000
  0
LINE
  8
0
  6
CONTINUOUS
 62
7
 10
-48.000000
 20
74.500000
 11
-45.000000
 21
74.500000
  0
LINE
  8
0
  6
CONTINUOUS
 62
7
 10
-73.000000
 20
77.000000
 11
-73.000000
 21
67.000000
  0
LINE
  8
0
  6
CONTINUOUS
 62
7
 10
-57.000000
 20
77.000000
 11
-57.000000
 21
76.000000
  0
LINE
  8
0
  6
CONTINUOUS
 62
7
 10
-57.000000
 20
76.000000
 11
-52.000000
 21
76.000000
  0
LINE
  8
0
  6
CONTINUOUS
 62
7
 10
-73.000000
 20
67.000000
 11
-57.000000
 21
67.000000
  0
LINE
  8
0
  6
CONTINUOUS
 62
7
 10
-57.000000
 20
67.000000
 11
-57.000000
 21
68.000000
  0
LINE
  8
0
  6
CONTINUOUS
 62
7
 10
-57.000000
 20
68.000000
 11
-52.000000
 21
68.000000
  0
LINE
  8
0
  6
CONTINUOUS
 62
7
 10
-48.000000
 20
76.618797
 11
-48.000000
 21
67.381203
  0
LINE
  8
0
  6
CONTINUOUS
 62
7
 10
-52.000000
 20
74.309402
 11
-48.000000
 21
74.309402
  0
LINE
  8
0
  6
CONTINUOUS
 62
7
 10
-52.000000
 20
69.690598
 11
-48.000000
 21
69.690598
  0
LINE
  8
0
  6
CONTINUOUS
 62
7
 10
-52.000000
 20
67.381203
 11
-48.000000
 21
67.381203
  0
LINE
  8
0
  6
CONTINUOUS
 62
7
 10
-52.000000
 20
76.618797
 11
-48.000000
 21
76.618797
  0
LINE
  8
0
  6
CONTINUOUS
 62
7
 10
-52.000000
 20
76.618797
 11
-52.000000
 21
67.381203
  0
LINE
  8
0
  6
CENTER
 62
2
 10
-255.500000
 20
-14.000000
 11
-231.500000
 21
-14.000000
  0
LINE
  8
0
  6
CONTINUOUS
 62
7
 10
-253.500000
 20
-30.000000
 11
-253.500000
 21
2.000000
  0
LINE
  8
0
  6
CONTINUOUS
 62
2
 10
-233.500000
 20
-2.200000
 11
-234.500000
 21
-2.200000
  0
LINE
  8
0
  6
CONTINUOUS
 62
2
 10
-234.500000
 20
-2.200000
 11
-234.500000
 21
-1.350020
  0
LINE
  8
0
  6
CONTINUOUS
 62
2
 10
-234.500000
 20
-1.350010
 11
-238.300003
 21
-1.350010
  0
LINE
  8
0
  6
CONTINUOUS
 62
2
 10
-239.800003
 20
-4.150020
 11
-239.800003
 21
-2.850020
  0
LINE
  8
0
  6
CONTINUOUS
 62
2
 10
-234.500000
 20
-5.650010
 11
-238.300003
 21
-5.650010
  0
LINE
  8
0
  6
CONTINUOUS
 62
2
 10
-234.500000
 20
-5.650020
 11
-234.500000
 21
-4.800000
  0
LINE
  8
0
  6
CONTINUOUS
 62
2
 10
-233.500000
 20
-4.800000
 11
-234.500000
 21
-4.800000
  0
LINE
  8
0
  6
CONTINUOUS
 62
7
 10
-253.500000
 20
-30.000000
 11
-233.500000
 21
-30.000000
  0
LINE
  8
0
  6
CONTINUOUS
 62
7
 10
-233.500000
 20
2.000000
 11
-233.500000
 21
-30.000000
  0
LINE
  8
0
  6
CONTINUOUS
 62
7
 10
-253.500000
 20
2.000000
 11
-233.500000
 21
2.000000
  0
LINE
  8
0
  6
CENTER
 62
2
 10
-243.500000
 20
-32.000000
 11
-243.500000
 21
4.000000
  0
LINE
  8
0
  6
CENTER
 62
2
 10
-255.500000
 20
-24.500000
 11
-245.940002
 21
-24.500000
  0
LINE
  8
0
  6
CENTER
 62
2
 10
-255.500000
 20
-3.500000
 11
-245.845001
 21
-3.500000
  0
LINE
  8
0
  6
CENTER
 62
2
 10
-231.500000
 20
-3.500000
 11
-241.216995
 21
-3.500000
  0
LINE
  8
0
  6
CENTER
 62
2
 10
-231.500000
 20
-24.500000
 11
-241.216995
 21
-24.500000
  0
LINE
  8
0
  6
DASHED
 62
2
 10
-182.000000
 20
-96.500000
 11
-182.000000
 21
-103.500000
  0
LINE
  8
0
  6
DASHED
 62
2
 10
-181.699997
 20
-96.500000
 11
-181.699997
 21
-103.500000
  0
LINE
  8
0
  6
DASHED
 62
2
 10
-177.300003
 20
-96.500000
 11
-177.300003
 21
-103.500000
  0
LINE
  8
0
  6
DASHED
 62
2
 10
-177.000000
 20
-96.500000
 11
-177.000000
 21
-103.500000
  0
LINE
  8
0
  6
DASHED
 62
2
 10
-159.000000
 20
-96.500000
 11
-159.000000
 21
-103.500000
  0
LINE
  8
0
  6
DASHED
 62
2
 10
-158.699997
 20
-96.500000
 11
-158.699997
 21
-103.500000
  0
LINE
  8
0
  6
DASHED
 62
2
 10
-154.300003
 20
-96.500000
 11
-154.300003
 21
-103.500000
  0
LINE
  8
0
  6
DASHED
 62
2
 10
-154.000000
 20
-96.500000
 11
-154.000000
 21
-103.500000
  0
LINE
  8
0
  6
CENTER
 62
2
 10
-179.500000
 20
-88.000000
 11
-179.500000
 21
-112.000000
  0
LINE
  8
0
  6
CENTER
 62
2
 10
-156.500000
 20
-88.000000
 11
-156.500000
 21
-112.000000
  0
LINE
  8
0
  6
CENTER
 62
2
 10
-32.000000
 20
-14.000000
 11
-7.999970
 21
-14.000000
  0
LINE
  8
0
  6
CONTINUOUS
 62
7
 10
-30.000000
 20
-30.000000
 11
-30.000000
 21
2.000000
  0
LINE
  8
0
  6
CONTINUOUS
 62
2
 10
-9.999940
 20
-2.200000
 11
-10.999900
 21
-2.200000
  0
LINE
  8
0
  6
CONTINUOUS
 62
2
 10
-11.000000
 20
-2.200000
 11
-11.000000
 21
-1.350020
  0
LINE
  8
0
  6
CONTINUOUS
 62
2
 10
-11.000000
 20
-1.350010
 11
-14.800000
 21
-1.350010
  0
LINE
  8
0
  6
CONTINUOUS
 62
2
 10
-16.299999
 20
-4.150020
 11
-16.299999
 21
-2.850020
  0
LINE
  8
0
  6
CONTINUOUS
 62
2
 10
-10.999900
 20
-5.650010
 11
-14.800000
 21
-5.650010
  0
LINE
  8
0
  6
CONTINUOUS
 62
2
 10
-11.000000
 20
-5.650020
 11
-11.000000
 21
-4.800000
  0
LINE
  8
0
  6
CONTINUOUS
 62
2
 10
-9.999940
 20
-4.800000
 11
-10.999900
 21
-4.800000
  0
LINE
  8
0
  6
CONTINUOUS
 62
7
 10
-30.000000
 20
-30.000000
 11
-9.999970
 21
-30.000000
  0
LINE
  8
0
  6
CONTINUOUS
 62
7
 10
-9.999970
 20
2.000000
 11
-9.999970
 21
-30.000000
  0
LINE
  8
0
  6
CONTINUOUS
 62
7
 10
-30.000000
 20
2.000000
 11
-9.999970
 21
2.000000
  0
LINE
  8
0
  6
CENTER
 62
2
 10
-20.000000
 20
-32.000000
 11
-20.000000
 21
4.000000
  0
LINE
  8
0
  6
CENTER
 62
2
 10
-32.000000
 20
-24.500000
 11
-22.439800
 21
-24.500000
  0
LINE
  8
0
  6
CENTER
 62
2
 10
-32.000000
 20
-3.500000
 11
-22.345400
 21
-3.500000
  0
LINE
  8
0
  6
CENTER
 62
2
 10
-7.999970
 20
-3.500000
 11
-17.716900
 21
-3.500000
  0
LINE
  8
0
  6
CENTER
 62
2
 10
-7.999970
 20
-24.500000
 11
-17.716900
 21
-24.500000
  0
LINE
  8
0
  6
CONTINUOUS
 62
7
 10
-223.500000
 20
-104.000000
 11
-191.500000
 21
-104.000000
  0
LINE
  8
0
  6
CONTINUOUS
 62
7
 10
-223.500000
 20
-96.000000
 11
-223.500000
 21
-104.000000
  0
LINE
  8
0
  6
CONTINUOUS
 62
7
 10
-191.500000
 20
-110.000000
 11
-191.500000
 21
-90.000000
  0
LINE
  8
0
  6
CONTINUOUS
 62
7
 10
-191.500000
 20
-90.000000
 11
-96.500000
 21
-90.000000
  0
LINE
  8
0
  6
CONTINUOUS
 62
7
 10
-191.500000
 20
-110.000000
 11
-96.500000
 21
-110.000000
  0
LINE
  8
0
  6
CONTINUOUS
 62
7
 10
-223.500000
 20
-96.000000
 11
-191.500000
 21
-96.000000
  0
LINE
  8
0
  6
CONTINUOUS
 62
7
 10
-22.309401
 20
-18.000000
 11
-24.618799
 21
-14.000000
  0
LINE
  8
0
  6
CONTINUOUS
 62
7
 10
-16.000000
 20
-17.000000
 11
-16.000000
 21
-15.071800
  0
LINE
  8
0
  6
CONTINUOUS
 62
7
 10
-24.000000
 20
-17.000000
 11
-24.000000
 21
-15.071800
  0
LINE
  8
0
  6
CONTINUOUS
 62
7
 10
-24.618700
 20
-14.000000
 11
-22.309299
 21
-10.000000
  0
LINE
  8
0
  6
CONTINUOUS
 62
7
 10
-22.309401
 20
-10.000000
 11
-17.690599
 21
-10.000000
  0
LINE
  8
0
  6
CONTINUOUS
 62
7
 10
-17.690599
 20
-10.000000
 11
-15.381300
 21
-14.000000
  0
LINE
  8
0
  6
CONTINUOUS
 62
7
 10
-15.381200
 20
-14.000000
 11
-17.690599
 21
-18.000000
  0
LINE
  8
0
  6
CONTINUOUS
 62
7
 10
-17.690599
 20
-18.000000
 11
-22.309401
 21
-18.000000
  0
LINE
  8
0
  6
CONTINUOUS
 62
7
 10
-24.000000
 20
-12.928200
 11
-24.000000
 21
-11.000000
  0
LINE
  8
0
  6
CONTINUOUS
 62
7
 10
-16.000000
 20
-12.928200
 11
-16.000000
 21
-11.000000
  0
LINE
  8
0
  6
CENTER
 62
2
 10
-149.500000
 20
76.500000
 11
-149.500000
 21
67.500000
  0
LINE
  8
0
  6
CENTER
 62
2
 10
-111.500000
 20
76.500000
 11
-111.500000
 21
67.500000
  0
LINE
  8
0
  6
CENTER
 62
2
 10
-247.500000
 20
-2.000000
 11
-239.500000
 21
-2.000000
  0
LINE
  8
0
  6
CENTER
 62
2
 10
-247.500000
 20
-26.000000
 11
-239.500000
 21
-26.000000
  0
LINE
  8
0
  6
CENTER
 62
2
 10
-179.500000
 20
3.750000
 11
-179.500000
 21
-7.750000
  0
LINE
  8
0
  6
CENTER
 62
2
 10
-185.250000
 20
-2.000000
 11
-173.750000
 21
-2.000000
  0
LINE
  8
0
  6
CENTER
 62
2
 10
-179.500000
 20
-20.250000
 11
-179.500000
 21
-31.750000
  0
LINE
  8
0
  6
CENTER
 62
2
 10
-185.250000
 20
-26.000000
 11
-173.750000
 21
-26.000000
  0
LINE
  8
0
  6
CENTER
 62
2
 10
-156.500000
 20
-20.250000
 11
-156.500000
 21
-31.750000
  0
LINE
  8
0
  6
CENTER
 62
2
 10
-162.250000
 20
-26.000000
 11
-150.750000
 21
-26.000000
  0
LINE
  8
0
  6
CENTER
 62
2
 10
-156.500000
 20
3.750000
 11
-156.500000
 21
-7.750000
  0
LINE
  8
0
  6
CENTER
 62
2
 10
-162.250000
 20
-2.000000
 11
-150.750000
 21
-2.000000
  0
LINE
  8
0
  6
CENTER
 62
2
 10
-172.500000
 20
-90.000000
 11
-172.500000
 21
-98.000000
  0
LINE
  8
0
  6
CENTER
 62
2
 10
-176.500000
 20
-94.000000
 11
-168.500000
 21
-94.000000
  0
LINE
  8
0
  6
CENTER
 62
2
 10
-172.500000
 20
-102.000000
 11
-172.500000
 21
-110.000000
  0
LINE
  8
0
  6
CENTER
 62
2
 10
-176.500000
 20
-106.000000
 11
-168.500000
 21
-106.000000
  0
LINE
  8
0
  6
CENTER
 62
2
 10
-149.500000
 20
-102.000000
 11
-149.500000
 21
-110.000000
  0
LINE
  8
0
  6
CENTER
 62
2
 10
-153.500000
 20
-106.000000
 11
-145.500000
 21
-106.000000
  0
LINE
  8
0
  6
CENTER
 62
2
 10
-149.500000
 20
-90.000000
 11
-149.500000
 21
-98.000000
  0
LINE
  8
0
  6
CENTER
 62
2
 10
-153.500000
 20
-94.000000
 11
-145.500000
 21
-94.000000
  0
LINE
  8
0
  6
CONTINUOUS
 62
7
 10
172.862000
 20
-51.724998
 11
172.862000
 21
-31.725000
  0
LINE
  8
0
  6
CONTINUOUS
 62
7
 10
172.862000
 20
-31.725000
 11
182.862000
 21
-31.725000
  0
LINE
  8
0
  6
CONTINUOUS
 62
7
 10
172.862000
 20
-51.724998
 11
182.862000
 21
-51.724998
  0
LINE
  8
0
  6
CONTINUOUS
 62
4
 10
156.593994
 20
-37.724998
 11
172.862000
 21
-37.724998
  0
LINE
  8
0
  6
CONTINUOUS
 62
4
 10
156.593994
 20
-45.724998
 11
172.862000
 21
-45.724998
  0
LINE
  8
0
  6
CONTINUOUS
 62
4
 10
140.862000
 20
-38.724998
 11
140.862000
 21
-44.724998
  0
LINE
  8
0
  6
CENTER
 62
1
 10
138.862000
 20
-41.724998
 11
182.862000
 21
-41.724998
  0
LINE
  8
0
  6
CONTINUOUS
 62
4
 10
145.500000
 20
96.025002
 11
178.500000
 21
96.025002
  0
LINE
  8
0
  6
CONTINUOUS
 62
4
 10
145.500000
 20
107.324997
 11
145.500000
 21
96.025002
  0
LINE
  8
0
  6
CONTINUOUS
 62
4
 10
152.500000
 20
111.025002
 11
171.500000
 21
111.025002
  0
LINE
  8
0
  6
CONTINUOUS
 62
4
 10
145.500000
 20
107.324997
 11
152.500000
 21
107.324997
  0
LINE
  8
0
  6
CONTINUOUS
 62
4
 10
178.500000
 20
107.324997
 11
178.500000
 21
96.025002
  0
LINE
  8
0
  6
CONTINUOUS
 62
4
 10
152.500000
 20
111.025002
 11
152.500000
 21
107.324997
  0
LINE
  8
0
  6
CONTINUOUS
 62
4
 10
171.500000
 20
111.025002
 11
171.500000
 21
107.324997
  0
LINE
  8
0
  6
CONTINUOUS
 62
4
 10
171.500000
 20
107.324997
 11
178.500000
 21
107.324997
  0
LINE
  8
0
  6
CENTER
 62
1
 10
162.000000
 20
113.025002
 11
162.000000
 21
94.025002
  0
LINE
  8
0
  6
CENTER
 62
1
 10
149.000000
 20
109.324997
 11
149.000000
 21
94.025002
  0
LINE
  8
0
  6
CENTER
 62
1
 10
175.000000
 20
109.324997
 11
175.000000
 21
94.025002
  0
LINE
  8
0
  6
DASHED
 62
1
 10
176.800003
 20
107.324997
 11
176.800003
 21
96.025002
  0
LINE
  8
0
  6
DASHED
 62
1
 10
173.199997
 20
107.324997
 11
173.199997
 21
96.025002
  0
LINE
  8
0
  6
CONTINUOUS
 62
4
 10
145.500000
 20
85.025002
 11
178.500000
 21
85.025002
  0
LINE
  8
0
  6
CONTINUOUS
 62
4
 10
145.500000
 20
68.025002
 11
178.500000
 21
68.025002
  0
LINE
  8
0
  6
CONTINUOUS
 62
4
 10
178.500000
 20
85.025002
 11
178.500000
 21
68.025002
  0
LINE
  8
0
  6
CONTINUOUS
 62
4
 10
145.500000
 20
68.025002
 11
145.500000
 21
85.025002
  0
LINE
  8
0
  6
CONTINUOUS
 62
4
 10
194.500000
 20
85.025002
 11
194.500000
 21
68.025002
  0
LINE
  8
0
  6
CONTINUOUS
 62
4
 10
209.500000
 20
85.025002
 11
209.500000
 21
68.025002
  0
LINE
  8
0
  6
CONTINUOUS
 62
4
 10
205.800003
 20
85.025002
 11
205.800003
 21
68.025002
  0
LINE
  8
0
  6
CONTINUOUS
 62
4
 10
194.500000
 20
85.025002
 11
209.500000
 21
85.025002
  0
LINE
  8
0
  6
CONTINUOUS
 62
4
 10
209.500000
 20
68.025002
 11
194.500000
 21
68.025002
  0
LINE
  8
0
  6
CENTER
 62
1
 10
211.500000
 20
76.525002
 11
192.500000
 21
76.525002
  0
LINE
  8
0
  6
CONTINUOUS
 62
4
 10
140.862000
 20
22.275000
 11
140.862000
 21
14.275000
  0
LINE
  8
0
  6
CONTINUOUS
 62
7
 10
172.862000
 20
8.275000
 11
172.862000
 21
28.275000
  0
LINE
  8
0
  6
CONTINUOUS
 62
7
 10
172.862000
 20
28.275000
 11
182.862000
 21
28.275000
  0
LINE
  8
0
  6
CONTINUOUS
 62
7
 10
172.862000
 20
8.275000
 11
182.862000
 21
8.275000
  0
LINE
  8
0
  6
CONTINUOUS
 62
4
 10
140.862000
 20
22.275000
 11
147.862000
 21
22.275000
  0
LINE
  8
0
  6
CONTINUOUS
 62
4
 10
140.862000
 20
14.275000
 11
147.862000
 21
14.275000
  0
LINE
  8
0
  6
CENTER
 62
1
 10
138.862000
 20
18.275000
 11
182.862000
 21
18.275000
  0
LINE
  8
0
  6
CONTINUOUS
 62
4
 10
147.862000
 20
22.275000
 11
147.862000
 21
21.775000
  0
LINE
  8
0
  6
CONTINUOUS
 62
4
 10
152.362000
 20
22.275000
 11
152.362000
 21
21.775000
  0
LINE
  8
0
  6
CONTINUOUS
 62
4
 10
147.862000
 20
21.775000
 11
152.362000
 21
21.775000
  0
LINE
  8
0
  6
CONTINUOUS
 62
4
 10
147.862000
 20
14.775000
 11
152.362000
 21
14.775000
  0
LINE
  8
0
  6
CONTINUOUS
 62
4
 10
152.362000
 20
22.275000
 11
172.862000
 21
22.275000
  0
LINE
  8
0
  6
CONTINUOUS
 62
4
 10
152.362000
 20
14.275000
 11
172.862000
 21
14.275000
  0
LINE
  8
0
  6
CONTINUOUS
 62
4
 10
147.862000
 20
14.775000
 11
147.862000
 21
14.275000
  0
LINE
  8
0
  6
CONTINUOUS
 62
4
 10
152.362000
 20
14.775000
 11
152.362000
 21
14.275000
  0
LINE
  8
0
  6
DASHED
 62
1
 10
150.862000
 20
20.775000
 11
150.862000
 21
15.775000
  0
LINE
  8
0
  6
DASHED
 62
1
 10
153.362000
 20
20.341999
 11
153.362000
 21
16.208000
  0
LINE
  8
0
  6
DASHED
 62
1
 10
140.862000
 20
20.775000
 11
150.862000
 21
20.775000
  0
LINE
  8
0
  6
DASHED
 62
1
 10
140.862000
 20
15.775000
 11
150.862000
 21
15.775000
  0
LINE
  8
0
  6
DASHED
 62
1
 10
140.862000
 20
16.208000
 11
153.362000
 21
16.208000
  0
LINE
  8
0
  6
DASHED
 62
1
 10
140.862000
 20
20.341999
 11
153.362000
 21
20.341999
  0
LINE
  8
0
  6
CONTINUOUS
 62
4
 10
152.862000
 20
-38.724998
 11
152.862000
 21
-44.724998
  0
LINE
  8
0
  6
CONTINUOUS
 62
4
 10
154.862000
 20
-38.724998
 11
154.862000
 21
-44.724998
  0
LINE
  8
0
  6
CONTINUOUS
 62
4
 10
140.862000
 20
-44.724998
 11
146.261993
 21
-44.724998
  0
LINE
  8
0
  6
CONTINUOUS
 62
4
 10
140.862000
 20
-38.724998
 11
146.261993
 21
-38.724998
  0
LINE
  8
0
  6
CONTINUOUS
 62
1
 10
140.862000
 20
-44.183498
 11
146.261993
 21
-44.183498
  0
LINE
  8
0
  6
CONTINUOUS
 62
1
 10
140.862000
 20
-39.266499
 11
146.261993
 21
-39.266499
  0
LINE
  8
0
  6
CONTINUOUS
 62
4
 10
154.862000
 20
-38.724800
 11
156.593994
 21
-37.724800
  0
LINE
  8
0
  6
CONTINUOUS
 62
4
 10
154.862000
 20
-44.724998
 11
156.593994
 21
-45.724998
  0
LINE
  8
0
  6
CONTINUOUS
 62
4
 10
156.593994
 20
-37.724998
 11
156.593994
 21
-39.788502
  0
LINE
  8
0
  6
CONTINUOUS
 62
4
 10
159.362000
 20
-39.788502
 11
159.362000
 21
-43.661499
  0
LINE
  8
0
  6
CONTINUOUS
 62
4
 10
149.862000
 20
-35.951500
 11
149.862000
 21
-47.498501
  0
LINE
  8
0
  6
CONTINUOUS
 62
1
 10
149.862000
 20
-44.183498
 11
152.862000
 21
-44.183498
  0
LINE
  8
0
  6
CONTINUOUS
 62
4
 10
149.862000
 20
-44.724998
 11
154.862000
 21
-44.724998
  0
LINE
  8
0
  6
CONTINUOUS
 62
1
 10
149.862000
 20
-39.266499
 11
152.862000
 21
-39.266499
  0
LINE
  8
0
  6
CONTINUOUS
 62
4
 10
149.862000
 20
-38.724998
 11
154.862000
 21
-38.724998
  0
LINE
  8
0
  6
CENTER
 62
1
 10
157.112000
 20
-22.725000
 11
157.112000
 21
-32.724998
  0
LINE
  8
0
  6
CENTER
 62
1
 10
152.112000
 20
-27.725000
 11
162.112000
 21
-27.725000
  0
LINE
  8
0
  6
CONTINUOUS
 62
4
 10
153.612000
 20
-25.788500
 11
153.612000
 21
-29.661501
  0
LINE
  8
0
  6
CONTINUOUS
 62
4
 10
160.612000
 20
-25.788500
 11
160.612000
 21
-29.661501
  0
LINE
  8
0
  6
CONTINUOUS
 62
4
 10
154.862000
 20
-39.788502
 11
159.362000
 21
-39.788502
  0
LINE
  8
0
  6
CONTINUOUS
 62
4
 10
154.862000
 20
-43.661499
 11
159.362000
 21
-43.661499
  0
LINE
  8
0
  6
CONTINUOUS
 62
4
 10
156.593994
 20
-43.661499
 11
156.593994
 21
-45.724998
  0
LINE
  8
0
  6
CONTINUOUS
 62
1
 10
154.862000
 20
-43.661800
 11
159.362000
 21
-39.788799
  0
LINE
  8
0
  6
CONTINUOUS
 62
1
 10
159.362000
 20
-43.661400
 11
154.862000
 21
-39.788502
  0
LINE
  8
0
  6
CONTINUOUS
 62
4
 10
146.261993
 20
-47.498501
 11
149.862000
 21
-47.498501
  0
LINE
  8
0
  6
CONTINUOUS
 62
4
 10
146.261993
 20
-44.611801
 11
149.862000
 21
-44.611801
  0
LINE
  8
0
  6
CONTINUOUS
 62
4
 10
146.261993
 20
-35.951500
 11
149.862000
 21
-35.951500
  0
LINE
  8
0
  6
CONTINUOUS
 62
4
 10
146.261993
 20
-38.838299
 11
149.862000
 21
-38.838299
  0
LINE
  8
0
  6
CENTER
 62
1
 10
150.112000
 20
37.275002
 11
150.112000
 21
27.275000
  0
LINE
  8
0
  6
CENTER
 62
1
 10
145.112000
 20
32.275002
 11
155.112000
 21
32.275002
  0
LINE
  8
0
  6
CONTINUOUS
 62
4
 10
148.175995
 20
35.775002
 11
152.048996
 21
35.775002
  0
LINE
  8
0
  6
CONTINUOUS
 62
4
 10
148.175995
 20
28.775000
 11
152.048996
 21
28.775000
  0
LINE
  8
0
  6
CENTER
 62
1
 10
175.000000
 20
85.324997
 11
175.000000
 21
77.724998
  0
LINE
  8
0
  6
CENTER
 62
1
 10
171.199997
 20
81.525002
 11
178.800003
 21
81.525002
  0
LINE
  8
0
  6
CENTER
 62
1
 10
175.000000
 20
75.324997
 11
175.000000
 21
67.724998
  0
LINE
  8
0
  6
CENTER
 62
1
 10
171.199997
 20
71.525002
 11
178.800003
 21
71.525002
  0
LINE
  8
0
  6
CENTER
 62
1
 10
162.000000
 20
82.525002
 11
162.000000
 21
70.525002
  0
LINE
  8
0
  6
CENTER
 62
1
 10
156.000000
 20
76.525002
 11
168.000000
 21
76.525002
  0
LINE
  8
0
  6
CENTER
 62
1
 10
149.000000
 20
85.324997
 11
149.000000
 21
77.724998
  0
LINE
  8
0
  6
CENTER
 62
1
 10
145.199997
 20
81.525002
 11
152.800003
 21
81.525002
  0
LINE
  8
0
  6
CENTER
 62
1
 10
149.000000
 20
75.324997
 11
149.000000
 21
67.724998
  0
LINE
  8
0
  6
CENTER
 62
1
 10
145.199997
 20
71.525002
 11
152.800003
 21
71.525002
  0
LINE
  8
0
  6
CONTINUOUS
 62
4
 10
146.261993
 20
-35.951500
 11
146.261993
 21
-47.498501
  0
LINE
  8
0
  6
CONTINUOUS
 62
7
 10
232.862000
 20
-132.725006
 11
232.862000
 21
-100.724998
  0
LINE
  8
0
  6
CENTER
 62
1
 10
174.996994
 20
-116.724998
 11
242.862000
 21
-116.724998
  0
LINE
  8
0
  6
CONTINUOUS
 62
7
 10
232.862000
 20
-132.725006
 11
242.862000
 21
-132.725006
  0
LINE
  8
0
  6
CONTINUOUS
 62
7
 10
232.862000
 20
-100.724998
 11
242.862000
 21
-100.724998
  0
LINE
  8
0
  6
CONTINUOUS
 62
2
 10
232.862000
 20
-125.925003
 11
242.862000
 21
-125.925003
  0
LINE
  8
0
  6
CONTINUOUS
 62
2
 10
232.862000
 20
-107.525002
 11
242.862000
 21
-107.525002
  0
LINE
  8
0
  6
CONTINUOUS
 62
4
 10
177.862000
 20
-112.724998
 11
193.862000
 21
-112.724998
  0
LINE
  8
0
  6
CONTINUOUS
 62
4
 10
177.862000
 20
-120.724998
 11
193.862000
 21
-120.724998
  0
LINE
  8
0
  6
CONTINUOUS
 62
4
 10
177.862000
 20
-112.724998
 11
177.862000
 21
-120.724998
  0
LINE
  8
0
  6
CONTINUOUS
 62
4
 10
193.862000
 20
-108.724998
 11
193.862000
 21
-124.724998
  0
LINE
  8
0
  6
CONTINUOUS
 62
4
 10
218.862000
 20
-108.724998
 11
218.862000
 21
-124.724998
  0
LINE
  8
0
  6
CONTINUOUS
 62
4
 10
193.862000
 20
-108.724998
 11
218.862000
 21
-108.724998
  0
LINE
  8
0
  6
CONTINUOUS
 62
4
 10
218.862000
 20
-124.724998
 11
193.862000
 21
-124.724998
  0
LINE
  8
0
  6
DASHED
 62
1
 10
201.112000
 20
-109.925003
 11
211.612000
 21
-109.925003
  0
LINE
  8
0
  6
DASHED
 62
1
 10
201.112000
 20
-108.724998
 11
201.112000
 21
-109.925003
  0
LINE
  8
0
  6
DASHED
 62
1
 10
211.612000
 20
-108.724998
 11
211.612000
 21
-109.925003
  0
LINE
  8
0
  6
CONTINUOUS
 62
4
 10
218.862000
 20
-112.724998
 11
232.862000
 21
-112.724998
  0
LINE
  8
0
  6
CONTINUOUS
 62
4
 10
218.862000
 20
-120.724998
 11
232.862000
 21
-120.724998
  0
LINE
  8
0
  6
DASHED
 62
1
 10
185.862000
 20
-114.724998
 11
185.862000
 21
-118.724998
  0
LINE
  8
0
  6
DASHED
 62
1
 10
187.862000
 20
-115.103996
 11
187.862000
 21
-118.346001
  0
LINE
  8
0
  6
DASHED
 62
1
 10
177.862000
 20
-118.724998
 11
185.862000
 21
-118.724998
  0
LINE
  8
0
  6
DASHED
 62
1
 10
177.862000
 20
-114.724998
 11
185.862000
 21
-114.724998
  0
LINE
  8
0
  6
CONTINUOUS
 62
2
 10
232.862000
 20
-128.524994
 11
242.862000
 21
-128.524994
  0
LINE
  8
0
  6
CONTINUOUS
 62
2
 10
232.862000
 20
-104.925003
 11
242.862000
 21
-104.925003
  0
LINE
  8
0
  6
DASHED
 62
1
 10
148.750000
 20
-108.822998
 11
148.750000
 21
-109.925003
  0
LINE
  8
0
  6
DASHED
 62
1
 10
146.250000
 20
-108.822998
 11
146.250000
 21
-109.925003
  0
LINE
  8
0
  6
DASHED
 62
1
 10
146.250000
 20
-109.925003
 11
148.750000
 21
-109.925003
  0
LINE
  8
0
  6
CENTER
 62
1
 10
157.500000
 20
-116.724998
 11
137.500000
 21
-116.724998
  0
LINE
  8
0
  6
CENTER
 62
1
 10
148.022995
 20
-106.738998
 11
147.500000
 21
-116.724998
  0
LINE
  8
0
  6
DASHED
 62
1
 10
177.862000
 20
-115.103996
 11
187.862000
 21
-115.103996
  0
LINE
  8
0
  6
DASHED
 62
1
 10
177.862000
 20
-118.346001
 11
187.862000
 21
-118.346001
  0
LINE
  8
0
  6
CENTER
 62
1
 10
147.500000
 20
-106.724998
 11
147.500000
 21
-126.724998
  0
LINE
  8
0
  6
CENTER
 62
1
 10
146.977005
 20
-106.738998
 11
147.500000
 21
-116.724998
  0
LINE
  8
0
  6
CENTER
 62
1
 10
199.112000
 20
-98.724998
 11
213.612000
 21
-98.724998
  0
LINE
  8
0
  6
CONTINUOUS
 62
4
 10
202.362000
 20
-97.474998
 11
210.362000
 21
-97.474998
  0
LINE
  8
0
  6
CONTINUOUS
 62
4
 10
202.362000
 20
-99.974998
 11
210.362000
 21
-99.974998
  0
LINE
  8
0
  6
CONTINUOUS
 62
4
 10
246.046997
 20
-79.052399
 11
248.546997
 21
-79.052399
  0
LINE
  8
0
  6
CONTINUOUS
 62
4
 10
246.046997
 20
-81.552399
 11
248.546997
 21
-81.552399
  0
LINE
  8
0
  6
CONTINUOUS
 62
4
 10
248.546997
 20
-79.052399
 11
248.546997
 21
-81.552399
  0
LINE
  8
0
  6
CONTINUOUS
 62
4
 10
246.046997
 20
-79.052399
 11
246.046997
 21
-81.552399
  0
LINE
  8
0
  6
CONTINUOUS
 62
4
 10
253.796997
 20
-72.052399
 11
261.796997
 21
-72.052399
  0
LINE
  8
0
  6
CONTINUOUS
 62
4
 10
253.796997
 20
-74.552399
 11
261.796997
 21
-74.552399
  0
LINE
  8
0
  6
CONTINUOUS
 62
4
 10
252.546997
 20
-79.052399
 11
252.546997
 21
-81.552399
  0
LINE
  8
0
  6
CONTINUOUS
 62
4
 10
263.046997
 20
-79.052399
 11
263.046997
 21
-81.552399
  0
LINE
  8
0
  6
CONTINUOUS
 62
4
 10
252.546997
 20
-79.052399
 11
263.046997
 21
-79.052399
  0
LINE
  8
0
  6
CONTINUOUS
 62
4
 10
252.546997
 20
-81.552399
 11
263.046997
 21
-81.552399
  0
LINE
  8
0
  6
CENTER
 62
1
 10
250.546997
 20
-73.302399
 11
265.046997
 21
-73.302399
  0
LINE
  8
0
  6
CENTER
 62
1
 10
247.296997
 20
-77.052399
 11
247.296997
 21
-83.552399
  0
ARC
  8
0
  6
CONTINUOUS
 62
7
 10
-179.500000
 20
-26.000000
 40
3.750000
 50
0.000000
 51
180.000000
  0
ARC
  8
0
  6
CONTINUOUS
 62
7
 10
-179.500000
 20
-2.000000
 40
3.750000
 50
180.000000
 51
360.000000
  0
CIRCLE
  8
0
  6
CONTINUOUS
 62
2
 10
-179.500000
 20
-2.000000
 40
2.500000
  0
ARC
  8
0
  6
CONTINUOUS
 62
7
 10
-156.500000
 20
-2.000000
 40
3.750000
 50
180.000000
 51
360.000000
  0
CIRCLE
  8
0
  6
CONTINUOUS
 62
2
 10
-156.500000
 20
-2.000000
 40
2.500000
  0
ARC
  8
0
  6
CONTINUOUS
 62
7
 10
-156.500000
 20
-26.000000
 40
3.750000
 50
0.000000
 51
180.000000
  0
CIRCLE
  8
0
  6
CONTINUOUS
 62
2
 10
-156.500000
 20
-26.000000
 40
2.500000
  0
CIRCLE
  8
0
  6
CONTINUOUS
 62
2
 10
-179.500000
 20
-26.000000
 40
2.500000
  0
CIRCLE
  8
0
  6
CONTINUOUS
 62
2
 10
-149.500000
 20
-94.000000
 40
2.000000
  0
CIRCLE
  8
0
  6
CONTINUOUS
 62
7
 10
-149.500000
 20
-94.000000
 40
1.500000
  0
CIRCLE
  8
0
  6
CONTINUOUS
 62
2
 10
-172.500000
 20
-94.000000
 40
2.000000
  0
CIRCLE
  8
0
  6
CONTINUOUS
 62
7
 10
-172.500000
 20
-94.000000
 40
1.500000
  0
CIRCLE
  8
0
  6
CONTINUOUS
 62
2
 10
-149.500000
 20
-106.000000
 40
2.000000
  0
CIRCLE
  8
0
  6
CONTINUOUS
 62
7
 10
-149.500000
 20
-106.000000
 40
1.500000
  0
CIRCLE
  8
0
  6
CONTINUOUS
 62
2
 10
-172.500000
 20
-106.000000
 40
2.000000
  0
CIRCLE
  8
0
  6
CONTINUOUS
 62
7
 10
-172.500000
 20
-106.000000
 40
1.500000
  0
CIRCLE
  8
0
  6
CONTINUOUS
 62
2
 10
-111.500000
 20
72.000000
 40
2.500000
  0
CIRCLE
  8
0
  6
CONTINUOUS
 62
7
 10
-111.500000
 20
72.000000
 40
2.000000
  0
CIRCLE
  8
0
  6
CONTINUOUS
 62
7
 10
-149.500000
 20
72.000000
 40
2.000000
  0
CIRCLE
  8
0
  6
CONTINUOUS
 62
2
 10
-149.500000
 20
72.000000
 40
2.500000
  0
ARC
  8
0
  6
CONTINUOUS
 62
2
 10
-238.300003
 20
-2.850010
 40
1.500000
 50
90.000000
 51
180.000000
  0
ARC
  8
0
  6
CONTINUOUS
 62
2
 10
-238.300003
 20
-4.150010
 40
1.500000
 50
180.000000
 51
270.000000
  0
CIRCLE
  8
0
  6
CONTINUOUS
 62
2
 10
-243.500000
 20
-2.000000
 40
2.000000
  0
CIRCLE
  8
0
  6
CONTINUOUS
 62
7
 10
-243.500000
 20
-2.000000
 40
1.500000
  0
CIRCLE
  8
0
  6
CONTINUOUS
 62
7
 10
-243.500000
 20
-26.000000
 40
1.500000
  0
CIRCLE
  8
0
  6
CONTINUOUS
 62
2
 10
-243.500000
 20
-26.000000
 40
2.000000
  0
CIRCLE
  8
0
  6
CONTINUOUS
 62
7
 10
-243.500000
 20
-14.000000
 40
4.000000
  0
ARC
  8
0
  6
CONTINUOUS
 62
2
 10
-14.800000
 20
-2.850010
 40
1.500000
 50
90.000099
 51
180.000000
  0
ARC
  8
0
  6
CONTINUOUS
 62
2
 10
-14.800000
 20
-4.150010
 40
1.500000
 50
180.000000
 51
270.000000
  0
CIRCLE
  8
0
  6
CONTINUOUS
 62
7
 10
-20.000000
 20
-14.000000
 40
5.000000
  0
CIRCLE
  8
0
  6
CONTINUOUS
 62
2
 10
-20.000000
 20
-14.000000
 40
2.000000
  0
CIRCLE
  8
0
  6
CONTINUOUS
 62
7
 10
-20.000000
 20
-14.000000
 40
2.500000
  0
CIRCLE
  8
0
  6
CONTINUOUS
 62
7
 10
-179.500000
 20
-2.000000
 40
2.200000
  0
CIRCLE
  8
0
  6
CONTINUOUS
 62
7
 10
-156.500000
 20
-2.000000
 40
2.200000
  0
CIRCLE
  8
0
  6
CONTINUOUS
 62
7
 10
-156.500000
 20
-26.000000
 40
2.200000
  0
CIRCLE
  8
0
  6
CONTINUOUS
 62
7
 10
-179.500000
 20
-26.000000
 40
2.200000
  0
CIRCLE
  8
0
  6
CONTINUOUS
 62
4
 10
162.000000
 20
76.525002
 40
4.000000
  0
CIRCLE
  8
0
  6
CONTINUOUS
 62
4
 10
175.000000
 20
71.525002
 40
1.800000
  0
CIRCLE
  8
0
  6
CONTINUOUS
 62
4
 10
175.000000
 20
81.525002
 40
1.800000
  0
CIRCLE
  8
0
  6
CONTINUOUS
 62
4
 10
149.000000
 20
71.525002
 40
1.800000
  0
CIRCLE
  8
0
  6
CONTINUOUS
 62
4
 10
149.000000
 20
81.525002
 40
1.800000
  0
CIRCLE
  8
0
  6
CONTINUOUS
 62
4
 10
157.112000
 20
-27.725000
 40
4.000000
  0
CIRCLE
  8
0
  6
CONTINUOUS
 62
4
 10
150.112000
 20
32.275002
 40
4.000000
  0
CIRCLE
  8
0
  6
CONTINUOUS
 62
4
 10
147.500000
 20
-116.724998
 40
4.000000
  0
CIRCLE
  8
0
  6
CONTINUOUS
 62
4
 10
147.500000
 20
-116.724998
 40
8.000000
  0
CIRCLE
  8
0
  6
CONTINUOUS
 62
1
 10
147.500000
 20
-116.724998
 40
2.000000
  0
CIRCLE
  8
0
  6
CONTINUOUS
 62
4
 10
147.500000
 20
-116.724998
 40
1.621000
  0
ARC
  8
0
  6
CONTINUOUS
 62
4
 10
202.362000
 20
-98.724998
 40
1.250000
 50
90.000000
 51
270.000000
  0
ARC
  8
0
  6
CONTINUOUS
 62
4
 10
210.362000
 20
-98.724998
 40
1.250000
 50
270.000000
 51
90.000000
  0
ARC
  8
0
  6
CONTINUOUS
 62
4
 10
253.796997
 20
-73.302399
 40
1.250000
 50
90.000000
 51
270.000000
  0
ARC
  8
0
  6
CONTINUOUS
 62
4
 10
261.796997
 20
-73.302399
 40
1.250000
 50
270.000000
 51
90.000000
  0
TEXT
  8
0
 62
7
 10
202.930283
 20
183.925003
 40
6.300000
  1
Ver.1.0
 50
0.000000
 41
1.010330
 51
0.000000
  7
STANDARD
  0
TEXT
  8
0
 62
7
 10
172.714691
 20
-187.250000
 40
9.000000
  1
KOGANEI CORP.
 50
0.000000
 41
0.771524
 51
0.000000
  7
STANDARD
  0
TEXT
  8
0
 62
7
 10
-253.019714
 20
183.925003
 40
6.300000
  1
AX CYLINDER
 50
0.000000
 41
0.783349
 51
0.000000
  7
STANDARD
  0
TEXT
  8
0
 62
7
 10
-269.400391
 20
158.925003
 40
6.300000
  1
MODEL:AXAS-SD15-20-ZE-R***
 50
0.000000
 41
0.767328
 51
0.000000
  7
STANDARD
  0
TEXT
  8
0
 62
7
 10
-95.699997
 20
82.000000
 40
3.200000
  1
20st
 50
90.000000
 41
0.907676
 51
0.000000
  7
STANDARD
  0
TEXT
  8
0
 62
7
 10
-75.699997
 20
82.000000
 40
3.200000
  1
40st
 50
90.000000
 41
0.907676
 51
0.000000
  7
STANDARD
  0
TEXT
  8
0
 62
7
 10
-55.700001
 20
82.000000
 40
3.200000
  1
60st
 50
90.000000
 41
0.907676
 51
0.000000
  7
STANDARD
  0
TEXT
  8
0
 62
7
 10
-35.700001
 20
82.000000
 40
3.200000
  1
80st
 50
90.000000
 41
0.907676
 51
0.000000
  7
STANDARD
  0
TEXT
  8
0
 62
7
 10
-15.700000
 20
82.000000
 40
3.200000
  1
100st
 50
90.000000
 41
0.985838
 51
0.000000
  7
STANDARD
  0
TEXT
  8
0
 62
7
 10
-44.200001
 20
74.500000
 40
3.200000
  1
20st
 50
90.000000
 41
0.907676
 51
0.000000
  7
STANDARD
  0
TEXT
  8
0
 62
7
 10
-4.200020
 20
74.500000
 40
3.200000
  1
40st
 50
90.000000
 41
0.907676
 51
0.000000
  7
STANDARD
  0
TEXT
  8
0
 62
7
 10
35.799999
 20
74.500000
 40
3.200000
  1
60st
 50
90.000000
 41
0.907676
 51
0.000000
  7
STANDARD
  0
TEXT
  8
0
 62
7
 10
75.800003
 20
74.500000
 40
3.200000
  1
80st
 50
90.000000
 41
0.907676
 51
0.000000
  7
STANDARD
  0
TEXT
  8
0
 62
7
 10
115.800003
 20
74.500000
 40
3.200000
  1
100st
 50
90.000000
 41
0.985838
 51
0.000000
  7
STANDARD
  0
TEXT
  8
0
 62
7
 10
135.349762
 20
128.424988
 40
3.900000
  1
OPTION
 50
0.000000
 41
0.857249
 51
0.000000
  7
STANDARD
  0
TEXT
  8
0
 62
7
 10
145.162994
 20
57.225002
 40
3.200000
  1
ZT(FLANGE ROD END)
 50
0.000000
 41
0.754380
 51
0.000000
  7
STANDARD
  0
TEXT
  8
0
 62
7
 10
143.563004
 20
-2.525000
 40
3.200000
  1
WS(INTERNAL THREAD)
 50
0.000000
 41
0.752116
 51
0.000000
  7
STANDARD
  0
TEXT
  8
0
 62
7
 10
143.563004
 20
-62.524998
 40
3.200000
  1
WT(EXTERNAL THREAD)
 50
0.000000
 41
0.738187
 51
0.000000
  7
STANDARD
  0
TEXT
  8
0
 62
7
 10
232.570999
 20
-71.883698
 40
3.200000
  1
KEY
 50
0.000000
 41
0.928574
 51
0.000000
  7
STANDARD
  0
TEXT
  8
0
 62
7
 10
138.562866
 20
-144.325012
 40
3.200000
  1
FN(WITH BEARING NUT
 50
0.000000
 41
0.766485
 51
0.000000
  7
STANDARD
  0
TEXT
  8
0
 62
7
 10
140.562866
 20
-150.325012
 40
3.200000
  1
      FOR FLOATING UNIT)
 50
0.000000
 41
0.754799
 51
0.000000
  7
STANDARD
  0
TEXT
  8
0
 62
7
 10
137.899994
 20
-82.125000
 40
3.200000
  1
(KEYWAY
 50
0.000000
 41
0.766485
 51
0.000000
  7
STANDARD
  0
TEXT
  8
0
 62
7
 10
137.899994
 20
-85.324997
 40
3.200000
  1
  POSITION)
 50
0.000000
 41
0.766485
 51
0.000000
  7
STANDARD
  0
DIMENSION
  8
0
  2
*DIM0
 62
0
 10
146.479004
 20
-97.251701
 30
0.0
 11
139.500000
 21
-97.525002
 31
0.0
 13
148.520996
 23
-97.251701
 33
0.0
 14
148.022995
 24
-106.738998
 34
0.0
  15
146.977005
 25
-106.738998
 35
0.0
 16
148.442047
 26
-98.749664
 36
0.0
 70
2
  0
DIMENSION
  8
0
  2
*DIM1
 62
2
  10
169.862000
 20
-108.724998
 30
0.0
 11
169.862000
 21
-116.724998
 31
0.0
  13
193.862000
 23
-108.724998
 33
0.0
14
193.862000
 24
-124.724998
 34
0.0
 70
1
 50
90
  0
DIMENSION
  8
0
  2
*DIM2
 62
2
  10
219.612000
 20
-91.474998
 30
0.0
 11
219.612000
 21
-84.903297
 31
0.0
  13
210.362000
 23
-97.474998
 33
0.0
14
210.362000
 24
-99.974998
 34
0.0
 70
1
 50
90
  0
DIMENSION
  8
0
  2
*DIM3
 62
2
  10
246.046997
 20
-89.552399
 30
0.0
 11
233.434006
 21
-89.552399
 31
0.0
  13
246.046997
 23
-89.552399
 33
0.0
14
246.046997
 24
-81.552399
 34
0.0
 70
1
 50
0
  0
ENDSEC
  0
EOF
